osu file format v14

[General]
AudioFilename: audio.mp3
AudioLeadIn: 0
PreviewTime: 54188
Countdown: 0
SampleSet: Soft
StackLeniency: 0.6
Mode: 0
LetterboxInBreaks: 0
WidescreenStoryboard: 0

[Editor]
DistanceSpacing: 0.8
BeatDivisor: 4
GridSize: 4
TimelineZoom: 2.1

[Metadata]
Title:la la for you
TitleUnicode:la la for you
Artist:Yakushi Ruri
ArtistUnicode:薬師るり
Creator:My Angel Azusa
Version:Normal
Source:猫忍えくすはーと
Tags:gaia garden karen sekaii joker- sahuang kagetsu galgame eroge Whirlpool NEKO-NIN exHeart
BeatmapID:1189433
BeatmapSetID:562600

[Difficulty]
HPDrainRate:4
CircleSize:3.5
OverallDifficulty:4
ApproachRate:5.5
SliderMultiplier:1.25
SliderTickRate:1

[Events]
//Background and Video events
0,0,"bg.jpg",0,0
Video,85,"video.avi"
//Break Periods
//Storyboard Layer 0 (Background)
//Storyboard Layer 1 (Fail)
//Storyboard Layer 2 (Pass)
//Storyboard Layer 3 (Foreground)
//Storyboard Sound Samples

[TimingPoints]
340,337.078651685393,4,2,1,40,1,0
5733,-100,4,2,1,50,0,0
14328,-100,4,2,1,60,0,0
17699,-100,4,2,1,55,0,0
19216,-100,4,2,2,45,0,0
29665,-100,4,2,1,45,0,0
30002,-100,4,2,1,55,0,0
34553,-100,4,2,1,60,0,0
54272,-100,4,2,1,65,0,1
64722,-100,4,2,1,65,0,0
65059,-100,4,2,1,65,0,1
75845,-100,4,2,1,60,0,0
85283,-100,4,2,1,20,0,0

[Colours]
Combo1 : 136,136,255
Combo2 : 255,132,255
Combo3 : 255,179,142
Combo4 : 68,194,255

[HitObjects]
49,188,340,6,0,P|103:165|173:185,1,125,2|0,0:0|0:0,0:0:0:0:
242,243,1014,2,0,P|301:257|358:233,1,125,2|0,0:0|0:0,0:0:0:0:
400,143,1688,2,0,L|390:16,2,125,2|2|2,0:0|0:0|0:0,0:0:0:0:
432,340,3036,6,0,L|288:330,1,125,2|0,0:0|0:0,0:0:0:0:
214,368,3710,2,0,L|70:378,1,125,2|0,0:0|0:0,0:0:0:0:
26,298,4384,2,0,B|14:237|14:237|21:166,2,125,2|2|2,0:0|0:0|0:0,0:0:0:0:
126,124,5733,6,0,L|258:114,1,125,4|0,0:0|0:0,0:0:0:0:
346,87,6407,2,0,L|348:9,2,62.5,4|0|0,0:0|0:0|0:0,0:0:0:0:
348,137,6913,2,0,P|373:201|363:264,1,125,2|0,0:0|0:0,0:0:0:0:
338,297,7418,1,2,0:0:0:0:
250,346,7755,1,4,0:0:0:0:
156,311,8092,2,0,L|87:320,1,62.5,0|4,0:0|3:0,0:0:0:0:
44,325,8429,6,0,P|60:250|45:189,1,125,4|0,3:0|0:0,0:0:0:0:
30,157,8935,1,0,0:0:0:0:
30,157,9104,2,0,L|186:150,1,125,4|0,3:0|0:0,0:0:0:0:
243,197,9778,1,4,0:0:0:0:
277,102,10115,1,0,0:0:0:0:
369,139,10452,2,0,P|400:136|437:141,1,62.5,4|0,3:0|0:0,0:0:0:0:
461,179,10789,2,0,P|464:210|459:247,1,62.5,0|4,0:0|3:0,0:0:0:0:
454,290,11126,6,0,P|450:320|453:352,2,62.5,4|0|2,0:0|0:0|0:0,0:0:0:0:
384,218,11800,2,0,P|365:243|352:271,2,62.5,4|0|2,0:0|0:0|0:0,0:0:0:0:
364,119,12474,2,0,P|335:131|309:149,1,62.5,8|0,0:0|0:0,0:0:0:0:
277,187,12811,2,0,L|200:180,1,62.5,8|0,0:0|0:0,0:0:0:0:
176,148,13148,2,0,L|193:298,1,125,8|8,0:0|0:0,0:0:0:0:
236,360,13823,6,0,L|172:366,2,62.5,4|0|8,0:0|0:0|0:0,0:0:0:0:
283,345,14328,2,0,P|342:327|407:344,1,125,4|0,0:0|0:0,0:0:0:0:
439,374,14834,1,8,0:0:0:0:
439,374,15002,2,0,L|425:220,1,125,4|0,0:0|0:0,0:0:0:0:
445,202,15508,1,8,0:0:0:0:
427,103,15845,2,0,L|349:95,1,62.5,2|0,0:0|0:0,0:0:0:0:
331,59,16182,2,0,L|253:67,1,62.5,8|0,0:0|0:0,0:0:0:0:
224,87,16519,5,8,0:0:0:0:
224,87,16688,1,8,0:0:0:0:
130,51,17025,2,0,L|58:40,1,62.5,8|8,0:0|0:0,0:0:0:0:
13,125,17531,1,8,0:0:0:0:
13,125,17699,2,0,P|9:210|127:207,1,187.5,8|2,0:0|0:0,0:0:0:0:
177,178,18542,1,2,0:0:0:0:
183,277,18879,1,4,3:0:0:0:
266,222,19216,6,0,L|398:224,1,125,4|8,0:0|0:0,0:0:0:0:
437,243,19722,1,0,0:0:0:0:
437,243,19890,2,0,P|421:165|440:99,1,125,2|8,0:0|0:0,0:0:0:0:
447,74,20396,2,0,L|299:84,1,125,2|0,0:0|0:0,0:0:0:0:
274,67,20901,1,8,0:0:0:0:
180,32,21238,2,0,L|100:49,1,62.5,2|0,0:0|0:0,0:0:0:0:
77,73,21575,2,0,P|95:116|101:143,1,62.5,8|0,0:0|0:0,0:0:0:0:
140,160,21913,6,0,P|157:218|138:288,1,125,2|8,0:0|0:0,0:0:0:0:
84,360,22587,2,0,P|148:377|206:351,1,125,2|8,0:0|0:0,0:0:0:0:
234,319,23092,1,0,0:0:0:0:
234,319,23261,2,0,L|325:329,1,62.5,2|0,0:0|0:0,0:0:0:0:
393,303,23766,2,0,P|404:234|381:179,1,125,2|0,0:0|0:0,0:0:0:0:
353,144,24272,1,8,0:0:0:0:
268,197,24609,6,0,P|197:210|140:203,1,125,4|8,0:0|0:0,0:0:0:0:
102,178,25115,1,0,0:0:0:0:
102,178,25283,2,0,L|123:325,1,125,2|8,0:0|0:0,0:0:0:0:
151,340,25789,2,0,P|208:332|286:339,1,125,2|0,0:0|0:0,0:0:0:0:
321,355,26295,1,8,0:0:0:0:
415,314,26632,2,0,L|411:237,1,62.5,2|0,0:0|0:0,0:0:0:0:
438,208,26969,2,0,L|442:131,1,62.5,8|0,0:0|0:0,0:0:0:0:
441,95,27306,5,4,0:0:0:0:
351,50,27643,1,8,0:0:0:0:
263,98,27980,2,0,L|124:101,1,125,2|8,0:0|0:0,0:0:0:0:
89,90,28486,1,4,3:0:0:0:
39,177,28823,1,4,3:0:0:0:
39,177,28991,2,0,P|67:243|183:204,1,187.5,4|4,3:0|3:0,0:0:0:0:
188,187,29665,6,0,L|198:315,1,125,4|4,3:0|0:0,0:0:0:0:
205,361,30171,1,0,0:0:0:0:
205,361,30339,2,0,B|268:344|268:344|337:348,1,125,8|2,0:0|0:0,0:0:0:0:
377,356,30845,2,0,L|456:367,2,62.5,0|8|0,0:0|0:0|0:0,0:0:0:0:
429,270,31519,2,0,L|508:281,2,62.5,0|8|0,0:0|0:0|0:0,0:0:0:0:
380,258,32025,2,0,L|369:191,1,62.5,2|0,0:0|0:0,0:0:0:0:
395,153,32362,2,0,L|406:86,1,62.5,8|0,0:0|0:0,0:0:0:0:
399,41,32699,6,0,L|256:39,1,125,2|8,0:0|0:0,0:0:0:0:
223,40,33205,1,0,0:0:0:0:
223,40,33373,2,0,L|238:123,2,62.5,2|0|8,0:0|0:0|0:0,0:0:0:0:
128,72,34047,2,0,L|143:-11,2,62.5,4|4|0,3:0|3:0|0:0,0:0:0:0:
119,121,34553,1,2,0:0:0:0:
127,220,34890,2,0,P|133:249|158:267,1,62.5
208,263,35227,1,2,0:0:0:0:
208,263,35396,6,0,L|352:252,1,125,2|8,0:0|0:0,0:0:0:0:
284,341,36070,2,0,L|159:350,1,125,2|8,0:0|0:0,0:0:0:0:
108,263,36744,2,0,L|98:138,1,125,4|8,0:0|0:0,0:0:0:0:
125,96,37250,1,0,0:0:0:0:
125,96,37418,2,0,L|34:109,2,62.5,2|0|8,0:0|0:0|0:0,0:0:0:0:
216,55,38092,6,0,P|279:45|339:61,1,125,4|8,0:0|0:0,0:0:0:0:
376,91,38598,2,0,P|386:154|381:220,1,125,2|0,0:0|0:0,0:0:0:0:
381,267,39104,1,8,0:0:0:0:
381,267,39272,2,0,L|241:279,1,125,4|0,0:0|0:0,0:0:0:0:
240,325,39778,2,0,L|166:318,1,62.5,8|0,0:0|0:0,0:0:0:0:
150,361,40115,2,0,L|89:317,1,62.5,2|0,0:0|0:0,0:0:0:0:
56,351,40452,2,0,L|25:283,1,62.5,8|0,0:0|0:0,0:0:0:0:
41,245,40789,5,4,0:0:0:0:
54,145,41126,1,8,0:0:0:0:
131,81,41463,1,8,0:0:0:0:
230,81,41800,1,8,0:0:0:0:
230,81,41969,2,0,L|392:78,1,125,4|0,0:0|0:0,0:0:0:0:
402,92,42474,2,0,L|404:239,2,125,8|8|8,0:0|0:0|0:0,0:0:0:0:
322,153,43486,6,0,L|324:300,1,125,4|8,0:0|0:0,0:0:0:0:
320,327,43991,1,2,0:0:0:0:
225,359,44328,1,2,0:0:0:0:
130,327,44665,2,0,P|84:274|155:189,1,187.5,4|8,0:0|0:0,0:0:0:0:
238,217,45508,2,0,L|384:233,1,125,2|8,0:0|0:0,0:0:0:0:
454,192,46182,6,0,P|461:127|442:57,1,125,4|8,0:0|0:0,0:0:0:0:
359,21,46856,2,0,P|294:14|224:33,1,125,8|8,0:0|0:0,0:0:0:0:
174,106,47531,2,0,P|167:171|186:241,1,125,4|8,0:0|0:0,0:0:0:0:
266,279,48205,2,0,L|350:264,2,62.5,8|0|8,0:0|0:0|0:0,0:0:0:0:
181,331,48879,6,0,L|46:334,1,125,4|8,0:0|0:0,0:0:0:0:
15,305,49384,1,4,3:0:0:0:
15,305,49553,2,0,P|38:240|28:179,1,125,4|4,3:0|3:0,0:0:0:0:
19,136,50059,1,0,0:0:0:0:
19,136,50227,2,0,L|169:139,1,125,4|8,0:0|0:0,0:0:0:0:
226,82,50901,2,0,L|376:85,1,125,4|8,3:0|0:0,0:0:0:0:
424,151,51575,6,0,P|464:225|338:263,1,250,4|8,0:0|0:0,0:0:0:0:
292,272,52418,2,0,L|187:285,2,62.5,0|0|8,0:0|0:0|0:0,0:0:0:0:
316,228,52924,1,4,0:0:0:0:
344,132,53261,1,8,0:0:0:0:
248,104,53598,1,2,0:0:0:0:
220,200,53935,1,8,0:0:0:0:
248,104,54272,6,0,L|102:109,1,125,4|8,0:0|0:0,0:0:0:0:
73,99,54778,1,0,0:0:0:0:
73,99,54946,2,0,L|81:190,1,62.5,2|0,0:0|0:0,0:0:0:0:
37,190,55283,2,0,L|29:281,1,62.5,8|0,0:0|0:0,0:0:0:0:
53,297,55620,2,0,P|106:316|185:287,2,125,2|8|2,0:0|0:0|0:0,0:0:0:0:
116,219,56632,1,8,0:0:0:0:
215,207,56969,6,0,L|221:47,1,125,2|8,0:0|0:0,0:0:0:0:
314,49,57643,2,0,L|309:173,1,125,2|8,0:0|0:0,0:0:0:0:
336,270,58317,2,0,L|421:263,2,62.5,2|0|8,0:0|0:0|0:0,0:0:0:0:
266,341,58991,2,0,P|213:352|138:325,1,125,2|8,0:0|0:0,0:0:0:0:
82,254,59665,6,0,L|80:130,1,125,4|8,0:0|0:0,0:0:0:0:
166,78,60339,2,0,L|157:3,2,62.5,2|0|8,0:0|0:0|0:0,0:0:0:0:
176,126,60845,2,0,P|247:139|309:115,1,125,4|0,0:0|0:0,0:0:0:0:
334,91,61351,2,0,L|416:103,1,62.5,8|0,0:0|0:0,0:0:0:0:
444,113,61688,1,2,0:0:0:0:
493,199,62025,1,8,0:0:0:0:
455,291,62362,6,0,L|313:289,1,125,4|8,0:0|0:0,0:0:0:0:
241,335,63036,2,0,L|99:337,1,125,2|8,0:0|0:0,0:0:0:0:
103,237,63710,2,0,L|227:235,1,125,4|8,0:0|0:0,0:0:0:0:
276,249,64216,1,0,0:0:0:0:
276,249,64384,2,0,L|269:168,2,62.5,2|0|8,0:0|0:0|0:0,0:0:0:0:
360,302,65059,5,4,0:0:0:0:
458,282,65396,1,8,0:0:0:0:
508,195,65733,2,0,L|511:120,2,62.5,4|4|8,3:0|3:0|0:0,0:0:0:0:
458,282,66407,1,4,0:0:0:0:
360,302,66744,1,8,0:0:0:0:
276,249,67081,2,0,L|269:168,1,62.5,4|4,3:0|3:0,0:0:0:0:
234,151,67418,2,0,L|241:70,1,62.5,8|0,0:0|0:0,0:0:0:0:
264,45,67755,6,0,L|121:52,1,125,4|8,0:0|0:0,0:0:0:0:
58,109,68429,2,0,L|61:194,1,62.5,4|4,3:0|3:0,0:0:0:0:
37,215,68766,1,8,0:0:0:0:
76,307,69104,2,0,P|144:298|204:315,1,125,4|8,0:0|0:0,0:0:0:0:
235,345,69609,1,0,0:0:0:0:
235,345,69778,2,0,P|295:359|356:350,1,125,8|8,0:0|0:0,0:0:0:0:
441,296,70452,6,0,L|449:155,1,125,4|8,0:0|0:0,0:0:0:0:
435,72,71126,2,0,P|369:59|318:88,1,125,2|8,0:0|0:0,0:0:0:0:
302,132,71632,2,0,L|165:120,1,125,4|0,0:0|0:0,0:0:0:0:
128,110,72137,1,8,0:0:0:0:
128,110,72306,2,0,L|141:259,1,125,0|0,0:0|0:0,0:0:0:0:
141,284,72811,2,0,L|209:285,1,62.5,8|0,0:0|0:0,0:0:0:0:
249,265,73148,5,4,0:0:0:0:
333,319,73486,1,8,0:0:0:0:
411,256,73823,1,8,0:0:0:0:
495,310,74161,1,8,0:0:0:0:
411,256,74497,2,0,L|413:119,2,125,4|8|8,0:0|0:0|0:0,0:0:0:0:
333,319,75508,1,8,0:0:0:0:
249,265,75845,6,0,L|102:272,1,125,4|8,0:0|0:0,0:0:0:0:
58,195,76519,1,2,0:0:0:0:
91,100,76856,1,8,0:0:0:0:
91,100,77025,2,0,P|172:77|251:103,1,125,2|0,0:0|0:0,0:0:0:0:
251,113,77531,2,8,L|336:119,1,62.5,8|0,0:0|0:0,0:0:0:0:
363,115,77868,1,2,0:0:0:0:
445,171,78205,1,8,0:0:0:0:
355,216,78542,6,0,L|364:344,1,125,4|8,0:0|0:0,0:0:0:0:
272,380,79216,1,2,0:0:0:0:
177,348,79553,1,8,0:0:0:0:
177,348,79722,2,0,P|154:267|180:188,1,125,2|0,0:0|0:0,0:0:0:0:
172,179,80228,2,0,L|73:187,1,62.5,8|0,0:0|0:0,0:0:0:0:
59,178,80565,1,2,0:0:0:0:
36,80,80902,1,8,0:0:0:0:
122,30,81238,6,0,P|187:15|269:37,1,125,4|8,0:0|0:0,0:0:0:0:
324,83,81912,1,2,0:0:0:0:
260,160,82249,1,8,0:0:0:0:
260,160,82418,2,0,L|263:320,1,125,2|0,0:0|0:0,0:0:0:0:
274,333,82924,2,0,L|336:328,1,62.5,8|0,0:0|0:0,0:0:0:0:
386,327,83261,1,2,0:0:0:0:
472,277,83598,1,8,0:0:0:0:
386,225,83935,5,4,0:0:0:0:
256,192,84104,12,0,85283,0:0:0:0:
