osu file format v14

[General]
AudioFilename: Audio.mp3
AudioLeadIn: 0
PreviewTime: 59914
Countdown: 0
SampleSet: Soft
StackLeniency: 0.4
Mode: 0
LetterboxInBreaks: 0
WidescreenStoryboard: 1

[Editor]
Bookmarks: 47327,127886
DistanceSpacing: 1
BeatDivisor: 4
GridSize: 8
TimelineZoom: 1.5

[Metadata]
Title:Ruri-iro
TitleUnicode:瑠璃色
Artist:Yakushi Ruri
ArtistUnicode:薬師るり
Creator:Imouto koko
Version:Tearstilla
Source:鯨神のティアスティラ
Tags:avg galgame whirlpool 天川 凑月 tenkawa mizuki Oiso Pata-Mon kujiragami no tearstilla 84461810 firika
BeatmapID:1378086
BeatmapSetID:622146

[Difficulty]
HPDrainRate:6.4
CircleSize:4
OverallDifficulty:7.4
ApproachRate:8.4
SliderMultiplier:1.6
SliderTickRate:1

[Events]
//Background and Video events
0,0,"BG.jpg",0,0
//Break Periods
2,101233,112930
2,195019,208595
//Storyboard Layer 0 (Background)
//Storyboard Layer 1 (Fail)
//Storyboard Layer 2 (Pass)
//Storyboard Layer 3 (Foreground)
//Storyboard Sound Samples

[TimingPoints]
334,419.58041958042,4,2,1,30,1,0
334,-111.111111111111,4,2,1,30,0,0
1173,-200,4,2,1,30,0,0
3690,-83.3333333333333,4,2,1,40,0,0
4110,-83.3333333333333,4,2,1,50,0,0
4529,-83.3333333333333,4,2,1,60,0,0
4949,-83.3333333333333,4,2,1,70,0,0
5368,-83.3333333333333,4,2,1,60,0,0
5578,-83.3333333333333,4,2,1,65,0,0
5788,-83.3333333333333,4,2,1,70,0,0
5998,-83.3333333333333,4,2,1,75,0,0
6208,-95.2380952380952,4,2,1,80,0,0
6522,-100,4,2,1,80,0,0
6627,-111.111111111111,4,2,1,80,0,0
7047,-95.2380952380952,4,2,1,70,0,0
18585,-100,4,2,1,80,0,0
20473,-153.846153846154,4,2,1,80,0,0
20788,-153.846153846153,4,2,1,60,0,0
33900,-100,4,2,1,70,0,0
57396,-83.3333333333333,4,2,1,70,0,0
59075,-83.3333333333333,4,2,1,70,0,0
59914,-100,4,2,1,70,0,0
60334,-200,4,2,1,60,0,0
60753,-83.3333333333333,4,2,1,80,0,1
80054,-83.3333333333333,4,2,1,40,0,1
80264,-83.3333333333333,4,2,1,50,0,1
80473,-83.3333333333333,4,2,1,60,0,1
80683,-83.3333333333333,4,2,1,70,0,1
80893,-83.3333333333333,4,2,1,80,0,1
86767,-83.3333333333333,4,2,1,60,0,1
86977,-83.3333333333333,4,2,1,70,0,1
87187,-83.3333333333333,4,2,1,80,0,1
87396,-83.3333333333333,4,2,1,90,0,1
87606,-100,4,2,1,60,0,0
113620,-100,4,2,1,50,0,0
113830,-100,4,2,1,60,0,0
114040,-100,4,2,1,70,0,0
114250,-100,4,2,1,80,0,0
115089,-100,4,2,1,70,0,0
138795,-100,4,2,1,60,0,0
139005,-100,4,2,1,70,0,0
139215,-100,4,2,1,80,0,0
139424,-100,4,2,1,90,0,0
139634,-100,4,2,1,80,0,0
140473,-100,4,2,1,60,0,0
140893,-200,4,2,1,60,0,0
141313,-83.3333333333333,4,2,1,80,0,1
153900,-83.3333333333333,4,2,1,60,0,1
154110,-83.3333333333333,4,2,1,70,0,1
154320,-83.3333333333333,4,2,1,80,0,1
154529,-83.3333333333333,4,2,1,90,0,1
154739,-83.3333333333333,4,2,1,80,0,1
168166,-200,4,2,1,50,0,0
178236,-100,4,2,1,40,0,0
178655,-100,4,2,1,50,0,0
179075,-100,4,2,1,60,0,0
179494,-100,4,2,1,70,0,0
179914,-100,4,2,1,60,0,0
180124,-100,4,2,1,70,0,0
180334,-100,4,2,1,80,0,0
180543,-100,4,2,1,90,0,0
180753,-100,4,2,1,80,0,0
192501,-100,4,2,1,60,0,0
192711,-100,4,2,1,70,0,0
192921,-100,4,2,1,80,0,0
193131,-100,4,2,1,90,0,0
193340,-100,4,2,1,80,0,0
209285,-100,4,2,1,50,0,0
209704,-200,4,2,1,60,0,0
210124,-83.3333333333333,4,2,1,80,0,1
216417,-58.8235294117647,4,2,1,80,0,1
216627,-83.3333333333333,4,2,1,80,0,1
222711,-83.3333333333333,4,2,1,60,0,1
222921,-83.3333333333333,4,2,1,70,0,1
223131,-83.3333333333333,4,2,1,80,0,1
223340,-83.3333333333333,4,2,1,90,0,1
223550,-83.3333333333333,4,2,1,80,0,1
229424,-83.3333333333333,4,2,1,60,0,1
229634,-83.3333333333333,4,2,1,70,0,1
229844,-83.3333333333333,4,2,1,80,0,1
230054,-83.3333333333333,4,2,1,90,0,1
230264,-83.3333333333333,4,2,1,80,0,1
236138,-83.3333333333333,4,2,1,60,0,1
236347,-83.3333333333333,4,2,1,70,0,1
236557,-83.3333333333333,4,2,1,80,0,1
236767,-83.3333333333333,4,2,1,90,0,1
236977,-200,4,2,1,40,0,0
237396,-200,4,2,1,5,0,0
237816,-100,4,2,1,80,0,0
238026,-100,4,2,1,90,0,0
238236,-100,4,2,1,100,0,0
238655,-100,4,2,1,80,0,0
244529,-100,4,2,1,60,0,0
244739,-100,4,2,1,70,0,0
244949,-100,4,2,1,80,0,0
245159,-100,4,2,1,90,0,0
245368,-100,4,2,1,80,0,0
249879,-58.8235294117647,4,2,1,80,0,0
249984,-100,4,2,1,80,0,0
251557,-58.8235294117647,4,2,1,80,0,0
251662,-100,4,2,1,80,0,0
253236,-58.8235294117647,4,2,1,80,0,0
253340,-100,4,2,1,80,0,0
253760,425.531914893617,4,2,1,80,1,0
253760,-58.8235294117647,4,2,1,80,0,0
253972,-100,4,2,1,5,0,0
254185,-133.333333333333,4,2,1,80,0,0
257589,-133.333333333333,4,2,1,5,0,0

[Colours]
Combo1 : 207,159,255
Combo2 : 155,255,177
Combo3 : 155,185,255
Combo4 : 237,235,167

[HitObjects]
113,49,124,5,0,0:0:0:0:
113,49,229,1,0,0:0:0:0:
113,49,334,6,0,P|137:85|132:129,1,71.9999978027344,2|0,0:0|0:0,0:0:0:0:
100,207,753,2,0,L|168:185,1,71.9999978027344,2|0,0:0|0:0,0:0:0:0:
243,162,1173,6,0,L|319:137,1,80,2|2,0:0|0:0,0:0:0:0:
414,36,1802,5,0,0:0:0:0:
414,36,1907,1,0,0:0:0:0:
414,36,2012,2,0,P|417:79|388:121,1,80,2|0,0:0|0:0,0:0:0:0:
277,222,2851,1,2,0:0:0:0:
277,222,3271,1,2,0:0:0:0:
434,253,3690,5,2,0:0:0:0:
419,328,3900,1,2,0:0:0:0:
344,314,4110,1,2,0:0:0:0:
358,238,4319,1,2,0:0:0:0:
269,300,4529,5,2,0:0:0:0:
419,328,4739,1,2,0:0:0:0:
449,178,4949,1,2,0:0:0:0:
297,148,5159,1,2,0:0:0:0:
402,33,5368,5,0,3:0:0:0:
420,43,5473,1,0,3:0:0:0:
432,62,5577,1,0,3:0:0:0:
434,83,5682,1,0,3:0:0:0:
426,103,5787,1,0,1:3:0:0:
409,117,5892,1,0,1:3:0:0:
388,122,5997,1,0,1:3:0:0:
367,117,6102,1,0,1:3:0:0:
351,103,6208,6,0,P|318:56|238:81,1,125.999996154785,4|0,1:2|0:0,0:0:0:0:
162,122,6627,2,0,L|222:82,1,71.9999978027344,4|0,0:0|1:0,0:0:0:0:
255,61,6942,1,0,1:0:0:0:
258,66,7047,6,0,P|225:85|170:73,1,83.9999974365235,4|0,0:0|0:0,0:0:0:0:
148,61,7361,1,0,1:0:0:0:
152,65,7466,2,0,L|69:27,1,83.9999974365235,0|0,1:0|0:0,0:0:0:0:
7,174,7886,2,0,L|85:210,1,83.9999974365235,2|0,0:0|0:0,0:0:0:0:
87,213,8200,1,0,1:0:0:0:
91,217,8305,1,0,1:0:0:0:
152,65,8515,1,0,0:0:0:0:
169,247,8725,6,0,L|245:213,1,83.9999974365235,2|0,0:0|0:0,0:0:0:0:
249,216,9040,1,0,1:0:0:0:
253,220,9145,1,0,1:0:0:0:
79,119,9354,1,0,0:0:0:0:
52,296,9564,1,2,0:0:0:0:
169,247,9774,1,0,0:0:0:0:
29,185,9984,1,0,1:0:0:0:
29,185,10089,2,0,L|-8:166,1,41.9999987182618,4|0,1:0|0:0,0:0:0:0:
164,164,10403,6,0,P|195:140|239:138,1,83.9999974365235,4|0,0:0|0:0,0:0:0:0:
283,166,10718,1,0,1:0:0:0:
283,166,10823,2,0,B|325:166|325:166|373:144,1,83.9999974365235,0|0,1:0|0:0,0:0:0:0:
434,215,11243,2,0,B|348:256|348:256|318:255,1,125.999996154785,2|0,0:0|0:0,0:0:0:0:
286,252,11662,1,0,1:0:0:0:
255,259,11766,1,0,1:0:0:0:
229,276,11871,1,0,1:0:0:0:
209,300,11976,1,0,1:0:0:0:
198,329,12082,6,0,L|160:348,1,41.9999987182618,4|0,1:0|0:0,0:0:0:0:
4,323,12396,1,0,0:0:0:0:
4,323,12501,2,0,P|37:347|78:354,1,83.9999974365235,4|0,1:0|0:0,0:0:0:0:
117,272,12921,2,0,L|105:164,1,83.9999974365235,4|0,0:0|0:0,0:0:0:0:
121,276,13340,1,0,1:0:0:0:
30,200,13550,1,4,3:0:0:0:
30,200,13655,1,4,3:0:0:0:
30,200,13760,6,0,P|71:207|108:189,1,83.9999974365235,4|0,3:0|0:0,0:0:0:0:
137,158,14075,1,0,0:0:0:0:
137,158,14180,2,0,L|245:149,1,83.9999974365235,0|0,1:0|0:0,0:0:0:0:
296,207,14599,1,2,0:0:0:0:
221,62,14809,1,0,0:0:0:0:
221,62,14914,1,0,0:0:0:0:
221,62,15019,2,0,P|243:15|278:-3,1,83.9999974365235,0|0,1:0|0:0,0:0:0:0:
414,117,15438,6,0,P|369:123|329:98,1,83.9999974365235,2|0,0:0|0:0,0:0:0:0:
304,76,15753,1,0,0:0:0:0:
304,76,15858,2,0,L|377:21,1,83.9999974365235,0|0,1:0|0:0,0:0:0:0:
414,117,16278,1,2,0:0:0:0:
269,153,16488,1,0,0:0:0:0:
377,193,16697,2,0,L|395:155,1,41.9999987182618,0|4,1:0|1:0,0:0:0:0:
452,40,16907,1,0,1:0:0:0:
371,25,17117,6,0,B|412:25|412:25|467:46,1,83.9999974365235,2|0,0:0|0:0,0:0:0:0:
494,61,17431,1,0,0:0:0:0:
494,61,17536,2,0,L|494:161,1,83.9999974365235,0|0,1:0|0:0,0:0:0:0:
512,260,17956,2,0,B|472:245|472:245|431:245,1,83.9999974365235,2|0,0:0|0:0,0:0:0:0:
392,249,18271,1,0,1:0:0:0:
392,249,18375,1,0,1:0:0:0:
256,149,18585,1,0,1:0:0:0:
256,149,18690,1,0,1:0:0:0:
256,149,18795,6,0,L|312:165,1,40,0|0,1:0|1:0,1:0:0:0:
419,125,19005,1,0,1:0:0:0:
292,278,19424,2,0,L|278:227,1,40,0|0,1:0|1:0,1:0:0:0:
256,149,19634,1,0,1:0:0:0:
205,271,19844,1,2,0:0:0:0:
367,200,20054,1,2,0:2:0:0:
228,134,20264,1,2,0:0:0:0:
375,282,20473,6,4,P|415:269|443:228,2,77.9999964294435,4|4|4,3:0|3:0|3:0,3:0:0:0:
333,197,21313,1,0,0:0:0:0:
281,273,21523,2,0,L|225:277,1,51.999997619629,2|0,0:0|0:0,0:0:0:0:
141,282,21942,1,0,0:0:0:0:
104,196,22152,6,4,P|65:179|29:192,1,77.9999964294435,4|4,3:0|3:0,3:0:0:0:
32,189,22781,1,4,3:0:0:0:
195,103,22991,2,0,L|142:109,1,51.999997619629,2|0,0:0|0:0,0:0:0:0:
32,189,23410,2,0,L|84:182,1,51.999997619629,2|0,0:0|0:0,0:0:0:0:
174,196,23830,6,4,P|206:224|257:220,1,77.9999964294435,4|4,3:0|3:0,3:0:0:0:
424,192,24459,2,0,L|376:216,1,51.999997619629,0|0,0:0|0:0,0:0:0:0:
306,171,24879,1,0,0:0:0:0:
415,108,25089,2,0,B|442:103|467:117,1,51.999997619629,2|0,0:0|0:0,0:0:0:0:
331,87,25508,6,4,P|290:67|267:28,1,77.9999964294435,4|4,3:0|3:0,3:0:0:0:
272,42,26138,1,4,3:0:0:0:
122,101,26347,2,2,L|94:114,2,25.9999988098145
151,211,26767,2,0,P|169:190|177:147,1,51.999997619629,2|0,0:0|0:0,0:0:0:0:
136,296,27187,6,4,P|174:295|208:276,1,77.9999964294435,4|0,3:0|0:0,3:0:0:0:
303,256,27606,2,0,L|251:256,1,51.999997619629,4|0,3:0|0:0,0:0:0:0:
251,256,28026,1,0,0:0:0:0:
357,358,28236,2,0,P|369:304|430:272,1,103.999995239258,2|0,0:0|0:0,0:0:0:0:
446,188,28865,6,4,L|363:195,1,77.9999964294435,4|0,3:0|0:0,3:0:0:0:
368,195,29285,1,4,3:0:0:0:
461,107,29494,2,0,P|487:114|509:131,1,51.999997619629,4|0,3:0|0:0,0:0:0:0:
372,199,29914,1,0,0:0:0:0:
511,246,30124,2,0,P|486:266|456:274,1,51.999997619629,2|0,0:0|0:0,0:0:0:0:
344,294,30543,6,4,B|282:302|282:302|253:325,2,77.9999964294435,4|4|4,3:0|3:0|3:0,3:0:0:0:
208,254,31382,2,0,L|192:201,1,51.999997619629,0|0,0:0|0:0,0:0:0:0:
169,123,31802,1,0,0:0:0:0:
114,241,32012,1,2,0:0:0:0:
244,125,32222,6,4,P|203:116|158:127,1,77.9999964294435,4|0,3:0|0:0,3:0:0:0:
169,123,32641,1,4,3:0:0:0:
284,46,32851,1,0,0:0:0:0:
323,176,33061,1,0,1:0:0:0:
323,176,33166,1,0,1:0:0:0:
323,176,33271,1,0,1:0:0:0:
409,121,33480,1,0,1:0:0:0:
430,105,33584,1,0,1:0:0:0:
443,83,33689,1,0,1:0:0:0:
445,57,33794,1,0,1:0:0:0:
436,32,33900,6,0,P|436:71|478:115,1,80,4|0,0:2|0:0,0:0:0:0:
494,124,34215,1,0,1:0:0:0:
494,124,34320,1,0,1:0:0:0:
349,59,34529,2,0,P|309:53|263:74,2,80,2|0|0,0:0|0:0|0:0,0:0:0:0:
494,124,35159,1,0,1:0:0:0:
354,140,35368,1,0,3:0:0:0:
388,278,35578,6,2,P|424:231|428:172,2,120
423,94,36417,1,0,0:0:0:0:
504,193,36627,1,4,3:0:0:0:
354,140,36837,2,0,P|316:130|277:139,1,80,0|0,1:0|0:0,0:0:0:0:
143,235,37257,6,0,P|181:245|220:236,1,80,2|0,0:2|0:0,0:0:0:0:
220,236,37571,1,0,1:0:0:0:
220,236,37676,1,0,1:0:0:0:
184,91,37886,2,0,B|205:131|184:170|184:170|218:191|219:235,1,160,2|0,0:0|0:0,0:0:0:0:
143,235,38515,1,0,1:0:0:0:
278,142,38725,1,0,3:0:0:0:
112,131,38935,6,2,P|60:166|39:225,2,120
278,142,39774,2,0,L|195:136,1,80,0|0,0:0|3:0,0:0:0:0:
219,301,40194,2,0,P|236:266|233:226,1,80,0|0,1:0|0:0,0:0:0:0:
27,277,40613,6,0,L|104:255,1,80,2|0,0:2|0:0,0:0:0:0:
143,244,40928,1,0,1:0:0:0:
147,248,41033,1,0,1:0:0:0:
238,134,41243,2,0,L|158:157,1,80,0|0,3:0|0:0,0:0:0:0:
161,156,41662,1,2,0:0:0:0:
334,189,41872,2,0,P|324:153|334:113,1,80,0|0,1:0|0:0,0:0:0:0:
396,38,42292,6,2,P|480:58|536:52,2,120
302,14,43131,1,0,0:0:0:0:
334,112,43340,1,0,3:0:0:0:
214,66,43550,2,0,P|171:59|128:76,1,80,0|0,1:0|0:0,0:0:0:0:
10,157,43970,6,0,P|49:163|87:151,1,80,2|0,0:0|0:0,0:0:0:0:
88,151,44285,1,0,1:0:0:0:
88,151,44389,1,0,1:0:0:0:
137,70,44599,1,0,3:0:0:0:
165,224,44809,2,0,L|242:202,1,80,2|0,0:0|0:0,0:0:0:0:
388,261,45229,2,0,P|343:267|296:246,1,80,0|0,1:0|0:0,0:0:0:0:
311,257,45648,6,2,P|326:309|400:339,2,120
473,123,46487,2,0,L|434:198,1,80,0|0,1:0|3:0,0:0:0:0:
311,257,46907,2,0,L|348:184,1,80,0|0,1:0|3:0,0:0:0:0:
251,171,47327,5,0,3:0:0:0:
207,163,47431,1,0,3:0:0:0:
173,136,47536,1,0,3:0:0:0:
156,97,47641,1,0,3:0:0:0:
161,54,47746,1,0,3:0:0:0:
108,205,47956,2,0,P|74:224|25:221,1,80,6|0,0:0|0:0,0:0:0:0:
159,328,48375,2,0,P|159:289|188:247,1,80,6|0,0:0|0:0,0:0:0:0:
27,309,48795,2,0,P|60:328|82:373,1,80,6|0,0:0|0:0,0:0:0:0:
194,182,49215,5,4,3:0:0:0:
194,182,49424,2,0,B|231:191|231:191|284:171,1,80,0|0,3:0|0:0,0:0:0:0:
402,127,49844,1,0,3:0:0:0:
270,176,50054,1,0,0:0:0:0:
338,265,50264,1,0,1:0:0:0:
415,98,50473,1,0,0:0:0:0:
338,265,50683,5,0,3:2:0:0:
305,253,50788,1,0,3:0:0:0:
270,256,50893,1,0,3:0:0:0:
240,273,50997,1,0,3:0:0:0:
220,301,51103,1,0,3:0:0:0:
119,224,51313,1,4,3:2:0:0:
214,335,51522,5,0,0:0:0:0:
218,339,51627,1,0,0:0:0:0:
222,343,51732,1,4,1:2:0:0:
257,177,51942,1,0,1:0:0:0:
222,343,52152,1,4,3:2:0:0:
119,224,52361,5,0,3:0:0:0:
113,221,52466,1,0,1:0:0:0:
108,219,52571,2,0,P|73:224|28:261,2,80,0|0|0,3:0|3:0|3:0,0:0:0:0:
277,269,53201,2,0,L|322:282,2,40,0|0|0,1:0|1:0|1:0,1:0:0:0:
108,219,53620,1,0,1:0:0:0:
284,162,53830,1,0,1:0:0:0:
284,162,53935,1,0,1:0:0:0:
284,162,54040,6,0,P|258:195|197:203,1,80,4|0,1:0|3:0,3:0:0:0:
114,120,54459,1,0,1:0:0:0:
6,222,54669,2,0,P|45:224|79:205,1,80,0|0,3:0|3:0,3:0:0:0:
204,122,55089,1,0,3:0:0:0:
79,205,55299,1,0,1:0:0:0:
172,42,55508,6,0,P|211:35|249:47,1,80,0|0,3:0|3:0,3:0:0:0:
343,148,55928,1,0,3:0:0:0:
221,235,56138,1,0,3:0:0:0:
249,47,56347,1,0,1:0:0:0:
253,51,56452,1,0,1:0:0:0:
257,55,56557,1,0,1:0:0:0:
153,181,56767,1,0,3:0:0:0:
316,233,56977,1,0,3:0:0:0:
258,153,57187,1,0,1:0:0:0:
166,328,57396,6,0,P|104:325|123:266,1,143.999995605469,0|0,1:0|3:0,3:0:0:0:
127,270,57816,1,0,1:0:0:0:
242,376,58026,1,0,1:0:0:0:
246,380,58131,1,0,1:0:0:0:
250,384,58236,1,4,1:0:0:0:
333,207,58445,1,0,3:0:0:0:
242,345,58655,1,0,3:0:0:0:
154,150,58865,1,0,1:0:0:0:
242,310,59075,6,0,L|242:210,1,95.9999970703126,0|0,1:0|3:0,3:0:0:0:
246,173,59389,2,0,L|246:270,1,95.9999970703126,4|0,1:0|3:0,3:0:0:0:
246,314,59704,1,0,1:0:0:0:
432,320,59914,1,0,1:0:0:0:
432,320,60334,6,0,L|367:281,1,60,0|0,3:0|3:0,3:0:0:0:
312,244,60753,6,0,P|359:240|395:211,1,95.9999970703126,4|0,1:0|3:0,3:0:0:0:
395,210,61068,1,0,3:0:0:0:
395,210,61173,1,0,1:0:0:0:
389,104,61382,1,0,3:0:0:0:
229,194,61592,2,0,L|327:253,1,95.9999970703126,0|0,1:0|3:0,3:0:0:0:
471,153,62012,2,0,L|375:95,1,95.9999970703126,0|0,1:0|3:0,3:0:0:0:
229,194,62431,5,0,1:0:0:0:
309,149,62641,1,0,3:0:0:0:
275,262,62851,1,0,1:0:0:0:
319,119,63061,1,0,3:0:0:0:
229,194,63271,2,0,P|179:188|141:157,1,95.9999970703126,0|0,1:0|3:0,3:0:0:0:
86,18,63690,2,0,P|90:81|69:122,1,95.9999970703126,0|0,3:2|3:2,3:2:0:0:
9,269,64110,6,0,P|55:279|100:265,1,95.9999970703126,0|0,1:2|3:0,3:0:0:0:
100,264,64424,1,0,3:0:0:0:
100,264,64529,1,0,1:0:0:0:
229,194,64739,1,0,3:0:0:0:
242,339,64949,2,0,P|196:351|150:339,1,95.9999970703126,0|0,1:0|3:0,3:0:0:0:
62,203,65368,2,0,P|107:190|153:202,1,95.9999970703126,0|0,1:0|3:0,3:0:0:0:
330,356,65788,5,0,1:0:0:0:
370,265,65998,1,0,3:0:0:0:
330,356,66208,1,0,1:0:0:0:
279,215,66417,1,0,3:0:0:0:
458,273,66627,2,0,P|415:253|370:265,1,95.9999970703126,0|0,1:2|3:0,3:0:0:0:
370,265,66942,1,0,1:0:0:0:
370,265,67047,1,0,1:0:0:0:
330,356,67257,1,0,3:0:0:0:
464,182,67466,6,0,P|474:228|458:273,1,95.9999970703126,4|0,1:0|3:0,3:0:0:0:
328,111,67886,2,0,L|425:99,1,95.9999970703126,0|0,1:0|3:0,3:0:0:0:
282,189,68306,1,0,1:0:0:0:
255,165,68410,1,0,3:0:0:0:
239,133,68515,1,0,3:0:0:0:
238,97,68620,1,0,3:0:0:0:
251,64,68725,1,0,1:0:0:0:
143,145,68935,1,0,3:0:0:0:
66,204,69145,6,0,P|47:161|52:114,1,95.9999970703126,0|0,1:0|3:0,3:0:0:0:
239,133,69564,2,0,L|144:145,1,95.9999970703126,0|0,1:0|3:0,3:0:0:0:
0,264,69984,1,0,1:0:0:0:
27,286,70088,1,0,3:0:0:0:
62,295,70193,1,0,3:0:0:0:
97,290,70298,1,0,3:0:0:0:
128,272,70403,1,0,1:0:0:0:
151,153,70613,5,0,1:0:0:0:
151,153,70718,1,0,1:0:0:0:
151,153,70822,1,0,1:0:0:0:
324,185,71033,1,0,3:0:0:0:
232,211,71243,2,0,P|200:250|194:295,1,95.9999970703126,0|0,1:0|3:0,3:0:0:0:
203,342,71557,1,0,1:0:0:0:
203,342,71662,2,0,L|119:285,1,95.9999970703126,4|0,1:0|3:0,3:0:0:0:
76,350,71977,2,0,P|93:305|82:260,1,95.9999970703126,4|0,1:0|3:0,3:0:0:0:
8,186,72292,5,0,3:0:0:0:
8,186,72396,1,0,3:0:0:0:
8,186,72501,2,0,L|53:171,1,47.9999985351563,0|0,1:3|3:0,3:0:0:0:
135,72,72711,2,0,L|90:87,1,47.9999985351563,0|0,3:0|3:0,3:0:0:0:
146,196,72921,2,0,L|191:181,1,47.9999985351563,0|0,1:3|3:0,3:0:0:0:
278,79,73131,2,0,L|233:94,1,47.9999985351563,0|0,3:0|3:0,3:0:0:0:
299,201,73340,5,0,1:0:0:0:
299,201,73445,1,0,1:0:0:0:
299,201,73550,1,0,1:0:0:0:
230,290,73760,1,0,1:0:0:0:
204,270,73865,1,0,1:0:0:0:
188,244,73969,1,0,1:0:0:0:
183,212,74074,1,0,1:0:0:0:
191,181,74180,6,0,P|231:151|238:82,1,95.9999970703126,0|0,1:2|3:0,3:0:0:0:
243,108,74494,1,0,3:2:0:0:
243,108,74599,1,0,1:2:0:0:
109,35,74809,1,0,3:0:0:0:
96,177,75019,1,0,1:0:0:0:
96,177,75124,1,0,3:0:0:0:
96,177,75229,1,0,3:0:0:0:
243,108,75438,1,0,1:0:0:0:
191,181,75648,1,0,3:0:0:0:
299,35,75858,5,0,1:0:0:0:
380,252,76068,1,0,3:0:0:0:
329,115,76278,1,0,1:0:0:0:
386,268,76487,1,0,3:0:0:0:
276,190,76697,1,0,1:0:0:0:
276,190,76802,1,0,3:0:0:0:
276,190,76907,1,0,3:0:0:0:
419,135,77117,1,0,1:0:0:0:
304,268,77327,1,0,3:0:0:0:
329,115,77536,6,0,P|298:71|240:65,1,95.9999970703126,0|0,1:2|3:0,3:0:0:0:
276,190,77955,1,0,1:0:0:0:
400,57,78166,1,0,3:0:0:0:
207,134,78375,1,0,1:0:0:0:
207,134,78480,1,0,3:0:0:0:
207,134,78585,1,0,3:0:0:0:
213,273,78795,2,0,P|166:265|133:231,1,95.9999970703126,0|0,1:0|3:0,3:0:0:0:
112,81,79215,5,0,1:0:0:0:
53,248,79424,1,0,3:0:0:0:
163,153,79633,1,0,1:0:0:0:
28,104,79844,1,0,3:0:0:0:
134,232,80054,5,0,1:0:0:0:
147,243,80158,1,0,1:0:0:0:
162,253,80263,1,0,1:0:0:0:
179,260,80368,1,0,1:0:0:0:
196,265,80473,1,0,1:0:0:0:
214,266,80578,1,0,1:0:0:0:
232,264,80683,1,0,1:0:0:0:
249,260,80788,1,0,1:0:0:0:
266,252,80893,6,0,P|312:232|360:242,1,95.9999970703126,0|0,1:2|3:0,3:0:0:0:
457,298,81313,1,0,1:0:0:0:
378,161,81522,1,0,3:0:0:0:
497,186,81732,1,0,1:0:0:0:
497,186,81837,1,0,3:0:0:0:
497,186,81942,1,0,3:0:0:0:
294,124,82152,1,0,1:0:0:0:
355,239,82361,1,0,3:0:0:0:
449,41,82571,6,0,P|414:72|367:78,1,95.9999970703126,0|0,1:0|3:0,3:0:0:0:
157,31,82991,1,0,1:0:0:0:
296,8,83201,1,0,3:0:0:0:
188,105,83410,1,0,1:2:0:0:
176,140,83514,1,0,3:2:0:0:
188,176,83619,1,0,3:2:0:0:
218,292,83830,2,0,P|231:246|217:201,1,95.9999970703126,0|0,1:0|3:0,3:0:0:0:
222,82,84250,6,0,L|311:116,1,95.9999970703126,0|0,1:0|3:0,3:0:0:0:
431,199,84669,2,0,P|383:194|342:221,1,95.9999970703126,0|0,1:0|3:0,3:0:0:0:
331,265,84984,1,0,1:0:0:0:
331,265,85089,2,0,L|241:230,1,95.9999970703126,4|0,1:2|3:0,3:0:0:0:
212,300,85403,2,0,P|217:253|196:211,1,95.9999970703126,4|0,1:2|3:0,3:0:0:0:
219,115,85718,5,0,3:0:0:0:
219,115,85823,1,0,3:0:0:0:
219,115,85928,1,0,1:0:0:0:
135,269,86138,1,0,3:0:0:0:
131,117,86348,1,0,1:0:0:0:
265,189,86557,1,0,3:0:0:0:
135,269,86767,5,0,1:0:0:0:
107,279,86871,1,0,1:0:0:0:
77,280,86976,1,0,1:0:0:0:
48,271,87081,1,0,1:0:0:0:
24,253,87186,1,0,1:0:0:0:
8,228,87291,1,0,1:0:0:0:
0,200,87396,1,0,1:0:0:0:
3,170,87501,1,0,1:0:0:0:
15,142,87606,6,0,L|102:151,1,80,0|0,1:0|0:0,0:0:0:0:
177,160,88026,1,0,1:0:0:0:
229,68,88236,2,0,L|142:77,1,80,2|0,0:0|0:0,0:0:0:0:
113,240,88655,1,0,0:0:0:0:
94,150,88865,1,0,1:2:0:0:
94,150,88970,1,0,3:0:0:0:
94,150,89075,1,0,3:0:0:0:
38,254,89285,6,0,P|86:236|134:251,1,80,2|0,0:0|0:0,0:0:0:0:
153,267,89599,2,0,P|170:313|161:354,1,80,2|0,0:0|0:0,0:0:0:0:
138,382,89914,1,2,0:0:0:0:
248,330,90124,2,0,L|294:248,1,80,2|0,3:2|0:0,0:0:0:0:
356,331,90543,1,0,1:0:0:0:
356,331,90648,1,0,0:0:0:0:
356,331,90753,1,0,0:0:0:0:
198,255,90963,5,2,0:0:0:0:
356,331,91173,1,0,0:0:0:0:
323,190,91382,2,0,P|309:153|278:129,1,80,0|0,1:0|0:0,0:0:0:0:
121,196,91802,1,2,0:0:0:0:
48,68,92012,5,0,1:0:0:0:
78,97,92116,1,0,1:0:0:0:
118,110,92221,1,0,1:0:0:0:
160,104,92326,1,0,1:0:0:0:
195,81,92431,1,0,1:0:0:0:
226,52,92536,1,0,1:0:0:0:
265,37,92641,6,0,P|304:34|341:48,1,80,0|0,1:2|0:0,0:0:0:0:
373,73,92956,1,0,3:0:0:0:
373,73,93061,2,0,L|427:137,1,80,4|0,0:2|0:0,0:0:0:0:
476,251,93480,2,0,P|419:238|382:262,1,80,4|0,0:2|0:0,0:0:0:0:
305,335,93900,1,0,1:0:0:0:
270,358,94004,1,0,1:0:0:0:
229,370,94109,1,0,1:0:0:0:
187,367,94214,1,0,1:0:0:0:
148,351,94320,6,0,P|135:307|99:279,1,80,4|0,1:2|0:0,0:0:0:0:
28,252,94739,1,0,1:0:0:0:
62,354,94949,1,2,0:0:0:0:
182,235,95159,1,0,0:0:0:0:
62,354,95368,1,2,0:0:0:0:
191,155,95578,2,0,L|181:234,1,80,0|0,1:0|0:0,0:0:0:0:
277,349,95998,6,0,P|320:359|369:345,2,80,2|0|0,0:0|0:0|1:0,0:0:0:0:
182,235,96627,1,2,0:0:0:0:
374,190,96837,2,0,L|364:269,1,80,0|2,1:0|0:0,0:0:0:0:
277,349,97257,2,0,P|247:319|196:314,1,80,0|0,1:0|0:0,0:0:0:0:
65,323,97676,5,2,0:0:0:0:
169,384,97886,1,0,0:0:0:0:
182,235,98096,1,0,1:0:0:0:
182,235,98306,1,0,0:0:0:0:
239,168,98515,1,0,1:0:0:0:
96,224,98725,1,8,3:0:0:0:
96,224,98830,1,8,3:0:0:0:
96,224,98935,1,0,1:0:0:0:
211,311,99145,1,4,0:0:0:0:
141,122,99354,5,0,1:0:0:0:
102,110,99458,1,0,1:0:0:0:
63,100,99563,1,0,1:0:0:0:
141,122,99984,5,0,1:0:0:0:
102,110,100088,1,0,1:0:0:0:
63,100,100193,1,0,1:0:0:0:
219,56,100403,1,2,0:0:0:0:
334,134,100613,1,2,0:0:0:0:
211,198,100823,1,2,0:0:0:0:
253,129,101033,5,4,3:2:0:0:
171,300,113620,6,0,L|188:349,3,40,0|0|0|0,1:0|1:0|1:0|1:0,0:0:0:0:
224,222,114040,2,0,L|206:172,3,40,0|0|0|0,1:0|1:0|1:0|1:0,0:0:0:0:
257,301,114459,6,0,P|282:335|327:348,1,80,4|0,0:2|0:0,0:0:0:0:
316,347,114774,1,0,1:0:0:0:
316,347,114879,1,0,1:0:0:0:
418,235,115089,2,0,L|344:266,1,80,2|0,0:0|0:0,0:0:0:0:
344,265,115508,1,0,0:0:0:0:
400,104,115718,2,0,P|438:94|477:105,1,80,0|0,1:0|0:0,0:0:0:0:
347,174,116138,6,0,P|291:173|232:120,2,120,2|2|2,0:0|0:0|0:0,0:0:0:0:
321,78,116977,1,0,0:2:0:0:
188,208,117187,1,4,3:0:0:0:
247,34,117396,1,0,1:0:0:0:
272,185,117606,1,0,0:0:0:0:
127,146,117816,6,0,P|87:143|55:165,1,80,2|0,0:0|0:0,0:0:0:0:
55,165,118131,1,0,1:0:0:0:
55,165,118236,1,0,1:0:0:0:
188,208,118445,2,0,P|210:172|209:125,1,80,2|0,0:0|0:0,0:0:0:0:
0,257,118865,1,0,0:0:0:0:
160,315,119075,1,0,1:0:0:0:
127,146,119285,1,0,0:0:0:0:
83,222,119494,6,0,P|141:233|192:204,2,120,2|2|2,0:0|0:0|0:0,0:0:0:0:
9,164,120334,1,0,0:0:0:0:
38,319,120543,1,0,3:0:0:0:
192,203,120753,2,0,P|230:193|268:203,1,80,0|0,1:0|0:0,0:0:0:0:
367,225,121173,6,0,P|338:175|351:112,2,120,2|2|2,0:0|0:0|0:0,0:0:0:0:
447,270,122012,1,0,0:2:0:0:
334,369,122222,1,0,3:0:0:0:
290,225,122431,2,0,P|328:216|367:225,1,80,0|0,1:0|0:0,0:0:0:0:
237,298,122851,6,0,P|202:250|206:192,2,120,2|2|2,0:0|0:0|0:0,0:0:0:0:
145,325,123690,1,0,0:2:0:0:
290,225,123900,1,0,3:0:0:0:
144,233,124110,2,0,P|185:220|210:176,1,80,0|0,1:0|0:0,0:0:0:0:
275,51,124529,6,0,P|265:89|275:128,1,80,2|0,0:0|0:0,0:0:0:0:
274,128,124844,1,0,1:0:0:0:
274,128,124949,1,0,1:0:0:0:
355,179,125159,1,0,0:0:0:0:
275,51,125368,2,0,L|186:57,1,80,2|0,0:0|0:0,0:0:0:0:
135,128,125788,2,0,L|46:134,1,80,0|0,1:0|0:0,0:0:0:0:
59,240,126208,6,0,P|69:298|42:351,2,120,2|2|2,0:0|0:0|0:0,0:0:0:0:
150,270,127047,2,0,P|187:255|236:261,1,80,0|0,1:0|0:0,0:0:0:0:
374,304,127466,1,0,1:0:0:0:
283,335,127676,1,0,0:0:0:0:
451,359,127886,5,0,3:0:0:0:
464,333,127990,1,0,3:0:0:0:
469,303,128096,1,0,3:0:0:0:
464,274,128201,1,0,3:0:0:0:
450,247,128305,1,0,3:0:0:0:
293,45,128515,2,0,P|313:71|366:81,1,80,4|0,0:0|0:0,0:0:0:0:
512,77,128935,2,0,P|474:85|448:114,1,80,4|0,0:0|0:0,0:0:0:0:
373,250,129354,2,0,P|386:212|373:175,1,80,4|0,0:0|0:0,0:0:0:0:
373,250,129774,5,4,3:0:0:0:
448,114,129984,2,0,P|460:76|447:39,1,80,0|0,3:0|0:0,0:0:0:0:
357,82,130403,1,0,3:0:0:0:
248,191,130613,1,0,0:0:0:0:
357,82,130823,1,0,1:0:0:0:
248,191,131033,1,0,0:0:0:0:
397,231,131243,5,0,3:2:0:0:
367,226,131347,1,0,3:0:0:0:
338,232,131452,1,0,3:0:0:0:
313,248,131557,1,0,3:0:0:0:
296,272,131662,1,0,3:0:0:0:
248,191,131872,1,4,1:2:0:0:
373,314,132082,5,0,3:0:0:0:
373,314,132187,1,0,3:0:0:0:
373,314,132292,1,4,1:2:0:0:
176,262,132501,1,0,3:0:0:0:
346,216,132711,6,0,P|358:178|345:141,1,80,4|0,3:2|1:0,0:0:0:0:
345,141,133026,1,0,1:0:0:0:
345,141,133131,1,0,1:0:0:0:
430,221,133340,1,0,1:0:0:0:
296,272,133550,1,0,3:0:0:0:
325,114,133760,5,0,1:0:0:0:
325,114,133865,1,0,1:0:0:0:
325,114,133970,1,0,1:0:0:0:
265,42,134180,1,0,1:0:0:0:
242,61,134284,1,0,1:0:0:0:
213,71,134389,1,0,1:0:0:0:
184,70,134494,1,0,1:0:0:0:
156,60,134599,6,0,P|115:48|58:81,1,80,4|0,1:0|3:0,0:0:0:0:
0,157,135019,1,0,1:0:0:0:
134,249,135229,2,0,P|135:206|113:171,1,80,0|0,3:0|3:0,0:0:0:0:
36,311,135648,1,0,3:0:0:0:
201,298,135858,1,0,1:0:0:0:
120,178,136068,1,0,3:0:0:0:
120,178,136278,6,0,P|155:207|213:199,1,80,0|0,3:0|3:0,0:0:0:0:
324,185,136697,1,0,1:0:0:0:
201,298,136907,2,0,P|176:343|182:379,1,80,0|0,3:0|3:0,0:0:0:0:
341,270,137327,1,0,3:0:0:0:
188,209,137536,1,0,1:0:0:0:
383,139,137746,1,0,1:0:0:0:
383,139,137851,1,0,1:0:0:0:
383,139,137956,6,0,P|360:171|323:184,1,80,0|0,1:0|3:0,0:0:0:0:
381,53,138375,1,0,1:0:0:0:
498,116,138585,1,0,1:0:0:0:
307,102,138795,5,0,1:0:0:0:
279,112,138899,1,0,1:0:0:0:
257,132,139004,1,0,1:0:0:0:
243,159,139109,1,0,1:0:0:0:
238,188,139214,1,0,1:0:0:0:
245,217,139319,1,0,1:0:0:0:
261,242,139424,1,0,1:0:0:0:
285,260,139529,1,0,1:0:0:0:
314,269,139634,6,0,P|323:321|303:354,1,80,0|0,1:0|0:0,0:0:0:0:
280,369,139949,2,0,L|216:313,1,80,0|0,1:0|0:0,0:0:0:0:
189,289,140264,1,0,1:0:0:0:
323,184,140473,1,0,1:0:0:0:
323,184,140893,6,0,L|387:167,1,60,0|0,3:0|3:0,3:0:0:0:
424,158,141313,6,0,P|448:196|443:248,1,95.9999970703126,4|0,1:2|3:0,3:0:0:0:
444,245,141627,1,0,3:2:0:0:
444,245,141732,1,0,1:2:0:0:
332,335,141942,1,0,3:0:0:0:
285,232,142152,2,0,P|241:217|196:233,1,95.9999970703126,0|0,1:2|3:0,3:0:0:0:
59,307,142571,2,0,P|103:322|148:306,1,95.9999970703126,0|0,1:0|3:0,3:0:0:0:
149,155,142991,5,0,1:0:0:0:
195,233,143201,1,0,3:0:0:0:
131,126,143411,1,0,1:0:0:0:
107,235,143620,1,0,3:0:0:0:
226,115,143830,1,0,1:0:0:0:
113,98,144040,1,0,3:0:0:0:
195,233,144250,2,0,P|174:293|135:323,1,95.9999970703126,0|0,3:0|3:0,3:0:0:0:
72,362,144669,6,0,P|120:320|168:314,1,95.9999970703126,0|0,1:0|3:0,3:0:0:0:
179,316,144984,1,0,3:2:0:0:
206,325,145089,1,0,1:2:0:0:
328,366,145299,1,0,3:0:0:0:
279,271,145508,2,0,P|261:224|274:171,1,95.9999970703126,0|0,3:0|3:0,3:0:0:0:
352,217,145928,1,0,1:0:0:0:
206,325,146138,1,0,3:0:0:0:
269,180,146347,5,0,1:0:0:0:
279,271,146557,1,0,3:0:0:0:
352,217,146767,1,0,1:0:0:0:
252,290,146977,1,0,3:0:0:0:
439,233,147187,2,0,P|382:239|339:190,1,95.9999970703126,0|0,1:2|3:0,3:0:0:0:
338,198,147500,1,0,1:0:0:0:
332,174,147605,1,0,1:0:0:0:
351,89,147816,1,0,3:0:0:0:
439,233,148026,6,0,P|448:284|418:334,1,95.9999970703126,4|0,1:2|3:0,3:0:0:0:
265,372,148445,2,0,P|297:334|358:343,1,95.9999970703126,0|0,1:0|3:0,3:0:0:0:
231,202,148865,1,0,1:2:0:0:
238,236,148969,1,0,3:2:0:0:
232,272,149074,1,0,3:2:0:0:
212,301,149179,1,0,3:2:0:0:
182,321,149284,1,0,1:2:0:0:
319,248,149494,1,0,3:0:0:0:
108,282,149704,6,0,P|97:326|117:377,1,95.9999970703126,0|0,1:0|3:0,3:0:0:0:
387,362,150124,2,0,L|299:323,1,95.9999970703126,0|0,1:0|3:0,3:0:0:0:
62,349,150543,1,0,1:0:0:0:
93,365,150647,1,0,3:0:0:0:
129,366,150752,1,0,3:0:0:0:
161,350,150857,1,0,3:0:0:0:
182,321,150963,1,0,1:0:0:0:
322,195,151173,1,0,1:0:0:0:
322,195,151278,1,0,1:0:0:0:
322,195,151382,6,0,P|355:232|355:278,1,95.9999970703126,0|0,1:0|3:0,3:0:0:0:
236,187,151802,2,0,P|251:142|302:113,1,95.9999970703126,0|0,1:0|3:0,3:0:0:0:
340,99,152117,1,0,1:0:0:0:
340,99,152222,2,0,L|241:79,1,95.9999970703126,4|0,1:2|3:0,3:0:0:0:
266,9,152536,2,0,P|240:49|198:70,1,95.9999970703126,4|0,1:2|3:0,3:0:0:0:
113,82,152851,5,0,3:0:0:0:
113,82,152956,1,0,3:0:0:0:
113,82,153061,2,0,L|82:152,1,47.9999985351563,0|0,1:3|3:0,3:0:0:0:
2,198,153271,2,0,L|51:197,1,47.9999985351563,0|0,3:0|3:0,3:0:0:0:
136,196,153480,2,0,L|111:252,1,47.9999985351563,0|0,1:3|3:0,3:0:0:0:
86,322,153690,2,0,L|134:313,1,47.9999985351563,0|0,3:0|3:0,3:0:0:0:
205,270,153900,5,0,1:0:0:0:
212,247,154004,1,0,1:0:0:0:
225,226,154109,1,0,1:0:0:0:
241,209,154214,1,0,1:0:0:0:
261,196,154319,1,0,1:0:0:0:
284,187,154424,1,0,1:0:0:0:
307,184,154529,1,0,1:0:0:0:
331,185,154634,1,0,1:0:0:0:
354,192,154739,6,0,P|320:149|338:89,1,95.9999970703126,0|0,1:2|3:0,3:0:0:0:
323,110,155054,1,0,3:0:0:0:
323,110,155159,1,0,1:0:0:0:
377,29,155368,1,0,3:0:0:0:
229,119,155578,1,0,1:0:0:0:
229,119,155683,1,0,3:0:0:0:
229,119,155788,1,0,3:0:0:0:
377,29,155998,1,0,1:0:0:0:
283,186,156208,1,0,3:0:0:0:
159,69,156417,5,0,1:0:0:0:
14,173,156627,1,0,3:0:0:0:
155,152,156837,1,0,1:0:0:0:
87,25,157047,1,0,3:0:0:0:
0,200,157257,1,0,1:0:0:0:
0,200,157361,1,0,3:0:0:0:
0,200,157466,1,0,3:0:0:0:
48,102,157676,1,0,1:0:0:0:
140,233,157886,1,0,3:0:0:0:
59,351,158096,6,0,P|75:307|59:263,1,95.9999970703126,0|0,1:2|3:0,3:0:0:0:
58,262,158410,1,0,3:2:0:0:
58,262,158515,1,0,1:2:0:0:
176,327,158725,1,0,3:0:0:0:
219,205,158935,1,0,1:0:0:0:
219,205,159040,1,0,3:0:0:0:
219,205,159145,1,0,3:0:0:0:
409,252,159354,1,0,1:0:0:0:
292,293,159564,1,0,3:0:0:0:
299,173,159774,5,0,1:0:0:0:
458,174,159984,1,0,3:0:0:0:
292,293,160194,1,0,1:0:0:0:
381,116,160403,1,0,3:0:0:0:
440,261,160613,5,0,1:0:0:0:
440,261,160718,1,0,1:0:0:0:
440,261,160823,1,0,1:0:0:0:
299,80,161033,1,0,1:0:0:0:
268,68,161137,1,0,1:0:0:0:
236,64,161242,1,0,1:0:0:0:
205,68,161347,1,0,1:0:0:0:
176,82,161452,6,0,P|155:136|106:162,1,95.9999970703126,0|0,1:2|3:0,3:0:0:0:
16,204,161872,1,0,1:0:0:0:
89,75,162082,1,0,3:0:0:0:
222,185,162292,1,0,1:0:0:0:
222,185,162396,1,0,3:0:0:0:
222,185,162501,1,0,3:0:0:0:
13,117,162711,1,0,1:0:0:0:
84,255,162921,1,0,3:0:0:0:
296,134,163131,6,0,P|260:103|214:96,1,95.9999970703126,0|0,1:0|3:0,3:0:0:0:
428,266,163550,1,0,1:0:0:0:
385,110,163760,1,0,3:0:0:0:
263,221,163970,1,0,1:0:0:0:
263,221,164075,1,0,3:0:0:0:
263,221,164180,1,0,3:0:0:0:
474,128,164389,2,0,P|474:80|447:40,1,95.9999970703126,0|0,1:0|3:0,3:0:0:0:
259,120,164809,6,0,L|169:165,1,95.9999970703126,0|0,1:0|3:0,3:0:0:0:
272,29,165229,2,0,P|307:9|370:15,1,95.9999970703126,0|0,1:0|3:0,3:0:0:0:
409,33,165543,1,0,1:0:0:0:
409,33,165648,2,0,L|383:135,1,95.9999970703126,4|0,1:2|3:0,3:0:0:0:
459,145,165963,2,0,P|412:145|373:172,1,95.9999970703126,4|0,1:2|3:0,3:0:0:0:
449,234,166278,5,0,3:0:0:0:
449,234,166382,1,0,3:0:0:0:
449,234,166487,1,0,1:0:0:0:
259,310,166697,1,0,3:0:0:0:
373,171,166907,1,0,1:0:0:0:
400,314,167117,1,0,3:0:0:0:
222,223,167327,5,0,1:0:0:0:
199,221,167431,1,0,1:0:0:0:
175,223,167536,1,0,1:0:0:0:
152,232,167641,1,0,1:0:0:0:
132,244,167746,1,0,1:0:0:0:
115,261,167851,1,0,1:0:0:0:
102,281,167956,1,0,1:0:0:0:
94,304,168061,1,0,1:0:0:0:
91,328,168166,6,0,B|167:230|30:207|100:98,1,240,2|0,0:0|0:0,0:0:0:0:
141,42,169634,1,2,0:0:0:0:
141,42,169739,1,2,0:0:0:0:
141,42,169844,2,0,B|222:98|311:42|311:42|286:98,1,240,6|2,0:0|0:0,0:0:0:0:
253,163,171313,5,2,0:0:0:0:
253,163,171417,1,2,0:0:0:0:
253,163,171522,2,0,P|254:288|394:315,1,280,2|2,0:0|0:0,0:0:0:0:
421,252,173201,2,0,B|429:228|429:228|462:144|517:176|511:243|461:254|445:238|417:165,1,240,2|0,0:0|0:0,0:0:0:0:
390,101,174669,5,2,0:0:0:0:
390,101,174774,1,2,0:0:0:0:
390,101,174879,2,0,B|372:54|372:54|296:168|199:108,1,240,2|0,1:2|0:0,0:0:0:0:
150,72,176347,1,2,0:0:0:0:
150,72,176452,1,2,0:0:0:0:
150,72,176557,2,0,P|107:49|64:59,2,80,2|0|2,0:0|0:0|0:0,0:0:0:0:
59,330,177816,1,2,0:0:0:0:
86,191,178236,5,2,3:0:0:0:
130,273,178445,1,2,3:0:0:0:
176,191,178655,1,2,3:0:0:0:
220,273,178864,1,2,3:0:0:0:
266,191,179075,5,2,3:0:0:0:
130,273,179285,1,2,3:0:0:0:
184,154,179494,1,2,3:0:0:0:
48,236,179704,1,2,3:0:0:0:
180,351,179914,5,0,1:0:0:0:
204,367,180018,1,0,1:0:0:0:
231,378,180123,1,0,1:0:0:0:
260,384,180228,1,0,1:0:0:0:
289,384,180333,1,0,1:0:0:0:
319,379,180438,1,0,1:0:0:0:
346,367,180543,1,0,1:0:0:0:
371,350,180648,1,0,1:0:0:0:
391,329,180753,6,0,P|405:283|485:252,1,120,4|0,1:2|0:0,0:0:0:0:
502,255,181173,2,0,P|471:280|432:284,1,80,4|0,1:2|0:0,0:0:0:0:
329,239,181592,6,0,L|350:202,1,40,0|0,3:0|3:0,3:0:0:0:
352,101,181802,2,0,L|330:137,1,40,0|0,1:0|3:0,3:0:0:0:
242,187,182012,2,0,L|263:150,1,40,0|0,3:0|3:0,3:0:0:0:
262,50,182222,2,0,L|240:86,1,40,0|0,1:0|3:0,3:0:0:0:
112,185,182431,5,0,3:0:0:0:
146,168,182535,1,0,3:0:0:0:
164,135,182641,2,0,L|156:75,1,40,0|0,1:0|3:0,3:0:0:0:
73,185,182851,1,0,3:0:0:0:
69,224,182955,1,0,3:0:0:0:
84,260,183061,2,0,L|126:291,1,40,0|0,1:0|3:0,3:0:0:0:
238,309,183271,6,0,L|262:357,1,40,0|0,3:0|3:0,3:0:0:0:
321,316,183480,2,0,L|345:364,1,40,0|0,1:0|3:0,3:0:0:0:
422,358,183690,2,0,L|405:323,1,40,0|0,3:0|3:0,3:0:0:0:
506,366,183900,2,0,L|489:331,1,40,0|0,1:0|3:0,3:0:0:0:
458,245,184110,5,0,3:0:0:0:
422,226,184214,1,0,3:0:0:0:
383,228,184320,2,0,L|335:256,1,40,0|0,1:0|3:0,3:0:0:0:
478,161,184529,1,0,3:0:0:0:
487,122,184633,1,0,3:0:0:0:
476,84,184739,2,0,L|447:49,1,40,0|0,1:0|3:0,3:0:0:0:
274,72,184949,6,0,L|264:112,1,40,0|0,3:0|3:0,3:0:0:0:
267,229,185159,2,0,L|279:189,1,40,0|0,1:0|3:0,3:0:0:0:
377,148,185368,2,0,L|338:138,1,40,0|0,3:0|3:0,3:0:0:0:
202,165,185578,2,0,L|164:156,1,40,0|0,1:0|3:0,3:0:0:0:
74,85,185788,5,0,3:0:0:0:
84,123,185892,1,0,3:0:0:0:
72,160,185998,2,0,L|42:211,1,40,0|0,1:0|3:0,3:0:0:0:
7,269,186208,1,0,3:0:0:0:
8,308,186313,1,0,3:0:0:0:
31,340,186417,2,0,L|86:363,1,40,0|0,1:0|3:0,3:0:0:0:
195,232,186627,5,0,1:0:0:0:
232,213,186731,1,0,3:0:0:0:
274,216,186836,1,0,3:0:0:0:
309,239,186942,1,0,3:0:0:0:
327,277,187047,1,0,1:0:0:0:
344,315,187151,1,0,3:0:0:0:
379,339,187256,1,0,3:0:0:0:
421,340,187361,1,0,3:0:0:0:
458,319,187466,5,0,1:0:0:0:
472,289,187570,1,0,1:0:0:0:
475,255,187675,1,0,1:0:0:0:
462,224,187780,1,0,1:0:0:0:
449,191,187886,2,0,P|439:153|448:115,1,80,0|0,1:2|3:0,3:0:0:0:
472,24,188306,6,0,L|517:8,4,40,0|0|0|0|0,1:2|3:0|3:0|3:0|3:0,3:0:0:0:
353,70,188935,1,0,3:0:0:0:
353,70,189040,1,0,3:0:0:0:
353,70,189145,2,0,L|318:23,4,40,0|0|0|0|0,1:2|3:0|3:0|3:0|3:0,3:0:0:0:
370,204,189774,5,0,3:0:0:0:
374,208,189879,1,0,3:0:0:0:
378,212,189984,2,0,L|341:256,1,40,0|0,3:0|3:0,3:0:0:0:
312,132,190194,2,0,L|301:188,1,40,0|0,1:0|3:0,3:0:0:0:
225,99,190403,2,0,L|244:153,1,40,0|0,3:0|3:0,3:0:0:0:
134,117,190613,2,0,L|178:153,1,40,0|0,1:0|3:0,3:0:0:0:
240,233,190823,6,0,L|244:281,1,40,0|0,3:0|3:0,3:0:0:0:
167,233,191033,2,0,L|154:279,1,40,0|0,1:0|3:0,3:0:0:0:
97,219,191243,2,0,L|69:258,1,40,0|0,3:0|3:0,3:0:0:0:
34,182,191452,2,0,L|-5:209,1,40,0|0,1:0|3:0,3:0:0:0:
0,384,191662,6,0,P|56:343|167:356,1,160,4|0,3:0|3:0,3:0:0:0:
147,348,192187,1,4,3:0:0:0:
151,352,192292,1,4,3:0:0:0:
338,358,192501,5,0,1:0:0:0:
338,315,192605,1,0,1:0:0:0:
319,278,192711,1,0,1:0:0:0:
286,250,192815,1,0,1:0:0:0:
267,213,192920,1,0,1:0:0:0:
262,172,193025,1,0,1:0:0:0:
274,131,193130,1,0,1:0:0:0:
300,98,193235,1,0,1:0:0:0:
336,76,193340,6,0,L|379:59,1,40,0|0,1:0|1:0,1:0:0:0:
367,181,193550,1,0,1:0:0:0:
176,308,193970,2,0,L|133:325,1,40,0|0,1:0|1:0,1:0:0:0:
145,203,194180,1,0,1:0:0:0:
410,166,209285,6,0,L|452:138,3,40,0|0|0|0,1:0|1:0|1:0|1:0,1:0:0:0:
349,212,209704,6,0,L|297:248,1,60,0|0,3:0|0:0,0:0:0:0:
258,231,210124,6,0,P|216:221|162:241,1,95.9999970703126,0|0,1:0|3:0,3:0:0:0:
167,237,210438,1,0,3:2:0:0:
167,237,210543,1,0,1:2:0:0:
264,316,210753,1,0,3:0:0:0:
87,239,210963,2,0,P|75:195|94:143,1,95.9999970703126,0|0,1:2|3:0,3:0:0:0:
149,85,211382,1,0,1:0:0:0:
4,127,211591,1,0,3:0:0:0:
207,21,211802,5,0,1:0:0:0:
150,180,212012,1,0,3:0:0:0:
65,59,212222,1,0,1:0:0:0:
178,170,212431,1,0,3:0:0:0:
321,127,212641,1,0,1:0:0:0:
149,85,212851,1,0,3:0:0:0:
263,191,213061,2,0,P|262:142|228:97,1,95.9999970703126,0|0,1:0|3:0,3:0:0:0:
204,254,213480,6,0,P|189:306|207:350,1,95.9999970703126,0|0,1:2|3:0,3:0:0:0:
202,343,213795,1,0,3:2:0:0:
202,343,213900,1,0,1:2:0:0:
263,191,214110,1,0,3:0:0:0:
118,233,214320,1,0,1:0:0:0:
290,275,214529,1,0,3:0:0:0:
235,106,214739,1,0,1:0:0:0:
204,254,214949,1,0,3:0:0:0:
349,212,215159,5,0,1:0:0:0:
145,317,215368,1,0,3:0:0:0:
177,170,215578,1,0,1:0:0:0:
376,296,215788,1,0,3:0:0:0:
177,170,215998,1,0,1:0:0:0:
184,147,216102,1,0,1:0:0:0:
199,128,216207,1,0,1:0:0:0:
220,116,216312,1,0,1:0:0:0:
243,112,216417,2,0,L|160:81,1,68.0000012969971,0|0,1:2|3:0,1:0:0:0:
7,161,216837,6,0,P|54:165|95:142,1,95.9999970703126,0|0,1:0|3:0,3:0:0:0:
228,35,217257,2,0,P|237:75|219:127,1,95.9999970703126,0|0,1:0|3:0,3:0:0:0:
81,282,217676,2,0,L|25:254,2,47.9999985351563,0|0|0,1:2|3:0|3:0,1:0:0:0:
156,237,218096,1,0,1:0:0:0:
6,327,218306,1,0,3:0:0:0:
156,237,218515,6,0,P|200:221|244:237,1,95.9999970703126,0|0,1:0|3:0,3:0:0:0:
243,348,218935,2,0,P|199:364|155:348,1,95.9999970703126,0|0,1:0|3:0,3:0:0:0:
316,290,219354,1,0,1:0:0:0:
316,290,219459,1,0,3:0:0:0:
316,290,219564,1,0,3:0:0:0:
469,304,219774,2,0,P|497:330|512:395,1,95.9999970703126,0|0,1:0|3:0,3:0:0:0:
388,344,220194,5,0,1:0:0:0:
326,200,220403,1,0,3:0:0:0:
492,214,220613,2,0,P|443:211|407:174,1,95.9999970703126,0|0,1:0|3:0,3:0:0:0:
397,138,220928,1,0,1:0:0:0:
397,138,221033,2,0,L|298:109,1,95.9999970703126,4|0,1:2|3:0,3:0:0:0:
330,39,221347,2,0,P|301:76|258:97,1,95.9999970703126,4|0,1:2|3:0,3:0:0:0:
172,83,221662,5,0,3:0:0:0:
172,83,221767,1,0,3:0:0:0:
172,83,221872,2,0,L|128:134,1,47.9999985351563,0|0,1:3|3:0,3:0:0:0:
201,268,222082,2,0,L|182:223,1,47.9999985351563,0|0,3:0|3:0,3:0:0:0:
77,179,222292,2,0,L|96:223,1,47.9999985351563,0|0,1:3|3:0,3:0:0:0:
220,159,222501,2,0,L|251:122,1,47.9999985351563,0|0,3:0|3:0,3:0:0:0:
328,144,222711,5,0,1:0:0:0:
345,168,222815,1,0,1:0:0:0:
355,196,222920,1,0,1:0:0:0:
357,226,223025,1,0,1:0:0:0:
351,255,223130,1,0,1:0:0:0:
337,281,223235,1,0,1:0:0:0:
317,303,223340,1,0,1:0:0:0:
292,319,223445,1,0,1:0:0:0:
264,328,223550,6,0,P|224:303|175:315,1,95.9999970703126,0|0,1:2|3:0,3:0:0:0:
178,312,223865,1,0,3:2:0:0:
178,312,223970,1,0,1:2:0:0:
243,221,224180,1,0,3:0:0:0:
79,304,224389,2,0,P|64:259|79:214,1,95.9999970703126,0|0,1:2|3:0,3:0:0:0:
195,57,224809,2,0,P|210:102|196:148,1,95.9999970703126,0|0,1:0|3:0,3:0:0:0:
86,107,225229,5,0,1:0:0:0:
265,194,225438,1,0,3:0:0:0:
267,19,225648,1,0,1:0:0:0:
181,177,225858,1,0,3:0:0:0:
336,129,226068,1,0,1:0:0:0:
336,129,226173,1,0,3:0:0:0:
336,129,226278,1,0,3:0:0:0:
311,297,226487,1,0,1:0:0:0:
206,256,226697,1,0,3:0:0:0:
336,129,226907,6,0,P|352:87|342:36,1,95.9999970703126,0|0,1:2|3:0,3:0:0:0:
323,16,227222,1,0,3:0:0:0:
296,5,227327,1,0,1:0:0:0:
265,194,227536,1,0,3:0:0:0:
407,92,227746,2,0,P|452:78|497:93,1,95.9999970703126,0|0,1:0|3:0,3:0:0:0:
450,324,228166,2,0,P|426:285|430:226,1,95.9999970703126,0|0,1:0|3:0,3:0:0:0:
497,93,228585,5,0,1:0:0:0:
512,260,228795,1,0,3:0:0:0:
355,236,229005,1,0,1:0:0:0:
476,178,229215,1,0,3:0:0:0:
370,311,229424,5,0,1:0:0:0:
346,329,229528,1,0,1:0:0:0:
319,341,229633,1,0,1:0:0:0:
290,348,229738,1,0,1:0:0:0:
261,349,229843,1,0,1:0:0:0:
231,344,229948,1,0,1:0:0:0:
204,333,230053,1,0,1:0:0:0:
179,317,230158,1,0,1:0:0:0:
158,295,230264,6,0,P|116:253|69:254,1,95.9999970703126,0|0,1:2|3:0,3:0:0:0:
20,311,230683,1,0,1:0:0:0:
146,179,230893,1,0,3:0:0:0:
100,339,231103,1,0,1:0:0:0:
103,291,231207,1,0,3:0:0:0:
81,250,231312,1,0,3:0:0:0:
0,157,231522,1,0,1:0:0:0:
81,250,231732,1,0,3:0:0:0:
150,89,231942,6,0,P|196:82|240:100,1,95.9999970703126,0|0,1:0|3:0,3:0:0:0:
403,186,232361,2,0,L|308:167,1,95.9999970703126,0|0,1:0|3:0,3:0:0:0:
347,294,232781,1,0,1:0:0:0:
385,296,232885,1,0,1:0:0:0:
414,271,232990,1,0,1:0:0:0:
478,148,233201,1,0,1:0:0:0:
479,329,233410,1,0,1:0:0:0:
479,329,233515,1,0,1:0:0:0:
479,329,233620,6,0,P|454:285|399:272,1,95.9999970703126,0|0,1:0|3:0,3:0:0:0:
270,254,234040,2,0,P|235:285|177:282,1,95.9999970703126,0|0,1:0|3:0,3:0:0:0:
152,268,234354,1,0,1:0:0:0:
152,268,234459,2,0,L|238:313,1,95.9999970703126,4|0,1:2|3:0,3:0:0:0:
201,378,234774,2,0,P|232:343|279:334,1,95.9999970703126,4|0,1:2|3:0,3:0:0:0:
293,218,235089,5,0,3:0:0:0:
293,218,235194,1,0,3:0:0:0:
293,218,235299,2,0,L|302:123,1,95.9999970703126,0|0,1:0|3:0,3:0:0:0:
220,88,235718,1,0,1:0:0:0:
389,150,235928,1,0,3:0:0:0:
193,291,236138,5,0,1:0:0:0:
168,307,236243,1,0,1:0:0:0:
139,312,236348,1,0,1:0:0:0:
110,307,236453,1,0,1:0:0:0:
85,292,236558,1,0,1:0:0:0:
66,269,236663,1,0,1:0:0:0:
57,241,236768,1,0,1:0:0:0:
59,212,236873,1,0,1:0:0:0:
71,185,236977,6,0,P|87:130|54:65,1,120,0|0,3:0|3:0,3:0:0:0:
0,134,237816,1,0,1:3:0:0:
48,148,237920,1,0,1:3:0:0:
99,149,238025,1,0,1:3:0:0:
149,138,238130,1,0,1:3:0:0:
197,121,238235,1,0,1:3:0:0:
245,105,238340,1,0,1:3:0:0:
295,92,238445,1,0,1:3:0:0:
346,88,238550,1,0,1:3:0:0:
396,96,238655,6,0,L|513:134,1,120,0|0,1:2|0:0,0:0:0:0:
486,168,239075,2,0,P|442:170|405:195,1,80,0|0,1:0|0:0,0:0:0:0:
307,271,239494,2,0,L|241:228,1,80,0|0,1:0|0:0,0:0:0:0:
104,299,239914,2,0,P|142:313|181:305,1,80,0|0,1:0|0:0,0:0:0:0:
331,184,240334,5,0,1:0:0:0:
427,257,240543,1,0,0:0:0:0:
242,162,240753,1,0,1:0:0:0:
270,302,240963,1,0,0:0:0:0:
115,213,241173,1,0,1:0:0:0:
306,104,241382,1,0,0:0:0:0:
202,238,241592,1,0,1:0:0:0:
225,72,241802,1,0,1:0:0:0:
225,72,241907,1,0,1:0:0:0:
225,72,242012,6,0,P|257:33|333:24,1,120,0|0,1:0|0:0,0:0:0:0:
348,46,242431,2,0,P|383:62|423:57,1,80,0|0,1:0|0:0,0:0:0:0:
482,167,242851,1,0,1:0:0:0:
482,167,242956,1,0,3:0:0:0:
482,167,243061,1,0,3:0:0:0:
325,268,243271,2,0,P|324:317|356:357,1,80,0|0,1:0|0:0,0:0:0:0:
410,289,243690,6,0,P|447:274|498:293,1,80,0|0,1:0|0:0,0:0:0:0:
254,355,244110,2,0,P|217:370|166:351,1,80,0|0,1:0|0:0,0:0:0:0:
178,198,244529,5,0,1:0:0:0:
172,159,244633,1,0,1:0:0:0:
174,119,244738,1,0,1:0:0:0:
168,81,244844,1,0,1:0:0:0:
141,53,244949,1,0,1:0:0:0:
102,47,245054,1,0,1:0:0:0:
67,64,245159,1,0,1:0:0:0:
48,98,245264,1,0,1:0:0:0:
53,138,245368,6,0,L|98:254,1,120,0|0,1:2|0:0,0:0:0:0:
63,260,245788,2,0,P|13:240|-5:216,1,80,0|0,1:0|0:0,0:0:0:0:
169,208,246208,2,0,P|207:198|245:208,1,80,0|0,1:0|0:0,0:0:0:0:
346,326,246627,1,0,1:0:0:0:
208,289,246837,1,0,0:0:0:0:
442,230,247047,6,0,L|434:315,1,80,0|0,1:0|0:0,0:0:0:0:
328,239,247466,2,0,L|337:155,1,80,0|0,1:0|0:0,0:0:0:0:
455,87,247886,2,0,L|503:80,1,40,0|0,3:0|3:0,3:0:0:0:
396,43,248096,2,0,L|434:12,1,40,0|0,1:0|3:0,3:0:0:0:
321,39,248306,2,0,L|338:-6,1,40,0|0,3:0|3:0,3:0:0:0:
254,69,248515,2,0,L|246:20,1,40,0|0,1:0|3:0,3:0:0:0:
264,159,248725,6,0,P|224:155|192:133,2,80,0|0|0,1:0|3:0|0:0,0:0:0:0:
341,123,249354,1,0,1:0:0:0:
345,127,249459,1,0,1:0:0:0:
349,131,249564,2,0,P|354:168|327:221,1,80,4|0,1:2|0:0,0:0:0:0:
270,252,249879,2,0,L|336:239,1,68.0000012969971,4|0,1:2|0:0,0:0:0:0:
410,325,250194,1,0,1:0:0:0:
410,325,250299,1,0,1:0:0:0:
410,325,250403,6,0,P|371:316|332:325,2,80,0|0|0,1:2|3:0|0:0,0:0:0:0:
158,355,251033,1,0,1:0:0:0:
158,355,251138,1,0,1:0:0:0:
158,355,251243,2,0,P|191:317|206:280,1,80,4|0,1:2|0:0,0:0:0:0:
189,213,251557,2,0,L|230:266,1,68.0000012969971,4|0,1:2|0:0,0:0:0:0:
239,149,251872,1,0,1:0:0:0:
239,149,251977,1,0,1:0:0:0:
239,149,252082,6,0,P|232:100|182:65,2,80,0|0|0,1:2|3:0|0:0,0:0:0:0:
61,52,252711,1,0,1:0:0:0:
61,52,252816,1,0,1:0:0:0:
61,52,252921,2,0,L|140:43,1,80,4|0,1:2|0:0,0:0:0:0:
176,38,253236,2,0,L|251:29,1,68.0000012969971,4|0,1:2|0:0,0:0:0:0:
329,78,253550,1,0,1:0:0:0:
329,78,253655,1,0,1:0:0:0:
329,78,253760,2,0,L|316:160,1,68.0000012969971,0|0,1:2|0:0,0:0:0:0:
351,307,254185,6,0,P|307:295|274:266,1,90.0000034332277,4|0,3:2|0:0,0:0:0:0:
200,243,254611,2,0,P|157:257|126:288,1,90.0000034332277,4|0,3:2|0:0,0:0:0:0:
256,192,255036,2,0,P|265:148|253:105,1,90.0000034332277,4|0,3:2|0:0,0:0:0:0:
260,196,255462,5,4,0:0:0:0:
256,192,255568,12,0,257589,0:0:0:0:
