osu file format v14

[General]
AudioFilename: audio.mp3
AudioLeadIn: 0
PreviewTime: 53400
Countdown: 0
SampleSet: Soft
StackLeniency: 0.4
Mode: 0
LetterboxInBreaks: 0
WidescreenStoryboard: 0

[Editor]
Bookmarks: 0,2742,8228,13714,19200,24685,27428,32914,38400,43885,49371,53485,58971,64457,69942,75428,80914,86400,91885
DistanceSpacing: 2.4
BeatDivisor: 4
GridSize: 16
TimelineZoom: 1.75

[Metadata]
Title:Oniichan, Motto!
TitleUnicode:お兄ちゃん、もっと!
Artist:Yakushi Ruri
ArtistUnicode:薬師るり
Creator:Karen
Version:Kencho's Extra
Source:お兄ちゃん、キッスの準備はまだですか?エッチの準備もまだですか?
Tags:Kencho KSHR onikissh tinkle position eroge
BeatmapID:1187492
BeatmapSetID:559860

[Difficulty]
HPDrainRate:5.4
CircleSize:4.1
OverallDifficulty:8.3
ApproachRate:9.2
SliderMultiplier:1.6
SliderTickRate:1

[Events]
//Background and Video events
0,0,"oniichan.jpg",0,0
//Break Periods
//Storyboard Layer 0 (Background)
//Storyboard Layer 1 (Fail)
//Storyboard Layer 2 (Pass)
//Storyboard Layer 3 (Foreground)
//Storyboard Sound Samples

[TimingPoints]
0,342.857142857143,4,2,1,70,1,0
0,-83.3333333333333,4,2,1,70,0,0
428,-83.3333333333333,4,2,1,5,0,0
514,-83.3333333333333,4,2,1,70,0,0
942,-83.3333333333333,4,2,1,5,0,0
1028,-83.3333333333333,4,2,1,70,0,0
1457,-83.3333333333333,4,2,1,5,0,0
1542,-83.3333333333333,4,2,1,70,0,0
2742,-100,4,2,1,60,0,0
13028,-100,4,2,1,70,0,0
13714,-83.3333333333333,4,2,1,80,0,1
13800,-83.3333333333333,4,2,1,80,0,0
19200,-83.3333333333333,4,2,1,80,0,1
19285,-83.3333333333333,4,2,1,80,0,0
27342,-83.3333333333333,4,2,1,5,0,0
27428,-125,4,2,1,50,0,0
46628,-125,4,2,1,60,0,0
49371,-83.3333333333333,4,2,1,70,0,0
50742,-66.6666666666667,4,2,1,80,0,0
51000,-66.6666666666667,4,2,1,5,0,0
51085,-66.6666666666667,4,2,1,80,0,0
51342,-66.6666666666667,4,2,1,5,0,0
51428,-66.6666666666667,4,2,1,80,0,0
52285,-66.6666666666667,4,2,1,5,0,0
52457,-66.6666666666667,4,2,1,80,0,0
52714,-66.6666666666667,4,2,1,5,0,0
52800,-66.6666666666667,4,2,1,80,0,0
53485,-83.3333333333333,4,2,1,80,0,1
64371,-83.3333333333333,4,2,1,80,0,0
64457,-83.3333333333333,4,2,1,60,0,1
68571,-83.3333333333333,4,2,1,80,0,1
69942,-83.3333333333333,4,2,1,70,0,1
72685,-100,4,2,1,70,0,0
75428,-83.3333333333333,4,2,1,80,0,1
75514,-83.3333333333333,4,2,1,80,0,0
80914,-83.3333333333333,4,2,1,80,0,1
81000,-83.3333333333333,4,2,1,80,0,0
86400,-83.3333333333333,4,2,1,70,0,0
90000,-66.6666666666667,4,2,1,80,0,0
90685,-66.6666666666667,4,2,1,5,0,0
92657,-66.6666666666667,4,2,0,5,0,0

[Colours]
Combo1 : 255,255,0
Combo2 : 255,0,0
Combo3 : 117,186,255
Combo4 : 128,0,255

[HitObjects]
256,80,0,5,0,1:0:0:0:
328,154,171,2,0,P|388:140|359:83,1,143.999995605469,8|0,0:0|0:0,0:0:0:0:
256,80,514,5,0,1:0:0:0:
256,182,685,2,0,P|312:213|328:154,1,143.999995605469,8|0,0:0|0:0,0:0:0:0:
256,80,1028,5,0,1:0:0:0:
184,153,1200,2,0,P|200:213|256:182,1,143.999995605469,8|0,0:0|0:0,0:0:0:0:
256,80,1542,5,0,1:0:0:0:
151,83,1714,2,0,P|115:117|108:162,1,95.9999970703126,8|0,0:0|0:0,0:0:0:0:
184,244,2057,6,0,P|197:200|184:153,1,95.9999970703126,12|0,0:0|0:0,0:0:0:0:
27,265,2400,2,0,P|14:309|27:356,1,95.9999970703126,12|0,0:0|0:0,0:0:0:0:
198,258,2742,5,8,0:3:0:0:
198,258,2828,1,0,0:0:0:0:
198,258,2914,1,2,0:0:0:0:
198,258,3000,1,0,0:0:0:0:
198,258,3085,2,0,L|278:251,1,80,8|2,0:0|0:0,0:0:0:0:
358,244,3342,1,8,0:3:0:0:
358,244,3428,6,0,L|354:284,1,40,8|0,0:3|0:0,0:0:0:0:
365,164,3600,2,0,L|369:124,1,40,8|0,0:3|0:0,0:0:0:0:
438,238,3771,2,0,L|434:278,1,40,8|0,0:0|0:0,0:0:0:0:
445,158,3942,2,0,L|449:118,1,40,2|0,0:0|0:0,0:0:0:0:
285,171,4114,6,0,L|278:251,1,80,8|2,0:3|0:0,0:0:0:0:
198,258,4371,1,0,0:0:0:0:
198,258,4457,2,0,L|158:262,1,40,10|0,0:0|0:0,0:0:0:0:
165,182,4628,2,0,L|205:178,1,40,2|8,0:0|0:3,0:0:0:0:
285,171,4800,5,8,0:3:0:0:
93,216,4971,1,8,0:3:0:0:
278,251,5142,1,12,0:0:0:0:
93,216,5314,1,2,0:0:0:0:
212,98,5485,5,8,0:3:0:0:
191,338,5657,1,2,0:0:0:0:
191,338,5742,1,0,0:0:0:0:
191,338,5828,2,0,L|111:331,1,80,8|2,0:0|0:0,0:0:0:0:
46,286,6085,1,8,0:3:0:0:
46,286,6171,6,0,L|6:290,1,40,8|0,0:3|0:0,0:0:0:0:
93,216,6342,2,0,L|133:220,1,40,8|0,0:3|0:0,0:0:0:0:
27,171,6514,1,8,0:0:0:0:
212,98,6685,1,8,0:3:0:0:
212,98,6771,1,0,0:0:0:0:
212,98,6857,6,0,L|219:178,1,80,8|2,0:3|0:0,0:0:0:0:
139,185,7114,1,0,0:0:0:0:
139,185,7200,2,0,L|135:145,1,40,8|0,0:0|0:0,0:0:0:0:
124,26,7371,2,0,L|128:66,1,40,8|0,0:0|0:0,0:0:0:0:
252,94,7542,5,8,0:3:0:0:
252,94,7628,1,0,0:0:0:0:
252,94,7714,2,0,L|212:98,1,40,2|0,0:0|0:0,0:0:0:0:
325,7,7885,1,10,0:0:0:0:
325,7,7971,1,2,0:0:0:0:
325,7,8057,2,0,L|365:3,1,40,2|2,0:0|0:0,0:0:0:0:
445,158,8228,5,4,0:0:0:0:
445,158,8314,1,0,0:0:0:0:
445,158,8400,1,2,0:0:0:0:
445,158,8485,1,0,0:0:0:0:
445,158,8571,2,0,L|438:238,1,80,8|2,0:0|0:0,0:0:0:0:
354,283,8828,1,8,0:3:0:0:
354,283,8914,6,0,L|314:279,1,40,8|0,0:3|0:0,0:0:0:0:
285,171,9085,2,0,L|325:167,1,40,8|0,0:3|0:0,0:0:0:0:
234,272,9257,2,0,L|194:268,1,40,8|0,0:0|0:0,0:0:0:0:
165,160,9428,2,0,L|205:156,1,40,2|0,0:0|0:0,0:0:0:0:
114,261,9600,6,0,L|34:254,1,80,8|2,0:3|0:0,0:0:0:0:
27,175,9857,1,0,0:0:0:0:
27,175,9942,2,0,L|23:135,1,40,8|0,0:0|0:0,0:0:0:0:
102,48,10114,2,0,L|98:88,1,40,2|8,0:0|0:3,0:0:0:0:
34,254,10285,5,8,0:3:0:0:
205,156,10457,1,8,0:3:0:0:
27,175,10628,1,8,0:0:0:0:
205,156,10800,1,2,0:0:0:0:
16,56,10971,5,8,0:3:0:0:
34,254,11142,1,2,0:0:0:0:
34,254,11228,1,0,0:0:0:0:
34,254,11314,2,0,L|41:334,1,80,8|2,0:0|0:0,0:0:0:0:
121,341,11571,1,8,0:3:0:0:
121,341,11657,6,0,L|161:345,1,40,8|0,0:3|0:0,0:0:0:0:
114,261,11828,2,0,L|154:265,1,40,8|0,0:3|0:0,0:0:0:0:
40,333,12000,1,8,0:0:0:0:
234,272,12171,1,8,0:3:0:0:
234,272,12257,1,0,0:0:0:0:
234,272,12342,6,0,L|241:352,1,80,8|2,0:3|0:0,0:0:0:0:
321,345,12600,1,0,0:0:0:0:
321,345,12685,2,0,L|361:341,1,40,8|0,0:0|0:0,0:0:0:0:
394,257,12857,2,0,L|354:261,1,40,2|0,0:0|0:0,0:0:0:0:
234,272,13028,5,8,0:3:0:0:
234,272,13114,1,8,0:3:0:0:
234,272,13200,2,0,L|274:268,1,40,8|8,0:3|0:3,0:0:0:0:
387,176,13371,1,10,0:0:0:0:
387,176,13457,1,10,0:0:0:0:
387,176,13542,2,0,L|427:172,1,40,10|10,0:0|0:0,0:0:0:0:
260,92,13714,6,0,L|164:100,1,95.9999970703126,4|0,1:0|0:0,0:0:0:0:
172,197,14057,2,0,L|268:188,1,95.9999970703126,8|8,0:0|0:3,0:0:0:0:
85,157,14400,1,0,1:0:0:0:
180,293,14571,2,0,L|276:284,1,95.9999970703126,8|8,0:0|0:0,0:0:0:0:
93,253,14914,1,8,0:3:0:0:
93,253,15085,6,0,P|85:300|99:345,1,95.9999970703126,0|0,1:0|0:0,0:0:0:0:
259,237,15428,1,8,0:0:0:0:
85,157,15600,1,2,0:0:0:0:
180,293,15771,1,0,1:0:0:0:
164,101,15942,1,2,0:1:0:0:
164,101,16028,1,0,0:0:0:0:
164,101,16114,2,0,L|160:53,1,47.9999985351563,2|0,0:1|0:0,0:0:0:0:
251,141,16285,2,0,L|255:93,1,47.9999985351563,8|8,0:0|0:0,0:0:0:0:
345,86,16457,6,0,L|337:182,1,95.9999970703126,0|0,1:0|0:0,0:0:0:0:
304,6,16800,2,0,P|351:-3|396:12,1,95.9999970703126,8|2,0:0|0:0,0:0:0:0:
432,174,17142,1,0,1:0:0:0:
345,86,17314,1,8,0:0:0:0:
465,53,17485,1,8,0:0:0:0:
337,182,17657,1,8,0:3:0:0:
304,6,17828,5,0,1:0:0:0:
512,131,18000,1,2,0:0:0:0:
337,182,18171,1,8,0:0:0:0:
465,53,18342,1,2,0:0:0:0:
399,295,18514,1,8,0:3:0:0:
363,292,18600,1,8,0:3:0:0:
327,289,18685,1,8,0:3:0:0:
291,286,18771,1,8,0:3:0:0:
255,283,18857,2,0,L|251:331,1,47.9999985351563,8|8,0:3|0:3,0:0:0:0:
159,275,19028,2,0,L|163:227,1,47.9999985351563,8|8,0:0|0:0,0:0:0:0:
63,267,19200,6,0,L|55:363,1,95.9999970703126,4|0,1:0|0:0,0:0:0:0:
171,131,19542,2,0,L|179:35,1,95.9999970703126,8|8,0:0|0:3,0:0:0:0:
75,123,19885,1,0,1:0:0:0:
163,227,20057,2,0,P|212:220|246:190,1,95.9999970703126,8|8,0:0|0:0,0:0:0:0:
311,22,20400,1,8,0:3:0:0:
311,22,20571,6,0,P|292:67|302:112,1,95.9999970703126,0|0,1:0|0:0,0:0:0:0:
341,199,20914,1,8,0:0:0:0:
373,74,21085,1,2,0:0:0:0:
246,190,21257,1,0,1:0:0:0:
410,242,21428,1,2,0:1:0:0:
410,242,21514,1,0,0:0:0:0:
410,242,21600,2,0,L|458:238,1,47.9999985351563,2|0,0:1|0:0,0:0:0:0:
407,322,21771,2,0,L|455:318,1,47.9999985351563,8|8,0:0|0:0,0:0:0:0:
339,280,21942,6,0,L|243:289,1,95.9999970703126,0|0,1:0|0:0,0:0:0:0:
229,111,22285,2,0,P|256:149|261:198,1,95.9999970703126,8|2,0:0|0:0,0:0:0:0:
193,336,22628,1,0,1:0:0:0:
166,184,22800,1,8,0:0:0:0:
278,292,22971,1,8,0:0:0:0:
124,270,23142,1,8,0:3:0:0:
229,111,23314,5,0,1:0:0:0:
193,336,23485,1,2,0:0:0:0:
144,155,23657,1,8,0:0:0:0:
278,292,23828,1,2,0:0:0:0:
84,335,24000,1,8,0:3:0:0:
56,312,24085,1,8,0:3:0:0:
45,277,24171,1,8,0:3:0:0:
52,241,24257,1,8,0:3:0:0:
72,211,24342,2,0,L|120:207,1,47.9999985351563,8|0,0:3|0:0,0:0:0:0:
84,335,24514,2,0,L|36:339,1,47.9999985351563,4|0,1:0|0:0,0:0:0:0:
84,335,24857,5,8,0:0:0:0:
227,322,25028,1,8,0:0:0:0:
370,309,25200,1,8,0:0:0:0:
215,198,25371,5,8,0:3:0:0:
195,228,25457,1,8,0:3:0:0:
188,264,25542,1,8,0:3:0:0:
199,299,25628,1,8,0:3:0:0:
227,322,25714,2,0,L|275:318,1,47.9999985351563,10|10,0:0|0:0,0:0:0:0:
215,198,25885,2,0,L|167:202,1,47.9999985351563,10|10,0:0|0:0,0:0:0:0:
215,198,26228,5,2,0:1:0:0:
335,187,26400,1,2,0:1:0:0:
455,176,26571,1,2,0:1:0:0:
375,122,26742,6,0,P|260:193|387:242,1,335.999989746094,2|0,0:1|0:0,0:0:0:0:
455,176,27428,6,0,P|470:115|445:58,1,128,4|2,0:0|0:0,0:0:0:0:
215,198,28114,2,0,P|200:259|225:316,1,128,8|0,0:1|0:0,0:0:0:0:
360,246,28628,6,0,L|295:251,1,64,2|0,0:0|3:0,0:0:0:0:
453,271,28971,2,0,P|456:240|448:209,1,64,0|0,0:0|3:0,0:0:0:0:
354,159,29314,1,0,0:0:0:0:
317,345,29485,2,0,L|382:340,1,64,8|0,0:1|0:0,0:0:0:0:
296,251,29828,1,2,0:0:0:0:
225,316,30000,1,0,0:0:0:0:
381,340,30171,6,0,P|409:303|416:255,1,96,0|0,3:0|0:0,0:0:0:0:
414,222,30514,1,2,0:0:0:0:
406,126,30685,1,0,0:0:0:0:
493,167,30857,1,8,0:1:0:0:
327,181,31028,1,0,0:0:0:0:
398,30,31200,1,2,0:0:0:0:
414,222,31371,6,0,L|419:287,1,64,2|0,0:0|3:0,0:0:0:0:
327,181,31714,2,0,L|322:116,1,64,2|2,0:0|0:0,0:0:0:0:
414,222,32057,1,0,0:0:0:0:
335,277,32228,1,8,0:1:0:0:
406,126,32400,1,0,0:0:0:0:
335,277,32571,2,0,P|303:274|274:261,1,64,0|0,0:0|0:0,0:0:0:0:
190,187,32914,6,0,L|201:314,1,128,0|0,3:0|3:0,0:0:0:0:
424,242,33600,2,0,L|413:115,1,128,8|2,0:1|0:0,0:0:0:0:
279,152,34114,6,0,P|308:164|339:167,1,64,2|0,0:0|3:0,0:0:0:0:
286,55,34457,2,0,P|254:58|225:71,1,64,2|0,0:0|0:0,0:0:0:0:
170,174,34800,1,2,0:0:0:0:
274,216,34971,2,0,L|279:151,1,64,8|0,0:1|0:0,0:0:0:0:
170,174,35314,1,2,0:0:0:0:
266,312,35485,1,0,0:0:0:0:
59,268,35657,6,0,L|155:260,1,95.9999970703126,0|0,3:0|0:0,0:0:0:0:
187,258,36000,1,2,0:0:0:0:
266,312,36171,1,0,0:0:0:0:
186,365,36342,1,8,0:1:0:0:
274,216,36514,1,0,0:0:0:0:
345,366,36685,1,2,0:0:0:0:
187,258,36857,6,0,P|178:226|180:195,1,64,0|0,0:0|3:0,0:0:0:0:
288,60,37200,2,0,P|297:92|295:123,1,64,0|0,0:0|3:0,0:0:0:0:
274,216,37542,1,0,0:0:0:0:
201,102,37714,1,8,0:1:0:0:
365,188,37885,1,0,0:0:0:0:
209,287,38057,1,2,0:0:0:0:
295,122,38228,1,0,0:0:0:0:
344,282,38400,6,0,P|363:307|391:323,1,64,4|0,0:2|0:0,0:0:0:0:
490,273,38742,1,2,0:3:0:0:
428,183,38914,2,0,P|397:180|366:188,1,64,8|8,0:3|0:3,0:0:0:0:
317,339,39257,2,0,P|335:313|343:282,1,64,0|0,0:0|0:0,0:0:0:0:
238,164,39600,2,0,P|251:192|274:216,1,64,0|2,0:0|0:3,0:0:0:0:
317,95,39942,5,0,0:0:0:0:
166,148,40114,1,8,0:0:0:0:
274,216,40285,1,8,0:3:0:0:
209,27,40457,1,10,0:3:0:0:
209,27,40800,5,2,0:0:0:0:
274,216,40971,1,2,0:0:0:0:
90,186,41142,6,0,P|81:156|84:124,1,64,2|0,0:3|0:0,0:0:0:0:
209,27,41485,1,0,0:0:0:0:
230,143,41657,2,0,L|165:148,1,64,8|10,0:3|0:3,0:0:0:0:
63,7,42000,2,0,L|128:2,1,64,2|0,0:0|0:0,0:0:0:0:
84,124,42342,2,0,L|19:119,1,64,2|2,0:0|0:3,0:0:0:0:
146,76,42685,5,2,0:0:0:0:
120,207,42857,1,2,0:0:0:0:
20,119,43028,1,2,0:3:0:0:
166,148,43200,2,0,P|187:173|194:204,1,64,2|2,0:0|0:0,0:0:0:0:
47,255,43542,2,0,L|42:190,1,64,2|2,0:3|0:0,0:0:0:0:
158,339,43885,6,0,L|163:274,1,64,4|2,3:2|0:0,0:0:0:0:
125,143,44228,2,0,L|120:208,1,64,2|8,0:3|0:3,0:0:0:0:
238,332,44571,2,0,L|243:267,1,64,8|0,0:3|0:0,0:0:0:0:
252,140,44914,1,0,0:0:0:0:
120,207,45085,6,0,P|151:210|182:202,1,64,2|2,0:0|0:3,0:0:0:0:
136,22,45428,1,0,0:0:0:0:
145,134,45600,1,0,0:0:0:0:
237,71,45771,1,10,0:3:0:0:
44,85,45942,1,8,0:3:0:0:
44,85,46285,5,2,0:0:0:0:
153,245,46457,1,2,0:0:0:0:
237,71,46628,1,4,0:3:0:0:
229,63,47142,5,4,0:3:0:0:
233,67,47228,1,4,0:3:0:0:
237,71,47314,1,4,0:3:0:0:
153,245,47485,1,8,0:0:0:0:
118,54,47657,1,8,0:0:0:0:
257,187,47828,1,8,0:0:0:0:
67,163,48000,1,0,0:0:0:0:
59,155,48514,5,4,0:3:0:0:
63,159,48600,1,4,0:3:0:0:
67,163,48686,1,4,0:3:0:0:
257,187,48857,1,8,0:0:0:0:
150,270,49028,1,8,0:0:0:0:
174,80,49200,1,8,0:0:0:0:
380,203,49371,5,8,3:0:0:0:
242,363,49542,1,2,0:0:0:0:
262,135,49714,1,4,3:0:0:0:
370,317,49885,1,2,0:0:0:0:
390,89,50057,5,8,3:0:0:0:
252,249,50228,1,2,0:0:0:0:
272,21,50400,1,4,3:0:0:0:
380,203,50571,1,2,0:0:0:0:
131,196,50742,6,0,P|94:117|144:50,1,180.000006866455,4|0,3:2|0:0,0:0:0:0:
179,127,51085,6,0,L|-1:111,1,180.000006866455,4|0,3:2|0:0,0:0:0:0:
0,111,51428,5,4,0:0:0:0:
122,294,51600,2,0,P|156:248|132:197,1,120.000004577637,4|0,0:0|0:0,0:0:0:0:
53,368,51942,6,0,B|130:384|130:384|208:352|208:352|283:368,1,240.000009155274,12|0,3:2|0:0,0:0:0:0:
460,303,52457,6,0,P|388:252|314:290,1,180.000006866455,4|0,3:2|0:0,0:0:0:0:
283,368,52800,5,4,3:0:0:0:
283,368,53485,6,0,L|187:360,1,95.9999970703126,4|0,0:0|0:0,0:0:0:0:
122,230,53828,1,8,0:0:0:0:
231,192,54000,2,0,P|238:241|224:284,1,95.9999970703126,2|0,0:0|1:0,0:0:0:0:
143,116,54342,2,0,P|181:85|226:76,1,95.9999970703126,2|8,0:0|0:0,0:0:0:0:
122,230,54685,2,0,P|76:211|45:177,1,95.9999970703126,8|0,0:3|1:0,0:0:0:0:
226,76,55028,5,2,0:0:0:0:
224,285,55200,1,8,0:0:0:0:
45,177,55371,1,2,0:0:0:0:
307,204,55542,5,8,0:3:0:0:
329,237,55628,1,8,0:3:0:0:
340,275,55714,1,8,0:3:0:0:
336,315,55800,1,8,0:3:0:0:
320,351,55885,5,8,0:3:0:0:
353,329,55971,1,8,0:3:0:0:
391,318,56057,1,8,0:3:0:0:
431,322,56142,1,8,0:3:0:0:
467,338,56228,6,0,L|475:242,1,95.9999970703126,0|2,1:0|0:0,0:0:0:0:
486,98,56571,1,8,0:0:0:0:
304,156,56742,2,0,L|400:164,1,95.9999970703126,2|0,0:0|1:0,0:0:0:0:
281,82,57085,1,8,0:0:0:0:
270,226,57257,1,8,0:0:0:0:
400,164,57428,1,8,0:3:0:0:
208,148,57600,5,0,1:0:0:0:
242,327,57771,1,2,0:0:0:0:
201,111,57942,1,8,0:0:0:0:
400,164,58114,1,2,0:0:0:0:
194,74,58285,5,8,0:3:0:0:
159,92,58371,1,8,0:3:0:0:
137,125,58457,1,8,0:3:0:0:
135,164,58542,1,8,0:3:0:0:
153,199,58628,5,8,0:3:0:0:
171,234,58714,1,8,0:3:0:0:
169,273,58800,1,8,0:3:0:0:
147,306,58885,1,8,0:3:0:0:
112,324,58971,6,0,L|16:316,1,95.9999970703126,0|8,1:0|0:3,0:0:0:0:
208,148,59314,2,0,L|304:156,1,95.9999970703126,8|2,0:0|0:0,0:0:0:0:
98,250,59657,2,0,P|69:212|59:165,1,95.9999970703126,2|2,0:0|0:0,0:0:0:0:
208,148,60000,1,2,0:0:0:0:
197,286,60171,2,0,L|189:382,1,95.9999970703126,8|0,0:3|1:0,0:0:0:0:
98,250,60514,5,2,0:0:0:0:
269,227,60685,1,8,0:0:0:0:
112,324,60857,1,2,0:0:0:0:
255,153,61028,5,8,0:3:0:0:
295,156,61114,1,8,0:3:0:0:
327,179,61200,1,8,0:3:0:0:
343,215,61285,1,8,0:3:0:0:
339,255,61371,5,8,0:3:0:0:
299,253,61457,1,8,0:3:0:0:
269,227,61542,1,8,0:3:0:0:
290,193,61628,1,8,0:3:0:0:
327,179,61714,6,0,L|423:187,1,95.9999970703126,0|8,1:0|0:3,0:0:0:0:
264,84,62057,1,8,0:0:0:0:
203,245,62228,2,0,L|299:253,1,95.9999970703126,2|0,0:0|1:0,0:0:0:0:
137,168,62571,1,8,0:0:0:0:
171,329,62742,1,8,0:0:0:0:
233,176,62914,1,8,0:3:0:0:
60,233,63085,5,0,1:0:0:0:
299,253,63257,1,2,0:0:0:0:
117,96,63428,1,8,0:0:0:0:
171,329,63600,1,2,0:0:0:0:
266,109,63771,5,8,0:3:0:0:
227,102,63857,1,8,0:3:0:0:
190,116,63942,1,8,0:3:0:0:
165,147,64028,1,8,0:3:0:0:
159,187,64114,5,8,0:3:0:0:
175,224,64200,1,8,0:3:0:0:
207,247,64285,1,8,0:3:0:0:
247,250,64371,1,8,0:3:0:0:
283,232,64457,6,0,L|275:328,1,95.9999970703126,0|0,0:0|0:0,0:0:0:0:
377,191,64800,2,0,L|369:287,1,95.9999970703126,8|0,0:0|0:0,0:0:0:0:
233,176,65142,1,8,0:0:0:0:
385,95,65314,1,8,0:0:0:0:
369,286,65485,1,0,0:0:0:0:
274,82,65657,1,8,0:3:0:0:
274,82,65742,1,8,0:3:0:0:
274,82,65828,6,0,L|178:90,1,95.9999970703126,8|0,0:3|0:0,0:0:0:0:
233,176,66171,2,0,L|137:184,1,95.9999970703126,8|0,0:0|0:0,0:0:0:0:
274,82,66514,1,8,0:0:0:0:
288,262,66685,1,0,0:0:0:0:
178,90,66857,1,0,0:0:0:0:
192,270,67028,1,8,0:3:0:0:
192,270,67114,1,8,0:3:0:0:
192,270,67200,6,0,L|200:366,1,95.9999970703126,8|0,0:3|0:0,0:0:0:0:
95,277,67542,1,8,0:0:0:0:
233,176,67714,1,8,0:3:0:0:
233,176,67800,1,8,0:3:0:0:
233,176,67885,6,0,L|225:80,1,95.9999970703126,8|0,0:3|0:0,0:0:0:0:
137,184,68228,1,8,0:0:0:0:
346,270,68400,1,0,0:0:0:0:
346,270,68485,1,0,0:0:0:0:
346,270,68571,5,4,0:0:0:0:
225,80,68742,1,0,0:0:0:0:
252,312,68914,1,12,0:0:0:0:
319,38,69085,1,0,0:0:0:0:
137,184,69257,5,8,0:3:0:0:
434,166,69428,1,8,0:3:0:0:
109,172,69600,5,8,0:0:0:0:
346,270,69771,1,0,0:0:0:0:
81,160,69942,6,0,P|66:114|73:67,1,95.9999970703126,4|0,0:0|0:0,0:0:0:0:
220,102,70285,1,0,0:0:0:0:
65,261,70457,1,8,0:3:0:0:
65,261,70542,1,8,0:3:0:0:
65,261,70628,1,8,0:3:0:0:
305,241,70800,1,8,0:3:0:0:
193,345,70971,1,8,0:3:0:0:
189,297,71057,1,8,0:3:0:0:
185,249,71142,1,8,0:3:0:0:
181,201,71228,1,8,0:3:0:0:
177,153,71314,5,4,1:0:0:0:
173,105,71657,2,0,L|165:9,1,95.9999970703126,4|0,1:0|0:0,0:0:0:0:
269,97,72000,1,8,0:3:0:0:
181,201,72171,1,8,0:3:0:0:
181,201,72257,1,8,0:3:0:0:
181,201,72342,2,0,L|133:197,1,47.9999985351563,8|8,0:3|0:3,0:0:0:0:
77,113,72514,2,0,L|29:117,1,47.9999985351563,8|8,0:3|0:3,0:0:0:0:
109,290,72685,6,0,L|189:297,1,80,4|0,0:3|0:0,0:0:0:0:
133,197,73028,1,0,0:0:0:0:
32,246,73200,1,4,0:3:0:0:
32,246,73285,1,4,0:3:0:0:
32,246,73371,2,0,P|21:284|26:323,1,80,12|0,0:3|0:0,0:0:0:0:
133,197,73714,1,0,0:0:0:0:
29,116,73885,1,0,0:0:0:0:
29,116,73971,1,0,0:0:0:0:
29,116,74057,5,0,0:0:0:0:
109,290,74228,1,8,0:0:0:0:
106,72,74400,1,8,0:0:0:0:
32,246,74571,1,8,0:0:0:0:
183,120,74742,6,0,L|186:94,4,26.6666666666667,10|2|2|2|2,0:0|0:0|0:0|0:0|0:0,0:0:0:0:
265,115,75085,2,0,L|268:89,4,26.6666666666667,10|2|2|2|2,0:0|0:0|0:0|0:0|0:0,0:0:0:0:
347,111,75428,6,0,L|355:15,1,95.9999970703126,4|0,1:0|0:0,0:0:0:0:
387,199,75771,2,0,P|340:207|295:193,1,95.9999970703126,8|2,0:0|0:0,0:0:0:0:
443,120,76114,1,0,1:0:0:0:
429,287,76285,2,0,L|421:383,1,95.9999970703126,8|8,0:3|0:0,0:0:0:0:
295,193,76628,1,2,0:0:0:0:
295,193,76800,6,0,L|303:289,1,95.9999970703126,0|8,1:0|0:0,0:0:0:0:
347,111,77142,1,8,0:0:0:0:
200,213,77314,1,0,0:0:0:0:
392,197,77485,1,0,1:0:0:0:
229,121,77657,1,2,0:1:0:0:
193,117,77742,1,0,0:0:0:0:
158,126,77828,1,2,0:1:0:0:
129,148,77914,1,0,0:0:0:0:
110,179,78000,1,8,0:3:0:0:
104,214,78085,1,8,0:3:0:0:
111,250,78171,6,0,L|15:242,1,95.9999970703126,0|2,1:0|0:0,0:0:0:0:
229,121,78514,2,0,L|325:129,1,95.9999970703126,8|2,0:0|0:0,0:0:0:0:
256,320,78857,1,0,1:0:0:0:
111,250,79028,1,8,0:0:0:0:
208,192,79200,1,8,0:0:0:0:
159,378,79371,1,8,0:3:0:0:
304,192,79542,5,0,1:0:0:0:
353,378,79714,1,2,0:0:0:0:
401,250,79885,1,8,0:0:0:0:
256,320,80057,1,2,0:0:0:0:
487,355,80228,1,8,0:3:0:0:
490,319,80314,1,8,0:3:0:0:
493,283,80400,1,8,0:3:0:0:
496,247,80485,1,8,0:3:0:0:
499,211,80571,2,0,L|503:163,1,47.9999985351563,8|8,0:3|0:3,0:0:0:0:
418,163,80742,2,0,L|422:115,1,47.9999985351563,8|8,0:3|0:3,0:0:0:0:
337,115,80914,6,0,L|345:19,1,95.9999970703126,4|0,1:0|0:0,0:0:0:0:
241,133,81257,2,0,L|249:37,1,95.9999970703126,8|2,0:0|0:0,0:0:0:0:
337,115,81600,1,0,0:0:0:0:
145,151,81771,2,0,L|153:55,1,95.9999970703126,8|8,0:3|0:0,0:0:0:0:
337,115,82114,1,2,0:0:0:0:
337,115,82285,6,0,L|329:211,1,95.9999970703126,0|2,1:0|0:0,0:0:0:0:
345,19,82628,1,8,0:0:0:0:
241,133,82800,1,8,0:0:0:0:
433,97,82971,1,0,1:0:0:0:
249,37,83142,1,2,0:1:0:0:
227,65,83228,1,0,0:0:0:0:
224,101,83314,1,2,0:1:0:0:
241,133,83400,1,0,0:0:0:0:
274,146,83485,1,8,0:3:0:0:
309,138,83571,1,8,0:3:0:0:
337,115,83657,6,0,L|329:211,1,95.9999970703126,0|0,1:0|0:0,0:0:0:0:
175,269,84000,2,0,L|183:173,1,95.9999970703126,8|2,0:0|0:0,0:0:0:0:
225,351,84342,1,0,1:0:0:0:
86,232,84514,1,8,0:0:0:0:
269,247,84685,1,8,0:0:0:0:
112,342,84857,1,8,0:3:0:0:
183,173,85028,5,0,1:0:0:0:
302,321,85200,1,2,0:0:0:0:
252,140,85371,1,8,0:0:0:0:
225,351,85542,1,2,0:0:0:0:
321,107,85714,1,8,0:3:0:0:
299,79,85800,1,8,0:3:0:0:
266,64,85885,1,8,0:3:0:0:
230,65,85971,1,8,0:3:0:0:
199,83,86057,2,0,L|195:131,1,47.9999985351563,2|0,0:0|0:0,0:0:0:0:
117,203,86228,2,0,L|113:155,1,47.9999985351563,2|0,0:0|0:0,0:0:0:0:
256,192,86400,5,4,3:2:0:0:
233,275,86571,1,0,0:0:0:0:
195,131,86742,1,10,0:0:0:0:
339,169,86914,1,2,0:0:0:0:
339,169,87000,1,2,0:0:0:0:
339,169,87085,5,2,0:0:0:0:
201,284,87257,1,0,0:0:0:0:
202,98,87428,1,10,0:0:0:0:
363,191,87600,1,2,0:0:0:0:
363,191,87686,1,2,0:0:0:0:
363,191,87771,5,2,0:0:0:0:
163,282,87942,1,0,0:0:0:0:
222,67,88113,1,10,0:0:0:0:
381,224,88285,1,2,0:0:0:0:
381,224,88371,1,2,0:0:0:0:
381,224,88456,5,2,0:0:0:0:
124,266,88628,1,2,0:0:0:0:
256,41,88800,1,2,0:0:0:0:
387,266,88971,1,2,0:0:0:0:
387,266,89057,1,2,0:0:0:0:
387,266,89142,6,0,L|391:314,9,47.9999985351563,4|2|2|2|2|2|2|2|2|2,3:0|0:0|0:0|0:0|0:0|0:0|0:0|0:0|0:0|0:0,0:0:0:0:
436,185,90000,6,0,P|377:170|324:195,1,120.000004577637,4|8,0:3|0:3,0:0:0:0:
235,272,90342,2,0,P|334:297|326:194,1,240.000009155274,4|0,3:0|0:0,0:0:0:0:
256,192,90771,12,0,92657,0:0:0:0:
