osu file format v14

[General]
AudioFilename: audio.mp3
AudioLeadIn: 0
PreviewTime: 53400
Countdown: 0
SampleSet: Soft
StackLeniency: 0.4
Mode: 0
LetterboxInBreaks: 0
WidescreenStoryboard: 1

[Editor]
DistanceSpacing: 1.4
BeatDivisor: 4
GridSize: 16
TimelineZoom: 2.1

[Metadata]
Title:Oniichan, Motto!
TitleUnicode:お兄ちゃん、もっと!
Artist:Yakushi Ruri
ArtistUnicode:薬師るり
Creator:Karen
Version:Hard
Source:お兄ちゃん、キッスの準備はまだですか?エッチの準備もまだですか?
Tags:Kencho KSHR onikissh tinkle position eroge
BeatmapID:1186397
BeatmapSetID:559860

[Difficulty]
HPDrainRate:5
CircleSize:4
OverallDifficulty:6
ApproachRate:7.5
SliderMultiplier:1.4
SliderTickRate:1

[Events]
//Background and Video events
0,0,"oniichan.jpg",0,0
//Break Periods
//Storyboard Layer 0 (Background)
//Storyboard Layer 1 (Fail)
//Storyboard Layer 2 (Pass)
//Storyboard Layer 3 (Foreground)
//Storyboard Sound Samples

[TimingPoints]
0,342.857142857143,4,2,1,70,1,0
0,-86.9565217391303,4,2,1,70,0,0
428,-86.9565217391303,4,2,1,5,0,0
514,-86.9565217391303,4,2,1,70,0,0
942,-86.9565217391303,4,2,1,5,0,0
1028,-86.9565217391303,4,2,1,70,0,0
1457,-86.9565217391303,4,2,1,5,0,0
1542,-86.9565217391303,4,2,1,70,0,0
2400,-74.0740740740741,4,2,1,70,0,0
2742,-100,4,2,1,60,0,0
7542,-100,4,2,1,60,0,0
8228,-100,4,2,1,60,0,0
13028,-100,4,2,1,70,0,0
13714,-83.3333333333333,4,2,1,80,0,1
18514,-83.3333333333333,4,2,1,80,0,0
19200,-83.3333333333333,4,2,1,80,0,1
24514,-50,4,2,1,80,0,1
24771,-50,4,2,1,5,0,1
24857,-83.3333333333333,4,2,1,80,0,1
26314,-83.3333333333333,4,2,1,5,0,1
26400,-83.3333333333333,4,2,1,80,0,1
26485,-83.3333333333333,4,2,1,5,0,1
26571,-83.3333333333333,4,2,1,80,0,1
26657,-83.3333333333333,4,2,1,5,0,1
26742,-83.3333333333333,4,2,1,80,0,1
27342,-83.3333333333333,4,2,1,5,0,1
27428,-125,4,2,1,50,0,0
46628,-125,4,2,1,60,0,0
49371,-125,4,2,1,70,0,0
50742,-125,4,2,1,80,0,0
51000,-125,4,2,1,5,0,0
51085,-125,4,2,1,80,0,0
51342,-125,4,2,1,5,0,0
51428,-125,4,2,1,80,0,0
51514,-125,4,2,1,5,0,0
51600,-125,4,2,1,80,0,0
52285,-125,4,2,1,5,0,0
52457,-125,4,2,1,80,0,0
52714,-125,4,2,1,5,0,0
52800,-125,4,2,1,80,0,0
53485,-83.3333333333333,4,2,1,80,0,1
64457,-125,4,2,1,60,0,0
68571,-100,4,2,1,80,0,1
69857,-100,4,2,1,5,0,1
69942,-125,4,2,1,70,0,0
75428,-83.3333333333333,4,2,1,80,0,1
80228,-83.3333333333333,4,2,1,80,0,0
80914,-83.3333333333333,4,2,1,80,0,1
86400,-83.3333333333333,4,2,1,70,0,0
90000,-83.3333333333333,4,2,1,80,0,0

[Colours]
Combo1 : 255,255,0
Combo2 : 255,0,0
Combo3 : 117,186,255
Combo4 : 128,0,255

[HitObjects]
155,188,0,5,0,1:0:0:0:
155,188,171,1,8,0:0:0:0:
258,233,514,5,0,1:0:0:0:
258,233,685,1,8,0:0:0:0:
352,171,1028,5,0,1:0:0:0:
352,171,1200,1,8,0:0:0:0:
370,64,1542,5,0,1:0:0:0:
370,64,1714,2,0,L|269:78,1,80.5000015354157,8|0,0:0|0:0,0:0:0:0:
198,33,2057,2,0,P|125:20|66:108,1,161.000003070831,12|12,0:0|0:0,0:0:0:0:
68,77,2742,6,0,L|82:228,1,140,8|8,0:3|0:0,0:0:0:0:
123,300,3257,1,2,0:0:0:0:
123,300,3342,1,8,0:3:0:0:
123,300,3428,2,0,P|83:309|48:301,2,70,8|8|8,0:3|0:3|0:0,0:0:0:0:
180,238,3942,1,2,0:0:0:0:
214,366,4114,6,0,L|368:363,1,140,8|10,0:3|0:0,0:0:0:0:
436,345,4628,1,2,0:0:0:0:
462,264,4800,1,8,0:3:0:0:
462,264,4971,1,8,0:3:0:0:
367,214,5142,2,0,L|383:293,1,70,12|2,0:0|0:0,0:0:0:0:
448,171,5485,6,0,P|389:125|320:137,1,140,8|8,0:3|0:0,0:0:0:0:
284,205,6000,1,2,0:0:0:0:
284,205,6171,2,0,L|268:304,2,70,8|8|8,0:3|0:3|0:0,0:0:0:0:
271,76,6685,6,0,P|211:111|139:82,1,140,8|2,0:3|0:0,0:0:0:0:
79,40,7200,1,8,0:0:0:0:
79,40,7371,1,8,0:0:0:0:
70,182,7542,2,0,L|149:171,1,70,8|2,0:3|0:0,0:0:0:0:
126,255,7885,2,0,L|209:246,1,70,10|2,0:0|0:0,0:0:0:0:
267,162,8228,6,0,B|308:204|308:204|295:314,1,140,4|8,0:0|0:0,0:0:0:0:
244,347,8742,1,2,0:0:0:0:
244,347,8828,1,8,0:3:0:0:
244,347,8914,2,0,L|162:343,1,70,8|8,0:3|0:3,0:0:0:0:
96,367,9257,1,8,0:0:0:0:
96,367,9428,1,2,0:0:0:0:
21,293,9600,6,0,P|50:222|18:153,1,140,8|8,0:3|0:0,0:0:0:0:
75,94,10114,1,2,0:0:0:0:
75,94,10200,1,8,0:3:0:0:
75,94,10285,2,0,L|154:104,1,70,8|8,0:3|0:3,0:0:0:0:
182,177,10628,2,0,P|234:198|288:176,1,105,8|0,0:0|0:0,0:0:0:0:
309,155,10971,6,0,L|307:314,1,140,8|8,0:3|0:0,0:0:0:0:
380,356,11485,1,2,0:0:0:0:
380,356,11571,1,8,0:3:0:0:
380,356,11657,2,0,P|413:347|454:356,1,70,8|8,0:3|0:3,0:0:0:0:
463,272,12000,1,8,0:0:0:0:
390,229,12171,6,0,P|337:257|254:220,1,140,8|2,0:3|0:0,0:0:0:0:
233,153,12685,2,0,L|155:153,1,70,8|2,0:0|0:0,0:0:0:0:
90,195,13028,2,0,L|94:239,3,35,8|8|8|8,0:3|0:3|0:3|0:3,0:0:0:0:
120,262,13371,2,0,L|126:301,3,35,10|10|10|10,0:0|0:0|0:0|0:0,0:0:0:0:
97,339,13714,6,0,B|211:318|211:318|268:360,1,167.999994873047,4|8,1:0|0:0,0:0:0:0:
295,274,14228,2,0,P|290:225|303:187,1,83.9999974365235,8|0,0:3|1:0,0:0:0:0:
372,242,14571,1,8,0:0:0:0:
372,242,14742,1,8,0:0:0:0:
425,303,14914,6,0,L|425:122,1,167.999994873047,8|0,0:3|0:0,0:0:0:0:
462,59,15428,1,8,0:0:0:0:
392,11,15600,1,2,0:0:0:0:
354,85,15771,2,0,P|308:94|265:81,1,83.9999974365235,0|2,1:0|0:1,0:0:0:0:
217,21,16114,1,2,0:1:0:0:
153,104,16285,1,8,0:0:0:0:
153,104,16371,1,8,0:0:0:0:
153,104,16457,6,0,P|184:183|134:266,1,167.999994873047,0|8,1:0|0:0,0:0:0:0:
163,337,16971,2,0,L|70:331,1,83.9999974365235,2|0,0:0|1:0,0:0:0:0:
21,270,17314,1,8,0:0:0:0:
21,270,17485,1,8,0:0:0:0:
96,182,17657,6,0,L|276:190,1,167.999994873047,8|2,0:3|0:0,0:0:0:0:
316,254,18171,1,8,0:0:0:0:
399,244,18342,1,2,0:0:0:0:
482,230,18514,2,0,L|479:181,3,41.9999987182618,8|8|8|8,0:3|0:3|0:3|0:3,0:0:0:0:
465,154,18857,2,0,L|461:105,3,41.9999987182618,8|8|8|8,0:3|0:3|0:0|0:0,0:0:0:0:
471,71,19200,6,0,P|390:111|314:77,1,167.999994873047,4|8,1:0|0:0,0:0:0:0:
241,108,19714,2,0,L|251:197,1,83.9999974365235,8|0,0:3|1:0,0:0:0:0:
326,228,20057,1,8,0:0:0:0:
326,228,20228,1,8,0:0:0:0:
237,305,20400,6,0,P|239:229|157:176,1,167.999994873047,8|0,0:3|0:0,0:0:0:0:
108,233,20914,1,8,0:0:0:0:
42,180,21085,1,2,0:0:0:0:
42,180,21257,2,0,L|34:93,1,83.9999974365235,0|2,1:0|0:1,0:0:0:0:
75,22,21600,1,2,0:1:0:0:
146,86,21771,1,8,0:0:0:0:
146,86,21857,1,8,0:0:0:0:
146,86,21942,6,0,P|218:126|294:88,1,167.999994873047,0|8,1:0|0:0,0:0:0:0:
363,50,22457,2,0,L|359:146,1,83.9999974365235,2|0,0:0|1:0,0:0:0:0:
429,192,22800,1,8,0:0:0:0:
429,192,22971,1,8,0:0:0:0:
357,237,23142,6,0,P|431:230|480:320,1,167.999994873047,8|2,0:3|0:0,0:0:0:0:
430,367,23657,2,0,L|332:366,1,83.9999974365235,8|2,0:0|0:0,0:0:0:0:
285,307,24000,2,0,L|251:280,3,41.9999987182618,8|8|8|8,0:3|0:3|0:3|0:3,0:0:0:0:
214,262,24342,2,0,L|167:270,2,41.9999987182618,8|0|4,0:3|0:0|1:0,0:0:0:0:
233,130,24857,5,8,0:0:0:0:
310,162,25028,1,8,0:0:0:0:
384,122,25200,1,8,0:0:0:0:
396,39,25371,2,0,L|339:24,3,41.9999987182618,8|8|8|8,0:3|0:3|0:3|0:3,0:0:0:0:
313,31,25714,2,0,L|252:15,3,41.9999987182618,10|10|10|10,0:0|0:0|0:0|0:0,0:0:0:0:
233,130,26228,5,2,0:1:0:0:
310,162,26400,1,2,0:1:0:0:
384,122,26571,1,2,0:1:0:0:
396,39,26742,1,2,0:1:0:0:
396,39,27428,6,0,L|392:170,2,112,4|2|8,0:0|0:0|0:1,0:0:0:0:
484,166,28457,2,0,L|480:236,1,56,0|2,0:0|0:0,0:0:0:0:
444,291,28800,2,0,P|391:256|326:280,2,112,0|0|8,3:0|3:0|0:1,0:0:0:0:
305,365,29828,2,0,L|231:359,1,56,2|0,0:0|0:0,0:0:0:0:
205,298,30171,6,0,P|145:335|86:320,1,112,0|2,3:0|0:0,0:0:0:0:
54,271,30685,1,0,0:0:0:0:
54,271,30857,2,0,L|48:198,1,56,8|0,0:1|0:0,0:0:0:0:
97,153,31200,2,0,L|109:89,1,56,2|2,0:0|0:0,0:0:0:0:
161,41,31542,2,0,P|113:18|49:42,2,112,0|2|8,3:0|0:0|0:1,0:0:0:0:
204,113,32400,1,0,0:0:0:0:
204,113,32571,1,0,0:0:0:0:
204,113,32914,6,0,L|323:103,2,112,0|0|8,3:0|3:0|0:1,0:0:0:0:
105,236,33942,2,0,P|99:270|106:310,1,56,2|2,0:0|0:0,0:0:0:0:
155,347,34285,2,0,L|19:337,2,112,0|0|8,3:0|0:0|0:1,0:0:0:0:
287,257,35314,1,2,0:0:0:0:
287,257,35485,1,0,0:0:0:0:
339,315,35657,6,0,P|361:276|335:196,1,112,0|2,3:0|0:0,0:0:0:0:
289,161,36171,1,0,0:0:0:0:
289,161,36342,2,0,L|216:161,1,56,8|0,0:1|0:0,0:0:0:0:
163,98,36685,2,0,L|225:78,1,56,2|0,0:0|0:0,0:0:0:0:
274,27,37028,6,0,P|308:70|378:71,1,112,0|0,3:0|3:0,0:0:0:0:
419,23,37542,1,0,0:0:0:0:
419,23,37714,2,0,L|479:27,1,56,8|0,0:1|0:0,0:0:0:0:
512,94,38057,1,2,0:0:0:0:
512,94,38400,5,4,0:2:0:0:
480,165,38571,1,0,0:0:0:0:
501,240,38742,2,0,L|370:232,1,112,2|8,0:3|0:3,0:0:0:0:
327,282,39257,1,0,0:0:0:0:
327,282,39428,2,0,L|255:277,1,56,0|0,0:0|0:0,0:0:0:0:
219,218,39771,6,0,P|169:188|106:209,1,112,2|8,0:3|0:0,0:0:0:0:
65,256,40285,1,8,0:3:0:0:
65,256,40457,1,10,0:3:0:0:
65,256,40800,2,0,L|61:338,1,56,2|2,0:0|0:0,0:0:0:0:
116,367,41142,6,0,L|238:354,1,112,2|0,0:3|0:0,0:0:0:0:
303,377,41657,1,8,0:3:0:0:
303,377,41828,2,0,P|306:335|298:306,1,56,10|2,0:3|0:0,0:0:0:0:
254,261,42171,2,0,P|248:231|251:205,1,56,0|2,0:0|0:0,0:0:0:0:
305,148,42514,6,0,L|362:158,2,56,2|2|2,0:3|0:0|0:0,0:0:0:0:
267,79,43028,2,0,P|212:63|155:93,1,112,2|2,0:3|0:0,0:0:0:0:
125,152,43542,1,2,0:3:0:0:
125,152,43714,1,2,0:0:0:0:
83,60,43885,6,0,L|79:1,1,56,4|2,3:2|0:0,0:0:0:0:
3,26,44228,2,0,L|11:162,1,112,2|8,0:3|0:3,0:0:0:0:
58,199,44742,1,0,0:0:0:0:
58,199,44914,2,0,P|63:225|59:264,1,56,0|2,0:0|0:0,0:0:0:0:
14,317,45257,6,0,P|61:295|130:328,1,112,2|0,0:3|0:0,0:0:0:0:
159,377,45771,1,10,0:3:0:0:
159,377,45942,2,0,L|230:368,1,56,8|0,0:3|0:0,0:0:0:0:
271,316,46285,1,2,0:0:0:0:
271,316,46457,1,2,0:0:0:0:
330,366,46628,6,0,P|312:322|345:246,1,112,4|0,0:3|0:0,0:0:0:0:
414,260,47142,1,4,0:3:0:0:
414,260,47228,1,4,0:3:0:0:
414,260,47314,2,0,L|393:191,1,56,4|8,0:3|0:0,0:0:0:0:
451,149,47657,2,0,L|466:83,1,56,8|8,0:0|0:0,0:0:0:0:
422,27,48000,6,0,P|383:68|318:63,1,112,0|0,0:0|0:0,0:0:0:0:
269,18,48514,1,4,0:3:0:0:
269,18,48600,1,4,0:3:0:0:
269,18,48685,2,0,L|202:11,1,56,4|8,0:3|0:0,0:0:0:0:
181,84,49028,2,0,L|119:99,1,56,8|8,0:0|0:0,0:0:0:0:
74,39,49371,5,8,3:0:0:0:
74,39,49542,1,2,0:0:0:0:
6,80,49714,2,0,L|12:158,1,56,4|2,3:0|0:0,0:0:0:0:
85,173,50057,1,8,3:0:0:0:
85,173,50228,1,2,0:0:0:0:
22,221,50400,2,0,L|28:301,1,56,4|2,3:0|0:0,0:0:0:0:
84,329,50742,6,0,P|20:326|-31:374,2,112,4|4|4,3:2|3:2|0:0,0:0:0:0:
146,377,51600,2,0,L|214:371,1,56,4|0,0:0|0:0,0:0:0:0:
271,336,51942,2,0,P|293:277|269:215,1,112,12|0,3:2|0:0,0:0:0:0:
226,174,52457,2,0,L|355:179,1,112,4|4,3:2|3:0,0:0:0:0:
328,163,53485,6,0,B|319:50|319:50|370:-1,1,167.999994873047,4|8,0:0|0:0,0:0:0:0:
414,95,54000,2,0,L|421:185,1,83.9999974365235,2|0,0:0|1:0,0:0:0:0:
476,241,54342,2,0,L|483:330,1,83.9999974365235,2|8,0:0|0:0,0:0:0:0:
398,321,54685,6,0,P|320:300|251:368,1,167.999994873047,8|2,0:3|0:0,0:0:0:0:
172,338,55200,1,8,0:0:0:0:
172,338,55371,2,0,L|186:245,1,83.9999974365235,2|8,0:0|0:3,0:0:0:0:
137,184,55714,1,8,0:3:0:0:
127,100,55885,1,8,0:3:0:0:
181,35,56057,6,8,P|268:18|334:74,1,167.999994873047,8|10,0:3|0:0,0:0:0:0:
300,142,56571,1,8,0:0:0:0:
300,142,56742,2,0,L|311:237,1,83.9999974365235,2|0,0:0|1:0,0:0:0:0:
361,292,57085,1,8,0:0:0:0:
361,292,57257,2,0,P|318:313|275:306,1,83.9999974365235,8|8,0:0|0:3,0:0:0:0:
210,270,57600,6,0,L|113:271,1,83.9999974365235,0|2,1:0|0:0,0:0:0:0:
56,372,57942,2,0,L|147:357,1,83.9999974365235,8|2,0:0|0:0,0:0:0:0:
41,283,58285,2,0,P|16:194|86:115,1,167.999994873047,8|8,0:3|0:3,0:0:0:0:
128,170,58800,1,8,0:3:0:0:
197,123,58971,5,0,1:0:0:0:
242,205,59142,1,8,0:3:0:0:
242,205,59228,1,8,0:3:0:0:
242,205,59314,2,0,L|344:210,1,83.9999974365235,8|2,0:0|0:0,0:0:0:0:
404,178,59657,2,0,P|415:137|407:85,2,83.9999974365235,2|2|2,0:0|0:0|0:0,0:0:0:0:
373,279,60171,1,8,0:3:0:0:
373,279,60342,6,0,L|378:366,2,83.9999974365235,0|2|8,1:0|0:0|0:0,0:0:0:0:
325,209,60857,1,2,0:0:0:0:
255,161,61028,2,0,P|250:119|263:80,1,83.9999974365235,8|8,0:3|0:3,0:0:0:0:
319,11,61371,1,8,0:3:0:0:
319,11,61542,6,0,L|232:6,1,83.9999974365235,8|0,0:3|1:0,0:0:0:0:
170,59,61885,1,8,0:3:0:0:
170,59,62057,1,8,0:0:0:0:
89,34,62228,2,0,L|92:124,1,83.9999974365235,2|0,0:0|1:0,0:0:0:0:
37,182,62571,1,8,0:0:0:0:
37,182,62742,1,8,0:0:0:0:
67,260,62914,6,0,L|150:269,1,83.9999974365235,8|0,0:3|1:0,0:0:0:0:
227,236,63257,1,2,0:0:0:0:
227,236,63428,2,0,P|238:192|221:151,1,83.9999974365235,8|2,0:0|0:0,0:0:0:0:
146,125,63771,2,0,L|49:123,1,83.9999974365235,8|8,0:3|0:3,0:0:0:0:
11,16,64114,2,0,L|104:42,1,83.9999974365235,8|8,0:3|0:3,0:0:0:0:
201,10,64457,6,0,P|253:-2|319:37,2,112,0|8|8,0:0|0:0|0:0,0:0:0:0:
250,80,65314,1,8,0:0:0:0:
250,80,65485,1,0,0:0:0:0:
214,151,65657,1,8,0:3:0:0:
214,151,65742,1,8,0:3:0:0:
214,151,65828,6,0,L|221:277,2,112,8|8|8,0:3|0:0|0:0,0:0:0:0:
250,80,66685,1,0,0:0:0:0:
320,115,66857,1,0,0:0:0:0:
387,70,67028,1,8,0:3:0:0:
387,70,67114,1,8,0:3:0:0:
387,70,67200,6,0,L|467:62,1,56,8|0,0:3|0:0,0:0:0:0:
495,122,67542,1,8,0:0:0:0:
455,192,67714,1,8,0:3:0:0:
455,192,67800,1,8,0:3:0:0:
455,192,67885,1,8,0:3:0:0:
476,273,68057,1,0,0:0:0:0:
476,273,68228,2,0,L|404:271,1,56,8|0,0:0|0:0,0:0:0:0:
328,307,68571,6,0,P|384:303|431:394,2,140,4|12|8,0:0|0:0|0:3,0:0:0:0:
267,365,69428,1,8,0:3:0:0:
267,365,69600,2,0,L|187:356,1,70,8|0,0:0|0:0,0:0:0:0:
119,266,69942,6,0,B|90:316|90:316|99:380,1,112,4|0,0:0|0:0,0:0:0:0:
19,354,70457,2,0,L|7:282,1,56,8|8,0:3|0:3,0:0:0:0:
43,227,70800,1,8,0:3:0:0:
32,149,70971,2,0,L|25:100,3,28,8|8|8|8,0:3|0:3|0:3|0:3,0:0:0:0:
8,76,71314,5,4,1:0:0:0:
8,76,71657,1,4,1:0:0:0:
8,76,72000,2,0,P|63:61|127:85,1,112,8|8,0:3|0:3,0:0:0:0:
208,201,72685,6,0,L|219:69,1,112,4|0,0:3|0:0,0:0:0:0:
274,34,73200,1,4,0:3:0:0:
274,34,73285,1,4,0:3:0:0:
274,34,73371,1,12,0:3:0:0:
274,34,74228,5,8,0:0:0:0:
274,34,74400,1,8,0:0:0:0:
274,34,74571,1,8,0:0:0:0:
245,107,74742,2,0,L|254:144,3,28,10|0|2|0,0:0|0:0|0:0|0:0,0:0:0:0:
261,172,75085,2,0,L|341:176,1,56,10|2,0:0|0:0,0:0:0:0:
450,121,75428,6,0,B|412:170|412:170|421:298,1,167.999994873047,4|8,1:0|0:0,0:0:0:0:
454,352,75942,2,0,L|363:351,1,83.9999974365235,2|0,0:0|1:0,0:0:0:0:
312,289,76285,1,8,0:3:0:0:
312,289,76457,1,8,0:0:0:0:
264,358,76628,6,0,P|286:273|226:199,1,167.999994873047,2|8,0:0|0:0,0:0:0:0:
161,222,77142,1,8,0:0:0:0:
180,139,77314,1,0,0:0:0:0:
180,139,77485,2,0,L|84:129,1,83.9999974365235,0|2,1:0|0:1,0:0:0:0:
27,179,77828,1,2,0:1:0:0:
58,267,78000,1,8,0:3:0:0:
58,267,78085,1,8,0:3:0:0:
58,267,78171,6,0,L|61:357,1,83.9999974365235,0|2,1:0|0:0,0:0:0:0:
138,367,78514,1,8,0:0:0:0:
138,367,78685,2,0,L|136:278,1,83.9999974365235,2|0,0:0|1:0,0:0:0:0:
123,199,79028,1,8,0:0:0:0:
123,199,79200,1,8,0:0:0:0:
49,96,79371,6,0,P|115:154|188:138,1,167.999994873047,8|2,0:3|0:0,0:0:0:0:
201,223,79885,2,0,L|289:224,1,83.9999974365235,8|2,0:0|0:0,0:0:0:0:
368,236,80228,2,0,L|374:182,3,41.9999987182618,8|8|8|8,0:3|0:3|0:3|0:3,0:0:0:0:
406,169,80571,2,0,L|454:152,3,41.9999987182618,8|8|8|8,0:3|0:3|0:3|0:3,0:0:0:0:
476,126,80914,6,0,P|467:35|395:5,1,167.999994873047,4|8,1:0|0:0,0:0:0:0:
402,88,81428,2,0,L|305:86,1,83.9999974365235,2|0,0:0|0:0,0:0:0:0:
252,32,81771,1,8,0:3:0:0:
252,32,81942,1,8,0:0:0:0:
195,94,82114,6,0,P|118:125|37:65,1,167.999994873047,2|2,0:0|0:0,0:0:0:0:
123,48,82628,1,8,0:0:0:0:
77,161,82800,1,8,0:0:0:0:
77,161,82971,2,0,L|77:257,1,83.9999974365235,0|2,1:0|0:1,0:0:0:0:
27,313,83314,1,2,0:1:0:0:
100,373,83485,1,8,0:3:0:0:
100,373,83571,1,8,0:3:0:0:
100,373,83657,6,0,P|173:334|268:369,1,167.999994873047,0|8,1:0|0:0,0:0:0:0:
333,374,84171,2,0,L|316:268,1,83.9999974365235,2|0,0:0|1:0,0:0:0:0:
410,286,84514,2,0,L|427:191,1,83.9999974365235,8|8,0:0|0:0,0:0:0:0:
304,118,84857,6,0,P|268:177|164:180,1,167.999994873047,8|2,0:3|0:0,0:0:0:0:
99,151,85371,2,0,L|108:243,1,83.9999974365235,8|2,0:0|0:0,0:0:0:0:
218,113,85714,2,0,L|214:72,3,41.9999987182618,8|8|8|8,0:3|0:3|0:3|0:3,0:0:0:0:
230,32,86057,2,0,P|273:23|326:40,1,83.9999974365235,2|2,0:0|0:0,0:0:0:0:
376,84,86400,6,0,L|365:176,1,83.9999974365235,4|0,3:2|0:0,0:0:0:0:
418,232,86742,1,10,0:0:0:0:
395,317,86914,1,2,0:0:0:0:
395,317,87000,1,2,0:0:0:0:
395,317,87085,2,0,L|297:312,1,83.9999974365235,2|0,0:0|0:0,0:0:0:0:
256,252,87428,1,10,0:0:0:0:
183,294,87600,1,2,0:0:0:0:
183,294,87685,1,2,0:0:0:0:
183,294,87771,6,0,P|176:235|194:198,1,83.9999974365235,2|0,0:0|0:0,0:0:0:0:
246,156,88114,1,10,0:0:0:0:
220,76,88285,1,2,0:0:0:0:
220,76,88371,1,2,0:0:0:0:
220,76,88457,2,0,L|133:81,1,83.9999974365235,2|2,0:0|0:0,0:0:0:0:
62,39,88800,1,2,0:0:0:0:
6,101,88971,1,2,0:0:0:0:
6,101,89057,1,2,0:0:0:0:
6,101,89142,6,0,L|13:152,9,41.9999987182618,4|2|2|2|2|2|2|2|2|2,3:0|0:0|0:0|0:0|0:0|0:0|0:0|0:0|0:0|0:0,0:0:0:0:
42,170,90000,2,0,P|56:222|44:259,1,83.9999974365235,4|8,3:0|0:3,0:0:0:0:
6,322,90342,1,4,3:0:0:0:
