osu file format v14

[General]
AudioFilename: audio.mp3
AudioLeadIn: 0
PreviewTime: 53400
Countdown: 0
SampleSet: Soft
StackLeniency: 0.4
Mode: 0
LetterboxInBreaks: 0
WidescreenStoryboard: 0

[Editor]
DistanceSpacing: 0.9
BeatDivisor: 4
GridSize: 16
TimelineZoom: 2.1

[Metadata]
Title:Oniichan, Motto!
TitleUnicode:お兄ちゃん、もっと!
Artist:Yakushi Ruri
ArtistUnicode:薬師るり
Creator:Karen
Version:Expert
Source:お兄ちゃん、キッスの準備はまだですか?エッチの準備もまだですか?
Tags:Kencho KSHR onikissh tinkle position eroge
BeatmapID:1183974
BeatmapSetID:559860

[Difficulty]
HPDrainRate:5.5
CircleSize:3
OverallDifficulty:8
ApproachRate:9.3
SliderMultiplier:1.9
SliderTickRate:1

[Events]
//Background and Video events
0,0,"oniichan.jpg",0,0
//Break Periods
//Storyboard Layer 0 (Background)
//Storyboard Layer 1 (Fail)
//Storyboard Layer 2 (Pass)
//Storyboard Layer 3 (Foreground)
//Storyboard Sound Samples

[TimingPoints]
0,342.857142857143,4,2,1,70,1,0
0,-86.9565217391303,4,2,1,70,0,0
428,-86.9565217391303,4,2,1,5,0,0
514,-86.9565217391303,4,2,1,70,0,0
942,-86.9565217391303,4,2,1,5,0,0
1028,-86.9565217391303,4,2,1,70,0,0
1457,-86.9565217391303,4,2,1,5,0,0
1542,-86.9565217391303,4,2,1,70,0,0
2400,-74.0740740740741,4,2,1,70,0,0
2742,-100,4,2,1,60,0,0
7542,-100,4,2,1,60,0,0
8228,-100,4,2,1,60,0,0
13028,-100,4,2,1,70,0,0
13714,-83.3333333333333,4,2,1,80,0,1
18514,-83.3333333333333,4,2,1,80,0,0
19200,-83.3333333333333,4,2,1,80,0,1
24514,-50,4,2,1,80,0,1
24771,-50,4,2,1,5,0,1
24857,-83.3333333333333,4,2,1,80,0,1
26314,-83.3333333333333,4,2,1,5,0,1
26400,-83.3333333333333,4,2,1,80,0,1
26485,-83.3333333333333,4,2,1,5,0,1
26571,-83.3333333333333,4,2,1,80,0,1
26657,-83.3333333333333,4,2,1,5,0,1
26742,-83.3333333333333,4,2,1,80,0,1
27342,-83.3333333333333,4,2,1,5,0,1
27428,-125,4,2,1,50,0,0
46628,-125,4,2,1,60,0,0
49371,-125,4,2,1,70,0,0
50742,-66.6666666666667,4,2,1,80,0,0
51000,-66.6666666666667,4,2,1,5,0,0
51085,-66.6666666666667,4,2,1,80,0,0
51342,-66.6666666666667,4,2,1,5,0,0
51428,-66.6666666666667,4,2,1,80,0,0
51514,-66.6666666666667,4,2,1,5,0,0
51600,-66.6666666666667,4,2,1,80,0,0
52285,-66.6666666666667,4,2,1,5,0,0
52457,-66.6666666666667,4,2,1,80,0,0
52714,-66.6666666666667,4,2,1,5,0,0
52800,-66.6666666666667,4,2,1,80,0,0
53485,-83.3333333333333,4,2,1,80,0,1
64457,-125,4,2,1,60,0,0
68571,-62.5,4,2,1,80,0,1
69600,-71.4285714285714,4,2,1,80,0,1
69857,-71.4285714285714,4,2,1,5,0,0
69942,-125,4,2,1,70,0,0
74228,-83.3333333333333,4,2,1,70,0,0
75428,-83.3333333333333,4,2,1,80,0,1
80228,-83.3333333333333,4,2,1,80,0,0
80914,-83.3333333333333,4,2,1,80,0,1
86400,-83.3333333333333,4,2,1,70,0,0
90000,-62.5,4,2,1,80,0,0

[Colours]
Combo1 : 255,255,0
Combo2 : 255,0,0
Combo3 : 117,186,255
Combo4 : 128,0,255

[HitObjects]
183,109,0,5,0,1:0:0:0:
221,199,171,2,0,P|300:198|340:90,1,163.875003125668,8|0,0:0|0:0,0:0:0:0:
171,91,514,5,0,1:0:0:0:
221,199,685,2,0,P|297:177|307:62,1,163.875003125668,8|0,0:0|0:0,0:0:0:0:
159,75,1028,5,0,1:0:0:0:
221,199,1199,2,0,P|288:158|269:45,1,163.875003125668,8|0,0:0|0:0,0:0:0:0:
148,60,1542,5,0,1:0:0:0:
60,189,1714,2,0,L|84:319,1,109.250002083778,8|0,0:0|0:0,0:0:0:0:
215,362,2057,2,0,L|221:187,1,163.875003125668,12|0,0:0|0:0,0:0:0:0:
246,378,2400,6,0,L|254:167,1,192.375000733852,12|0,0:0|0:0,0:0:0:0:
215,50,2742,5,8,0:3:0:0:
251,80,2828,1,0,0:0:0:0:
297,90,2914,1,2,0:0:0:0:
341,73,3000,1,0,0:0:0:0:
371,37,3085,6,0,L|428:37,1,47.5,8|0,0:0|0:0,0:0:0:0:
447,149,3257,2,0,L|493:130,1,47.5,2|8,0:0|0:3,0:0:0:0:
355,178,3428,5,8,0:3:0:0:
343,214,3514,1,0,0:0:0:0:
350,251,3600,1,8,0:3:0:0:
370,282,3685,1,0,0:0:0:0:
402,302,3771,6,0,L|393:367,1,47.5,8|0,0:0|0:0,0:0:0:0:
511,300,3942,2,0,L|499:235,1,47.5,2|0,0:0|0:0,0:0:0:0:
343,214,4114,6,0,P|279:251|232:234,1,95,8|2,0:3|0:0,0:0:0:0:
105,212,4371,1,0,0:0:0:0:
105,212,4457,2,0,L|124:285,1,47.5,10|0,0:0|0:0,0:0:0:0:
186,364,4628,2,0,L|193:298,1,47.5,2|8,0:0|0:3,0:0:0:0:
198,184,4800,5,8,0:3:0:0:
189,147,4885,1,0,0:0:0:0:
180,109,4971,1,8,0:3:0:0:
170,71,5057,1,0,0:0:0:0:
158,35,5142,6,0,L|203:53,1,47.5,12|0,0:0|0:0,0:0:0:0:
40,127,5314,2,0,L|129:105,1,47.5,2|0,0:0|0:0,0:0:0:0:
279,138,5485,5,8,0:3:0:0:
325,147,5571,1,0,0:0:0:0:
370,131,5657,1,2,0:0:0:0:
397,92,5742,1,0,0:0:0:0:
392,28,5828,5,8,0:0:0:0:
422,51,5914,1,0,0:0:0:0:
450,76,6000,1,2,0:0:0:0:
478,100,6085,1,8,0:3:0:0:
508,123,6171,6,0,L|508:62,1,47.5,8|0,0:3|0:0,0:0:0:0:
442,200,6342,2,0,L|442:247,1,47.5,8|0,0:3|0:0,0:0:0:0:
478,100,6514,2,0,L|478:39,1,47.5,8|0,0:0|0:0,0:0:0:0:
469,223,6685,2,0,L|469:270,1,47.5,8|0,0:3|0:0,0:0:0:0:
495,376,6857,6,0,L|385:358,1,95,8|2,0:3|0:0,0:0:0:0:
252,253,7114,1,0,0:0:0:0:
252,253,7200,2,0,L|246:199,1,47.5,8|0,0:0|0:0,0:0:0:0:
368,151,7371,2,0,L|357:209,1,47.5,8|0,0:0|0:0,0:0:0:0:
294,364,7542,5,8,0:3:0:0:
240,342,7628,1,0,0:0:0:0:
182,338,7714,1,2,0:0:0:0:
127,355,7800,1,0,0:0:0:0:
70,373,7885,5,10,0:0:0:0:
81,346,7971,1,2,0:0:0:0:
84,317,8057,1,2,0:0:0:0:
71,291,8142,1,2,0:0:0:0:
34,243,8228,5,4,0:0:0:0:
80,253,8314,1,0,0:0:0:0:
121,229,8400,1,2,0:0:0:0:
140,186,8485,1,0,0:0:0:0:
138,138,8571,6,0,L|216:146,1,47.5,8|0,0:0|0:0,0:0:0:0:
267,24,8742,2,0,L|279:86,1,47.5,2|8,0:0|0:3,0:0:0:0:
259,214,8914,5,8,0:3:0:0:
245,249,9000,1,0,0:0:0:0:
247,286,9085,1,8,0:3:0:0:
261,321,9171,1,0,0:0:0:0:
291,344,9257,6,0,L|348:335,1,47.5,8|0,0:0|0:0,0:0:0:0:
433,371,9428,2,0,L|490:362,1,47.5,2|0,0:0|0:0,0:0:0:0:
414,176,9600,6,0,L|410:284,1,95,8|2,0:3|0:0,0:0:0:0:
508,122,9857,1,0,0:0:0:0:
508,122,9942,2,0,L|511:51,1,47.5,8|0,0:0|0:0,0:0:0:0:
398,0,10114,2,0,L|415:53,1,47.5,2|8,0:0|0:3,0:0:0:0:
314,148,10285,5,8,0:3:0:0:
277,136,10371,1,0,0:0:0:0:
239,139,10457,1,8,0:3:0:0:
206,157,10542,1,0,0:0:0:0:
183,187,10628,6,0,L|167:124,1,47.5,8|0,0:0|0:0,0:0:0:0:
266,15,10800,2,0,L|211:32,1,47.5,2|0,0:0|0:0,0:0:0:0:
66,59,10971,5,8,0:3:0:0:
84,102,11057,1,0,0:0:0:0:
82,149,11142,1,2,0:0:0:0:
55,188,11228,1,0,0:0:0:0:
69,246,11314,5,8,0:0:0:0:
57,282,11400,1,0,0:0:0:0:
64,318,11485,1,2,0:0:0:0:
93,342,11571,1,8,0:3:0:0:
130,346,11657,6,0,L|208:339,1,47.5,8|0,0:3|0:0,0:0:0:0:
263,195,11828,2,0,L|215:199,1,47.5,8|0,0:3|0:0,0:0:0:0:
277,354,12000,2,0,L|272:306,1,47.5,8|0,0:0|0:0,0:0:0:0:
114,191,12171,2,0,L|121:269,1,47.5,8|0,0:3|0:0,0:0:0:0:
350,242,12342,6,0,B|392:230|392:230|468:251,1,95,8|2,0:3|0:0,0:0:0:0:
512,123,12600,1,0,0:0:0:0:
512,123,12685,2,0,L|508:189,1,47.5,8|0,0:0|0:0,0:0:0:0:
397,384,12857,2,0,L|397:325,1,47.5,2|0,0:0|0:0,0:0:0:0:
350,138,13028,5,8,0:3:0:0:
294,72,13114,1,8,0:3:0:0:
208,71,13200,1,8,0:3:0:0:
156,138,13285,1,8,0:3:0:0:
137,113,13371,5,10,0:0:0:0:
202,39,13456,1,10,0:0:0:0:
302,39,13542,1,10,0:0:0:0:
369,112,13628,1,10,0:0:0:0:
288,175,13714,6,0,L|486:174,1,170.999994781494,4|0,1:0|0:0,0:0:0:0:
503,83,14057,1,8,0:0:0:0:
436,275,14228,1,8,0:3:0:0:
443,302,14314,1,8,0:3:0:0:
450,329,14400,2,0,L|323:327,1,113.999996520996,0|8,1:0|0:0,0:0:0:0:
93,305,14742,1,8,0:0:0:0:
226,362,14914,1,8,0:3:0:0:
226,362,15000,1,8,0:3:0:0:
226,362,15085,6,0,P|238:302|216:234,1,113.999996520996,0|0,1:0|0:0,0:0:0:0:
187,83,15342,1,0,0:0:0:0:
128,153,15428,2,0,P|180:172|246:155,1,113.999996520996,8|2,0:0|0:0,0:0:0:0:
401,59,15771,1,0,1:0:0:0:
401,59,15942,6,0,L|397:120,1,56.9999982604981,2|0,0:1|0:0,0:0:0:0:
373,17,16114,2,0,L|369:78,1,56.9999982604981,2|0,0:1|0:0,0:0:0:0:
322,213,16285,1,8,0:0:0:0:
363,294,16371,1,8,0:0:0:0:
408,372,16457,6,0,B|529:371|529:371|478:319,1,170.999994781494,0|0,1:0|0:0,0:0:0:0:
493,335,16800,1,8,0:0:0:0:
437,144,16971,1,2,0:0:0:0:
272,291,17142,1,0,1:0:0:0:
448,245,17314,1,8,0:0:0:0:
448,245,17485,1,8,0:0:0:0:
317,178,17657,1,8,0:3:0:0:
327,191,17742,1,8,0:3:0:0:
336,205,17828,5,0,1:0:0:0:
212,102,18000,1,2,0:0:0:0:
272,291,18171,1,8,0:0:0:0:
314,79,18342,1,2,0:0:0:0:
174,225,18514,1,8,0:3:0:0:
145,219,18600,1,8,0:3:0:0:
117,213,18685,1,8,0:3:0:0:
88,207,18771,1,8,0:3:0:0:
38,299,18857,5,8,0:3:0:0:
52,347,18942,1,8,0:3:0:0:
99,367,19028,1,8,0:0:0:0:
148,356,19113,1,8,0:0:0:0:
184,319,19200,6,0,L|189:139,1,170.999994781494,4|0,1:0|0:0,0:0:0:0:
162,57,19542,1,8,0:0:0:0:
351,61,19714,1,8,0:3:0:0:
360,75,19800,1,8,0:3:0:0:
369,88,19885,2,0,L|243:78,1,113.999996520996,0|8,1:0|0:0,0:0:0:0:
108,206,20228,1,8,0:0:0:0:
30,37,20400,1,8,0:3:0:0:
30,37,20485,1,8,0:3:0:0:
30,37,20571,6,0,P|48:88|26:162,1,113.999996520996,0|0,1:0|0:0,0:0:0:0:
81,299,20828,1,0,0:0:0:0:
25,368,20914,2,0,L|143:363,1,113.999996520996,8|2,0:0|0:0,0:0:0:0:
305,248,21257,1,0,1:0:0:0:
305,248,21428,6,0,L|290:181,1,56.9999982604981,2|0,0:1|0:0,0:0:0:0:
292,331,21600,2,0,L|277:264,1,56.9999982604981,2|0,0:1|0:0,0:0:0:0:
254,52,21771,1,8,0:0:0:0:
318,110,21857,1,8,0:0:0:0:
389,171,21942,6,0,B|388:42|388:42|395:64|412:100,1,170.999994781494,0|0,1:0|0:0,0:0:0:0:
489,26,22285,1,8,0:0:0:0:
455,244,22457,1,2,0:0:0:0:
403,81,22628,1,0,1:0:0:0:
450,347,22800,1,8,0:0:0:0:
450,347,22971,1,8,0:0:0:0:
495,122,23142,1,8,0:3:0:0:
490,138,23228,1,8,0:3:0:0:
485,154,23314,5,0,1:0:0:0:
310,68,23485,1,2,0:0:0:0:
366,289,23657,1,8,0:0:0:0:
421,40,23828,1,2,0:0:0:0:
270,237,24000,1,8,0:3:0:0:
293,221,24085,1,8,0:3:0:0:
317,207,24171,1,8,0:3:0:0:
341,193,24257,1,8,0:3:0:0:
365,178,24342,2,0,L|303:178,1,56.9999982604981,8|0,0:3|0:0,0:0:0:0:
460,288,24514,6,0,L|175:286,1,285,4|0,1:0|0:0,0:0:0:0:
40,283,24857,6,0,L|54:344,1,56.9999982604981,8|0,0:0|0:0,0:0:0:0:
63,194,25028,2,0,L|77:255,1,56.9999982604981,8|0,0:0|0:0,0:0:0:0:
83,103,25200,2,0,L|97:164,1,56.9999982604981,8|0,0:0|0:0,0:0:0:0:
52,338,25371,5,8,0:3:0:0:
75,249,25457,1,8,0:3:0:0:
95,158,25542,1,8,0:3:0:0:
115,71,25628,1,8,0:3:0:0:
103,12,25714,5,10,0:0:0:0:
83,103,25800,1,10,0:0:0:0:
63,194,25885,1,10,0:0:0:0:
40,283,25971,1,10,0:0:0:0:
40,282,26228,6,0,L|52:338,1,56.9999982604981,2|0,0:1|0:0,0:0:0:0:
175,305,26400,2,0,L|185:362,1,56.9999982604981,2|0,0:1|0:0,0:0:0:0:
310,321,26571,2,0,L|320:378,1,56.9999982604981,2|0,0:1|0:0,0:0:0:0:
238,221,26742,6,0,P|263:72|323:207,1,398.999987823487,2|0,0:1|0:0,0:0:0:0:
270,150,27428,5,4,0:0:0:0:
270,150,27771,2,0,L|177:137,1,76,2|0,0:0|0:0,0:0:0:0:
67,40,28114,2,0,B|33:87|33:87|56:200,1,152,8|0,0:1|0:0,0:0:0:0:
134,260,28628,1,2,0:0:0:0:
134,260,28800,6,0,P|81:234|-10:283,2,152,0|0|8,3:0|3:0|0:1,0:0:0:0:
288,372,29828,2,0,L|380:354,1,76,2|0,0:0|0:0,0:0:0:0:
235,295,30171,6,0,L|406:262,1,152,0|2,3:0|0:0,0:0:0:0:
475,334,30685,1,0,0:0:0:0:
357,174,30857,1,8,0:1:0:0:
357,174,31028,1,0,0:0:0:0:
383,364,31200,1,2,0:0:0:0:
512,205,31371,1,2,0:0:0:0:
475,334,31542,5,0,3:0:0:0:
449,121,31714,1,2,0:0:0:0:
384,266,31885,2,0,L|274:256,1,76,2|0,0:0|0:0,0:0:0:0:
206,68,32228,1,8,0:1:0:0:
357,174,32400,1,0,0:0:0:0:
206,68,32571,2,0,L|217:200,1,114
168,268,32914,5,0,3:0:0:0:
168,268,33257,1,0,3:0:0:0:
91,184,33428,1,0,0:0:0:0:
168,268,33600,2,0,P|88:240|32:271,1,152,8|2,0:1|0:0,0:0:0:0:
146,374,34114,6,0,L|231:359,1,76,2|0,0:0|3:0,0:0:0:0:
338,301,34457,2,0,L|329:389,1,76,2|0,0:0|0:0,0:0:0:0:
267,226,34800,1,2,0:0:0:0:
267,226,34971,2,0,P|250:166|311:85,1,152,8|2,0:1|0:0,0:0:0:0:
294,93,35485,1,0,0:0:0:0:
359,178,35657,6,0,B|399:211|399:211|507:208,1,152,0|2,3:0|0:0,0:0:0:0:
442,40,36171,1,0,0:0:0:0:
442,40,36342,2,0,L|430:132,1,76,8|0,0:1|0:0,0:0:0:0:
425,337,36685,2,0,L|406:246,1,76,2|0,0:0|0:0,0:0:0:0:
322,114,37028,5,0,3:0:0:0:
499,208,37200,1,0,0:0:0:0:
304,257,37371,1,0,3:0:0:0:
499,208,37542,1,0,0:0:0:0:
403,338,37714,2,0,L|410:253,1,76,8|0,0:1|0:0,0:0:0:0:
202,297,38057,2,0,L|222:393,1,76,2|0,0:0|0:0,0:0:0:0:
304,257,38400,5,4,0:2:0:0:
322,160,38571,1,0,0:0:0:0:
273,74,38742,1,2,0:3:0:0:
149,198,38914,1,8,0:3:0:0:
149,198,39085,2,0,L|245:191,1,76,8|0,0:3|0:0,0:0:0:0:
273,74,39428,1,0,0:0:0:0:
322,160,39600,1,0,0:0:0:0:
374,76,39771,5,2,0:3:0:0:
273,74,39942,1,0,0:0:0:0:
424,166,40114,1,8,0:0:0:0:
444,0,40285,1,8,0:3:0:0:
444,0,40457,1,10,0:3:0:0:
444,0,40800,2,0,L|466:79,1,76,2|2,0:0|0:0,0:0:0:0:
424,166,41142,6,0,P|406:224|444:313,1,152,2|0,0:3|0:0,0:0:0:0:
341,372,41657,1,8,0:3:0:0:
341,372,41828,2,0,L|239:368,1,76,10|2,0:3|0:0,0:0:0:0:
88,348,42171,2,0,L|175:325,1,76,0|2,0:0|0:0,0:0:0:0:
254,229,42514,5,2,0:3:0:0:
274,132,42685,1,2,0:0:0:0:
177,108,42857,1,2,0:0:0:0:
157,204,43028,1,2,0:3:0:0:
289,236,43200,5,2,0:0:0:0:
278,96,43371,1,2,0:0:0:0:
137,101,43543,1,2,0:3:0:0:
147,239,43714,1,2,0:0:0:0:
214,168,43885,5,4,3:2:0:0:
214,168,44057,1,2,0:0:0:0:
72,175,44228,2,0,L|-13:166,1,76,2|8,0:3|0:3,0:0:0:0:
50,45,44571,2,0,P|118:52|190:-18,1,152,8|0,0:3|0:0,0:0:0:0:
260,63,45085,1,2,0:0:0:0:
260,63,45257,6,0,P|317:15|391:21,1,152,2|0,0:3|0:0,0:0:0:0:
366,213,45771,1,10,0:3:0:0:
348,113,45942,1,8,0:3:0:0:
320,299,46114,1,0,0:0:0:0:
465,180,46285,1,2,0:0:0:0:
465,180,46457,1,2,0:0:0:0:
247,363,46628,6,0,L|427:353,1,152,4|0,0:3|0:0,0:0:0:0:
299,203,47142,1,4,0:3:0:0:
310,251,47228,1,4,0:3:0:0:
320,299,47314,1,4,0:3:0:0:
348,113,47485,5,8,0:0:0:0:
320,299,47657,1,8,0:0:0:0:
348,113,47828,1,8,0:0:0:0:
164,251,48000,6,0,P|177:187|112:117,1,152
268,48,48514,1,4,0:3:0:0:
246,105,48600,1,4,0:3:0:0:
258,163,48685,1,4,0:3:0:0:
167,30,48857,1,8,0:0:0:0:
348,113,49028,1,8,0:0:0:0:
167,30,49200,1,8,0:0:0:0:
434,55,49371,5,8,3:0:0:0:
441,151,49542,1,2,0:0:0:0:
211,330,49714,1,4,3:0:0:0:
218,234,49885,1,2,0:0:0:0:
395,53,50057,5,8,3:0:0:0:
426,143,50228,1,2,0:0:0:0:
249,341,50400,1,4,3:0:0:0:
230,246,50571,1,2,0:0:0:0:
485,68,50742,6,0,B|381:135|274:64,1,213.750008153916,4|0,3:2|0:0,0:0:0:0:
56,159,51085,2,0,B|155:95|267:163,1,213.750008153916,4|0,3:2|0:0,0:0:0:0:
335,268,51428,2,0,L|340:355,1,71.2500027179719,4|0,0:0|0:0,0:0:0:0:
392,138,51600,1,4,0:0:0:0:
392,138,51942,6,0,B|453:94|453:94|461:322,1,285.000010871888,12|0,3:2|0:0,0:0:0:0:
460,303,52457,2,0,P|412:234|477:109,1,213.750008153916,4|0,3:2|0:0,0:0:0:0:
265,198,52800,1,4,3:0:0:0:
256,192,52842,12,0,53442,0:0:0:0:
265,198,53485,6,0,L|31:195,1,227.999993041992,4|8,0:0|0:0,0:0:0:0:
176,248,54000,1,2,0:0:0:0:
139,145,54171,1,0,1:0:0:0:
111,341,54342,2,0,L|239:344,1,113.999996520996,2|8,0:0|0:0,0:0:0:0:
375,216,54685,1,8,0:3:0:0:
372,232,54771,1,8,0:3:0:0:
369,249,54857,5,0,1:0:0:0:
405,363,55028,1,2,0:0:0:0:
375,216,55200,1,8,0:0:0:0:
343,71,55371,1,2,0:0:0:0:
456,138,55542,1,8,0:3:0:0:
471,130,55628,1,8,0:3:0:0:
477,85,55714,5,8,0:3:0:0:
466,34,55800,1,8,0:3:0:0:
420,10,55885,1,8,0:3:0:0:
372,30,55971,1,8,0:3:0:0:
343,71,56057,1,8,0:3:0:0:
293,84,56142,1,8,0:3:0:0:
247,60,56228,5,0,1:0:0:0:
184,255,56400,1,2,0:0:0:0:
184,255,56571,2,0,L|183:119,1,113.999996520996,8|2,0:0|0:0,0:0:0:0:
61,8,56914,1,0,1:0:0:0:
266,71,57085,1,8,0:0:0:0:
89,194,57257,1,8,0:0:0:0:
165,39,57428,1,8,0:3:0:0:
165,39,57514,1,8,0:3:0:0:
165,39,57600,5,0,1:0:0:0:
17,112,57771,1,2,0:0:0:0:
153,292,57942,2,0,L|20:289,1,113.999996520996,8|2,0:0|0:0,0:0:0:0:
183,141,58285,1,8,0:3:0:0:
209,152,58371,1,8,0:3:0:0:
237,155,58457,1,8,0:3:0:0:
264,147,58542,1,8,0:3:0:0:
347,74,58628,5,8,0:3:0:0:
345,125,58714,1,8,0:3:0:0:
341,176,58800,1,8,0:3:0:0:
335,226,58885,1,8,0:3:0:0:
329,277,58971,5,0,1:0:0:0:
436,213,59142,1,8,0:3:0:0:
436,213,59228,1,8,0:3:0:0:
436,213,59314,2,0,L|422:340,1,113.999996520996,8|2,0:0|0:0,0:0:0:0:
216,276,59657,2,0,L|204:214,1,56.9999982604981,2|0,0:0|0:0,0:0:0:0:
190,309,59828,2,0,L|178:247,1,56.9999982604981,2|0,0:0|0:0,0:0:0:0:
170,345,60000,2,0,L|158:283,1,56.9999982604981,2|0,0:0|0:0,0:0:0:0:
93,114,60171,1,8,0:3:0:0:
111,136,60257,1,8,0:3:0:0:
127,158,60342,6,0,L|12:149,1,113.999996520996,0|2,1:0|0:0,0:0:0:0:
117,18,60685,1,8,0:0:0:0:
62,258,60857,1,2,0:0:0:0:
231,158,61028,1,8,0:3:0:0:
225,143,61114,1,8,0:3:0:0:
221,98,61200,5,8,0:3:0:0:
252,58,61285,1,8,0:3:0:0:
302,49,61371,1,8,0:3:0:0:
348,70,61457,1,8,0:3:0:0:
370,115,61542,1,8,0:3:0:0:
416,136,61628,1,8,0:3:0:0:
463,117,61714,5,0,1:0:0:0:
435,231,61885,1,8,0:3:0:0:
435,231,61971,1,8,0:3:0:0:
435,231,62057,2,0,L|309:211,1,113.999996520996,8|2,0:0|0:0,0:0:0:0:
125,136,62400,1,0,1:0:0:0:
233,354,62571,1,8,0:0:0:0:
369,116,62742,1,8,0:0:0:0:
222,227,62914,1,8,0:3:0:0:
222,227,63000,1,8,0:3:0:0:
222,227,63085,5,0,1:0:0:0:
196,56,63257,1,2,0:0:0:0:
348,244,63428,1,8,0:0:0:0:
122,309,63600,1,2,0:0:0:0:
267,137,63771,5,8,0:3:0:0:
238,141,63857,1,8,0:3:0:0:
210,147,63942,1,8,0:3:0:0:
181,152,64028,1,8,0:3:0:0:
101,106,64114,5,8,0:3:0:0:
54,83,64200,1,8,0:3:0:0:
15,115,64285,1,8,0:3:0:0:
17,166,64371,1,8,0:3:0:0:
59,195,64457,6,0,P|72:271|47:364,2,152,0|8|8,0:0|0:0|0:0,0:0:0:0:
176,288,65314,1,8,0:0:0:0:
176,288,65485,1,0,0:0:0:0:
278,174,65657,1,8,0:3:0:0:
278,174,65742,1,8,0:3:0:0:
278,174,65828,6,0,L|184:171,1,76,8|0,0:3|0:0,0:0:0:0:
353,278,66171,2,0,L|259:275,1,76,8|0,0:0|0:0,0:0:0:0:
428,383,66514,2,0,L|334:380,1,76,8|0,0:0|0:0,0:0:0:0:
386,174,66857,1,0,0:0:0:0:
483,283,67028,1,8,0:3:0:0:
486,248,67114,1,8,0:3:0:0:
491,214,67200,5,8,0:3:0:0:
512,74,67371,1,0,0:0:0:0:
483,283,67542,1,8,0:0:0:0:
377,108,67714,1,8,0:3:0:0:
381,141,67800,1,8,0:3:0:0:
386,174,67885,1,8,0:3:0:0:
296,343,68057,1,0,0:0:0:0:
213,265,68228,2,0,L|198:155,1,76,8|0,0:0|0:0,0:0:0:0:
434,363,68571,6,0,P|345:326|282:355,1,152,4|0,0:0|0:0,0:0:0:0:
378,278,68828,1,0,0:0:0:0:
441,202,68914,2,0,P|352:239|289:210,1,152,12|0,0:0|0:0,0:0:0:0:
262,87,69171,1,0,0:0:0:0:
347,48,69257,6,0,L|358:132,1,76,8|0,0:3|0:0,0:0:0:0:
175,130,69428,2,0,L|165:54,1,76,8|0,0:3|0:0,0:0:0:0:
57,170,69600,6,0,P|154:171|197:279,1,199.499993911743,8|0,0:0|0:0,0:0:0:0:
60,210,69942,6,0,P|125:202|154:286,1,152,4|0,0:0|0:0,0:0:0:0:
83,371,70457,1,8,0:3:0:0:
66,361,70542,1,8,0:3:0:0:
49,352,70628,1,8,0:3:0:0:
230,363,70800,1,8,0:3:0:0:
249,355,70885,1,8,0:3:0:0:
261,318,70971,5,8,0:3:0:0:
243,259,71057,1,8,0:3:0:0:
258,200,71142,1,8,0:3:0:0:
309,166,71228,1,8,0:3:0:0:
343,257,71314,5,4,1:0:0:0:
347,267,71657,1,4,1:0:0:0:
351,275,72000,5,8,0:3:0:0:
347,267,72085,1,8,0:3:0:0:
343,257,72171,1,8,0:3:0:0:
337,246,72257,1,8,0:3:0:0:
354,192,72342,5,8,0:3:0:0:
350,184,72427,1,8,0:3:0:0:
346,174,72513,1,8,0:3:0:0:
340,163,72599,1,8,0:3:0:0:
363,105,72685,5,4,0:3:0:0:
363,105,73200,1,4,0:3:0:0:
403,112,73285,1,4,0:3:0:0:
444,120,73371,1,12,0:3:0:0:
444,120,74228,6,0,L|443:59,1,56.9999982604981,8|0,0:0|0:0,0:0:0:0:
288,157,74400,2,0,L|287:96,1,56.9999982604981,8|0,0:0|0:0,0:0:0:0:
128,193,74571,2,0,L|127:132,1,56.9999982604981,8|0,0:0|0:0,0:0:0:0:
195,35,74742,6,0,L|183:-4,4,37.9999988403321,10|2|2|2|2,0:0|0:0|0:0|0:0|0:0,0:0:0:0:
222,239,75085,2,0,L|198:298,4,37.9999988403321,10|2|2|2|2,0:0|0:0|0:0|0:0|0:0,0:0:0:0:
288,157,75428,6,0,P|261:233|334:342,1,170.999994781494,4|0,1:0|0:0,0:0:0:0:
383,352,75771,1,8,0:0:0:0:
503,255,75942,1,2,0:0:0:0:
490,152,76114,1,0,1:0:0:0:
477,50,76285,1,8,0:3:0:0:
477,50,76371,1,8,0:3:0:0:
477,50,76457,1,8,0:0:0:0:
401,118,76628,6,0,L|281:110,1,113.999996520996,2|0,0:0|1:0,0:0:0:0:
207,45,76971,1,8,0:0:0:0:
242,306,77142,2,0,P|257:246|238:196,1,113.999996520996,8|0,0:0|0:0,0:0:0:0:
103,81,77485,1,0,1:0:0:0:
103,81,77657,6,0,L|37:67,1,56.9999982604981,2|0,0:1|0:0,0:0:0:0:
137,121,77828,2,0,L|71:107,1,56.9999982604981,2|0,0:1|0:0,0:0:0:0:
0,197,78000,1,8,0:3:0:0:
14,221,78085,1,8,0:3:0:0:
28,245,78171,5,0,1:0:0:0:
156,256,78342,1,2,0:0:0:0:
0,366,78514,2,0,L|114:362,1,113.999996520996,8|2,0:0|0:0,0:0:0:0:
252,194,78857,1,0,1:0:0:0:
216,374,79028,1,8,0:0:0:0:
216,374,79200,1,8,0:0:0:0:
149,142,79371,1,8,0:3:0:0:
149,142,79457,1,8,0:3:0:0:
149,142,79542,6,0,L|156:264,1,113.999996520996,0|2,1:0|0:0,0:0:0:0:
322,369,79885,1,8,0:0:0:0:
252,194,80057,1,2,0:0:0:0:
357,258,80228,1,8,0:3:0:0:
385,256,80314,1,8,0:3:0:0:
413,256,80400,1,8,0:3:0:0:
441,254,80485,1,8,0:3:0:0:
500,174,80571,5,8,0:3:0:0:
497,128,80657,1,8,0:3:0:0:
471,90,80742,1,8,0:3:0:0:
426,78,80828,1,8,0:3:0:0:
380,90,80914,6,0,P|304:124|225:97,1,170.999994781494,4|0,1:0|0:0,0:0:0:0:
226,98,81257,1,8,0:0:0:0:
300,238,81428,1,2,0:0:0:0:
297,10,81600,1,0,0:0:0:0:
116,79,81771,1,8,0:3:0:0:
120,95,81857,1,8,0:3:0:0:
123,111,81942,1,8,0:0:0:0:
300,238,82114,6,0,L|184:225,1,113.999996520996,2|0,0:0|1:0,0:0:0:0:
47,195,82457,1,2,0:0:0:0:
231,134,82628,1,8,0:0:0:0:
99,303,82800,1,8,0:0:0:0:
266,353,82971,1,0,1:0:0:0:
266,353,83142,6,0,L|195:348,1,56.9999982604981,2|0,0:1|0:0,0:0:0:0:
311,321,83314,2,0,L|240:316,1,56.9999982604981,2|0,0:1|0:0,0:0:0:0:
159,208,83485,1,8,0:3:0:0:
169,221,83571,1,8,0:3:0:0:
179,234,83657,6,0,L|356:240,1,170.999994781494,0|0,1:0|0:0,0:0:0:0:
349,239,84000,1,8,0:0:0:0:
498,200,84171,1,2,0:0:0:0:
323,90,84342,1,0,1:0:0:0:
440,300,84514,1,8,0:0:0:0:
440,300,84685,1,8,0:0:0:0:
336,371,84857,1,8,0:3:0:0:
336,371,84942,1,8,0:3:0:0:
336,371,85028,6,0,L|219:371,1,113.999996520996,0|2,1:0|0:0,0:0:0:0:
31,278,85371,1,8,0:0:0:0:
249,268,85542,1,2,0:0:0:0:
130,330,85714,1,8,0:3:0:0:
140,303,85800,1,8,0:3:0:0:
144,275,85885,1,8,0:3:0:0:
138,246,85971,1,8,0:3:0:0:
120,223,86057,6,0,L|183:202,1,56.9999982604981,2|0,0:0|0:0,0:0:0:0:
36,139,86228,2,0,L|99:118,1,56.9999982604981,2|0,0:0|0:0,0:0:0:0:
173,10,86400,5,4,3:2:0:0:
173,10,86571,1,0,0:0:0:0:
265,166,86742,1,10,0:0:0:0:
337,62,86914,1,2,0:0:0:0:
337,62,87000,1,2,0:0:0:0:
337,62,87085,5,2,0:0:0:0:
138,125,87257,1,0,0:0:0:0:
271,293,87428,1,10,0:0:0:0:
265,166,87600,1,2,0:0:0:0:
265,166,87685,1,2,0:0:0:0:
265,166,87771,5,2,0:0:0:0:
172,384,87942,1,0,0:0:0:0:
407,302,88114,1,10,0:0:0:0:
271,293,88285,1,2,0:0:0:0:
271,293,88371,1,2,0:0:0:0:
271,293,88457,5,2,0:0:0:0:
462,370,88628,1,2,0:0:0:0:
461,335,88714,1,2,0:0:0:0:
459,300,88800,1,2,0:0:0:0:
458,266,88885,1,2,0:0:0:0:
454,231,88971,1,2,0:0:0:0:
453,196,89057,1,2,0:0:0:0:
450,162,89142,6,0,L|511:184,9,56.9999982604981,4|2|2|2|2|2|2|2|2|2,3:0|0:0|0:0|0:0|0:0|0:0|0:0|0:0|0:0|0:0,0:0:0:0:
448,71,90000,6,0,L|363:84,1,76,4|0,0:3|0:3,0:3:0:0:
292,27,90171,2,0,L|207:40,1,76,8|0,0:3|0:3,0:3:0:0:
106,163,90342,1,4,3:0:0:0:
