osu file format v14

[General]
AudioFilename: audio.mp3
AudioLeadIn: 0
PreviewTime: 53400
Countdown: 0
SampleSet: Soft
StackLeniency: 0.4
Mode: 0
LetterboxInBreaks: 0
WidescreenStoryboard: 1

[Editor]
DistanceSpacing: 1.2
BeatDivisor: 4
GridSize: 16
TimelineZoom: 2.1

[Metadata]
Title:Oniichan, Motto!
TitleUnicode:お兄ちゃん、もっと!
Artist:Yakushi Ruri
ArtistUnicode:薬師るり
Creator:Karen
Version:Normal
Source:お兄ちゃん、キッスの準備はまだですか?エッチの準備もまだですか?
Tags:Kencho KSHR onikissh tinkle position eroge
BeatmapID:1186398
BeatmapSetID:559860

[Difficulty]
HPDrainRate:4
CircleSize:3.5
OverallDifficulty:4
ApproachRate:5
SliderMultiplier:1.2
SliderTickRate:1

[Events]
//Background and Video events
0,0,"oniichan.jpg",0,0
//Break Periods
//Storyboard Layer 0 (Background)
//Storyboard Layer 1 (Fail)
//Storyboard Layer 2 (Pass)
//Storyboard Layer 3 (Foreground)
//Storyboard Sound Samples

[TimingPoints]
0,342.857142857143,4,2,1,70,1,0
428,-100,4,2,1,5,0,0
514,-100,4,2,1,70,0,0
942,-100,4,2,1,5,0,0
1028,-100,4,2,1,70,0,0
1457,-100,4,2,1,5,0,0
1542,-100,4,2,1,70,0,0
2742,-100,4,2,1,60,0,0
13028,-100,4,2,1,70,0,0
13714,-100,4,2,1,80,0,1
18514,-100,4,2,1,80,0,0
19200,-100,4,2,1,80,0,1
24514,-100,4,2,1,80,0,1
24771,-100,4,2,1,5,0,1
24857,-100,4,2,1,80,0,1
26314,-100,4,2,1,5,0,1
26400,-100,4,2,1,80,0,1
26485,-100,4,2,1,5,0,1
26571,-100,4,2,1,80,0,1
26657,-100,4,2,1,5,0,1
26742,-100,4,2,1,80,0,1
27342,-100,4,2,1,5,0,1
27428,-125,4,2,1,50,0,0
46628,-125,4,2,1,60,0,0
49371,-100,4,2,1,70,0,0
50742,-100,4,2,1,80,0,0
51000,-100,4,2,1,5,0,0
51085,-100,4,2,1,80,0,0
51342,-100,4,2,1,5,0,0
51428,-100,4,2,1,80,0,0
51514,-100,4,2,1,5,0,0
51600,-100,4,2,1,80,0,0
52285,-100,4,2,1,5,0,0
52457,-100,4,2,1,80,0,0
52714,-100,4,2,1,5,0,0
52800,-100,4,2,1,80,0,0
53485,-100,4,2,1,80,0,1
64457,-125,4,2,1,60,0,0
68571,-100,4,2,1,80,0,1
69857,-100,4,2,1,5,0,1
69942,-125,4,2,1,70,0,0
75428,-100,4,2,1,80,0,1
80228,-100,4,2,1,80,0,0
80914,-100,4,2,1,80,0,1
86400,-100,4,2,1,70,0,0
90000,-100,4,2,1,80,0,0

[Colours]
Combo1 : 255,255,0
Combo2 : 255,0,0
Combo3 : 117,186,255
Combo4 : 128,0,255

[HitObjects]
7,256,0,6,0,L|21:340,1,60,0|8,1:0|0:0,0:0:0:0:
175,369,514,2,0,L|165:309,1,60,0|8,1:0|0:0,0:0:0:0:
316,237,1028,2,0,L|330:321,1,60,0|8,1:0|0:0,0:0:0:0:
476,370,1542,6,0,L|466:310,1,60,0|8,1:0|0:0,0:0:0:0:
489,229,1885,1,0,0:0:0:0:
489,229,2057,2,0,P|505:183|461:113,1,120,12|12,0:0|0:0,0:0:0:0:
313,167,2742,6,0,L|172:164,1,120,8|8,0:3|0:0,0:0:0:0:
121,215,3257,1,2,0:0:0:0:
121,215,3428,2,0,P|108:153|137:98,1,120,8|8,0:3|0:0,0:0:0:0:
287,40,4114,2,0,L|408:44,1,120,8|10,0:3|0:0,0:0:0:0:
469,100,4628,1,2,0:0:0:0:
469,100,4800,2,0,L|457:235,1,120,8|12,0:3|0:0,0:0:0:0:
352,349,5485,6,0,P|365:295|336:234,1,120,8|8,0:3|0:0,0:0:0:0:
181,180,6171,2,0,L|111:173,2,60,8|8|8,0:3|0:3|0:0,0:0:0:0:
248,129,6685,1,8,0:3:0:0:
248,129,6857,2,0,P|234:68|266:4,1,120,8|8,0:3|0:0,0:0:0:0:
391,113,7542,2,0,L|376:187,1,60,8|2,0:3|0:0,0:0:0:0:
302,206,7885,2,0,L|318:287,1,60,10|2,0:0|0:0,0:0:0:0:
370,326,8228,6,0,L|232:316,1,120,4|8,0:0|0:0,0:0:0:0:
175,355,8742,1,2,0:0:0:0:
175,355,8914,2,0,P|134:372|53:345,1,120,8|8,0:3|0:0,0:0:0:0:
27,189,9600,2,0,B|13:119|13:119|36:60,1,120,8|8,0:3|0:0,0:0:0:0:
97,125,10114,1,2,0:0:0:0:
97,125,10285,2,0,L|121:259,1,120,8|8,0:3|0:0,0:0:0:0:
285,263,10971,6,0,P|336:240|401:268,1,120,8|8,0:3|0:0,0:0:0:0:
481,116,11657,2,0,L|403:106,1,60,8|8,0:3|0:3,0:0:0:0:
397,27,12000,2,0,L|319:17,1,60,8|8,0:0|0:3,0:0:0:0:
259,49,12342,2,0,P|284:106|258:172,1,120,8|8,0:3|0:0,0:0:0:0:
112,222,13028,2,0,P|87:165|113:99,1,120,8|10,0:3|0:0,0:0:0:0:
210,241,13714,6,0,L|222:370,1,120,4|8,1:0|0:0,0:0:0:0:
302,381,14228,2,0,L|366:364,1,60,8|0,0:3|1:0,0:0:0:0:
353,281,14571,2,0,L|420:295,1,60,8|8,0:0|0:0,0:0:0:0:
474,349,14914,2,0,L|462:206,1,120,8|0,0:3|0:0,0:0:0:0:
481,146,15428,2,0,L|485:66,1,60,8|2,0:0|0:0,0:0:0:0:
438,16,15771,2,0,P|388:50|331:42,1,120,0|8,1:0|0:0,0:0:0:0:
187,129,16457,6,0,P|239:106|298:124,1,120,0|8,1:0|0:0,0:0:0:0:
345,192,16971,2,0,L|337:271,1,60,2|0,0:0|1:0,0:0:0:0:
254,252,17314,2,0,L|269:322,1,60,8|8,0:0|0:0,0:0:0:0:
322,373,17657,2,0,L|179:359,1,120,8|2,0:3|0:0,0:0:0:0:
138,306,18171,2,0,L|79:323,1,60,8|2,0:0|0:0,0:0:0:0:
13,374,18514,2,0,P|30:326|5:256,1,120,8|8,0:3|0:0,0:0:0:0:
59,100,19200,6,0,P|114:121|185:104,1,120,4|8,1:0|0:0,0:0:0:0:
221,41,19714,2,0,L|281:44,1,60,8|0,0:3|1:0,0:0:0:0:
308,123,20057,2,0,L|234:148,1,60,8|8,0:0|0:0,0:0:0:0:
184,194,20400,2,0,P|165:247|185:311,1,120,8|0,0:3|0:0,0:0:0:0:
242,365,20914,2,0,L|312:348,1,60,8|2,0:0|0:0,0:0:0:0:
382,370,21257,2,0,B|398:324|398:324|382:250,1,120,0|8,1:0|0:0,0:0:0:0:
288,115,21942,6,0,P|345:134|414:100,1,120,0|8,1:0|0:0,0:0:0:0:
428,35,22457,2,0,L|499:49,2,60,2|0|8,0:0|1:0|0:0,0:0:0:0:
344,45,22971,1,8,0:0:0:0:
344,45,23142,2,0,L|208:27,1,120,8|2,0:3|0:0,0:0:0:0:
150,69,23657,2,0,L|157:143,1,60,8|2,0:0|0:0,0:0:0:0:
239,140,24000,2,0,L|221:279,1,120,8|8,0:3|0:3,0:0:0:0:
172,325,24514,1,4,1:0:0:0:
62,197,24857,6,0,L|48:125,2,60,8|8|8,0:0|0:0|0:0,0:0:0:0:
112,263,25371,2,0,P|156:242|229:264,1,120,8|10,0:3|0:0,0:0:0:0:
475,269,26228,6,0,L|461:349,2,60,2|2|2,0:1|0:1|0:1,0:0:0:0:
463,185,26742,1,2,0:1:0:0:
463,185,27428,6,0,P|480:153|473:88,2,96,4|2|8,0:0|0:0|0:1,0:0:0:0:
365,122,28457,2,0,L|302:123,1,48,0|2,0:0|0:0,0:0:0:0:
270,157,28800,2,0,P|219:166|173:149,2,96,0|0|8,3:0|3:0|0:1,0:0:0:0:
233,47,29828,1,2,0:0:0:0:
118,58,30171,6,0,L|10:53,1,96,0|2,3:0|0:0,0:0:0:0:
6,109,30685,1,0,0:0:0:0:
6,109,30857,2,0,L|17:173,1,48,8|0,0:1|0:0,0:0:0:0:
68,174,31200,2,0,L|61:239,1,48,2|2,0:0|0:0,0:0:0:0:
32,270,31542,2,0,P|82:263|132:292,1,96,0|2,3:0|0:0,0:0:0:0:
224,335,32228,2,0,L|213:382,2,48,8|0|0,0:1|0:0|0:0,0:0:0:0:
199,221,32914,6,0,P|188:175|214:118,2,96,0|0|8,3:0|3:0|0:1,0:0:0:0:
306,263,33942,2,0,L|365:253,1,48,2|2,0:0|0:0,0:0:0:0:
406,278,34285,2,0,L|393:382,2,96,0|0|8,3:0|0:0|0:1,0:0:0:0:
362,170,35314,2,0,L|361:113,1,48,2|0,0:0|0:0,0:0:0:0:
304,111,35657,6,0,P|266:126|213:112,1,96,0|2,3:0|0:0,0:0:0:0:
256,5,36342,2,0,L|314:21,1,48,8|0,0:1|0:0,0:0:0:0:
360,19,36685,2,0,L|420:7,1,48,2|0,0:0|0:0,0:0:0:0:
461,29,37028,2,0,P|483:82|472:133,1,96,0|0,3:0|3:0,0:0:0:0:
426,222,37714,2,0,L|479:236,2,48,8|0|2,0:1|0:0|0:0,0:0:0:0:
330,156,38400,6,0,P|282:149|227:178,1,96,4|2,0:2|0:3,0:0:0:0:
214,218,38914,1,8,0:3:0:0:
214,218,39085,2,0,L|204:327,1,96,8|0,0:3|0:0,0:0:0:0:
91,334,39771,2,0,L|78:230,1,96,2|8,0:3|0:0,0:0:0:0:
112,191,40285,1,8,0:3:0:0:
112,191,40457,2,0,P|119:139|94:89,1,96,10|2,0:3|0:0,0:0:0:0:
25,14,41142,6,0,L|132:11,1,96,2|0,0:3|0:0,0:0:0:0:
171,40,41657,1,8,0:3:0:0:
171,40,41828,2,0,L|278:37,1,96,10|0,0:3|0:0,0:0:0:0:
379,13,42514,2,0,P|365:46|379:122,1,96,2|2,0:3|0:0,0:0:0:0:
404,151,43028,1,2,0:3:0:0:
404,151,43200,2,0,L|400:215,1,48,2|2,0:0|0:0,0:0:0:0:
371,248,43542,2,0,L|390:307,1,48,2|2,0:3|0:0,0:0:0:0:
403,348,43885,6,0,L|299:343,1,96,4|2,3:2|0:3,0:0:0:0:
268,300,44400,1,8,0:3:0:0:
268,300,44571,2,0,P|218:293|169:311,1,96,8|0,0:3|0:0,0:0:0:0:
77,368,45257,2,0,L|86:266,1,96,2|0,0:3|0:0,0:0:0:0:
129,234,45771,1,10,0:3:0:0:
129,234,45942,2,0,P|137:204|121:140,1,96,8|2,0:3|0:0,0:0:0:0:
52,50,46628,6,0,L|200:47,1,144,4|4,0:3|0:3,0:0:0:0:
234,90,47314,1,4,0:3:0:0:
234,90,47485,2,0,L|293:89,2,48,8|8|8,0:0|0:0|0:0,0:0:0:0:
200,137,48000,2,0,P|180:198|234:270,1,144,0|4,0:0|0:3,0:0:0:0:
272,282,48685,1,4,0:3:0:0:
272,282,48857,2,0,L|266:343,2,48,8|8|8,0:0|0:0|0:0,0:0:0:0:
318,253,49371,6,0,L|444:263,1,120,8|4,3:0|3:0,0:0:0:0:
424,93,50057,2,0,L|295:102,1,120,8|4,3:0|3:0,0:0:0:0:
169,201,50742,6,0,P|155:257|181:329,1,120,4|4,3:2|3:2,0:0:0:0:
339,328,51428,2,0,L|341:263,1,60,4|4,0:0|0:0,0:0:0:0:
239,133,51942,2,0,P|161:175|64:136,1,180,12|4,3:2|3:2,0:0:0:0:
142,305,52800,1,4,3:0:0:0:
142,305,53485,6,0,L|154:169,1,120,4|8,0:0|0:0,0:0:0:0:
208,121,54000,2,0,P|242:105|323:136,1,120,2|2,0:0|0:0,0:0:0:0:
356,203,54514,2,0,L|348:274,1,60,8|8,0:0|0:3,0:0:0:0:
282,313,54857,2,0,P|331:346|410:321,1,120,0|8,1:0|0:0,0:0:0:0:
435,267,55371,1,2,0:0:0:0:
458,100,55714,2,0,L|376:101,1,60,8|8,0:3|0:3,0:0:0:0:
337,41,56057,6,0,P|276:24|218:56,1,120,8|2,0:3|0:0,0:0:0:0:
194,124,56571,2,0,L|197:203,1,60,8|2,0:0|0:0,0:0:0:0:
255,341,57085,2,0,L|185:333,1,60,8|8,0:0|0:0,0:0:0:0:
111,334,57428,1,8,0:3:0:0:
111,334,57600,2,0,P|125:298|92:220,1,120,0|8,1:0|0:0,0:0:0:0:
92,140,58114,1,2,0:0:0:0:
92,140,58285,2,0,L|226:153,1,120,8|8,0:3|0:3,0:0:0:0:
324,26,58971,6,0,P|262:8|197:41,1,120,0|8,1:0|0:0,0:0:0:0:
342,133,59657,2,0,L|418:124,2,60,2|2|2,0:0|0:0|0:0,0:0:0:0:
261,158,60171,2,0,P|240:208|269:285,1,120,8|2,0:3|0:0,0:0:0:0:
336,292,60685,2,0,L|408:282,1,60,8|2,0:0|0:0,0:0:0:0:
425,362,61028,2,0,L|292:380,1,120,8|8,0:3|0:3,0:0:0:0:
224,356,61542,6,0,P|176:323|102:337,1,120,8|8,0:3|0:3,0:0:0:0:
40,364,62057,2,0,L|32:290,1,60,8|2,0:0|0:0,0:0:0:0:
55,137,62571,2,0,L|112:154,1,60,8|8,0:0|0:0,0:0:0:0:
190,123,62914,1,8,0:3:0:0:
190,123,63085,2,0,P|221:111|304:138,1,120,0|8,1:0|0:0,0:0:0:0:
353,201,63600,1,2,0:0:0:0:
353,201,63771,2,0,L|366:58,2,120,8|8|0,0:3|0:3|0:0,0:0:0:0:
419,295,64800,5,8,0:0:0:0:
334,372,65142,2,0,L|273:371,2,48,8|8|0,0:0|0:0|0:0,0:0:0:0:
419,295,65828,2,0,P|466:284|516:307,2,96,8|8|8,0:3|0:0|0:0,0:0:0:0:
304,278,66857,1,0,0:0:0:0:
215,351,67200,6,0,P|168:364|105:345,1,96,8|8,0:3|0:0,0:0:0:0:
33,282,67885,1,8,0:3:0:0:
67,172,68228,1,8,0:0:0:0:
8,40,68571,6,0,L|145:26,1,120,4|12,0:0|0:0,0:0:0:0:
289,72,69257,2,0,L|294:5,2,60,8|8|8,0:3|0:3|0:0,0:0:0:0:
185,157,69942,6,0,P|172:204|198:263,1,96,4|0,0:0|0:0,0:0:0:0:
240,268,70457,2,0,L|345:261,1,96,8|8,0:3|0:3,0:0:0:0:
445,227,71142,1,8,0:3:0:0:
489,264,71314,2,0,L|488:380,1,96,4|4,1:0|1:0,0:0:0:0:
372,365,72000,2,0,P|328:354|277:371,1,96,8|8,0:3|0:3,0:0:0:0:
199,286,72685,6,0,P|135:308|54:261,1,144,4|4,0:3|0:3,0:0:0:0:
38,240,73371,1,12,0:3:0:0:
38,240,74228,2,0,L|28:177,2,48,8|8|8,0:0|0:0|0:0,0:0:0:0:
67,278,74742,2,0,P|79:315|58:376,1,96,10|10,0:0|0:0,0:0:0:0:
205,338,75428,6,0,P|192:276|219:220,1,120,4|8,1:0|0:0,0:0:0:0:
273,284,75942,2,0,L|340:294,1,60,2|0,0:0|1:0,0:0:0:0:
384,359,76285,2,0,L|456:344,1,60,8|8,0:3|0:0,0:0:0:0:
482,272,76628,2,0,L|470:129,1,120,2|8,0:0|0:0,0:0:0:0:
456,69,77142,2,0,L|402:107,1,60,8|0,0:0|0:0,0:0:0:0:
349,42,77485,2,0,P|287:22|235:50,1,120,0|2,1:0|0:1,0:0:0:0:
118,161,78171,6,0,L|251:145,1,120,0|8,1:0|0:0,0:0:0:0:
306,193,78685,2,0,L|298:272,1,60,2|0,0:0|1:0,0:0:0:0:
363,308,79028,2,0,L|332:377,1,60,8|8,0:0|0:0,0:0:0:0:
259,334,79371,2,0,P|202:316|123:342,1,120,8|2,0:3|0:0,0:0:0:0:
65,356,79885,2,0,L|66:277,1,60,8|2,0:0|0:0,0:0:0:0:
30,219,80228,2,0,P|14:158|42:95,1,120,8|8,0:3|0:3,0:0:0:0:
194,154,80914,6,0,P|249:175|320:158,1,120,4|8,1:0|0:0,0:0:0:0:
303,80,81428,2,0,L|363:83,1,60,2|0,0:0|0:0,0:0:0:0:
394,161,81771,2,0,L|378:235,1,60,8|8,0:3|0:0,0:0:0:0:
463,239,82114,2,0,L|490:111,1,120,2|2,0:0|0:0,0:0:0:0:
500,38,82628,2,0,L|441:52,1,60,8|8,0:0|0:0,0:0:0:0:
363,20,82971,2,0,P|307:3|235:33,1,120,0|8,1:0|0:3,0:0:0:0:
154,159,83657,6,0,L|142:22,1,120,0|8,1:0|0:0,0:0:0:0:
61,59,84171,2,0,L|53:-7,2,60,2|0|8,0:0|1:0|0:0,0:0:0:0:
30,137,84685,1,8,0:0:0:0:
30,137,84857,2,0,P|16:193|41:260,1,120,8|2,0:3|0:0,0:0:0:0:
118,258,85371,2,0,L|195:243,1,60,8|2,0:0|0:0,0:0:0:0:
247,200,85714,2,0,P|296:180|367:211,1,120,8|2,0:3|0:0,0:0:0:0:
445,344,86400,5,4,3:2:0:0:
457,176,86742,2,0,L|463:104,2,60,10|2|2,0:0|0:0|0:0,0:0:0:0:
333,290,87428,2,0,L|255:311,2,60,10|2|2,0:0|0:0|0:0,0:0:0:0:
362,124,88114,2,0,L|368:52,2,60,10|2|2,0:0|0:0|0:0,0:0:0:0:
229,228,88800,2,0,L|152:221,1,60,2|2,0:0|0:0,0:0:0:0:
128,149,89142,6,0,P|117:49|-9:53,1,240,4|2,3:0|0:0,0:0:0:0:
55,108,90000,2,0,L|24:160,2,60,4|8|4,3:0|0:3|3:0,0:0:0:0:
