osu file format v14

[General]
AudioFilename: Oniichan, Motto!.mp3
AudioLeadIn: 0
PreviewTime: 53485
Countdown: 1
SampleSet: Normal
StackLeniency: 0.7
Mode: 1
LetterboxInBreaks: 0
WidescreenStoryboard: 1

[Editor]
DistanceSpacing: 2.4
BeatDivisor: 4
GridSize: 16
TimelineZoom: 1.5

[Metadata]
Title:Oniichan, Motto!
TitleUnicode:お兄ちゃん、もっと!
Artist:Yakushi Ruri
ArtistUnicode:薬師るり
Creator:Chromoxx
Version:Oni
Source:お兄ちゃん、キッスの準備はまだですか?エッチの準備もまだですか?
Tags:Onii-chan, Kiss no Junbi wa Mada Desu ka? Ecchi no Junbi mo Mada Desu ka? Onikissh Onikiss hentai eroge imouto
BeatmapID:1627969
BeatmapSetID:741931

[Difficulty]
HPDrainRate:6
CircleSize:5
OverallDifficulty:5.5
ApproachRate:5
SliderMultiplier:1.4
SliderTickRate:1

[Events]
//Background and Video events
0,0,"oniichan.jpg",0,0
//Break Periods
//Storyboard Layer 0 (Background)
//Storyboard Layer 1 (Fail)
//Storyboard Layer 2 (Pass)
//Storyboard Layer 3 (Foreground)
//Storyboard Sound Samples

[TimingPoints]
0,342.857142857143,4,1,0,80,1,0
2742,-100,4,1,0,70,0,0
13714,-100,4,1,0,80,0,0
27428,-125,4,1,0,70,0,0
38400,-142.857142857143,4,1,0,65,0,0
46628,-125,4,1,0,70,0,0
48000,-111.111111111111,4,1,0,70,0,0
49371,-111.111111111111,4,1,0,60,0,0
50742,-100,4,1,0,80,0,0
53485,-100,4,1,0,90,0,1
75428,-100,4,1,0,90,0,0
75771,-100,4,1,0,80,0,0

[HitObjects]
320,192,0,5,0,0:0:0:0:
320,192,171,1,12,0:0:0:0:
320,192,514,1,0,0:0:0:0:
320,192,685,1,12,0:0:0:0:
320,192,1028,1,0,0:0:0:0:
320,192,1200,1,12,0:0:0:0:
320,192,1542,1,0,0:0:0:0:
320,192,1714,1,12,0:0:0:0:
320,192,2057,1,4,0:0:0:0:
320,192,2400,1,12,0:0:0:0:
128,160,2742,1,4,0:0:0:0:
400,192,2914,1,8,0:0:0:0:
400,192,3000,1,0,0:0:0:0:
400,192,3085,1,8,0:0:0:0:
400,192,3257,1,0,0:0:0:0:
304,128,3428,1,8,0:0:0:0:
304,128,3514,1,8,0:0:0:0:
304,128,3600,1,0,0:0:0:0:
304,128,3685,1,0,0:0:0:0:
304,128,3771,1,0,0:0:0:0:
256,272,3942,1,8,0:0:0:0:
288,272,4114,1,0,0:0:0:0:
288,272,4285,1,0,0:0:0:0:
288,272,4371,1,0,0:0:0:0:
272,256,4457,1,8,0:0:0:0:
272,256,4628,1,8,0:0:0:0:
256,224,4714,1,8,0:0:0:0:
256,128,4800,1,0,0:0:0:0:
256,128,4971,1,0,0:0:0:0:
240,96,5142,1,12,0:0:0:0:
320,240,5485,1,0,0:0:0:0:
288,272,5657,1,8,0:0:0:0:
352,208,5742,1,0,0:0:0:0:
256,240,5828,1,0,0:0:0:0:
192,208,5914,1,8,0:0:0:0:
416,272,6085,1,0,0:0:0:0:
224,208,6171,1,0,0:0:0:0:
240,256,6342,1,8,0:0:0:0:
240,304,6514,1,0,0:0:0:0:
240,304,6600,1,0,0:0:0:0:
240,288,6685,1,8,0:0:0:0:
272,240,6857,1,0,0:0:0:0:
368,240,7028,1,8,0:0:0:0:
336,224,7114,1,8,0:0:0:0:
320,224,7200,1,0,0:0:0:0:
320,224,7285,1,0,0:0:0:0:
320,208,7371,1,8,0:0:0:0:
304,240,7542,1,4,0:0:0:0:
384,272,7714,1,0,0:0:0:0:
304,240,7885,1,12,0:0:0:0:
336,208,8228,1,4,0:0:0:0:
336,192,8400,1,8,0:0:0:0:
336,192,8485,1,8,0:0:0:0:
160,112,8571,1,0,0:0:0:0:
208,96,8657,1,8,0:0:0:0:
304,272,8828,1,8,0:0:0:0:
208,176,8914,1,0,0:0:0:0:
208,176,9085,1,0,0:0:0:0:
192,272,9257,1,8,0:0:0:0:
240,224,9342,1,8,0:0:0:0:
224,272,9428,1,0,0:0:0:0:
288,256,9600,1,8,0:0:0:0:
272,240,9771,1,0,0:0:0:0:
272,240,9857,1,0,0:0:0:0:
272,240,9942,1,8,0:0:0:0:
288,256,10114,1,8,0:0:0:0:
304,224,10200,1,8,0:0:0:0:
304,208,10285,1,0,0:0:0:0:
288,160,10457,1,0,0:0:0:0:
304,128,10628,1,12,0:0:0:0:
304,128,10971,1,0,0:0:0:0:
288,176,11142,1,0,0:0:0:0:
304,256,11228,1,0,0:0:0:0:
240,240,11314,1,0,0:0:0:0:
208,224,11400,1,8,0:0:0:0:
208,208,11571,1,0,0:0:0:0:
288,112,11657,1,0,0:0:0:0:
368,224,11828,1,8,0:0:0:0:
352,256,12000,1,0,0:0:0:0:
208,256,12085,1,0,0:0:0:0:
160,224,12171,1,8,0:0:0:0:
368,176,12342,1,0,0:0:0:0:
304,240,12514,1,8,0:0:0:0:
304,224,12600,1,8,0:0:0:0:
272,256,12685,1,0,0:0:0:0:
240,240,12857,1,0,0:0:0:0:
272,112,13028,1,8,0:0:0:0:
224,144,13114,1,8,0:0:0:0:
272,112,13200,1,8,0:0:0:0:
224,144,13285,1,8,0:0:0:0:
224,128,13371,1,8,0:0:0:0:
224,128,13457,1,8,0:0:0:0:
224,128,13542,1,8,0:0:0:0:
224,160,13714,1,4,0:0:0:0:
432,224,14057,1,8,0:0:0:0:
432,224,14228,1,0,0:0:0:0:
432,224,14571,1,0,0:0:0:0:
304,240,14742,1,8,0:0:0:0:
272,224,14914,1,0,0:0:0:0:
256,128,15000,1,0,0:0:0:0:
256,128,15085,1,0,0:0:0:0:
256,208,15257,1,8,0:0:0:0:
192,256,15428,1,0,0:0:0:0:
192,256,15600,1,8,0:0:0:0:
304,272,15771,1,0,0:0:0:0:
320,240,15857,1,0,0:0:0:0:
320,240,15942,1,8,0:0:0:0:
256,160,16028,1,8,0:0:0:0:
240,144,16114,1,0,0:0:0:0:
240,144,16200,1,0,0:0:0:0:
240,144,16285,1,8,0:0:0:0:
208,208,16457,1,4,0:0:0:0:
352,288,16800,1,0,0:0:0:0:
304,288,16971,1,8,0:0:0:0:
288,192,17314,1,8,0:0:0:0:
288,192,17485,1,0,0:0:0:0:
320,160,17657,1,8,0:0:0:0:
336,224,17742,1,8,0:0:0:0:
256,224,17828,1,8,0:0:0:0:
256,224,18000,1,0,0:0:0:0:
256,224,18171,1,8,0:0:0:0:
224,256,18342,1,0,0:0:0:0:
256,192,18514,1,8,0:0:0:0:
288,176,18600,1,8,0:0:0:0:
272,160,18685,1,0,0:0:0:0:
272,160,18771,1,0,0:0:0:0:
256,144,18857,1,8,0:0:0:0:
240,128,18942,1,8,0:0:0:0:
256,144,19028,1,0,0:0:0:0:
208,128,19200,1,12,0:0:0:0:
336,176,19542,1,8,0:0:0:0:
320,176,19714,1,0,0:0:0:0:
192,32,20057,1,0,0:0:0:0:
192,32,20228,1,8,0:0:0:0:
192,16,20400,1,0,0:0:0:0:
288,48,20485,1,0,0:0:0:0:
320,176,20571,1,0,0:0:0:0:
320,176,20742,1,8,0:0:0:0:
256,160,20914,1,0,0:0:0:0:
256,160,21085,1,8,0:0:0:0:
272,160,21257,1,0,0:0:0:0:
272,160,21342,1,0,0:0:0:0:
256,144,21428,1,0,0:0:0:0:
272,160,21514,1,0,0:0:0:0:
208,208,21600,1,8,0:0:0:0:
208,240,21685,1,8,0:0:0:0:
208,224,21771,1,8,0:0:0:0:
208,224,21942,1,4,0:0:0:0:
288,288,22285,1,0,0:0:0:0:
288,288,22457,1,8,0:0:0:0:
288,288,22800,1,8,0:0:0:0:
288,288,22971,1,0,0:0:0:0:
288,288,23142,1,8,0:0:0:0:
256,160,23228,1,8,0:0:0:0:
208,128,23314,1,8,0:0:0:0:
256,144,23485,1,0,0:0:0:0:
256,144,23657,1,8,0:0:0:0:
256,144,23828,1,0,0:0:0:0:
288,192,24000,1,8,0:0:0:0:
288,192,24085,1,8,0:0:0:0:
288,192,24171,1,8,0:0:0:0:
272,176,24257,1,8,0:0:0:0:
288,192,24342,1,8,0:0:0:0:
304,112,24514,1,4,0:0:0:0:
352,144,24857,1,8,0:0:0:0:
352,144,25028,1,8,0:0:0:0:
352,144,25200,1,0,0:0:0:0:
288,160,25371,1,8,0:0:0:0:
240,208,25457,1,8,0:0:0:0:
240,208,25542,1,8,0:0:0:0:
224,192,25628,1,8,0:0:0:0:
224,192,25714,1,0,0:0:0:0:
192,176,25800,1,0,0:0:0:0:
224,192,25885,1,0,0:0:0:0:
160,160,25971,1,0,0:0:0:0:
304,224,26228,1,0,0:0:0:0:
304,224,26400,1,0,0:0:0:0:
304,224,26571,1,8,0:0:0:0:
256,208,26742,1,12,0:0:0:0:
304,208,27428,1,8,0:0:0:0:
304,208,27771,1,0,0:0:0:0:
304,208,28114,1,8,0:0:0:0:
272,160,28457,1,0,0:0:0:0:
272,160,28628,1,8,0:0:0:0:
272,160,28971,1,8,0:0:0:0:
272,176,29314,1,8,0:0:0:0:
272,176,29485,1,0,0:0:0:0:
208,144,29828,1,8,0:0:0:0:
240,240,30000,1,8,0:0:0:0:
224,224,30171,1,0,0:0:0:0:
192,192,30514,1,8,0:0:0:0:
192,192,30685,1,0,0:0:0:0:
192,192,30857,1,8,0:0:0:0:
384,128,31200,1,8,0:0:0:0:
384,128,31371,1,0,0:0:0:0:
304,192,31714,1,0,0:0:0:0:
304,192,32057,1,0,0:0:0:0:
304,192,32228,1,8,0:0:0:0:
304,192,32400,1,0,0:0:0:0:
304,192,32571,1,8,0:0:0:0:
256,128,32914,1,0,0:0:0:0:
256,240,33257,1,8,0:0:0:0:
256,240,33600,1,0,0:0:0:0:
336,240,33942,1,8,0:0:0:0:
240,288,34114,1,0,0:0:0:0:
240,288,34457,1,0,0:0:0:0:
240,288,34800,1,0,0:0:0:0:
240,288,34971,1,8,0:0:0:0:
272,160,35314,1,0,0:0:0:0:
272,160,35485,1,0,0:0:0:0:
272,160,35657,1,8,0:0:0:0:
224,224,36000,1,0,0:0:0:0:
224,224,36171,1,8,0:0:0:0:
224,224,36342,1,0,0:0:0:0:
336,176,36685,1,0,0:0:0:0:
256,80,36857,1,8,0:0:0:0:
288,160,37200,1,8,0:0:0:0:
240,224,37542,1,8,0:0:0:0:
240,224,37714,1,0,0:0:0:0:
240,224,37885,1,8,0:0:0:0:
240,224,38057,1,0,0:0:0:0:
336,160,38400,1,8,0:0:0:0:
352,160,38742,1,0,0:0:0:0:
352,160,38914,1,8,0:0:0:0:
352,160,39257,1,8,0:0:0:0:
352,160,39600,1,0,0:0:0:0:
272,224,39942,1,0,0:0:0:0:
272,224,40114,1,8,0:0:0:0:
272,224,40285,1,0,0:0:0:0:
272,224,40457,1,0,0:0:0:0:
256,144,40800,1,8,0:0:0:0:
256,144,40971,1,8,0:0:0:0:
256,144,41142,1,0,0:0:0:0:
256,144,41485,1,0,0:0:0:0:
256,144,41657,1,8,0:0:0:0:
256,144,42000,1,8,0:0:0:0:
256,144,42342,1,0,0:0:0:0:
256,144,42685,1,0,0:0:0:0:
256,144,43028,1,0,0:0:0:0:
256,144,43200,1,8,0:0:0:0:
240,256,43371,1,0,0:0:0:0:
240,256,43542,1,8,0:0:0:0:
352,192,43885,1,0,0:0:0:0:
288,160,44228,1,8,0:0:0:0:
288,160,44571,1,0,0:0:0:0:
288,160,44914,1,0,0:0:0:0:
256,160,45085,1,8,0:0:0:0:
256,160,45428,1,8,0:0:0:0:
256,160,45600,1,0,0:0:0:0:
256,160,45771,1,0,0:0:0:0:
256,160,45942,1,8,0:0:0:0:
288,160,46285,1,8,0:0:0:0:
352,160,46628,1,4,0:0:0:0:
352,256,47142,1,0,0:0:0:0:
288,288,47228,1,0,0:0:0:0:
352,256,47314,1,0,0:0:0:0:
208,224,47485,1,8,0:0:0:0:
208,224,47657,1,8,0:0:0:0:
208,224,47828,1,8,0:0:0:0:
288,128,48000,1,4,0:0:0:0:
320,208,48514,1,0,0:0:0:0:
320,208,48600,1,0,0:0:0:0:
240,192,48685,1,0,0:0:0:0:
240,208,48857,1,8,0:0:0:0:
240,208,49028,1,8,0:0:0:0:
240,208,49200,1,8,0:0:0:0:
288,192,49371,1,0,0:0:0:0:
416,240,49714,1,0,0:0:0:0:
416,240,49885,1,8,0:0:0:0:
416,240,50057,1,0,0:0:0:0:
416,240,50228,1,8,0:0:0:0:
256,208,50400,1,0,0:0:0:0:
256,208,50571,1,8,0:0:0:0:
256,160,50742,1,4,0:0:0:0:
272,176,51085,1,12,0:0:0:0:
272,176,51428,1,12,0:0:0:0:
352,160,51600,1,4,0:0:0:0:
272,176,51942,1,12,0:0:0:0:
352,176,52457,1,12,0:0:0:0:
352,112,52800,1,4,0:0:0:0:
272,128,53485,1,4,0:0:0:0:
368,176,53828,1,8,0:0:0:0:
304,224,54000,1,0,0:0:0:0:
256,224,54085,1,0,0:0:0:0:
240,208,54171,1,0,0:0:0:0:
240,208,54342,1,8,0:0:0:0:
240,208,54514,1,0,0:0:0:0:
224,208,54685,1,8,0:0:0:0:
224,208,54771,1,8,0:0:0:0:
224,208,54857,1,8,0:0:0:0:
112,192,54942,1,8,0:0:0:0:
112,192,55028,1,0,0:0:0:0:
112,192,55200,1,8,0:0:0:0:
176,208,55371,1,8,0:0:0:0:
336,192,55542,1,0,0:0:0:0:
320,192,55628,1,0,0:0:0:0:
336,192,55714,1,8,0:0:0:0:
320,192,55800,1,8,0:0:0:0:
256,240,55885,1,0,0:0:0:0:
240,240,55971,1,0,0:0:0:0:
256,240,56057,1,8,0:0:0:0:
160,176,56228,1,4,0:0:0:0:
288,224,56571,1,0,0:0:0:0:
288,224,56742,1,8,0:0:0:0:
272,240,56828,1,8,0:0:0:0:
256,240,56914,1,8,0:0:0:0:
256,240,57085,1,0,0:0:0:0:
352,224,57257,1,8,0:0:0:0:
352,224,57428,1,0,0:0:0:0:
288,160,57514,1,0,0:0:0:0:
224,128,57600,1,0,0:0:0:0:
288,160,57685,1,0,0:0:0:0:
224,128,57771,1,8,0:0:0:0:
336,160,57942,1,0,0:0:0:0:
336,160,58114,1,0,0:0:0:0:
304,224,58285,1,8,0:0:0:0:
224,240,58371,1,8,0:0:0:0:
304,224,58457,1,0,0:0:0:0:
224,240,58542,1,0,0:0:0:0:
224,240,58628,1,8,0:0:0:0:
224,240,58714,1,8,0:0:0:0:
208,224,58800,1,0,0:0:0:0:
192,192,58971,1,12,0:0:0:0:
304,240,59314,1,0,0:0:0:0:
352,272,59485,1,0,0:0:0:0:
320,176,59571,1,0,0:0:0:0:
224,176,59657,1,8,0:0:0:0:
224,176,59828,1,0,0:0:0:0:
208,192,60000,1,8,0:0:0:0:
240,192,60171,1,8,0:0:0:0:
240,192,60257,1,8,0:0:0:0:
240,192,60342,1,8,0:0:0:0:
240,256,60514,1,0,0:0:0:0:
256,256,60600,1,0,0:0:0:0:
192,160,60685,1,8,0:0:0:0:
256,224,60857,1,8,0:0:0:0:
256,208,61028,1,0,0:0:0:0:
256,208,61114,1,0,0:0:0:0:
256,208,61200,1,0,0:0:0:0:
256,208,61285,1,0,0:0:0:0:
224,240,61371,1,8,0:0:0:0:
224,240,61457,1,8,0:0:0:0:
224,224,61542,1,8,0:0:0:0:
208,224,61714,1,4,0:0:0:0:
336,288,62057,1,8,0:0:0:0:
400,224,62228,1,8,0:0:0:0:
400,224,62314,1,8,0:0:0:0:
224,304,62400,1,0,0:0:0:0:
304,224,62571,1,0,0:0:0:0:
304,192,62742,1,8,0:0:0:0:
304,192,62914,1,0,0:0:0:0:
256,256,63000,1,0,0:0:0:0:
288,272,63085,1,0,0:0:0:0:
352,272,63257,1,0,0:0:0:0:
288,240,63342,1,0,0:0:0:0:
256,240,63428,1,8,0:0:0:0:
320,160,63600,1,0,0:0:0:0:
320,160,63771,1,8,0:0:0:0:
320,160,63857,1,8,0:0:0:0:
336,128,63942,1,8,0:0:0:0:
272,128,64028,1,8,0:0:0:0:
240,160,64114,1,0,0:0:0:0:
336,128,64200,1,0,0:0:0:0:
240,160,64285,1,0,0:0:0:0:
224,176,64457,1,12,0:0:0:0:
224,176,64800,1,8,0:0:0:0:
304,272,64971,1,0,0:0:0:0:
224,176,65057,1,0,0:0:0:0:
320,272,65142,1,0,0:0:0:0:
384,240,65314,1,0,0:0:0:0:
384,240,65485,1,8,0:0:0:0:
384,240,65657,1,8,0:0:0:0:
384,240,65828,1,0,0:0:0:0:
336,224,66171,1,0,0:0:0:0:
336,224,66342,1,8,0:0:0:0:
336,224,66428,1,8,0:0:0:0:
320,208,66514,1,8,0:0:0:0:
256,240,66685,1,8,0:0:0:0:
256,240,66857,1,0,0:0:0:0:
256,240,67028,1,0,0:0:0:0:
240,240,67200,1,8,0:0:0:0:
352,240,67542,1,8,0:0:0:0:
352,240,67714,1,0,0:0:0:0:
352,240,67800,1,0,0:0:0:0:
336,240,67885,1,0,0:0:0:0:
240,192,68057,1,0,0:0:0:0:
240,192,68228,1,8,0:0:0:0:
320,128,68400,1,8,0:0:0:0:
304,128,68485,1,8,0:0:0:0:
320,128,68571,1,8,0:0:0:0:
320,128,68742,1,0,0:0:0:0:
320,128,68914,1,8,0:0:0:0:
352,176,69085,1,0,0:0:0:0:
352,160,69171,1,0,0:0:0:0:
272,240,69257,1,8,0:0:0:0:
272,240,69428,1,0,0:0:0:0:
272,240,69600,1,8,0:0:0:0:
240,192,69771,1,8,0:0:0:0:
240,192,69942,1,0,0:0:0:0:
240,192,70285,1,8,0:0:0:0:
240,192,70457,1,0,0:0:0:0:
240,176,70542,1,0,0:0:0:0:
368,192,70628,1,0,0:0:0:0:
256,176,70800,1,0,0:0:0:0:
368,112,70971,1,8,0:0:0:0:
368,112,71057,1,8,0:0:0:0:
368,112,71142,1,8,0:0:0:0:
368,112,71314,1,4,0:0:0:0:
304,192,71657,1,4,0:0:0:0:
368,160,72685,1,4,0:0:0:0:
368,160,72857,1,8,0:0:0:0:
368,160,72942,1,8,0:0:0:0:
320,224,73028,1,8,0:0:0:0:
320,224,73200,1,0,0:0:0:0:
320,224,73371,1,8,0:0:0:0:
224,192,73457,1,8,0:0:0:0:
224,192,73542,1,0,0:0:0:0:
336,176,73714,1,8,0:0:0:0:
336,176,73885,1,0,0:0:0:0:
304,176,73971,1,0,0:0:0:0:
336,176,74057,1,0,0:0:0:0:
336,144,74228,1,8,0:0:0:0:
336,144,74400,1,8,0:0:0:0:
336,144,74571,1,8,0:0:0:0:
336,192,74742,1,0,0:0:0:0:
336,192,74828,1,0,0:0:0:0:
336,192,74914,1,0,0:0:0:0:
320,192,75000,1,0,0:0:0:0:
224,144,75085,1,8,0:0:0:0:
320,192,75171,1,8,0:0:0:0:
224,144,75257,1,8,0:0:0:0:
224,144,75428,1,4,0:0:0:0:
432,224,75771,1,8,0:0:0:0:
432,224,75942,1,0,0:0:0:0:
432,224,76285,1,0,0:0:0:0:
304,240,76456,1,8,0:0:0:0:
272,224,76628,1,0,0:0:0:0:
256,128,76714,1,0,0:0:0:0:
256,128,76799,1,0,0:0:0:0:
256,208,76971,1,8,0:0:0:0:
192,256,77142,1,0,0:0:0:0:
192,256,77314,1,8,0:0:0:0:
304,272,77485,1,0,0:0:0:0:
320,240,77571,1,0,0:0:0:0:
320,240,77657,1,8,0:0:0:0:
256,160,77742,1,8,0:0:0:0:
240,144,77828,1,0,0:0:0:0:
240,144,77914,1,0,0:0:0:0:
240,144,77999,1,8,0:0:0:0:
208,208,78171,1,4,0:0:0:0:
352,288,78514,1,0,0:0:0:0:
304,288,78685,1,8,0:0:0:0:
288,192,79028,1,8,0:0:0:0:
288,192,79199,1,0,0:0:0:0:
320,160,79371,1,8,0:0:0:0:
336,224,79456,1,8,0:0:0:0:
256,224,79542,1,8,0:0:0:0:
256,224,79714,1,0,0:0:0:0:
256,224,79885,1,8,0:0:0:0:
224,256,80056,1,0,0:0:0:0:
256,192,80228,1,8,0:0:0:0:
288,176,80314,1,8,0:0:0:0:
272,160,80399,1,0,0:0:0:0:
272,160,80485,1,0,0:0:0:0:
256,144,80571,1,8,0:0:0:0:
240,128,80657,1,8,0:0:0:0:
256,144,80742,1,0,0:0:0:0:
208,128,80914,1,12,0:0:0:0:
336,176,81256,1,8,0:0:0:0:
320,176,81428,1,0,0:0:0:0:
192,32,81771,1,0,0:0:0:0:
192,32,81942,1,8,0:0:0:0:
192,16,82114,1,0,0:0:0:0:
288,48,82199,1,0,0:0:0:0:
320,176,82285,1,0,0:0:0:0:
320,176,82456,1,8,0:0:0:0:
256,160,82628,1,0,0:0:0:0:
256,160,82799,1,8,0:0:0:0:
272,160,82971,1,0,0:0:0:0:
272,160,83056,1,0,0:0:0:0:
256,144,83142,1,0,0:0:0:0:
272,160,83228,1,0,0:0:0:0:
208,208,83314,1,8,0:0:0:0:
208,240,83399,1,8,0:0:0:0:
208,224,83485,1,8,0:0:0:0:
208,224,83656,1,4,0:0:0:0:
288,288,83999,1,0,0:0:0:0:
288,288,84171,1,8,0:0:0:0:
288,288,84514,1,8,0:0:0:0:
288,288,84685,1,0,0:0:0:0:
288,288,84856,1,8,0:0:0:0:
256,160,84942,1,8,0:0:0:0:
208,128,85028,1,8,0:0:0:0:
256,144,85199,1,0,0:0:0:0:
256,144,85371,1,8,0:0:0:0:
256,144,85542,1,0,0:0:0:0:
288,192,85714,1,8,0:0:0:0:
288,192,85799,1,8,0:0:0:0:
288,192,85885,1,8,0:0:0:0:
272,176,85971,1,8,0:0:0:0:
288,192,86056,1,0,0:0:0:0:
227,93,86142,1,0,0:0:0:0:
304,112,86228,1,0,0:0:0:0:
124,60,86314,1,0,0:0:0:0:
170,227,86400,1,0,0:0:0:0:
367,211,86571,1,8,0:0:0:0:
362,282,86742,1,0,0:0:0:0:
242,258,86914,1,0,0:0:0:0:
275,281,87000,1,0,0:0:0:0:
282,276,87085,1,8,0:0:0:0:
282,276,87257,1,0,0:0:0:0:
265,283,87428,1,8,0:0:0:0:
266,284,87600,1,8,0:0:0:0:
250,226,87685,1,8,0:0:0:0:
250,226,87771,1,0,0:0:0:0:
250,226,87942,1,8,0:0:0:0:
201,210,88114,1,0,0:0:0:0:
366,240,88285,1,8,0:0:0:0:
333,230,88371,1,8,0:0:0:0:
366,240,88457,1,8,0:0:0:0:
341,235,88628,1,0,0:0:0:0:
326,229,88800,1,8,0:0:0:0:
326,229,88971,1,8,0:0:0:0:
313,190,89142,1,0,0:0:0:0:
413,183,89228,1,8,0:0:0:0:
305,188,89314,1,0,0:0:0:0:
413,183,89400,1,8,0:0:0:0:
297,185,89485,1,0,0:0:0:0:
413,183,89571,1,8,0:0:0:0:
291,183,89657,1,0,0:0:0:0:
413,183,89742,1,8,0:0:0:0:
413,183,89828,1,0,0:0:0:0:
370,142,90000,1,12,0:0:0:0:
370,142,90171,1,4,0:0:0:0:
370,142,90342,1,12,0:0:0:0:
