osu file format v14

[General]
AudioFilename: audio.mp3
AudioLeadIn: 0
PreviewTime: 89667
Countdown: 0
SampleSet: Soft
StackLeniency: 0.8
Mode: 0
LetterboxInBreaks: 0
EpilepsyWarning: 1
WidescreenStoryboard: 1

[Editor]
Bookmarks: 13966
DistanceSpacing: 1.1
BeatDivisor: 4
GridSize: 16
TimelineZoom: 1

[Metadata]
Title:Oniichan, Gyutte Shite! Motto Shite!
TitleUnicode:お兄ちゃん、ギュッてして!もっとして!
Artist:Yakushi Ruri
ArtistUnicode:薬師るり
Creator:Left
Version:Normal
Source:お兄ちゃん、朝までずっとギュッてして!夜までもっとエッチして!
Tags:Video game Onigyu Onigyuh おにギュ Oniichan, Asa Made Zutto Gyutte Shite! Yoru Made Motto Ecchi Shite! OP short ver. Tinkle Position Visual Novel Japanese Eroge Affirmation Agatsu Seolv
BeatmapID:2228894
BeatmapSetID:1063886

[Difficulty]
HPDrainRate:4
CircleSize:2.5
OverallDifficulty:4.5
ApproachRate:5.2
SliderMultiplier:1.2
SliderTickRate:1

[Events]
//Background and Video events
0,0,"BG.png",0,0
//Break Periods
//Storyboard Layer 0 (Background)
//Storyboard Layer 1 (Fail)
//Storyboard Layer 2 (Pass)
//Storyboard Layer 3 (Foreground)
//Storyboard Layer 4 (Overlay)
//Storyboard Sound Samples

[TimingPoints]
968,346.820809248555,4,2,7,80,1,0
3742,-100,4,2,7,75,0,0
14840,-100,4,2,7,75,0,1
24551,-100,4,2,7,80,0,1
25939,-100,4,2,7,68,0,0
56459,-100,4,2,7,73,0,0
57846,-100,4,2,7,80,0,0
61661,-100,4,2,7,80,0,0
62008,-100,4,2,7,85,0,0
89754,-100,4,2,7,75,0,1
100852,-100,4,2,7,80,0,0

[Colours]
Combo1 : 121,188,255
Combo2 : 255,157,111
Combo3 : 188,255,121
Combo4 : 255,140,198

[HitObjects]
310,142,968,6,0,P|313:79|335:25,1,120,12|12,3:1|3:2,0:0:0:0:
462,57,1661,2,0,P|459:120|437:174,1,120,12|12,3:1|3:2,0:0:0:0:
349,270,2355,5,14,0:1:0:0:
257,231,2615,2,0,L|84:210,1,150,14|10,0:1|0:1,0:0:0:0:
3,132,3395,2,0,P|28:102|69:85,1,60,8|8,0:0|0:0,0:0:0:0:
93,45,3742,6,0,L|219:23,1,120,4|8,3:1|0:0,0:0:0:0:
339,60,4436,1,2,3:2:0:0:
339,60,4609,2,0,L|327:124,1,60,2|8,0:0|0:0,0:0:0:0:
284,168,4956,1,0,0:0:0:0:
313,226,5129,2,0,L|439:204,1,120,4|8,3:2|0:0,0:0:0:0:
421,337,5823,2,0,L|334:348,1,60,6|0,3:1|0:0,0:0:0:0:
299,321,6170,1,10,0:1:0:0:
170,351,6517,6,0,P|172:287|197:234,1,120,4|8,3:1|0:0,0:0:0:0:
320,195,7210,2,0,L|308:132,1,60,0|2,3:2|0:0,0:0:0:0:
246,113,7557,2,0,L|234:50,1,60,8|0,0:0|0:0,0:0:0:0:
176,22,7904,1,4,3:2:0:0:
50,61,8251,1,8,0:0:0:0:
83,188,8598,2,0,L|163:197,1,60,14|0,0:1|0:0,0:0:0:0:
186,244,8944,1,10,0:1:0:0:
101,345,9291,6,0,P|209:286|331:274,1,240,4|0,3:1|3:0,0:0:0:0:
442,332,10332,2,0,P|456:288|455:270,1,60,8|0,0:0|0:0,0:0:0:0:
427,215,10678,1,0,3:2:0:0:
318,138,11025,1,8,0:2:0:0:
393,29,11372,2,0,L|461:40,2,60,6|0|10,3:1|0:0|0:1,0:0:0:0:
318,138,12066,6,0,P|265:110|202:102,1,120,4|8,3:1|0:0,0:0:0:0:
109,11,12759,2,0,P|50:23|-3:57,1,120,4|8,3:2|0:0,0:0:0:0:
30,184,13453,1,14,0:1:0:0:
60,312,13800,2,0,L|312:338,1,240,8|10,0:0|0:1,0:0:0:0:
430,345,14840,5,4,3:1:0:0:
345,94,15534,1,0,3:0:0:0:
160,282,16228,1,0,3:0:0:0:
99,25,16921,2,0,L|177:39,1,60,0|0,3:0|0:0,0:0:0:0:
194,90,17268,2,0,L|272:104,1,60,8|0,0:0|0:0,0:0:0:0:
314,74,17615,5,4,3:1:0:0:
410,319,18309,1,0,3:0:0:0:
148,284,19002,1,0,3:0:0:0:
99,25,19696,2,0,L|177:39,1,60,6|0,3:1|0:0,0:0:0:0:
194,90,20043,2,0,L|272:104,1,60,14|0,0:1|0:0,0:0:0:0:
314,74,20389,5,4,3:1:0:0:
59,144,21083,1,0,3:0:0:0:
206,362,21777,1,12,0:0:0:0:
460,293,22470,2,0,L|471:228,1,60,14|8,0:1|0:1,0:0:0:0:
426,183,22817,2,0,L|437:118,1,60,6|8,3:1|0:0,0:0:0:0:
394,72,23164,5,4,3:1:0:0:
311,322,23858,1,4,3:2:0:0:
61,235,24551,5,6,3:1:0:0:
102,109,24898,1,10,0:1:0:0:
228,147,25245,2,0,P|247:198|247:228,1,60,2|0,3:1|0:0,0:0:0:0:
293,250,25592,2,0,P|274:301|255:324,1,60,10|0,0:1|0:0,0:0:0:0:
209,326,25939,5,4,3:1:0:0:
83,286,26285,2,0,L|73:164,1,120,8|0,0:0|3:0,0:0:0:0:
104,37,26979,2,0,P|141:49|165:68,1,60,8|0,0:0|0:0,0:0:0:0:
182,122,27326,1,0,3:0:0:0:
238,241,27673,2,0,P|304:231|372:188,1,120,8|10,0:0|0:1,0:0:0:0:
440,110,28366,1,10,0:1:0:0:
311,79,28713,5,4,3:2:0:0:
350,206,29060,2,0,L|335:347,1,120,8|0,0:0|3:0,0:0:0:0:
217,380,29754,2,0,P|204:338|206:307,1,60,8|0,0:0|0:0,0:0:0:0:
232,263,30100,1,0,3:0:0:0:
139,169,30447,2,0,L|4:151,1,120,8|10,0:0|0:1,0:0:0:0:
73,32,31141,2,0,L|148:42,1,60,10|0,0:1|0:0,0:0:0:0:
183,81,31488,1,4,3:1:0:0:
286,162,31835,6,0,P|312:106|308:42,2,120,8|0|8,0:0|3:0|0:0,0:0:0:0:
235,205,32702,1,0,0:0:0:0:
255,267,32875,2,0,L|375:278,1,120,0|8,3:0|0:0,0:0:0:0:
459,176,33569,1,8,0:0:0:0:
391,62,33915,2,0,L|271:51,1,120,8|4,0:0|3:2,0:0:0:0:
141,23,34609,6,0,L|156:85,1,60,8|0,0:0|0:0,0:0:0:0:
205,124,34956,2,0,L|183:248,1,120,0|8,3:0|0:0,0:0:0:0:
78,322,35650,2,0,P|54:250|66:185,1,120,4|12,3:2|0:0,0:0:0:0:
184,242,36343,1,14,0:1:0:0:
310,280,36690,2,0,L|455:261,1,120,14|4,0:1|3:2,0:0:0:0:
464,136,37384,5,8,0:0:0:0:
344,79,37731,2,0,P|327:53|318:21,2,60,0|0|8,3:0|0:0|0:0,0:0:0:0:
464,136,38424,2,0,P|350:129|236:177,1,240,4|10,3:2|0:1,0:0:0:0:
135,263,39465,2,0,P|113:219|113:185,1,60,10|0,0:1|0:0,0:0:0:0:
141,149,39811,1,4,3:2:0:0:
219,42,40158,5,8,0:0:0:0:
344,79,40505,2,0,P|361:53|370:21,2,60,0|0|8,3:0|0:0|0:0,0:0:0:0:
219,42,41199,2,0,P|318:103|384:226,1,240,0|10,3:0|0:1,0:0:0:0:
480,293,42239,2,0,P|450:321|416:334,1,60,10|0,0:1|0:0,0:0:0:0:
370,307,42586,1,4,3:2:0:0:
251,364,42933,6,0,L|111:345,1,120,8|0,0:2|3:0,0:0:0:0:
35,257,43626,2,0,L|25:191,1,60,8|0,0:0|0:0,0:0:0:0:
73,151,43973,2,0,L|63:85,1,60,0|0,3:0|0:0,0:0:0:0:
110,44,44320,2,0,L|248:66,1,120,8|0,0:0|3:0,0:0:0:0:
354,20,45014,1,8,0:0:0:0:
454,105,45361,6,0,P|483:217|492:344,1,240,4|0,3:1|3:0,0:0:0:0:
361,362,46401,2,0,P|351:321|351:300,1,60,8|2,0:0|0:0,0:0:0:0:
390,250,46748,1,0,3:0:0:0:
266,202,47095,1,8,0:0:0:0:
217,324,47441,2,0,P|154:345|90:349,1,120,6|10,3:1|0:1,0:0:0:0:
20,244,48135,6,0,L|7:174,1,60,12|8,0:1|3:1,0:0:0:0:
146,41,48829,2,0,L|159:111,1,60,12|8,3:2|3:1,0:0:0:0:
284,135,49349,1,12,3:1:0:0:
502,361,50910,6,0,L|515:291,1,60,12|8,3:1|3:1,0:0:0:0:
376,158,51604,2,0,L|363:228,1,60,12|8,3:1|3:1,0:0:0:0:
238,252,52124,1,12,3:1:0:0:
43,73,52817,5,8,0:0:0:0:
43,73,52991,1,10,0:0:0:0:
158,10,53337,1,12,0:0:0:0:
250,106,53684,2,0,L|388:86,2,120,4|8|0,3:1|0:0|3:0,0:0:0:0:
150,193,54725,2,0,P|138:232|132:267,1,60,8|2,0:0|0:0,0:0:0:0:
159,311,55072,2,0,L|277:328,1,120,0|8,3:0|0:0,0:0:0:0:
409,342,55765,1,0,3:0:0:0:
428,211,56112,1,8,0:0:0:0:
297,189,56459,6,0,P|217:260|135:22,1,480,4|4,3:1|3:1,0:0:0:0:
372,109,58540,1,4,3:1:0:0:
170,279,59233,6,0,L|175:349,1,60,12|8,0:1|0:0,0:0:0:0:
306,326,59754,2,0,L|301:256,1,60,12|8,0:1|0:0,0:0:0:0:
433,262,60274,2,0,L|438:332,1,60,12|8,0:1|0:0,0:0:0:0:
395,373,60621,6,0,P|407:263|446:134,1,240,12|12,0:0|0:0,0:0:0:0:
506,23,61661,1,12,0:1:0:0:
374,32,62008,6,0,L|236:9,1,120,4|8,3:1|0:0,0:0:0:0:
208,58,62528,1,0,0:0:0:0:
157,101,62702,2,0,L|77:87,1,60,0|0,3:0|0:0,0:0:0:0:
46,131,63048,1,8,0:0:0:0:
62,262,63395,1,4,3:2:0:0:
191,236,63742,2,0,P|298:257|428:324,1,240,10|8,0:1|0:0,0:0:0:0:
507,219,64783,1,4,3:1:0:0:
490,88,65129,2,0,P|372:63|266:9,1,240,8|8,0:0|0:0,0:0:0:0:
162,91,66170,6,0,L|153:158,1,60,6|0,3:1|0:0,0:0:0:0:
100,189,66517,2,0,L|109:256,1,60,14|0,0:1|0:0,0:0:0:0:
162,285,66863,2,0,L|153:352,1,60,6|0,3:1|0:0,0:0:0:0:
92,370,67210,1,14,0:1:0:0:
13,264,67557,6,0,L|48:131,1,120,4|8,3:1|0:0,0:0:0:0:
104,122,68077,1,0,0:0:0:0:
104,122,68251,1,0,3:0:0:0:
184,17,68598,1,8,0:0:0:0:
295,86,68944,2,0,P|375:105|437:104,2,120,4|8|0,3:2|0:0|3:0,0:0:0:0:
215,192,69985,2,0,P|225:235|234:256,1,60,8|0,0:0|0:0,0:0:0:0:
283,289,70332,5,4,3:1:0:0:
166,350,70678,1,8,0:0:0:0:
52,281,71025,2,0,L|77:142,1,120,0|8,3:0|0:0,0:0:0:0:
18,42,71719,2,0,P|136:150|341:193,1,360,6|8,3:1|0:0,0:0:0:0:
366,67,73106,5,4,3:1:0:0:
494,97,73453,2,0,L|512:227,1,120,8|0,0:0|3:0,0:0:0:0:
457,255,73973,1,0,0:0:0:0:
400,290,74147,2,0,L|390:367,1,60,8|0,0:0|0:0,0:0:0:0:
330,373,74494,1,6,3:1:0:0:
202,341,74840,2,0,P|163:227|158:89,1,240,8|8,0:0|0:0,0:0:0:0:
261,28,75881,1,4,3:1:0:0:
389,60,76227,2,0,P|428:174|433:312,1,240,8|8,0:0|0:0,0:0:0:0:
330,373,77268,6,0,L|262:360,1,60,6|0,3:1|0:0,0:0:0:0:
237,304,77615,1,10,0:1:0:0:
126,232,77962,2,0,L|58:245,1,60,2|0,3:1|0:0,0:0:0:0:
33,301,78309,1,10,0:1:0:0:
8,171,78655,6,0,P|24:70|40:29,1,120,4|8,3:1|0:0,0:0:0:0:
90,27,79176,1,0,0:0:0:0:
90,27,79349,1,0,3:0:0:0:
189,113,79696,1,8,0:0:0:0:
309,57,80043,2,0,L|430:37,1,120,4|8,3:2|0:0,0:0:0:0:
478,79,80563,1,2,0:1:0:0:
478,79,80736,1,0,3:0:0:0:
371,157,81083,2,0,P|350:210|339:278,1,120,8|4,0:0|3:1,0:0:0:0:
429,368,81777,5,8,0:0:0:0:
510,263,82124,1,0,3:1:0:0:
496,131,82470,1,8,0:0:0:0:
384,59,82817,2,0,L|256:39,1,120,4|8,3:2|0:0,0:0:0:0:
224,92,83337,1,0,0:0:0:0:
178,140,83511,2,0,L|50:120,1,120,4|8,3:2|0:0,0:0:0:0:
12,245,84204,6,0,P|173:244|327:379,1,360,4|8,3:1|0:0,0:0:0:0:
379,247,85592,2,0,P|217:247|63:112,1,360,0|12,3:0|0:0,0:0:0:0:
152,22,86979,5,4,3:1:0:0:
338,89,87499,2,0,L|421:80,1,60,0|12,3:0|0:0,0:0:0:0:
255,220,88193,2,0,L|314:226,1,60,0|12,3:0|0:0,0:0:0:0:
352,280,88540,1,8,0:0:0:0:
396,328,88713,2,0,L|455:334,1,60,12|8,0:0|0:0,0:0:0:0:
500,285,89060,1,12,0:1:0:0:
431,29,89754,5,4,3:1:0:0:
178,103,90447,1,0,3:0:0:0:
432,174,91141,1,0,3:0:0:0:
180,256,91835,2,0,P|161:289|155:322,2,60,0|0|8,3:0|0:0|0:0,0:0:0:0:
288,331,92528,5,4,3:1:0:0:
214,78,93221,1,0,3:0:0:0:
143,332,93915,1,0,3:0:0:0:
61,80,94609,2,0,P|33:137|25:202,1,120,6|14,3:1|0:1,0:0:0:0:
149,237,95303,5,4,3:1:0:0:
335,49,95996,1,0,3:0:0:0:
264,303,96690,1,0,3:0:0:0:
451,117,97384,2,0,P|490:129|509:143,2,60,0|0|8,3:0|0:0|0:0,0:0:0:0:
436,248,98077,5,4,3:1:0:0:
297,23,98771,1,0,3:0:0:0:
287,286,99465,2,0,L|206:272,1,60,8|8,0:0|0:0,0:0:0:0:
179,230,99811,1,8,0:0:0:0:
72,307,100158,2,0,P|54:250|54:191,1,120,0|8,0:0|0:0,0:0:0:0:
30,59,100852,5,10,3:1:0:0:
157,22,101199,1,10,3:1:0:0:
256,108,101546,1,10,3:1:0:0:
355,22,101892,1,10,3:1:0:0:
482,59,102239,5,12,3:2:0:0:
493,256,102759,1,12,3:1:0:0:
