osu file format v14

[General]
AudioFilename: audio.mp3
AudioLeadIn: 0
PreviewTime: 89667
Countdown: 0
SampleSet: Soft
StackLeniency: 0.6
Mode: 0
LetterboxInBreaks: 0
EpilepsyWarning: 1
WidescreenStoryboard: 1

[Editor]
DistanceSpacing: 1.2
BeatDivisor: 4
GridSize: 16
TimelineZoom: 1

[Metadata]
Title:Oniichan, Gyutte Shite! Motto Shite!
TitleUnicode:お兄ちゃん、ギュッてして!もっとして!
Artist:Yakushi Ruri
ArtistUnicode:薬師るり
Creator:Left
Version:MOTTO SHITE
Source:お兄ちゃん、朝までずっとギュッてして!夜までもっとエッチして!
Tags:Video game Onigyu Onigyuh おにギュ Oniichan, Asa Made Zutto Gyutte Shite! Yoru Made Motto Ecchi Shite! OP short ver. Tinkle Position Visual Novel Japanese Eroge Affirmation Agatsu Seolv
BeatmapID:2227546
BeatmapSetID:1063886

[Difficulty]
HPDrainRate:5.5
CircleSize:3
OverallDifficulty:8.8
ApproachRate:9.3
SliderMultiplier:1.8
SliderTickRate:1

[Events]
//Background and Video events
0,0,"topbg.png",0,0
//Break Periods
//Storyboard Layer 0 (Background)
//Storyboard Layer 1 (Fail)
//Storyboard Layer 2 (Pass)
//Storyboard Layer 3 (Foreground)
//Storyboard Layer 4 (Overlay)
//Storyboard Sound Samples

[TimingPoints]
968,346.820809248555,4,2,7,80,1,0
968,-66.6666666666667,4,2,7,80,0,0
1228,-66.6666666666667,4,2,7,5,0,0
1314,-66.6666666666667,4,2,7,80,0,0
1574,-66.6666666666667,4,2,7,5,0,0
1661,-56.4971751412429,4,2,7,80,0,0
1921,-56.4971751412429,4,2,7,5,0,0
2008,-56.4971751412429,4,2,7,80,0,0
2268,-56.4971751412429,4,2,7,5,0,0
2355,-66.6666666666667,4,2,7,80,0,0
2441,-66.6666666666667,4,2,7,5,0,0
2528,-66.6666666666667,4,2,7,80,0,0
2615,-55.5555555555556,4,2,7,80,0,0
2702,-55.5555555555556,4,2,7,5,0,0
2875,-47.6190476190476,4,2,7,80,0,0
2962,-47.6190476190476,4,2,7,5,0,0
3048,-47.6190476190476,4,2,7,80,0,0
3569,-90.9090909090909,4,2,7,80,0,0
3742,-90.9090909090909,4,2,7,75,0,0
14840,-90.9090909090909,4,2,7,75,0,1
19696,-62.5,4,2,7,75,0,1
19869,-62.5,4,2,7,5,0,1
20043,-62.5,4,2,7,75,0,1
20216,-62.5,4,2,7,5,0,1
20389,-90.9090909090909,4,2,7,75,0,1
24551,-66.6666666666667,4,2,7,80,0,1
24725,-66.6666666666667,4,2,7,5,0,1
24898,-66.6666666666667,4,2,7,80,0,1
25072,-66.6666666666667,4,2,7,5,0,1
25245,-100,4,2,7,80,0,1
25418,-100,4,2,7,5,0,1
25592,-100,4,2,7,80,0,1
25939,-105.263157894737,4,2,7,68,0,0
28020,-74.0740740740741,4,2,7,68,0,0
28193,-74.0740740740741,4,2,7,5,0,0
28366,-74.0740740740741,4,2,7,68,0,0
28540,-74.0740740740741,4,2,7,5,0,0
28713,-74.0740740740741,4,2,7,68,0,0
29060,-105.263157894737,4,2,7,68,0,0
30794,-74.0740740740741,4,2,7,68,0,0
30881,-74.0740740740741,4,2,7,5,0,0
31141,-74.0740740740741,4,2,7,68,0,0
31228,-74.0740740740741,4,2,7,5,0,0
31314,-74.0740740740741,4,2,7,68,0,0
31835,-105.263157894737,4,2,7,68,0,0
45274,-105.263157894737,4,2,7,5,0,0
45361,-105.263157894737,4,2,7,68,0,0
47441,-71.4285714285714,4,2,7,68,0,0
47615,-71.4285714285714,4,2,7,5,0,0
47788,-71.4285714285714,4,2,7,68,0,0
48048,-66.6666666666667,4,2,7,68,0,0
48222,-66.6666666666667,4,2,7,5,0,0
48309,-66.6666666666667,4,2,7,68,0,0
48395,-66.6666666666667,4,2,7,5,0,0
48829,-66.6666666666667,4,2,7,68,0,0
48915,-66.6666666666667,4,2,7,5,0,0
49002,-66.6666666666667,4,2,7,68,0,0
49089,-66.6666666666667,4,2,7,5,0,0
49349,-909.090909090909,4,2,7,68,0,0
50910,-66.6666666666667,4,2,7,68,0,0
50996,-66.6666666666667,4,2,7,5,0,0
51083,-66.6666666666667,4,2,7,68,0,0
51170,-66.6666666666667,4,2,7,5,0,0
51603,-66.6666666666667,4,2,7,68,0,0
51690,-66.6666666666667,4,2,7,5,0,0
51777,-66.6666666666667,4,2,7,68,0,0
51863,-66.6666666666667,4,2,7,5,0,0
52124,-400,4,2,7,68,0,0
53337,-111.111111111111,4,2,7,68,0,0
56459,-111.111111111111,4,2,7,73,0,0
57846,-83.3333333333333,4,2,7,80,0,0
59233,-83.3333333333333,4,2,7,88,0,0
61661,-66.6666666666667,4,2,7,88,0,0
62008,-86.9565217391304,4,2,7,85,0,0
84204,-90.9090909090909,4,2,7,85,0,0
89754,-90.9090909090909,4,2,7,75,0,1
94609,-62.5,4,2,7,75,0,1
94783,-62.5,4,2,7,5,0,1
94956,-62.5,4,2,7,75,0,1
95129,-62.5,4,2,7,5,0,1
95303,-62.5,4,2,7,75,0,1
95650,-90.9090909090909,4,2,7,75,0,1
100852,-90.9090909090909,4,2,7,80,0,0

[Colours]
Combo1 : 255,255,132
Combo2 : 227,200,255
Combo3 : 255,204,255
Combo4 : 143,32,255
Combo5 : 255,38,244
Combo6 : 255,128,0
Combo7 : 255,183,111
Combo8 : 145,255,145

[HitObjects]
92,58,968,38,0,B|124:49|148:14|148:14|110:181,1,202.500007724762,12|0,3:1|0:0,0:0:0:0:
123,312,1314,2,0,B|91:321|67:356|67:356|105:189,1,202.500007724762,12|0,3:2|0:0,0:0:0:0:
92,58,1661,6,0,P|190:87|136:227,1,238.950007747936,12|0,3:1|0:0,0:0:0:0:
123,312,2008,2,0,P|25:283|79:143,1,238.950007747936,12|0,3:2|0:0,0:0:0:0:
177,36,2355,102,0,L|277:52,1,67.5000025749208,14|0,0:1|0:0,0:0:0:0:
237,134,2615,6,0,L|157:120,1,80.9999975280763,14|0,0:1|0:0,0:0:0:0:
137,208,2875,102,0,L|239:224,1,94.499997116089,14|0,0:1|0:0,0:0:0:0:
460,345,3048,5,10,0:1:0:0:
460,345,3135,1,8,0:0:0:0:
460,345,3309,101,10,0:1:0:0:
460,345,3395,1,8,0:0:0:0:
460,345,3569,6,0,L|446:258,1,49.5000015106202,8|8,0:0|0:0,0:0:0:0:
418,84,3742,21,4,3:1:0:0:
317,195,3915,1,2,0:0:0:0:
317,195,4002,1,2,0:0:0:0:
317,195,4089,2,0,L|249:184,1,49.5000015106202,8|0,0:0|0:0,0:0:0:0:
198,130,4262,2,0,L|130:141,1,49.5000015106202,2|0,0:0|0:0,0:0:0:0:
82,199,4436,5,2,3:2:0:0:
57,147,4522,1,0,0:0:0:0:
67,93,4609,1,2,0:0:0:0:
106,54,4696,1,2,0:0:0:0:
163,48,4783,2,0,L|181:-27,1,49.5000015106202,8|0,0:0|0:0,0:0:0:0:
268,187,4956,1,0,0:0:0:0:
268,187,5043,1,0,0:0:0:0:
268,187,5129,102,0,L|251:255,1,49.5000015106202,4|0,3:2|0:0,0:0:0:0:
97,357,5303,2,0,L|165:341,1,49.5000015106202,2|0,0:0|0:0,0:0:0:0:
232,323,5476,1,8,0:0:0:0:
320,301,5650,1,2,0:0:0:0:
382,366,5823,101,6,3:1:0:0:
166,260,5996,1,0,0:0:0:0:
346,123,6170,1,10,0:1:0:0:
491,347,6517,21,4,3:1:0:0:
491,347,6603,2,0,P|477:294|430:237,1,99.0000030212403,2|2,0:0|0:0,0:0:0:0:
443,252,6863,2,0,L|376:239,1,49.5000015106202,8|0,0:0|0:0,0:0:0:0:
333,170,7037,2,0,L|266:183,1,49.5000015106202,2|0,0:0|0:0,0:0:0:0:
258,266,7210,101,0,3:2:0:0:
210,238,7296,1,0,0:0:0:0:
192,185,7383,1,2,0:0:0:0:
201,134,7470,1,2,0:0:0:0:
242,92,7557,5,8,0:0:0:0:
250,77,7643,1,0,0:0:0:0:
256,62,7730,1,0,0:0:0:0:
260,46,7817,1,0,0:0:0:0:
262,29,7903,101,4,3:2:0:0:
176,8,8077,1,2,0:0:0:0:
176,8,8164,1,2,0:0:0:0:
176,8,8251,1,8,0:0:0:0:
203,96,8424,1,2,0:0:0:0:
57,294,8598,101,14,0:1:0:0:
113,77,8771,1,0,0:0:0:0:
287,231,8944,1,10,0:1:0:0:
512,4,9291,21,4,3:1:0:0:
438,64,9465,2,0,L|427:191,1,99.0000030212403,2|8,0:0|0:0,0:0:0:0:
379,348,9811,101,2,0:0:0:0:
379,348,9898,1,2,0:0:0:0:
379,348,9985,2,0,L|445:328,1,49.5000015106202,0|0,3:0|0:0,0:0:0:0:
398,246,10158,2,0,L|332:266,1,49.5000015106202,2|0,0:0|0:0,0:0:0:0:
289,330,10332,5,8,0:0:0:0:
262,281,10418,1,0,0:0:0:0:
216,256,10505,1,0,0:0:0:0:
165,257,10592,1,0,0:0:0:0:
126,288,10678,2,0,L|140:350,1,49.5000015106202,0|0,3:2|0:0,0:0:0:0:
49,359,10852,101,0,0:0:0:0:
49,359,10939,1,2,0:0:0:0:
49,359,11025,2,0,L|35:297,1,49.5000015106202,8|0,0:2|0:0,0:0:0:0:
90,154,11199,1,2,0:0:0:0:
126,288,11372,101,6,3:1:0:0:
1,179,11546,1,0,0:0:0:0:
53,20,11719,1,10,0:1:0:0:
281,108,12066,21,4,3:1:0:0:
281,108,12152,2,0,L|393:131,1,99.0000030212403,2|0,0:0|0:0,0:0:0:0:
386,132,12413,2,0,L|399:192,1,49.5000015106202,8|0,0:0|0:0,0:0:0:0:
495,48,12586,2,0,L|508:108,1,49.5000015106202,2|0,0:0|0:0,0:0:0:0:
482,347,12759,102,0,L|409:337,1,49.5000015106202,4|0,3:2|0:2,0:2:0:0:
373,269,12933,2,0,L|300:259,1,49.5000015106202,2|0,0:2|0:2,0:2:0:0:
259,357,13106,1,8,0:0:0:0:
242,299,13192,1,0,0:0:0:0:
194,266,13279,1,0,0:0:0:0:
134,267,13366,1,0,0:0:0:0:
94,304,13452,69,14,0:1:0:0:
94,304,13540,1,8,0:0:0:0:
259,357,13713,5,10,0:1:0:0:
258,356,13800,1,8,0:0:0:0:
362,326,13973,101,10,0:1:0:0:
361,325,14061,1,8,0:0:0:0:
434,372,14233,5,10,0:1:0:0:
435,373,14321,1,8,0:0:0:0:
481,358,14494,101,10,0:1:0:0:
481,358,14667,1,10,0:1:0:0:
481,358,14840,85,4,3:1:0:0:
350,90,15014,1,0,0:0:0:0:
350,90,15100,1,0,0:0:0:0:
350,90,15187,2,0,L|225:69,1,99.0000030212403,8|0,0:0|0:0,0:0:0:0:
37,240,15534,5,0,3:0:0:0:
122,358,15707,1,0,0:0:0:0:
122,358,15794,1,0,0:0:0:0:
122,358,15881,2,0,L|247:379,1,99.0000030212403,8|0,0:0|0:0,0:0:0:0:
335,258,16228,101,0,3:0:0:0:
294,172,16401,1,0,0:0:0:0:
294,172,16488,1,0,0:0:0:0:
294,172,16575,2,0,L|169:151,1,99.0000030212403,8|0,0:0|0:0,0:0:0:0:
129,221,16921,21,0,3:0:0:0:
170,307,17094,1,0,0:0:0:0:
170,307,17181,1,0,0:0:0:0:
170,307,17268,2,0,L|295:328,1,99.0000030212403,8|0,0:0|0:0,0:0:0:0:
264,7,17615,101,4,3:1:0:0:
19,149,17788,1,0,0:0:0:0:
19,149,17875,1,0,0:0:0:0:
19,149,17962,2,0,L|44:268,1,99.0000030212403,8|0,0:0|0:0,0:0:0:0:
297,354,18309,101,0,3:0:0:0:
407,266,18482,1,0,0:0:0:0:
407,266,18569,1,0,0:0:0:0:
407,266,18656,2,0,L|382:147,1,99.0000030212403,8|0,0:0|0:0,0:0:0:0:
178,106,19002,5,0,3:0:0:0:
142,149,19176,1,0,0:0:0:0:
142,149,19263,1,0,0:0:0:0:
142,149,19350,2,0,L|167:268,1,99.0000030212403,8|0,0:0|0:0,0:0:0:0:
360,59,19696,22,0,P|275:16|195:17,1,144,6|0,3:1|0:0,0:0:0:0:
116,329,20043,2,0,P|201:372|281:371,1,144,14|0,0:1|0:0,0:0:0:0:
360,59,20389,69,4,3:1:0:0:
132,154,20563,1,0,0:0:0:0:
132,154,20650,1,0,0:0:0:0:
132,154,20736,2,0,P|138:202|160:246,1,99.0000030212403,8|0,0:0|0:0,0:0:0:0:
324,361,21083,5,0,3:0:0:0:
343,226,21257,1,0,0:0:0:0:
343,226,21343,1,0,0:0:0:0:
343,226,21430,2,0,P|297:207|248:204,1,99.0000030212403,8|0,0:0|0:0,0:0:0:0:
146,333,21777,101,12,0:0:0:0:
229,301,21950,1,8,0:0:0:0:
160,246,22124,1,12,0:0:0:0:
76,276,22470,21,14,0:1:0:0:
295,47,22644,1,8,0:1:0:0:
422,357,22817,1,6,3:1:0:0:
250,170,22991,6,0,P|256:201|271:244,1,49.5000015106202,8|8,0:0|0:0,0:0:0:0:
473,276,23164,101,4,3:1:0:0:
70,39,23337,1,0,0:0:0:0:
70,39,23424,1,0,0:0:0:0:
70,39,23511,2,0,P|48:83|38:131,1,99.0000030212403,8|0,0:0|0:0,0:0:0:0:
364,102,23858,5,4,3:2:0:0:
149,252,24031,1,0,0:0:0:0:
149,252,24118,1,0,0:0:0:0:
149,252,24204,2,0,P|123:182|128:127,1,99.0000030212403,8|0,0:0|0:0,0:0:0:0:
128,163,24465,1,0,0:0:0:0:
132,168,24551,102,0,L|-32:131,1,135.000005149842,6|0,3:1|0:0,0:0:0:0:
380,216,24898,2,0,L|544:253,1,135.000005149842,10|0,0:1|0:0,0:0:0:0:
215,20,25245,6,0,L|237:118,1,90,2|0,3:1|0:0,0:0:0:0:
297,364,25592,2,0,L|275:266,1,90,10|0,0:1|0:0,0:0:0:0:
256,191,25852,1,0,0:0:0:0:
256,191,25939,1,4,3:1:0:0:
25,269,26285,54,0,L|122:290,1,85.4999977169037,8|0,0:0|0:0,0:0:0:0:
202,306,26632,2,0,P|186:235|161:207,1,85.4999977169037,0|0,3:0|0:0,0:0:0:0:
88,200,26979,1,8,0:0:0:0:
25,269,27152,1,0,0:0:0:0:
25,269,27239,1,0,0:0:0:0:
25,269,27326,2,0,P|40:339|65:367,1,85.4999977169037,0|0,3:0|0:0,0:0:0:0:
137,376,27673,1,8,0:0:0:0:
483,188,28020,102,0,P|508:113|509:25,1,121.500000463486,10|0,0:1|0:0,0:0:0:0:
273,139,28366,2,0,P|280:78|302:22,1,121.500000463486,10|0,0:1|0:0,0:0:0:0:
414,8,28713,1,4,3:2:0:0:
230,357,29060,6,0,P|219:305|187:256,1,85.4999977169037,8|0,0:0|0:0,0:0:0:0:
148,196,29407,2,0,L|48:183,1,85.4999977169037,0|0,3:0|0:0,0:0:0:0:
0,253,29754,1,8,0:0:0:0:
48,335,29927,1,0,0:0:0:0:
48,335,30014,1,0,0:0:0:0:
48,335,30100,2,0,L|148:348,1,85.4999977169037,0|0,3:0|0:0,0:0:0:0:
203,276,30447,1,8,0:0:0:0:
471,135,30794,102,0,P|484:99|489:59,1,60.7500002317429,10|0,0:1|0:0,0:0:0:0:
315,94,31141,2,0,P|320:64|331:35,1,60.7500002317429,10|0,0:1|0:0,0:0:0:0:
420,14,31314,1,0,0:0:0:0:
420,14,31401,1,0,0:0:0:0:
420,14,31488,1,4,3:1:0:0:
24,362,31835,6,0,P|69:330|131:317,1,85.4999977169037,8|0,0:0|0:0,0:0:0:0:
187,303,32181,1,0,3:0:0:0:
343,348,32355,1,0,0:0:0:0:
253,371,32528,101,8,0:0:0:0:
278,281,32702,1,0,0:0:0:0:
278,281,32788,1,0,0:0:0:0:
278,281,32875,2,0,L|259:163,1,85.4999977169037,0|0,3:0|0:0,0:0:0:0:
55,174,33222,2,0,L|41:89,1,85.4999977169037,8|0,0:0|0:0,0:0:0:0:
68,0,33569,5,8,0:0:0:0:
160,25,33742,1,0,0:0:0:0:
133,114,33915,1,8,0:0:0:0:
41,89,34089,1,0,0:0:0:0:
41,89,34176,1,0,0:0:0:0:
41,89,34262,101,4,3:2:0:0:
196,50,34436,1,0,0:0:0:0:
234,198,34609,1,8,0:0:0:0:
79,237,34783,1,0,0:0:0:0:
35,316,34956,1,0,3:0:0:0:
100,382,35129,1,0,0:0:0:0:
178,341,35303,1,8,0:0:0:0:
167,251,35476,1,0,0:0:0:0:
167,251,35563,1,0,0:0:0:0:
167,251,35650,5,4,3:2:0:0:
305,21,35823,1,0,0:0:0:0:
328,288,35996,1,12,0:0:0:0:
152,84,36170,1,0,0:0:0:0:
413,146,36343,101,14,0:1:0:0:
413,146,36690,1,14,0:1:0:0:
287,384,37037,6,0,L|273:280,1,85.4999977169037,4|0,3:2|0:0,0:0:0:0:
268,210,37384,2,0,P|314:218|354:258,1,85.4999977169037,8|0,0:0|0:0,0:0:0:0:
343,241,37644,1,0,0:0:0:0:
343,241,37731,1,0,3:0:0:0:
359,331,37904,1,0,0:0:0:0:
428,273,38077,2,0,L|545:254,1,85.4999977169037,8|0,0:0|0:0,0:0:0:0:
275,299,38424,2,0,L|158:318,1,85.4999977169037,4|0,3:2|0:0,0:0:0:0:
359,331,38771,1,8,0:0:0:0:
71,120,39118,101,10,0:1:0:0:
170,61,39291,1,0,0:0:0:0:
149,141,39465,5,10,0:1:0:0:
90,39,39638,1,0,0:0:0:0:
120,91,39811,101,4,3:2:0:0:
339,366,40158,6,0,L|320:270,1,85.4999977169037,8|0,0:0|0:0,0:0:0:0:
496,245,40505,2,0,L|515:341,1,85.4999977169037,0|0,3:0|0:0,0:0:0:0:
427,349,40852,2,0,L|408:253,1,85.4999977169037,8|0,0:0|0:0,0:0:0:0:
410,265,41112,1,0,0:0:0:0:
410,265,41199,1,0,3:0:0:0:
324,251,41372,1,0,0:0:0:0:
284,330,41546,1,8,0:0:0:0:
34,175,41892,101,10,0:1:0:0:
223,52,42065,1,0,0:0:0:0:
189,207,42239,5,10,0:1:0:0:
67,20,42412,1,0,0:0:0:0:
127,113,42585,101,4,3:2:0:0:
450,356,42933,6,0,L|429:248,1,85.4999977169037,8|0,0:2|0:0,0:0:0:0:
346,250,43280,1,0,3:0:0:0:
363,161,43453,1,0,0:0:0:0:
363,161,43540,1,0,0:0:0:0:
363,161,43626,2,0,L|467:143,1,85.4999977169037,8|0,0:0|0:0,0:0:0:0:
198,4,43973,101,0,3:0:0:0:
169,158,44147,1,0,0:0:0:0:
229,88,44320,1,8,0:0:0:0:
140,74,44494,1,0,0:0:0:0:
140,74,44581,1,0,0:0:0:0:
140,74,44667,2,0,L|36:56,1,85.4999977169037,0|0,3:0|0:0,0:0:0:0:
176,339,45014,2,0,P|200:263|248:212,1,128.249996575356,8|0,0:0|0:0,0:0:0:0:
238,222,45361,6,0,L|423:200,1,170.999995433807,4|8,3:1|0:0,0:0:0:0:
470,134,45881,1,0,0:0:0:0:
471,310,46054,2,0,L|368:293,1,85.4999977169037,0|0,3:0|0:0,0:0:0:0:
297,279,46401,1,8,0:0:0:0:
108,377,46574,102,0,P|87:330|94:271,1,85.4999977169037,2|0,0:0|3:0,0:0:0:0:
217,349,46921,2,0,P|214:306|195:268,1,85.4999977169037,2|8,0:0|0:0,0:0:0:0:
123,212,47268,1,0,0:0:0:0:
406,228,47441,6,0,P|434:160|437:102,1,125.999996154785,6|0,3:1|0:0,0:0:0:0:
214,178,47788,2,0,P|220:115|245:58,1,125.999996154785,10|0,0:1|0:0,0:0:0:0:
314,3,48048,1,0,0:0:0:0:
314,3,48135,54,0,P|333:58|319:102,1,67.5000025749208,12|0,0:1|0:0,0:0:0:0:
406,228,48309,2,0,P|376:277|333:295,1,67.5000025749208,8|0,3:1|0:0,0:0:0:0:
332,177,48829,102,0,P|308:200|295:231,1,67.5000025749208,12|0,3:2|0:0,0:0:0:0:
195,321,49002,2,0,P|197:354|213:384,1,67.5000025749208,8|0,3:1|0:0,0:0:0:0:
298,357,49349,86,0,P|295:323|277:291,1,69.3000021148682,12|0,3:1|0:0,0:0:0:0:
278,292,50736,1,2,0:0:0:0:
211,352,50910,38,0,L|103:336,1,67.5000025749208,12|0,3:1|0:0,0:0:0:0:
82,267,51083,2,0,L|90:195,1,67.5000025749208,8|0,3:1|0:0,0:0:0:0:
171,278,51603,102,0,L|180:199,1,67.5000025749208,12|0,3:1|0:0,0:0:0:0:
83,72,51777,2,0,L|14:63,1,67.5000025749208,8|0,3:1|0:0,0:0:0:0:
5,153,52124,86,0,L|81:162,1,67.5,12|0,3:1|0:0,0:0:0:0:
161,121,52817,1,10,0:0:0:0:
244,173,52991,1,10,0:0:0:0:
334,132,53337,2,0,L|347:212,1,80.9999975280763,12|0,0:0|0:0,0:0:0:0:
346,211,53598,1,0,0:0:0:0:
346,211,53684,101,4,3:1:0:0:
375,384,53858,1,0,0:0:0:0:
453,339,54031,2,0,P|443:300|409:252,1,80.9999975280763,8|0,0:0|0:0,0:0:0:0:
347,212,54378,2,0,L|255:195,1,80.9999975280763,0|0,3:0|0:0,0:0:0:0:
194,255,54725,1,8,0:0:0:0:
76,57,54898,101,2,0:0:0:0:
76,57,54985,1,0,0:0:0:0:
76,57,55072,2,0,P|38:71|11:101,1,80.9999975280763,0|0,3:0|0:0,0:0:0:0:
59,173,55418,2,0,P|109:148|126:124,1,80.9999975280763,8|0,0:0|0:0,0:0:0:0:
128,134,55678,1,0,0:0:0:0:
133,138,55765,6,0,L|152:42,1,80.9999975280763,0|0,3:0|0:0,0:0:0:0:
106,292,56112,2,0,L|87:388,1,80.9999975280763,8|0,0:0|0:0,0:0:0:0:
90,371,56459,101,4,3:1:0:0:
47,348,56546,1,0,0:0:0:0:
27,303,56632,1,0,0:0:0:0:
35,254,56719,1,0,0:0:0:0:
70,220,56806,1,8,0:0:0:0:
117,213,56892,1,0,0:0:0:0:
161,233,56979,1,0,0:0:0:0:
185,274,57066,1,0,0:0:0:0:
231,287,57152,1,0,3:0:0:0:
274,265,57239,1,0,0:0:0:0:
288,218,57326,1,0,0:0:0:0:
267,173,57413,1,0,0:0:0:0:
220,158,57499,1,8,0:0:0:0:
198,114,57586,1,0,0:0:0:0:
216,68,57673,1,0,0:0:0:0:
261,51,57759,1,0,0:0:0:0:
307,72,57846,6,0,P|319:26|310:-44,1,71.9999978027344,4|0,3:1|0:0,0:0:0:0:
275,225,58077,2,0,P|307:258|374:286,1,71.9999978027344,10|0,0:1|0:0,0:0:0:0:
161,134,58309,2,0,P|115:145|58:189,1,71.9999978027344,10|0,0:1|0:0,0:0:0:0:
336,156,58540,2,0,P|381:143|437:100,1,71.9999978027344,4|0,3:1|0:0,0:0:0:0:
188,222,58771,2,0,P|175:268|184:337,1,71.9999978027344,10|0,0:1|0:0,0:0:0:0:
214,60,59002,2,0,P|180:26|115:0,1,71.9999978027344,10|0,0:1|0:0,0:0:0:0:
117,365,59233,37,12,0:1:0:0:
416,190,59407,1,8,0:0:0:0:
404,286,59754,5,12,0:1:0:0:
35,129,59927,1,8,0:0:0:0:
67,220,60274,101,12,0:1:0:0:
440,39,60447,1,8,0:0:0:0:
416,190,60621,101,12,0:0:0:0:
35,129,60794,1,8,0:0:0:0:
117,365,60968,101,12,0:0:0:0:
404,286,61141,1,8,0:0:0:0:
390,378,61314,5,12,0:0:0:0:
367,327,61400,1,8,0:3:0:0:
331,303,61487,1,4,0:3:0:0:
300,303,61574,1,0,3:0:0:0:
288,310,61661,2,0,L|277:367,6,33.7500012874604,12|0|0|0|0|0|0,0:1|0:0|0:0|0:0|0:0|0:0|0:0,0:0:0:0:
190,361,62008,38,0,L|209:242,1,103.500001974106,4|0,3:1|0:0,0:0:0:0:
271,192,62355,1,8,0:0:0:0:
94,79,62528,1,0,0:0:0:0:
121,218,62702,37,0,3:0:0:0:
244,52,62875,1,0,0:0:0:0:
244,52,62962,1,0,0:0:0:0:
244,52,63048,2,0,L|373:75,1,103.500001974106,8|0,0:0|0:0,0:0:0:0:
430,231,63395,69,4,3:2:0:0:
499,29,63569,1,0,0:0:0:0:
499,29,63655,1,0,0:0:0:0:
499,29,63742,2,0,P|406:65|370:178,1,207.000003948212,10|0,0:1|3:0,0:0:0:0:
295,377,64262,37,2,0:1:0:0:
412,242,64436,2,0,L|529:211,1,103.500001974106,8|2,0:0|0:1,0:0:0:0:
512,215,64696,1,0,0:0:0:0:
512,215,64783,1,4,3:1:0:0:
378,329,64956,69,0,0:0:0:0:
332,291,65129,2,0,L|218:269,1,103.500001974106,8|0,0:0|0:0,0:0:0:0:
230,271,65389,1,0,0:0:0:0:
230,271,65476,1,4,3:2:0:0:
136,330,65650,1,0,0:0:0:0:
47,322,65823,1,8,0:0:0:0:
0,362,65996,85,0,0:0:0:0:
0,362,66083,1,0,0:0:0:0:
0,362,66170,1,6,3:1:0:0:
237,187,66343,5,0,0:0:0:0:
237,187,66430,1,0,0:0:0:0:
237,187,66517,1,14,0:1:0:0:
107,9,66690,101,0,0:0:0:0:
107,9,66777,1,0,0:0:0:0:
107,9,66863,1,6,3:1:0:0:
209,279,67037,5,0,0:0:0:0:
209,279,67124,1,0,0:0:0:0:
209,279,67210,1,14,0:1:0:0:
491,201,67384,101,0,0:0:0:0:
491,201,67470,1,0,0:0:0:0:
491,201,67557,2,0,L|505:86,1,103.500001974106,4|0,3:1|0:0,0:0:0:0:
503,98,67904,69,8,0:0:0:0:
390,238,68077,1,0,0:0:0:0:
390,238,68251,2,0,L|420:18,1,207.000003948212,0|8,3:0|0:0,0:0:0:0:
184,168,68771,69,0,0:0:0:0:
184,168,68858,1,0,0:0:0:0:
184,168,68944,2,0,L|71:191,1,103.500001974106,4|0,3:2|0:0,0:0:0:0:
27,113,69291,37,8,0:0:0:0:
271,196,69465,1,2,0:1:0:0:
65,366,69638,1,0,3:0:0:0:
100,281,69811,70,0,L|201:260,1,103.500001974106,2|8,0:1|0:0,0:0:0:0:
392,384,70158,37,0,0:0:0:0:
392,384,70245,1,0,0:0:0:0:
392,384,70332,1,4,3:1:0:0:
355,229,70505,1,0,0:0:0:0:
201,260,70678,2,0,P|176:315|170:367,1,103.500001974106,8|0,0:0|0:0,0:0:0:0:
224,110,71025,2,0,P|189:61|147:30,1,103.500001974106,0|0,3:0|0:0,0:0:0:0:
342,205,71372,2,0,P|402:199|450:178,1,103.500001974106,8|0,0:0|0:0,0:0:0:0:
442,183,71632,1,0,0:0:0:0:
442,183,71719,37,6,3:1:0:0:
224,110,71892,1,0,0:0:0:0:
169,357,72066,1,10,0:1:0:0:
342,205,72239,1,0,0:0:0:0:
155,34,72413,1,6,3:1:0:0:
201,260,72586,1,0,0:0:0:0:
255,192,72759,5,8,0:0:0:0:
255,192,72846,1,8,0:3:0:0:
255,192,72933,1,4,0:3:0:0:
255,192,73020,1,0,3:0:0:0:
255,192,73106,1,4,3:1:0:0:
309,123,73280,5,0,0:0:0:0:
167,178,73453,1,8,0:0:0:0:
287,275,73626,1,0,0:0:0:0:
287,275,73713,1,0,0:0:0:0:
287,275,73800,2,0,L|399:289,1,103.500001974106,0|0,3:0|0:0,0:0:0:0:
33,364,74147,38,0,P|67:308|115:278,1,103.500001974106,8|0,0:0|0:0,0:0:0:0:
101,291,74407,1,0,0:0:0:0:
104,297,74494,2,0,P|129:233|132:173,1,103.500001974106,6|0,3:1|0:0,0:0:0:0:
110,108,74840,69,8,0:0:0:0:
42,172,75014,2,0,P|17:236|14:296,1,103.500001974106,4|0,0:2|3:0,0:0:0:0:
33,364,75361,37,2,0:1:0:0:
295,305,75534,1,8,0:0:0:0:
255,178,75707,1,2,0:1:0:0:
255,178,75794,1,0,0:0:0:0:
255,178,75881,1,4,3:1:0:0:
177,270,76054,69,0,0:0:0:0:
295,305,76228,1,8,0:0:0:0:
284,356,76401,1,0,0:0:0:0:
284,356,76488,1,0,0:0:0:0:
284,356,76574,1,4,3:2:0:0:
378,335,76748,38,0,L|484:312,1,103.500001974106,0|8,0:0|0:0,0:0:0:0:
8,86,77095,37,0,0:0:0:0:
8,86,77181,1,0,0:0:0:0:
8,86,77268,1,6,3:1:0:0:
291,261,77441,5,0,0:0:0:0:
291,261,77528,1,0,0:0:0:0:
291,261,77615,1,10,0:1:0:0:
12,344,77788,101,0,0:0:0:0:
12,344,77875,1,0,0:0:0:0:
12,344,77962,1,2,3:1:0:0:
127,52,78135,5,0,0:0:0:0:
127,52,78222,1,0,0:0:0:0:
127,52,78309,1,10,0:1:0:0:
410,187,78482,101,0,0:0:0:0:
410,187,78569,1,0,0:0:0:0:
410,187,78655,2,0,L|525:171,1,103.500001974106,4|0,3:1|0:0,0:0:0:0:
512,172,79002,21,8,0:0:0:0:
347,105,79176,1,0,0:0:0:0:
347,105,79349,2,0,P|318:155|311:204,1,103.500001974106,0|0,3:0|0:0,0:0:0:0:
313,295,79696,2,0,P|243:342|204:341,1,103.500001974106,8|0,0:0|0:0,0:0:0:0:
39,193,80043,2,0,P|136:196|246:264,1,207.000003948212,4|8,3:2|0:0,0:0:0:0:
226,343,80563,37,2,0:1:0:0:
226,343,80650,1,0,0:0:0:0:
226,343,80736,1,0,3:0:0:0:
147,200,80910,2,0,P|217:153|256:154,1,103.500001974106,2|8,0:1|0:0,0:0:0:0:
322,120,81257,69,0,0:0:0:0:
322,120,81430,2,0,L|345:5,1,103.500001974106,4|0,3:1|0:0,0:0:0:0:
230,103,81777,2,0,L|253:-12,1,103.500001974106,8|0,0:0|0:0,0:0:0:0:
374,285,82124,2,0,L|397:170,1,103.500001974106,0|0,3:1|0:0,0:0:0:0:
119,233,82470,2,0,L|142:118,1,103.500001974106,8|0,0:0|0:0,0:0:0:0:
455,352,82817,38,0,L|508:113,1,207.000003948212,4|8,3:2|0:0,0:0:0:0:
15,264,83337,1,0,0:0:0:0:
15,264,83424,1,0,0:0:0:0:
15,264,83511,2,0,L|68:25,1,207.000003948212,4|8,3:2|0:0,0:0:0:0:
223,374,84031,1,0,0:0:0:0:
223,374,84118,1,0,0:0:0:0:
223,374,84204,21,4,3:1:0:0:
271,302,84378,1,0,0:0:0:0:
347,259,84551,1,8,0:0:0:0:
430,240,84725,1,0,0:0:0:0:
461,158,84898,1,0,3:0:0:0:
421,80,85072,1,0,0:0:0:0:
333,66,85245,1,8,0:0:0:0:
266,126,85418,1,0,0:0:0:0:
217,52,85592,1,0,3:0:0:0:
131,37,85765,1,0,0:0:0:0:
63,96,85939,1,8,0:0:0:0:
68,183,86112,1,0,0:0:0:0:
144,226,86286,1,0,3:0:0:0:
201,291,86459,1,0,0:0:0:0:
223,374,86632,2,0,L|244:255,1,99.0000030212403,12|0,0:0|0:0,0:0:0:0:
256,192,86892,1,0,0:0:0:0:
256,192,86979,5,4,3:1:0:0:
149,236,87499,5,0,3:0:0:0:
363,142,87673,1,12,0:0:0:0:
354,260,88193,101,0,3:0:0:0:
165,120,88366,1,12,0:0:0:0:
132,375,88540,5,8,0:0:0:0:
442,319,88713,1,12,0:0:0:0:
388,8,88887,1,8,0:0:0:0:
76,63,89060,1,12,0:1:0:0:
475,189,89754,69,4,3:1:0:0:
290,357,89927,1,0,0:0:0:0:
290,357,90014,1,0,0:0:0:0:
290,357,90100,2,0,L|148:336,1,99.0000030212403,8|0,0:0|0:0,0:0:0:0:
55,145,90447,5,0,3:0:0:0:
146,50,90621,1,0,0:0:0:0:
146,50,90708,1,0,0:0:0:0:
146,50,90794,2,0,L|288:71,1,99.0000030212403,8|0,0:0|0:0,0:0:0:0:
383,191,91141,101,0,3:0:0:0:
324,263,91314,1,0,0:0:0:0:
324,263,91401,1,0,0:0:0:0:
324,263,91487,2,0,L|182:242,1,99.0000030212403,8|0,0:0|0:0,0:0:0:0:
190,161,91835,21,0,3:0:0:0:
250,90,92008,1,0,0:0:0:0:
250,90,92095,1,0,0:0:0:0:
250,90,92181,2,0,L|392:111,1,99.0000030212403,8|0,0:0|0:0,0:0:0:0:
150,356,92528,101,4,3:1:0:0:
464,219,92702,1,0,0:0:0:0:
464,219,92788,1,0,0:0:0:0:
464,219,92875,2,0,L|436:80,1,99.0000030212403,8|0,0:0|0:0,0:0:0:0:
263,19,93222,101,0,3:0:0:0:
158,91,93395,1,0,0:0:0:0:
158,91,93481,1,0,0:0:0:0:
158,91,93568,2,0,L|186:230,1,99.0000030212403,8|0,0:0|0:0,0:0:0:0:
286,238,93915,5,0,3:0:0:0:
325,202,94089,1,0,0:0:0:0:
325,202,94175,1,0,0:0:0:0:
325,202,94262,2,0,L|297:63,1,99.0000030212403,8|0,0:0|0:0,0:0:0:0:
77,40,94609,22,0,P|34:128|31:193,1,144,6|0,3:1|0:0,0:0:0:0:
393,286,94956,2,0,P|436:198|439:133,1,144,14|0,0:1|0:0,0:0:0:0:
77,40,95303,69,4,3:1:0:0:
194,248,95476,1,0,0:0:0:0:
194,248,95563,1,0,0:0:0:0:
194,248,95650,2,0,P|262:275|322:262,1,99.0000030212403,8|0,0:0|0:0,0:0:0:0:
266,182,95996,5,0,3:0:0:0:
128,179,96170,1,0,0:0:0:0:
128,179,96257,1,0,0:0:0:0:
128,179,96344,2,0,P|71:225|52:284,1,99.0000030212403,8|0,0:0|0:0,0:0:0:0:
194,248,96690,101,0,3:0:0:0:
219,158,96863,1,0,0:0:0:0:
219,158,96950,1,0,0:0:0:0:
219,158,97037,2,0,P|208:87|166:41,1,99.0000030212403,8|0,0:0|0:0,0:0:0:0:
125,1,97384,21,0,3:0:0:0:
101,92,97557,1,0,0:0:0:0:
101,92,97644,1,0,0:0:0:0:
101,92,97731,2,0,P|113:164|155:210,1,99.0000030212403,8|0,0:0|0:0,0:0:0:0:
48,344,98077,101,4,3:1:0:0:
211,227,98251,1,0,0:0:0:0:
211,227,98337,1,0,0:0:0:0:
211,227,98424,2,0,P|287:242|330:275,1,99.0000030212403,8|0,0:0|0:0,0:0:0:0:
379,301,98771,101,0,3:0:0:0:
418,339,98944,1,0,0:0:0:0:
418,339,99030,1,0,0:0:0:0:
418,339,99117,2,0,P|494:324|537:291,1,99.0000030212403,8|0,0:0|0:0,0:0:0:0:
256,192,99465,5,8,0:0:0:0:
256,192,99551,1,8,0:0:0:0:
256,192,99638,1,8,0:0:0:0:
256,192,99725,1,8,0:0:0:0:
256,192,99811,1,8,0:0:0:0:
197,281,99985,101,8,0:0:0:0:
197,281,100072,1,8,0:0:0:0:
315,103,100245,1,8,0:0:0:0:
315,103,100332,1,8,0:0:0:0:
345,251,100505,5,8,0:0:0:0:
167,132,100678,1,8,0:0:0:0:
72,327,100852,5,10,3:1:0:0:
438,55,101199,1,10,3:1:0:0:
120,8,101546,5,10,3:1:0:0:
392,374,101893,1,10,3:1:0:0:
256,192,102239,101,12,3:2:0:0:
256,192,102759,5,12,3:1:0:0:
