osu file format v14

[General]
AudioFilename: audio.mp3
AudioLeadIn: 0
PreviewTime: 89667
Countdown: 0
SampleSet: Soft
StackLeniency: 0.6
Mode: 0
LetterboxInBreaks: 0
EpilepsyWarning: 1
WidescreenStoryboard: 1

[Editor]
Bookmarks: 13966
DistanceSpacing: 0.8
BeatDivisor: 4
GridSize: 16
TimelineZoom: 1

[Metadata]
Title:Oniichan, Gyutte Shite! Motto Shite!
TitleUnicode:お兄ちゃん、ギュッてして!もっとして!
Artist:Yakushi Ruri
ArtistUnicode:薬師るり
Creator:Left
Version:Light Insane
Source:お兄ちゃん、朝までずっとギュッてして!夜までもっとエッチして!
Tags:Video game Onigyu Onigyuh おにギュ Oniichan, Asa Made Zutto Gyutte Shite! Yoru Made Motto Ecchi Shite! OP short ver. Tinkle Position Visual Novel Japanese Eroge Affirmation Agatsu Seolv
BeatmapID:2229033
BeatmapSetID:1063886

[Difficulty]
HPDrainRate:5.5
CircleSize:3
OverallDifficulty:6.8
ApproachRate:8.5
SliderMultiplier:1.6
SliderTickRate:1

[Events]
//Background and Video events
0,0,"BG.png",0,0
//Break Periods
//Storyboard Layer 0 (Background)
//Storyboard Layer 1 (Fail)
//Storyboard Layer 2 (Pass)
//Storyboard Layer 3 (Foreground)
//Storyboard Layer 4 (Overlay)
//Storyboard Sound Samples

[TimingPoints]
968,346.820809248555,4,2,7,80,1,0
968,-90.9090909090909,4,2,7,80,0,0
1141,-90.9090909090909,4,2,7,5,0,0
1314,-90.9090909090909,4,2,7,80,0,0
1488,-90.9090909090909,4,2,7,5,0,0
1661,-90.9090909090909,4,2,7,80,0,0
1835,-90.9090909090909,4,2,7,5,0,0
2008,-90.9090909090909,4,2,7,80,0,0
2181,-90.9090909090909,4,2,7,5,0,0
2355,-90.9090909090909,4,2,7,80,0,0
3742,-100,4,2,7,75,0,0
14840,-90.9090909090909,4,2,7,75,0,1
24551,-83.3333333333333,4,2,7,80,0,1
24725,-83.3333333333333,4,2,7,5,0,1
24898,-83.3333333333333,4,2,7,80,0,1
25072,-83.3333333333333,4,2,7,5,0,1
25245,-100,4,2,7,80,0,1
25418,-100,4,2,7,5,0,1
25592,-100,4,2,7,80,0,1
25939,-105.263157894737,4,2,7,68,0,0
49349,-333.333333333333,4,2,7,68,0,0
52991,-117.647058823529,4,2,7,68,0,0
53337,-105.263157894737,4,2,7,68,0,0
56459,-105.263157894737,4,2,7,73,0,0
57846,-100,4,2,7,80,0,0
60621,-76.9230769230769,4,2,7,80,0,0
61314,-83.3333333333333,4,2,7,80,0,0
61661,-83.3333333333333,4,2,7,80,0,0
62008,-83.3333333333333,4,2,7,85,0,0
89754,-90.9090909090909,4,2,7,75,0,1
94609,-83.3333333333333,4,2,7,75,0,1
95303,-90.9090909090909,4,2,7,75,0,1
100852,-100,4,2,7,80,0,0

[Colours]
Combo1 : 121,188,255
Combo2 : 255,157,111
Combo3 : 188,255,121
Combo4 : 255,140,198

[HitObjects]
60,43,968,6,0,B|84:58|84:58|103:141,1,88.000002685547,12|0,3:1|0:0,0:0:0:0:
153,279,1314,2,0,B|129:264|129:264|110:181,1,88.000002685547,12|0,3:2|0:0,0:0:0:0:
214,71,1661,6,0,P|213:117|176:147,1,88.000002685547,12|0,3:1|0:0,0:0:0:0:
1,251,2008,2,0,P|2:205|39:175,1,88.000002685547,12|0,3:2|0:0,0:0:0:0:
236,249,2355,5,14,0:1:0:0:
335,276,2615,1,14,0:1:0:0:
310,177,2875,1,14,0:1:0:0:
292,233,3048,5,10,0:1:0:0:
292,233,3135,2,0,L|318:367,1,132.00000402832,8|8,0:0|0:0,0:0:0:0:
221,360,3569,5,8,0:0:0:0:
221,360,3655,1,8,0:0:0:0:
221,360,3742,2,0,L|205:272,1,80,4|2,3:1|0:0,0:0:0:0:
375,181,4089,2,0,L|359:93,1,80,8|2,0:0|0:0,0:0:0:0:
344,12,4436,1,2,3:2:0:0:
344,12,4522,1,0,0:0:0:0:
344,12,4609,1,2,0:0:0:0:
344,12,4696,1,2,0:0:0:0:
344,12,4783,2,0,L|238:-4,1,80,8|0,0:0|0:0,0:0:0:0:
123,151,5129,5,4,3:2:0:0:
41,114,5303,1,2,0:0:0:0:
41,114,5389,1,0,0:0:0:0:
41,114,5476,2,0,P|48:62|69:32,1,80,8|2,0:0|0:0,0:0:0:0:
253,211,5823,2,0,P|246:263|225:293,1,80,6|0,3:1|0:0,0:0:0:0:
144,307,6170,1,10,0:1:0:0:
439,348,6517,6,0,L|410:184,1,160,4|8,3:1|0:0,0:0:0:0:
334,142,7037,1,2,0:0:0:0:
372,57,7210,1,0,3:2:0:0:
372,57,7297,1,0,0:0:0:0:
372,57,7384,2,0,L|475:47,1,80,2|8,0:0|0:0,0:0:0:0:
215,200,7731,1,0,0:0:0:0:
133,164,7904,6,0,B|124:155|104:101|107:58,1,80,4|2,3:2|0:0,0:0:0:0:
114,85,8164,1,2,0:0:0:0:
120,82,8251,2,0,L|146:-1,1,80,8|2,0:0|0:0,0:0:0:0:
146,255,8598,2,0,L|121:331,1,80,14|0,0:1|0:0,0:0:0:0:
34,344,8944,1,10,0:1:0:0:
21,103,9291,5,4,3:1:0:0:
105,139,9465,2,0,L|203:128,1,80,2|8,0:0|0:0,0:0:0:0:
292,41,9811,1,2,0:0:0:0:
292,41,9898,1,2,0:0:0:0:
292,41,9985,2,0,L|274:126,1,80,0|2,3:0|0:0,0:0:0:0:
374,283,10332,2,0,L|391:190,1,80,8|0,0:0|0:0,0:0:0:0:
394,211,10592,1,0,0:0:0:0:
398,217,10678,6,0,L|496:206,1,80,0|0,3:2|0:0,0:0:0:0:
304,350,11025,2,0,L|206:361,1,80,8|2,0:2|0:0,0:0:0:0:
137,333,11372,2,0,P|112:284|109:238,1,80,6|0,3:1|0:0,0:0:0:0:
157,183,11719,1,10,0:1:0:0:
318,34,12066,6,0,L|486:57,1,160,4|8,3:1|0:0,0:0:0:0:
486,209,12586,1,2,0:0:0:0:
425,140,12759,2,0,L|327:125,1,80,4|2,3:2|0:2,0:0:0:0:
210,316,13106,6,0,L|199:251,1,40,8|0,0:0|0:0,0:0:0:0:
271,180,13280,2,0,L|282:245,1,40,0|0,0:0|0:0,0:0:0:0:
355,275,13453,5,14,0:1:0:0:
355,275,13540,2,0,P|417:258|491:259,1,120,8|8,0:0|0:0,0:0:0:0:
137,203,13973,1,10,0:1:0:0:
137,203,14060,2,0,P|75:220|1:219,1,120,8|8,0:0|0:0,0:0:0:0:
64,106,14494,5,10,0:1:0:0:
97,313,14667,1,10,0:1:0:0:
19,221,14840,5,4,3:1:0:0:
137,203,15014,1,0,0:0:0:0:
137,203,15100,1,0,0:0:0:0:
137,203,15187,2,0,L|248:218,1,88.000002685547,8|0,0:0|0:0,0:0:0:0:
227,123,15534,5,0,3:0:0:0:
306,168,15707,1,0,0:0:0:0:
306,168,15793,1,0,0:0:0:0:
306,168,15880,2,0,L|417:153,1,88.000002685547,8|0,0:0|0:0,0:0:0:0:
287,49,16228,6,0,L|375:38,1,88.000002685547,0|0,3:0|0:0,0:0:0:0:
454,83,16574,1,8,0:0:0:0:
267,288,16921,6,0,L|284:198,1,88.000002685547,0|0,3:0|0:0,0:0:0:0:
454,83,17268,2,0,L|437:173,1,88.000002685547,8|0,0:0|0:0,0:0:0:0:
400,377,17615,5,4,3:1:0:0:
267,288,17788,1,0,0:0:0:0:
267,288,17875,1,0,0:0:0:0:
267,288,17962,2,0,L|164:300,1,88.000002685547,8|0,0:0|0:0,0:0:0:0:
173,207,18309,5,0,3:0:0:0:
97,256,18482,1,0,0:0:0:0:
97,256,18569,1,0,0:0:0:0:
97,256,18656,2,0,L|-6:244,1,88.000002685547,8|0,0:0|0:0,0:0:0:0:
163,39,19002,6,0,L|76:29,1,88.000002685547,0|0,3:0|0:0,0:0:0:0:
0,78,19349,1,8,0:0:0:0:
165,161,19696,5,6,3:1:0:0:
0,78,19869,1,0,0:0:0:0:
40,197,20043,5,14,0:1:0:0:
125,42,20216,1,0,0:0:0:0:
125,42,20303,1,0,0:0:0:0:
125,42,20389,5,4,3:1:0:0:
249,98,20563,1,0,0:0:0:0:
249,98,20650,1,0,0:0:0:0:
249,98,20736,2,0,P|267:158|262:207,1,88.000002685547,8|0,0:0|0:0,0:0:0:0:
342,239,21083,5,0,3:0:0:0:
257,278,21257,1,0,0:0:0:0:
257,278,21344,1,0,0:0:0:0:
257,278,21430,2,0,P|239:338|244:387,1,88.000002685547,8|0,0:0|0:0,0:0:0:0:
473,326,21777,6,0,P|444:261|414:233,1,88.000002685547,12|8,0:0|0:0,0:0:0:0:
342,239,22124,1,12,0:0:0:0:
260,0,22470,6,0,P|230:53|226:103,1,88.000002685547,14|8,0:1|0:1,0:0:0:0:
342,239,22817,2,0,P|372:186|376:136,1,88.000002685547,6|8,3:1|0:0,0:0:0:0:
376,159,23077,1,8,0:0:0:0:
376,159,23164,5,4,3:1:0:0:
225,79,23337,1,0,0:0:0:0:
225,79,23424,1,0,0:0:0:0:
225,79,23511,2,0,P|165:102|118:103,1,88.000002685547,8|0,0:0|0:0,0:0:0:0:
122,265,23858,5,4,3:2:0:0:
89,180,24031,1,0,0:0:0:0:
89,180,24118,1,0,0:0:0:0:
89,180,24205,2,0,P|28:159|-8:129,1,88.000002685547,8|0,0:0|0:0,0:0:0:0:
289,7,24551,6,0,L|270:129,1,95.9999970703126,6|0,3:1|0:0,0:0:0:0:
229,374,24898,2,0,L|248:252,1,95.9999970703126,10|0,0:1|0:0,0:0:0:0:
420,141,25245,6,0,L|327:168,1,80,2|0,3:1|0:0,0:0:0:0:
96,241,25592,2,0,L|189:214,1,80,10|0,0:1|0:0,0:0:0:0:
257,191,25852,1,0,0:0:0:0:
257,191,25939,1,4,3:1:0:0:
473,312,26285,6,0,L|459:219,1,75.9999979705811,8|0,0:0|0:0,0:0:0:0:
389,364,26632,2,0,L|366:198,1,151.999995941162,0|8,3:0|0:0,0:0:0:0:
264,109,27152,2,0,L|277:35,1,75.9999979705811,0|0,0:0|3:0,0:0:0:0:
362,52,27499,2,0,L|350:127,1,75.9999979705811,0|8,0:0|0:0,0:0:0:0:
21,286,28020,5,10,0:1:0:0:
91,106,28366,1,10,0:1:0:0:
212,255,28713,1,4,3:2:0:0:
473,312,29060,6,0,L|459:219,1,75.9999979705811,8|0,0:0|0:0,0:0:0:0:
427,152,29407,2,0,P|383:97|301:78,1,151.999995941162,0|8,3:0|0:0,0:0:0:0:
474,50,29927,2,0,L|375:67,1,75.9999979705811,0|0,0:0|3:0,0:0:0:0:
352,164,30274,2,0,L|451:147,1,75.9999979705811,0|8,0:0|0:0,0:0:0:0:
21,286,30794,5,10,0:1:0:0:
91,106,31140,1,10,0:1:0:0:
212,255,31487,1,4,3:1:0:0:
473,312,31835,6,0,L|459:219,1,75.9999979705811,8|0,0:0|0:0,0:0:0:0:
382,189,32181,2,0,L|397:26,1,151.999995941162,0|8,3:0|0:0,0:0:0:0:
305,60,32702,6,0,L|297:141,1,75.9999979705811,0|0,0:0|3:0,0:0:0:0:
156,215,33048,2,0,P|191:185|235:176,1,75.9999979705811,0|8,0:0|0:0,0:0:0:0:
296,225,33395,1,0,0:0:0:0:
326,312,33569,2,0,P|395:348|480:350,1,151.999995941162,8|8,0:0|0:0,0:0:0:0:
385,246,34089,5,0,0:0:0:0:
234,292,34262,2,0,L|76:307,1,151.999995941162,4|8,3:2|0:0,0:0:0:0:
43,152,34783,1,0,0:0:0:0:
109,216,34956,2,0,L|194:206,1,75.9999979705811,0|0,3:0|0:0,0:0:0:0:
311,114,35303,1,8,0:0:0:0:
242,52,35476,6,0,P|219:107|221:137,1,75.9999979705811,0|4,0:0|3:2,0:0:0:0:
378,174,35823,2,0,P|401:119|399:89,1,75.9999979705811,0|12,0:0|0:0,0:0:0:0:
386,13,36170,1,0,0:0:0:0:
473,46,36343,6,0,P|494:100|492:130,1,75.9999979705811,14|0,0:1|0:0,0:0:0:0:
239,193,36690,2,0,P|218:139|220:109,1,75.9999979705811,14|0,0:1|0:0,0:0:0:0:
263,44,37037,1,4,3:2:0:0:
35,27,37384,6,0,L|49:111,1,75.9999979705811,8|0,0:0|0:0,0:0:0:0:
115,162,37731,1,0,3:0:0:0:
201,130,37904,2,0,L|280:142,1,75.9999979705811,0|8,0:0|0:0,0:0:0:0:
189,219,38251,2,0,L|264:230,1,75.9999979705811,0|4,0:0|3:2,0:0:0:0:
348,270,38598,1,0,0:0:0:0:
348,270,38771,2,0,P|368:320|367:363,1,75.9999979705811,8|0,0:0|0:0,0:0:0:0:
280,372,39118,5,10,0:1:0:0:
490,329,39465,1,10,0:1:0:0:
341,179,39811,1,4,3:2:0:0:
35,27,40158,6,0,L|49:111,1,75.9999979705811,8|0,0:0|0:0,0:0:0:0:
130,142,40505,1,0,3:0:0:0:
214,178,40678,2,0,L|200:262,1,75.9999979705811,0|8,0:0|0:0,0:0:0:0:
22,384,41025,2,0,L|36:300,1,75.9999979705811,0|0,0:0|3:0,0:0:0:0:
56,221,41372,1,0,0:0:0:0:
56,221,41546,2,0,P|92:238|116:282,1,75.9999979705811,8|0,0:0|0:0,0:0:0:0:
280,372,41892,5,10,0:1:0:0:
490,329,42239,1,10,0:1:0:0:
341,179,42585,1,4,3:2:0:0:
35,27,42933,6,0,L|49:111,1,75.9999979705811,8|0,0:2|0:0,0:0:0:0:
193,151,43280,1,0,3:0:0:0:
106,175,43453,2,0,P|82:215|74:253,1,75.9999979705811,0|8,0:0|0:0,0:0:0:0:
208,298,43800,2,0,P|232:258|240:220,1,75.9999979705811,0|0,0:0|3:0,0:0:0:0:
293,71,44147,5,0,0:0:0:0:
361,134,44320,2,0,L|523:152,1,151.999995941162,8|0,0:0|3:0,0:0:0:0:
391,229,44840,1,0,0:0:0:0:
391,229,45014,2,0,L|492:238,1,75.9999979705811,8|0,0:0|0:0,0:0:0:0:
283,373,45361,6,0,P|254:304|190:254,1,151.999995941162,4|8,3:1|0:0,0:0:0:0:
106,274,45881,1,0,0:0:0:0:
134,186,46054,2,0,L|116:96,1,75.9999979705811,0|0,3:0|0:0,0:0:0:0:
60,42,46401,1,8,0:0:0:0:
199,66,46574,6,0,L|288:82,1,75.9999979705811,2|0,0:0|3:0,0:0:0:0:
64,203,46921,2,0,L|153:219,1,75.9999979705811,2|8,0:0|0:0,0:0:0:0:
213,272,47268,1,0,0:0:0:0:
287,169,47441,6,0,L|299:243,1,75.9999979705811,6|0,3:1|0:0,0:0:0:0:
482,345,47788,2,0,L|469:270,1,75.9999979705811,10|0,0:1|0:0,0:0:0:0:
469,270,48048,1,0,0:0:0:0:
469,270,48135,5,12,0:1:0:0:
285,331,48309,1,8,3:1:0:0:
313,243,48829,5,12,3:2:0:0:
171,214,49002,1,8,3:1:0:0:
171,214,49349,6,0,P|111:251|66:342,1,167.999994873047,12|0,3:1|0:0,0:0:0:0:
66,335,50736,1,2,0:0:0:0:
150,362,50910,5,12,3:1:0:0:
171,214,51083,1,8,3:1:0:0:
262,233,51603,5,12,3:1:0:0:
230,38,51777,1,8,3:1:0:0:
230,38,52124,6,0,L|152:21,1,71.9999978027344,12|0,3:1|0:0,0:0:0:0:
245,129,52818,5,10,0:0:0:0:
245,129,52991,2,0,P|287:112|315:69,1,68.0000012969971,10|0,0:0|0:0,0:0:0:0:
393,104,53337,2,0,P|412:55|408:11,1,75.9999979705811,12|0,0:0|0:0,0:0:0:0:
265,219,53684,6,0,L|284:303,1,75.9999979705811,4|0,3:1|0:0,0:0:0:0:
431,358,54030,2,0,P|385:321|335:313,1,75.9999979705811,8|0,0:0|0:0,0:0:0:0:
265,219,54378,2,0,P|186:244|129:307,1,151.999995941162,0|8,3:0|0:0,0:0:0:0:
30,354,54898,1,2,0:0:0:0:
30,354,54985,1,0,0:0:0:0:
30,354,55072,2,0,L|50:263,1,75.9999979705811,0|0,3:0|0:0,0:0:0:0:
166,204,55418,2,0,L|186:113,1,75.9999979705811,8|0,0:0|0:0,0:0:0:0:
206,44,55765,2,0,P|134:90|62:96,2,151.999995941162,0|8|4,3:0|0:0|3:1,0:0:0:0:
287,0,56632,5,0,0:0:0:0:
299,32,56719,1,0,0:0:0:0:
294,71,56806,2,0,L|280:121,3,37.9999989852906,8|0|0|0,0:0|0:0|0:0|0:0,0:0:0:0:
248,138,57152,2,0,L|261:192,3,37.9999989852906,0|0|0|0,3:0|0:0|0:0|0:0,0:0:0:0:
201,240,57499,5,8,0:0:0:0:
245,226,57586,1,0,0:0:0:0:
293,237,57673,1,0,0:0:0:0:
328,276,57759,1,0,0:0:0:0:
345,331,57846,2,0,B|389:338|389:338|405:331|405:331|488:344,2,106.666666666667,4|10|10,3:1|3:1|3:1,3:3:0:0:
162,299,58540,2,0,B|118:292|118:292|102:299|102:299|19:286,2,106.666666666667,4|10|10,3:1|0:1|0:1,3:3:0:0:
254,314,59233,5,12,0:1:0:0:
321,169,59407,1,8,0:0:0:0:
397,223,59754,5,12,0:1:0:0:
356,87,59927,1,8,0:0:0:0:
420,22,60274,5,12,0:1:0:0:
332,0,60447,1,8,0:0:0:0:
267,64,60621,2,0,L|158:44,1,103.999995239258,12|8,0:0|0:0,0:0:0:0:
397,223,60968,2,0,L|506:203,1,103.999995239258,12|8,0:0|0:0,0:0:0:0:
258,367,61314,6,0,L|267:312,3,47.9999985351563,12|8|4|0,0:0|0:3|0:3|3:0,0:0:0:0:
239,282,61661,2,0,L|249:226,3,47.9999985351563,12|0|0|0,0:1|0:0|0:0|0:0,0:0:0:0:
218,198,62008,6,0,L|92:216,1,95.9999970703126,4|0,3:1|0:0,0:0:0:0:
99,57,62355,2,0,L|225:39,1,95.9999970703126,8|0,0:0|0:0,0:0:0:0:
258,113,62702,1,0,3:0:0:0:
60,142,62875,1,0,0:0:0:0:
60,142,62962,1,0,0:0:0:0:
60,142,63048,2,0,P|33:189|40:260,1,95.9999970703126,8|0,0:0|0:0,0:0:0:0:
155,343,63395,6,0,P|151:295|127:255,1,95.9999970703126,4|0,3:2|0:0,0:0:0:0:
58,328,63742,2,0,P|142:274|252:271,1,191.999994140625,10|0,0:1|3:0,0:0:0:0:
398,346,64262,1,2,0:1:0:0:
482,299,64436,2,0,B|473:290|466:237|442:201,1,95.9999970703126,8|2,0:0|0:1,0:0:0:0:
447,216,64696,1,0,0:0:0:0:
445,222,64783,2,0,L|342:205,1,95.9999970703126,4|0,3:1|0:0,0:0:0:0:
462,120,65129,6,0,L|343:100,1,95.9999970703126,8|0,0:0|0:0,0:0:0:0:
366,111,65389,1,0,0:0:0:0:
364,117,65476,2,0,P|339:76|334:29,1,95.9999970703126,4|0,3:2|0:0,0:0:0:0:
428,45,65823,5,8,0:0:0:0:
255,105,65996,1,0,0:0:0:0:
255,105,66083,1,0,0:0:0:0:
255,105,66170,2,0,L|144:91,1,95.9999970703126,6|0,3:1|0:0,0:0:0:0:
21,279,66517,2,0,L|132:265,1,95.9999970703126,14|0,0:1|0:0,0:0:0:0:
243,195,66863,6,0,L|132:181,1,95.9999970703126,6|0,3:1|0:0,0:0:0:0:
33,369,67210,2,0,L|144:355,1,95.9999970703126,14|0,0:1|0:0,0:0:0:0:
128,356,67470,1,0,0:0:0:0:
128,356,67557,1,4,3:1:0:0:
237,290,67731,5,0,0:0:0:0:
326,315,67904,2,0,P|348:268|348:217,1,95.9999970703126,8|0,0:0|0:0,0:0:0:0:
435,193,68251,2,0,L|391:-2,1,191.999994140625,0|8,3:0|0:0,0:0:0:0:
512,125,68771,1,0,0:0:0:0:
512,125,68858,1,0,0:0:0:0:
512,125,68944,6,0,L|486:14,1,95.9999970703126,4|0,3:2|0:0,0:0:0:0:
392,5,69291,1,8,0:0:0:0:
318,73,69465,2,0,L|217:57,1,95.9999970703126,2|0,0:1|3:0,0:0:0:0:
61,134,69811,1,2,0:1:0:0:
99,48,69985,2,0,P|136:79|153:157,1,95.9999970703126,8|0,0:0|0:0,0:0:0:0:
149,129,70245,1,0,0:0:0:0:
145,134,70332,6,0,L|126:248,1,95.9999970703126,4|0,3:1|0:0,0:0:0:0:
63,358,70678,2,0,P|124:324|176:320,1,95.9999970703126,8|0,0:0|0:0,0:0:0:0:
218,253,71025,2,0,P|286:266|328:296,1,95.9999970703126,0|0,3:0|0:0,0:0:0:0:
437,347,71372,2,0,P|404:292|399:243,1,95.9999970703126,8|0,0:0|0:0,0:0:0:0:
398,261,71632,1,0,0:0:0:0:
398,261,71719,5,6,3:1:0:0:
426,82,71892,1,0,0:0:0:0:
498,182,72066,5,10,0:1:0:0:
321,154,72239,1,0,0:0:0:0:
426,82,72413,5,6,3:1:0:0:
398,261,72586,1,0,0:0:0:0:
409,172,72759,5,8,0:0:0:0:
409,172,72846,1,8,0:3:0:0:
409,172,72933,1,4,0:3:0:0:
409,172,73020,1,0,3:0:0:0:
409,172,73106,2,0,L|294:187,1,95.9999970703126,4|0,3:1|0:0,0:0:0:0:
192,76,73453,2,0,L|77:91,1,95.9999970703126,8|0,0:0|0:0,0:0:0:0:
223,165,73800,1,0,3:0:0:0:
284,95,73973,1,0,0:0:0:0:
284,95,74060,1,0,0:0:0:0:
284,95,74147,2,0,L|299:-5,1,95.9999970703126,8|0,0:0|0:0,0:0:0:0:
23,163,74494,6,0,P|93:181|180:262,1,191.999994140625,6|8,3:1|0:0,0:0:0:0:
159,355,75014,1,4,0:2:0:0:
159,355,75100,1,0,0:0:0:0:
159,355,75187,1,0,3:0:0:0:
250,325,75361,2,0,P|275:264|252:194,1,95.9999970703126,2|8,0:1|0:0,0:0:0:0:
199,165,75707,5,2,0:1:0:0:
199,165,75793,1,0,0:0:0:0:
199,165,75880,1,4,3:1:0:0:
108,195,76054,2,0,P|83:256|106:326,1,95.9999970703126,0|8,0:0|0:0,0:0:0:0:
159,355,76401,5,0,0:0:0:0:
159,355,76488,1,0,0:0:0:0:
159,355,76574,2,0,L|356:329,1,191.999994140625,4|8,3:2|0:0,0:0:0:0:
451,172,77095,1,0,0:0:0:0:
468,266,77268,6,0,P|418:261|370:228,1,95.9999970703126,6|0,3:1|0:0,0:0:0:0:
210,184,77615,2,0,L|224:87,1,95.9999970703126,10|0,0:1|0:0,0:0:0:0:
300,195,77962,6,0,L|314:98,1,95.9999970703126,2|0,3:1|0:0,0:0:0:0:
158,26,78309,2,0,P|110:30|69:54,1,95.9999970703126,10|0,0:1|0:0,0:0:0:0:
69,54,78569,1,0,0:0:0:0:
69,54,78655,1,4,3:1:0:0:
119,181,78829,5,0,0:0:0:0:
48,241,79002,2,0,L|33:350,1,95.9999970703126,8|0,0:0|0:0,0:0:0:0:
162,350,79349,2,0,L|177:241,1,95.9999970703126,0|0,3:0|0:0,0:0:0:0:
246,196,79696,2,0,P|300:210|344:261,1,95.9999970703126,8|0,0:0|0:0,0:0:0:0:
367,323,80043,6,0,P|384:236|453:153,1,191.999994140625,4|8,3:2|0:0,0:0:0:0:
489,256,80563,1,2,0:1:0:0:
489,256,80650,1,0,0:0:0:0:
489,256,80736,1,0,3:0:0:0:
387,229,80910,2,0,P|360:189|352:142,1,95.9999970703126,2|8,0:1|0:0,0:0:0:0:
372,52,81257,1,0,0:0:0:0:
283,80,81430,6,0,L|159:66,1,95.9999970703126,4|0,3:1|0:0,0:0:0:0:
54,25,81777,2,0,P|91:74|102:132,1,95.9999970703126,8|0,0:0|0:0,0:0:0:0:
181,161,82124,2,0,P|177:222|148:273,1,95.9999970703126,0|0,3:1|0:0,0:0:0:0:
2,348,82470,2,0,P|54:299|112:289,1,95.9999970703126,8|0,0:0|0:0,0:0:0:0:
241,307,82817,6,0,L|460:344,1,191.999994140625,4|8,3:2|0:0,0:0:0:0:
255,215,83337,1,0,0:0:0:0:
255,215,83424,1,0,0:0:0:0:
255,215,83511,2,0,L|474:252,1,191.999994140625,4|8,3:2|0:0,0:0:0:0:
478,154,84031,5,0,0:0:0:0:
478,154,84118,1,0,0:0:0:0:
478,154,84204,2,0,P|286:79|47:321,1,575.999982421876,4|8,3:1|0:0,0:0:0:0:
303,375,85418,5,0,0:0:0:0:
303,375,85505,1,0,0:0:0:0:
303,375,85592,2,0,P|289:252|-4:70,1,479.999985351563,0|0,3:0|0:0,0:0:0:0:
47,311,86632,2,0,P|94:305|155:247,1,95.9999970703126,12|0,0:0|0:0,0:0:0:0:
134,279,86892,1,0,0:0:0:0:
134,279,86979,1,4,3:1:0:0:
142,287,87499,5,0,3:0:0:0:
207,217,87673,1,12,0:0:0:0:
207,217,88193,5,0,3:0:0:0:
120,129,88366,1,12,0:0:0:0:
213,42,88540,1,8,0:0:0:0:
298,132,88713,1,12,0:0:0:0:
207,217,88887,1,8,0:0:0:0:
120,129,89060,1,12,0:1:0:0:
471,339,89754,5,4,3:1:0:0:
344,202,89927,1,0,0:0:0:0:
344,202,90014,1,0,0:0:0:0:
344,202,90100,2,0,L|359:90,1,88.000002685547,8|0,0:0|0:0,0:0:0:0:
371,24,90447,5,0,3:0:0:0:
263,102,90621,1,0,0:0:0:0:
263,102,90708,1,0,0:0:0:0:
263,102,90794,2,0,L|248:214,1,88.000002685547,8|0,0:0|0:0,0:0:0:0:
192,263,91141,5,0,3:0:0:0:
159,175,91314,1,0,0:0:0:0:
159,175,91401,1,0,0:0:0:0:
159,175,91487,2,0,L|174:63,1,88.000002685547,8|0,0:0|0:0,0:0:0:0:
68,160,91835,6,0,L|83:48,1,88.000002685547,0|0,3:0|0:0,0:0:0:0:
31,0,92181,1,8,0:0:0:0:
17,356,92528,5,4,3:1:0:0:
138,242,92702,1,0,0:0:0:0:
138,242,92788,1,0,0:0:0:0:
138,242,92875,2,0,L|246:229,1,88.000002685547,8|0,0:0|0:0,0:0:0:0:
317,221,93222,5,0,3:0:0:0:
214,138,93395,1,0,0:0:0:0:
214,138,93481,1,0,0:0:0:0:
214,138,93568,2,0,L|106:151,1,88.000002685547,8|0,0:0|0:0,0:0:0:0:
45,110,93915,5,0,3:0:0:0:
118,56,94089,1,0,0:0:0:0:
118,56,94175,1,0,0:0:0:0:
118,56,94262,2,0,L|226:43,1,88.000002685547,8|0,0:0|0:0,0:0:0:0:
400,242,94609,6,0,P|431:178|433:132,1,95.9999970703126,6|0,3:1|0:0,0:0:0:0:
285,99,94956,2,0,P|254:163|252:209,1,95.9999970703126,14|0,0:1|0:0,0:0:0:0:
322,363,95303,5,4,3:1:0:0:
510,328,95476,1,0,0:0:0:0:
510,328,95563,1,0,0:0:0:0:
510,328,95650,2,0,L|494:224,1,88.000002685547,8|0,0:0|0:0,0:0:0:0:
262,253,95996,5,0,3:0:0:0:
402,225,96170,1,0,0:0:0:0:
402,225,96257,1,0,0:0:0:0:
402,225,96344,2,0,L|386:121,1,88.000002685547,8|0,0:0|0:0,0:0:0:0:
207,139,96690,5,0,3:0:0:0:
297,118,96863,1,0,0:0:0:0:
297,118,96950,1,0,0:0:0:0:
297,118,97037,2,0,L|281:14,1,88.000002685547,8|0,0:0|0:0,0:0:0:0:
391,108,97384,6,0,L|377:21,1,88.000002685547,0|0,3:0|0:0,0:0:0:0:
467,2,97731,1,8,0:0:0:0:
62,92,98077,5,4,3:1:0:0:
219,129,98251,1,0,0:0:0:0:
219,129,98337,1,0,0:0:0:0:
219,129,98424,2,0,L|204:218,1,88.000002685547,8|0,0:0|0:0,0:0:0:0:
371,279,98771,5,0,3:0:0:0:
277,276,98944,1,0,0:0:0:0:
277,276,99030,1,0,0:0:0:0:
277,276,99117,2,0,L|262:365,1,88.000002685547,8|0,0:0|0:0,0:0:0:0:
0,269,99465,5,8,0:0:0:0:
16,240,99551,1,8,0:0:0:0:
41,219,99638,1,8,0:0:0:0:
71,208,99725,1,8,0:0:0:0:
104,208,99811,1,8,0:0:0:0:
208,339,99985,5,8,0:0:0:0:
208,339,100072,2,0,P|152:310|73:298,1,132.00000402832,8|8,0:0|0:0,0:0:0:0:
80,304,100505,2,0,L|111:211,1,88.000002685547,8|8,0:0|0:0,0:0:0:0:
157,60,100852,5,10,3:1:0:0:
208,339,101199,1,10,3:1:0:0:
512,285,101546,1,10,3:1:0:0:
461,6,101893,1,10,3:1:0:0:
331,178,102239,5,12,3:2:0:0:
331,178,102759,1,12,3:1:0:0:
