osu file format v14

[General]
AudioFilename: audio.mp3
AudioLeadIn: 0
PreviewTime: 89667
Countdown: 0
SampleSet: Soft
StackLeniency: 0.7
Mode: 0
LetterboxInBreaks: 0
EpilepsyWarning: 1
WidescreenStoryboard: 1

[Editor]
Bookmarks: 13966
DistanceSpacing: 1.2
BeatDivisor: 4
GridSize: 16
TimelineZoom: 1

[Metadata]
Title:Oniichan, Gyutte Shite! Motto Shite!
TitleUnicode:お兄ちゃん、ギュッてして!もっとして!
Artist:Yakushi Ruri
ArtistUnicode:薬師るり
Creator:Left
Version:Hard
Source:お兄ちゃん、朝までずっとギュッてして!夜までもっとエッチして!
Tags:Video game Onigyu Onigyuh おにギュ Oniichan, Asa Made Zutto Gyutte Shite! Yoru Made Motto Ecchi Shite! OP short ver. Tinkle Position Visual Novel Japanese Eroge Affirmation Agatsu Seolv
BeatmapID:2228116
BeatmapSetID:1063886

[Difficulty]
HPDrainRate:5
CircleSize:3
OverallDifficulty:6
ApproachRate:7.5
SliderMultiplier:1.5
SliderTickRate:1

[Events]
//Background and Video events
0,0,"BG.png",0,0
//Break Periods
//Storyboard Layer 0 (Background)
//Storyboard Layer 1 (Fail)
//Storyboard Layer 2 (Pass)
//Storyboard Layer 3 (Foreground)
//Storyboard Layer 4 (Overlay)
//Storyboard Sound Samples

[TimingPoints]
968,346.820809248555,4,2,7,80,1,0
3742,-105.263157894737,4,2,7,75,0,0
14840,-100,4,2,7,75,0,1
24551,-100,4,2,7,80,0,1
25939,-105.263157894737,4,2,7,68,0,0
49349,-142.857142857143,4,2,7,68,0,0
53337,-117.647058823529,4,2,7,68,0,0
53684,-105.263157894737,4,2,7,68,0,0
56459,-105.263157894737,4,2,7,73,0,0
57846,-105.263157894737,4,2,7,80,0,0
59233,-100,4,2,7,80,0,0
61661,-100,4,2,7,80,0,0
62008,-90.9090909090909,4,2,7,85,0,0
89754,-100,4,2,7,75,0,1
100852,-100,4,2,7,80,0,0

[Colours]
Combo1 : 121,188,255
Combo2 : 255,157,111
Combo3 : 188,255,121
Combo4 : 255,140,198

[HitObjects]
30,26,968,5,12,3:1:0:0:
168,60,1314,1,12,3:2:0:0:
197,197,1661,1,12,3:1:0:0:
335,231,2007,1,12,3:2:0:0:
377,370,2355,2,0,L|521:342,2,112.5,14|14|14,0:1|0:1|0:1,0:0:0:0:
300,324,3048,5,10,0:1:0:0:
300,324,3135,2,0,P|272:256|275:196,1,112.5,8|8,0:0|0:0,0:0:0:0:
320,95,3569,1,8,0:0:0:0:
404,131,3742,6,0,L|486:124,1,71.2499980974198,4|2,3:1|0:0,0:0:0:0:
465,36,4089,2,0,L|383:43,1,71.2499980974198,8|2,0:0|0:0,0:0:0:0:
320,95,4436,2,0,L|146:82,1,142.49999619484,2|8,3:2|0:0,0:0:0:0:
41,7,4956,5,0,0:0:0:0:
41,7,5043,1,0,0:0:0:0:
41,7,5129,2,0,P|83:37|107:80,1,71.2499980974198,4|2,3:2|0:0,0:0:0:0:
110,141,5476,2,0,L|123:222,1,71.2499980974198,8|2,0:0|0:0,0:0:0:0:
135,303,5823,2,0,L|39:292,1,71.2499980974198,6|0,3:1|0:0,0:0:0:0:
64,294,6170,1,10,0:1:0:0:
268,375,6517,6,0,P|294:308|355:263,1,142.49999619484,4|8,3:1|0:0,0:0:0:0:
435,242,7037,1,2,0:0:0:0:
373,178,7210,2,0,L|353:87,1,71.2499980974198,0|2,3:2|0:0,0:0:0:0:
337,21,7557,2,0,P|397:30|420:49,1,71.2499980974198,8|0,0:0|0:0,0:0:0:0:
491,111,7904,6,0,P|422:128|364:195,1,142.49999619484,4|8,3:2|0:0,0:0:0:0:
323,252,8424,1,2,0:0:0:0:
236,237,8598,2,0,L|225:147,1,71.2499980974198,14|0,0:1|0:0,0:0:0:0:
227,166,8944,1,10,0:1:0:0:
97,52,9291,6,0,P|184:38|255:3,2,142.49999619484,4|8|0,3:1|0:0|3:0,0:0:0:0:
21,5,10158,1,2,0:0:0:0:
21,5,10332,2,0,P|9:37|18:98,1,71.2499980974198,8|0,0:0|0:0,0:0:0:0:
73,141,10678,6,0,L|168:161,1,71.2499980974198,0|0,3:2|0:0,0:0:0:0:
210,216,11025,2,0,P|222:248|213:309,1,71.2499980974198,8|2,0:2|0:0,0:0:0:0:
162,354,11372,2,0,L|92:368,1,71.2499980974198,6|0,3:1|0:0,0:0:0:0:
92,368,11719,1,10,0:1:0:0:
379,370,12066,6,0,L|389:296,1,71.2499980974198,4|0,3:1|0:0,0:0:0:0:
325,235,12413,2,0,L|335:161,1,71.2499980974198,8|2,0:0|0:0,0:0:0:0:
253,126,12759,2,0,P|334:109|410:68,1,142.49999619484,4|8,3:2|0:0,0:0:0:0:
458,29,13280,1,0,0:0:0:0:
489,110,13453,5,14,0:1:0:0:
489,110,13540,2,0,P|438:89|365:84,1,106.87499714613,8|8,0:0|0:0,0:0:0:0:
314,138,13973,1,10,0:1:0:0:
314,138,14060,2,0,P|263:159|190:164,1,106.87499714613,8|8,0:0|0:0,0:0:0:0:
131,129,14494,2,0,L|116:46,1,71.2499980974198,10|10,0:1|0:1,0:0:0:0:
26,36,14840,6,0,L|55:199,1,150,4|8,3:1|0:0,0:0:0:0:
52,183,15534,2,0,L|215:154,1,150,0|8,3:0|0:0,0:0:0:0:
199,156,16228,2,0,L|228:319,1,150,0|8,3:0|0:0,0:0:0:0:
225,303,16921,6,0,L|320:285,1,75,0|0,3:0|0:0,0:0:0:0:
386,270,17268,1,8,0:0:0:0:
498,78,17615,6,0,L|334:49,1,150,4|8,3:1|0:0,0:0:0:0:
350,52,18309,2,0,L|321:215,1,150,0|8,3:0|0:0,0:0:0:0:
324,199,19002,2,0,L|160:170,1,150,0|8,3:0|0:0,0:0:0:0:
176,173,19696,6,0,L|159:270,1,75,6|0,3:1|0:0,0:0:0:0:
143,335,20043,1,14,0:1:0:0:
428,355,20389,6,0,L|399:192,1,150,4|8,3:1|0:0,0:0:0:0:
401,207,21083,2,0,L|238:236,1,150,0|8,3:0|0:0,0:0:0:0:
254,232,21777,2,0,L|224:68,1,150,12|12,0:0|0:0,0:0:0:0:
227,84,22470,6,0,L|126:100,1,75,14|8,0:1|0:1,0:0:0:0:
64,111,22817,1,6,3:1:0:0:
0,312,23164,6,0,L|163:340,1,150,4|8,3:1|0:0,0:0:0:0:
148,337,23858,2,0,L|176:173,1,150,4|8,3:2|0:0,0:0:0:0:
173,189,24551,6,0,L|258:205,1,75,6|0,3:1|0:0,0:0:0:0:
191,102,24898,2,0,L|276:118,1,75,10|0,0:1|0:0,0:0:0:0:
333,175,25245,6,0,L|418:159,1,75,2|0,3:1|0:0,0:0:0:0:
349,263,25592,2,0,L|434:247,1,75,10|0,0:1|0:0,0:0:0:0:
422,249,25852,1,0,0:0:0:0:
422,249,25939,1,4,3:1:0:0:
475,100,26285,6,0,P|436:76|395:69,1,71.2499980974198,8|0,0:0|0:0,0:0:0:0:
324,54,26632,2,0,L|170:73,1,142.49999619484,0|8,3:0|0:0,0:0:0:0:
96,54,27152,2,0,L|79:136,1,71.2499980974198,0|0,0:0|3:0,0:0:0:0:
168,141,27499,2,0,L|185:59,1,71.2499980974198,0|8,0:0|0:0,0:0:0:0:
169,330,28020,6,0,P|87:315|38:269,2,142.49999619484,10|10|4,0:1|0:1|3:2,0:0:0:0:
169,330,29060,6,0,P|212:309|244:308,1,71.2499980974198,8|0,0:0|0:0,0:0:0:0:
324,321,29407,2,0,L|405:335,1,71.2499980974198,0|0,3:0|0:0,0:0:0:0:
427,248,29754,1,8,0:0:0:0:
512,218,29927,2,0,L|495:128,1,71.2499980974198,0|0,0:0|3:0,0:0:0:0:
426,96,30274,2,0,L|409:6,1,71.2499980974198,0|8,0:0|0:0,0:0:0:0:
159,76,30794,6,0,P|88:86|27:121,2,142.49999619484,10|10|4,0:1|0:1|3:1,0:0:0:0:
159,76,31835,6,0,L|252:93,1,71.2499980974198,8|0,0:0|0:0,0:0:0:0:
249,183,32181,2,0,L|99:155,1,142.49999619484,0|8,3:0|0:0,0:0:0:0:
130,251,32702,6,0,L|200:263,1,71.2499980974198,0|0,0:0|3:0,0:0:0:0:
275,314,33048,2,0,P|294:356|299:391,1,71.2499980974198,0|8,0:0|0:0,0:0:0:0:
390,346,33395,1,0,0:0:0:0:
390,346,33569,2,0,P|371:304|366:269,1,71.2499980974198,8|0,0:0|0:0,0:0:0:0:
386,192,33915,2,0,L|400:117,1,71.2499980974198,8|0,0:0|0:0,0:0:0:0:
459,55,34262,6,0,L|296:88,1,142.49999619484,4|8,3:2|0:0,0:0:0:0:
232,97,34783,1,0,0:0:0:0:
232,97,34956,2,0,P|236:52|253:22,2,71.2499980974198,0|0|8,3:0|0:0|0:0,0:0:0:0:
254,185,35476,6,0,L|275:266,1,71.2499980974198,0|4,0:0|3:2,0:0:0:0:
185,279,35823,2,0,L|164:198,1,71.2499980974198,0|12,0:0|0:0,0:0:0:0:
143,124,36170,1,0,0:0:0:0:
81,191,36343,6,0,L|1:177,1,71.2499980974198,14|0,0:1|0:0,0:0:0:0:
41,27,36690,2,0,L|121:41,1,71.2499980974198,14|0,0:1|0:0,0:0:0:0:
143,124,37037,1,4,3:2:0:0:
86,351,37384,6,0,L|238:332,1,142.49999619484,8|0,0:0|3:0,0:0:0:0:
276,258,37904,2,0,P|306:290|318:325,1,71.2499980974198,0|8,0:0|0:0,0:0:0:0:
397,373,38251,2,0,L|406:297,1,71.2499980974198,0|4,0:0|3:2,0:0:0:0:
479,251,38598,2,0,L|488:175,1,71.2499980974198,0|8,0:0|0:0,0:0:0:0:
275,111,39118,6,0,L|261:41,1,71.2499980974198,10|0,0:1|0:0,0:0:0:0:
351,26,39465,2,0,L|364:95,1,71.2499980974198,10|0,0:1|0:0,0:0:0:0:
335,180,39811,1,4,3:2:0:0:
335,180,40158,6,0,P|244:154|170:153,1,142.49999619484,8|0,0:0|3:0,0:0:0:0:
131,213,40678,2,0,P|91:226|45:227,1,71.2499980974198,0|8,0:0|0:0,0:0:0:0:
44,140,41025,2,0,P|84:127|130:126,1,71.2499980974198,0|0,0:0|3:0,0:0:0:0:
196,151,41372,2,0,L|208:78,1,71.2499980974198,0|8,0:0|0:0,0:0:0:0:
302,284,41892,6,0,L|291:355,1,71.2499980974198,10|0,0:1|0:0,0:0:0:0:
378,374,42239,2,0,L|390:304,1,71.2499980974198,10|0,0:1|0:0,0:0:0:0:
364,217,42586,1,4,3:2:0:0:
364,217,42933,6,0,P|335:140|335:73,1,142.49999619484,8|0,0:2|3:0,0:0:0:0:
422,94,43453,2,0,P|424:135|436:164,1,71.2499980974198,0|8,0:0|0:0,0:0:0:0:
364,217,43800,6,0,L|261:203,1,71.2499980974198,0|0,0:0|3:0,0:0:0:0:
238,137,44147,2,0,L|135:123,1,71.2499980974198,0|8,0:0|0:0,0:0:0:0:
80,148,44494,1,0,0:0:0:0:
80,148,44667,2,0,P|63:106|62:72,1,71.2499980974198,0|0,3:0|0:0,0:0:0:0:
148,59,45014,2,0,P|165:101|166:135,1,71.2499980974198,8|0,0:0|0:0,0:0:0:0:
143,216,45361,6,0,L|112:367,1,142.49999619484,4|8,3:1|0:0,0:0:0:0:
206,343,45881,1,0,0:0:0:0:
206,343,46054,2,0,L|225:256,1,71.2499980974198,0|0,3:0|0:0,0:0:0:0:
283,209,46401,1,8,0:0:0:0:
367,245,46574,6,0,L|447:234,1,71.2499980974198,2|0,0:0|3:0,0:0:0:0:
425,148,46921,2,0,L|345:159,1,71.2499980974198,2|8,0:0|0:0,0:0:0:0:
310,39,47268,1,0,0:0:0:0:
272,120,47441,6,0,L|192:109,1,71.2499980974198,6|0,3:1|0:0,0:0:0:0:
146,39,47788,2,0,L|75:29,1,71.2499980974198,10|0,0:1|0:0,0:0:0:0:
4,85,48135,5,12,0:1:0:0:
4,85,48309,1,8,3:1:0:0:
256,159,48829,1,12,3:2:0:0:
256,159,49003,1,8,3:1:0:0:
147,319,49349,2,0,L|513:277,1,367.49998878479,12|0,3:1|0:0,0:0:0:0:
508,85,50910,5,12,3:1:0:0:
508,85,51084,1,8,3:1:0:0:
256,159,51604,1,12,3:1:0:0:
256,159,51778,1,8,3:1:0:0:
365,319,52124,2,0,L|144:292,1,209.999993591309,12|10,3:1|0:0,0:0:0:0:
67,283,52991,1,10,0:0:0:0:
45,128,53337,2,0,L|57:210,1,63.7500012159348,12|0,0:0|0:0,0:0:0:0:
67,283,53684,6,0,P|99:216|164:176,2,142.49999619484,4|8|0,3:1|0:0|3:0,0:0:0:0:
98,365,54551,1,0,0:0:0:0:
183,337,54725,2,0,L|273:346,1,71.2499980974198,8|2,0:0|0:0,0:0:0:0:
352,384,55072,6,0,L|336:307,1,71.2499980974198,0|0,3:0|0:0,0:0:0:0:
402,251,55418,2,0,L|386:174,1,71.2499980974198,8|0,0:0|0:0,0:0:0:0:
324,117,55765,2,0,P|283:98|240:98,1,71.2499980974198,0|0,3:0|0:0,0:0:0:0:
248,8,56112,2,0,P|322:16|396:61,1,142.49999619484,8|4,0:0|3:1,0:0:0:0:
479,119,56632,5,0,0:0:0:0:
479,119,56718,1,0,0:0:0:0:
479,119,56806,2,0,L|471:165,3,35.6249990487099,8|0|0|0,0:0|0:0|0:0|0:0,0:0:0:0:
471,163,57152,2,0,L|389:176,1,71.2499980974198,0|0,3:0|0:0,0:0:0:0:
328,234,57499,1,8,0:0:0:0:
239,217,57673,5,0,0:0:0:0:
239,217,57759,1,0,0:0:0:0:
239,217,57846,2,0,P|220:276|219:326,2,94.9999974632264,4|10|10,3:1|3:1|3:1,0:0:0:0:
123,286,58540,2,0,P|142:227|143:177,2,94.9999974632264,4|10|10,3:1|0:1|0:1,0:0:0:0:
73,138,59233,5,12,0:1:0:0:
73,138,59407,2,0,L|58:45,1,75,8|0,0:0|0:0,0:0:0:0:
180,42,59754,1,12,0:1:0:0:
180,42,59928,2,0,L|195:135,1,75,8|0,0:0|0:0,0:0:0:0:
280,133,60274,2,0,L|374:147,1,75,12|8,0:1|0:0,0:0:0:0:
426,199,60621,5,12,0:0:0:0:
346,233,60794,1,8,0:0:0:0:
363,319,60968,2,0,L|457:333,1,75,12|8,0:0|0:0,0:0:0:0:
486,259,61314,2,0,L|475:212,3,37.5,12|8|4|0,0:0|0:3|0:3|3:0,0:0:0:0:
494,196,61661,2,0,L|483:149,3,37.5,12|0|0|0,0:1|0:0|0:0|0:0,0:0:0:0:
482,151,62008,6,0,L|368:133,1,82.5000025177003,4|0,3:1|0:0,0:0:0:0:
305,124,62355,2,0,L|286:42,1,82.5000025177003,8|0,0:0|0:0,0:0:0:0:
194,15,62702,1,0,3:0:0:0:
129,86,62875,1,0,0:0:0:0:
129,86,62962,1,0,0:0:0:0:
129,86,63048,2,0,L|148:168,1,82.5000025177003,8|0,0:0|0:0,0:0:0:0:
119,261,63395,6,0,P|83:282|11:271,1,82.5000025177003,4|0,3:2|0:0,0:0:0:0:
55,188,63742,2,0,L|226:241,1,165.000005035401,10|0,0:1|3:0,0:0:0:0:
281,343,64262,1,2,0:1:0:0:
369,303,64436,2,0,L|352:218,1,82.5000025177003,8|2,0:0|0:1,0:0:0:0:
352,222,64696,1,0,0:0:0:0:
352,222,64783,5,4,3:1:0:0:
418,163,64956,1,0,0:0:0:0:
485,105,65129,2,0,L|468:20,1,82.5000025177003,8|0,0:0|0:0,0:0:0:0:
317,54,65476,2,0,L|334:139,1,82.5000025177003,4|0,3:2|0:0,0:0:0:0:
266,195,65823,2,0,L|171:178,1,82.5000025177003,8|0,0:0|0:0,0:0:0:0:
38,161,66170,6,0,P|55:94|134:31,2,165.000005035401,6|14|6,3:1|0:1|3:1,0:0:0:0:
88,310,67037,1,0,0:0:0:0:
88,310,67210,2,0,L|109:210,1,82.5000025177003,14|0,0:1|0:0,0:0:0:0:
194,201,67557,6,0,P|253:209|363:268,1,165.000005035401,4|8,3:1|0:0,0:0:0:0:
424,320,68077,1,0,0:0:0:0:
424,320,68251,2,0,P|445:266|440:224,1,82.5000025177003,0|0,3:0|0:0,0:0:0:0:
385,162,68598,2,0,L|368:72,1,82.5000025177003,8|0,0:0|0:0,0:0:0:0:
466,45,68944,6,0,L|278:22,1,165.000005035401,4|8,3:2|0:0,0:0:0:0:
241,91,69465,1,2,0:1:0:0:
241,91,69551,1,0,0:0:0:0:
241,91,69638,1,0,3:0:0:0:
178,158,69811,2,0,L|87:146,1,82.5000025177003,2|8,0:1|0:0,0:0:0:0:
2,116,70158,1,0,0:0:0:0:
22,211,70332,6,0,L|58:378,2,165.000005035401,4|8|0,3:1|0:0|3:0,0:0:0:0:
2,115,71199,1,0,0:0:0:0:
95,138,71372,2,0,L|100:43,1,82.5000025177003,8|0,0:0|0:0,0:0:0:0:
105,60,71632,1,0,0:0:0:0:
109,65,71719,6,0,P|176:39|218:39,1,82.5000025177003,6|0,3:1|0:0,0:0:0:0:
277,77,72066,2,0,P|303:143|303:185,1,82.5000025177003,10|0,0:1|0:0,0:0:0:0:
262,240,72413,2,0,P|195:266|153:266,1,82.5000025177003,6|0,3:1|0:0,0:0:0:0:
94,228,72760,2,0,P|67:161|67:119,1,82.5000025177003,8|4,0:0|0:3,0:0:0:0:
123,29,73106,6,0,L|300:58,1,165.000005035401,4|8,3:1|0:0,0:0:0:0:
374,12,73626,1,0,0:0:0:0:
442,79,73800,2,0,L|458:170,1,82.5000025177003,0|0,3:0|0:0,0:0:0:0:
456,160,74060,1,0,0:0:0:0:
456,160,74147,1,8,0:0:0:0:
416,246,74320,1,0,0:0:0:0:
478,326,74494,6,0,P|388:282|299:275,1,165.000005035401,6|8,3:1|0:0,0:0:0:0:
237,317,75014,2,0,P|197:340|145:347,1,82.5000025177003,4|0,0:2|3:0,0:0:0:0:
66,332,75361,1,2,0:1:0:0:
128,255,75534,2,0,P|168:232|220:225,1,82.5000025177003,8|2,0:0|0:1,0:0:0:0:
203,224,75794,1,0,0:0:0:0:
203,224,75881,5,4,3:1:0:0:
238,143,76054,1,0,0:0:0:0:
266,59,76228,2,0,P|311:67|355:95,1,82.5000025177003,8|0,0:0|0:0,0:0:0:0:
381,176,76574,2,0,L|407:13,1,165.000005035401,4|8,3:2|0:0,0:0:0:0:
493,69,77095,1,0,0:0:0:0:
493,69,77268,2,0,L|476:170,1,82.5000025177003,6|0,3:1|0:0,0:0:0:0:
381,176,77615,2,0,L|364:277,1,82.5000025177003,10|0,0:1|0:0,0:0:0:0:
270,237,77962,2,0,L|287:136,1,82.5000025177003,2|0,3:1|0:0,0:0:0:0:
202,100,78309,2,0,L|219:-1,1,82.5000025177003,10|0,0:1|0:0,0:0:0:0:
119,43,78655,6,0,P|146:92|173:209,1,165.000005035401,4|8,3:1|0:0,0:0:0:0:
154,296,79176,1,0,0:0:0:0:
58,306,79349,2,0,P|66:251|91:214,1,82.5000025177003,0|0,3:0|0:0,0:0:0:0:
172,197,79696,2,0,L|267:180,1,82.5000025177003,8|0,0:0|0:0,0:0:0:0:
346,211,80043,6,0,P|374:287|444:354,1,165.000005035401,4|8,3:2|0:0,0:0:0:0:
512,250,80563,1,2,0:1:0:0:
512,250,80650,1,0,0:0:0:0:
512,250,80736,1,0,3:0:0:0:
487,163,80910,2,0,P|447:145|376:142,1,82.5000025177003,2|8,0:1|0:0,0:0:0:0:
321,118,81257,1,0,0:0:0:0:
321,118,81430,6,0,L|305:35,1,82.5000025177003,4|0,3:1|0:0,0:0:0:0:
210,58,81777,2,0,L|226:141,1,82.5000025177003,8|0,0:0|0:0,0:0:0:0:
153,247,82124,2,0,L|137:164,1,82.5000025177003,0|0,3:1|0:0,0:0:0:0:
42,187,82471,2,0,L|58:270,1,82.5000025177003,8|0,0:0|0:0,0:0:0:0:
45,365,82817,6,0,P|93:286|177:238,1,165.000005035401,4|8,3:2|0:0,0:0:0:0:
250,265,83337,1,0,0:0:0:0:
250,265,83424,1,0,0:0:0:0:
250,265,83511,2,0,P|315:315|430:333,1,165.000005035401,4|8,3:2|0:0,0:0:0:0:
466,263,84031,5,0,0:0:0:0:
466,263,84118,1,0,0:0:0:0:
466,263,84204,2,0,P|371:125|54:113,1,495.000015106202,4|8,3:1|0:0,0:0:0:0:
45,322,85592,6,0,P|143:312|222:40,1,412.500012588501,0|0,3:0|0:0,0:0:0:0:
335,69,86632,2,0,L|436:59,1,82.5000025177003,12|0,0:0|0:0,0:0:0:0:
417,60,86892,1,0,0:0:0:0:
417,60,86979,1,4,3:1:0:0:
364,309,87500,5,0,3:0:0:0:
364,309,87673,1,12,0:0:0:0:
181,142,88193,1,0,3:0:0:0:
181,142,88366,2,0,L|83:131,1,82.5000025177003,12|8,0:0|0:0,0:0:0:0:
110,32,88713,2,0,L|208:43,1,82.5000025177003,12|8,0:0|0:0,0:0:0:0:
268,100,89060,1,12,0:1:0:0:
26,350,89754,6,0,L|55:187,1,150,4|8,3:1|0:0,0:0:0:0:
52,203,90448,2,0,L|215:232,1,150,0|8,3:0|0:0,0:0:0:0:
199,230,91141,2,0,L|228:67,1,150,0|8,3:0|0:0,0:0:0:0:
225,83,91835,6,0,L|320:101,1,75,0|0,3:0|0:0,0:0:0:0:
386,116,92182,1,8,0:0:0:0:
486,350,92528,6,0,L|457:187,1,150,4|8,3:1|0:0,0:0:0:0:
460,203,93222,2,0,L|297:232,1,150,0|8,3:0|0:0,0:0:0:0:
313,230,93916,2,0,L|284:67,1,150,0|8,3:0|0:0,0:0:0:0:
488,117,94609,5,6,3:1:0:0:
286,82,94956,1,14,0:1:0:0:
84,52,95303,6,0,L|113:215,1,150,4|8,3:1|0:0,0:0:0:0:
110,199,95997,2,0,L|273:170,1,150,0|8,3:0|0:0,0:0:0:0:
257,172,96691,2,0,L|286:335,1,150,0|8,3:0|0:0,0:0:0:0:
283,319,97384,6,0,L|378:301,1,75,0|0,3:0|0:0,0:0:0:0:
444,286,97731,1,8,0:0:0:0:
428,52,98077,6,0,L|399:215,1,150,4|8,3:1|0:0,0:0:0:0:
402,199,98771,2,0,L|239:170,1,150,0|8,3:0|0:0,0:0:0:0:
255,172,99465,6,0,L|238:266,1,75,8|8,0:0|0:0,0:0:0:0:
221,333,99811,1,8,0:0:0:0:
154,271,99985,1,8,0:0:0:0:
154,271,100072,2,0,L|21:291,1,112.5,8|8,0:0|0:0,0:0:0:0:
48,198,100505,2,0,L|131:186,1,75,8|8,0:0|0:0,0:0:0:0:
211,198,100852,5,10,3:1:0:0:
259,20,101199,1,10,3:1:0:0:
436,68,101546,1,10,3:1:0:0:
389,246,101892,1,10,3:1:0:0:
322,134,102239,5,12,3:2:0:0:
322,134,102759,1,12,3:1:0:0:
