osu file format v14

[General]
AudioFilename: audio.mp3
AudioLeadIn: 0
PreviewTime: 89667
Countdown: 0
SampleSet: Soft
StackLeniency: 0.8
Mode: 0
LetterboxInBreaks: 0
EpilepsyWarning: 1
WidescreenStoryboard: 1

[Editor]
Bookmarks: 13966
DistanceSpacing: 1.05
BeatDivisor: 4
GridSize: 16
TimelineZoom: 1

[Metadata]
Title:Oniichan, Gyutte Shite! Motto Shite!
TitleUnicode:お兄ちゃん、ギュッてして!もっとして!
Artist:Yakushi Ruri
ArtistUnicode:薬師るり
Creator:Left
Version:Easy
Source:お兄ちゃん、朝までずっとギュッてして!夜までもっとエッチして!
Tags:Video game Onigyu Onigyuh おにギュ Oniichan, Asa Made Zutto Gyutte Shite! Yoru Made Motto Ecchi Shite! OP short ver. Tinkle Position Visual Novel Japanese Eroge Affirmation Agatsu Seolv
BeatmapID:2228911
BeatmapSetID:1063886

[Difficulty]
HPDrainRate:3
CircleSize:2
OverallDifficulty:3
ApproachRate:3
SliderMultiplier:0.9
SliderTickRate:1

[Events]
//Background and Video events
0,0,"BG.png",0,0
//Break Periods
//Storyboard Layer 0 (Background)
//Storyboard Layer 1 (Fail)
//Storyboard Layer 2 (Pass)
//Storyboard Layer 3 (Foreground)
//Storyboard Layer 4 (Overlay)
//Storyboard Sound Samples

[TimingPoints]
968,346.820809248555,4,2,7,80,1,0
3742,-100,4,2,7,75,0,0
14840,-100,4,2,7,75,0,1
24551,-100,4,2,7,80,0,1
25939,-100,4,2,7,68,0,0
56459,-100,4,2,7,73,0,0
57846,-100,4,2,7,80,0,0
61661,-100,4,2,7,80,0,0
62008,-100,4,2,7,85,0,0
89754,-100,4,2,7,75,0,1
100852,-100,4,2,7,80,0,0

[Colours]
Combo1 : 121,188,255
Combo2 : 255,157,111
Combo3 : 188,255,121
Combo4 : 255,140,198

[HitObjects]
333,68,968,6,0,P|414:48|438:50,1,90,12|12,3:1|3:2,0:0:0:0:
438,140,1661,2,0,P|357:160|333:158,1,90,12|12,3:1|3:2,0:0:0:0:
260,133,2355,5,14,0:1:0:0:
105,24,3048,2,0,L|120:127,1,90,10|8,0:1|0:0,0:0:0:0:
32,154,3742,6,0,P|114:167|198:225,1,180,4|2,3:1|3:2,0:0:0:0:
232,306,4783,2,0,P|268:278|289:224,1,90,8|4,0:0|3:2,0:0:0:0:
423,107,5823,1,6,3:1:0:0:
350,46,6170,2,0,L|245:32,1,90,10|4,0:1|3:1,0:0:0:0:
183,87,6863,5,8,0:0:0:0:
120,16,7210,2,0,P|91:99|146:174,1,180,0|4,3:2|3:2,0:0:0:0:
236,332,8598,2,0,L|336:316,1,90,14|10,0:1|0:1,0:0:0:0:
408,360,9291,5,4,3:1:0:0:
460,281,9638,2,0,L|475:93,1,180,8|8,0:0|0:0,0:0:0:0:
413,28,10678,1,0,3:2:0:0:
243,112,11372,2,0,P|186:100|153:83,1,90,6|10,3:1|0:1,0:0:0:0:
88,20,12066,6,0,P|62:82|70:121,1,90,4|8,3:1|0:0,0:0:0:0:
126,175,12759,2,0,P|151:237|143:276,1,90,4|8,3:2|0:0,0:0:0:0:
90,332,13453,1,14,0:1:0:0:
175,372,13800,1,8,0:0:0:0:
234,298,14147,2,0,L|330:275,1,90,10|10,0:1|0:1,0:0:0:0:
406,318,14840,5,4,3:1:0:0:
445,132,15534,1,0,3:0:0:0:
282,34,16228,2,0,P|180:59|98:104,1,180,0|0,3:0|3:0,0:0:0:0:
72,277,17615,5,4,3:1:0:0:
253,222,18309,1,0,3:0:0:0:
416,316,19002,2,0,P|459:211|469:131,1,180,0|6,3:0|3:1,0:0:0:0:
406,74,20043,1,14,0:1:0:0:
314,96,20389,5,4,3:1:0:0:
250,274,21083,1,0,3:0:0:0:
70,213,21777,2,0,P|42:127|50:20,1,180,12|14,0:0|0:1,0:0:0:0:
231,3,23164,5,4,3:1:0:0:
267,188,23858,1,4,3:2:0:0:
294,374,24551,2,0,L|306:272,1,90,6|10,3:1|0:1,0:0:0:0:
381,229,25245,2,0,L|393:127,1,90,2|10,3:1|0:1,0:0:0:0:
325,72,25939,5,4,3:1:0:0:
239,112,26285,2,0,P|179:100|140:78,1,90,8|0,0:0|3:0,0:0:0:0:
84,22,26979,2,0,P|63:62|65:121,1,90,8|0,0:0|3:0,0:0:0:0:
123,177,27673,1,8,0:0:0:0:
100,268,28020,2,0,P|39:295|-3:298,2,90,10|10|4,0:1|0:1|3:2,0:0:0:0:
191,243,29060,5,8,0:0:0:0:
265,301,29407,2,0,L|453:286,1,180,0|0,3:0|3:0,0:0:0:0:
498,209,30447,1,8,0:0:0:0:
454,125,30794,2,0,L|470:28,2,90,10|10|4,0:1|0:1|3:1,0:0:0:0:
401,203,31835,5,8,0:0:0:0:
325,146,32181,2,0,P|252:120|138:111,1,180,0|0,3:0|3:0,0:0:0:0:
67,280,33569,2,0,P|135:264|174:264,1,90,8|8,0:0|0:0,0:0:0:0:
189,351,34262,6,0,P|245:280|217:193,1,180,4|0,3:2|3:0,0:0:0:0:
83,72,35650,1,4,3:2:0:0:
167,29,35996,2,0,L|274:40,1,90,12|14,0:0|0:1,0:0:0:0:
318,109,36690,2,0,L|425:98,1,90,14|4,0:1|3:2,0:0:0:0:
489,147,37384,5,8,0:0:0:0:
448,232,37731,2,0,P|400:245|354:278,1,90,0|8,3:0|0:0,0:0:0:0:
302,336,38424,2,0,P|278:297|274:250,1,90,4|8,3:2|0:0,0:0:0:0:
206,186,39118,2,0,P|212:140|239:102,2,90,10|10|4,0:1|0:1|3:2,0:0:0:0:
122,231,40158,5,8,0:0:0:0:
160,317,40505,2,0,L|354:337,1,180,0|0,3:0|3:0,0:0:0:0:
400,262,41546,1,8,0:0:0:0:
457,187,41892,2,0,L|435:79,2,90,10|10|4,0:1|0:1|3:2,0:0:0:0:
400,262,42933,5,8,0:2:0:0:
319,213,43280,2,0,P|330:111|363:37,1,180,0|0,3:0|3:0,0:0:0:0:
201,142,44667,2,0,P|148:171|110:179,1,90,0|8,3:0|0:0,0:0:0:0:
29,149,45361,5,4,3:1:0:0:
0,238,45707,1,8,0:0:0:0:
88,271,46054,2,0,P|116:320|123:371,1,90,0|8,3:0|0:0,0:0:0:0:
215,333,46748,2,0,L|256:142,1,180,0|6,3:0|3:1,0:0:0:0:
278,66,47788,1,10,0:1:0:0:
368,39,48135,5,12,0:1:0:0:
506,167,48829,2,0,P|489:224|484:315,1,135,12|12,3:2|3:1,0:0:0:0:
143,42,50910,5,12,3:1:0:0:
6,167,51603,2,0,P|23:224|28:315,1,135,12|12,3:1|3:1,0:0:0:0:
260,348,52991,2,0,P|275:301|279:253,1,90,10|12,0:0|0:0,0:0:0:0:
234,177,53684,6,0,P|301:168|373:251,1,180,4|0,3:1|3:0,0:0:0:0:
341,334,54725,1,8,0:0:0:0:
247,347,55072,2,0,L|141:357,1,90,0|8,3:0|0:0,0:0:0:0:
63,363,55765,2,0,L|91:186,1,180,0|4,3:0|3:1,0:0:0:0:
79,91,56806,5,8,0:0:0:0:
172,106,57152,2,0,P|246:80|265:78,1,90,0|8,3:0|0:0,0:0:0:0:
349,99,57846,1,4,3:1:0:0:
386,284,58540,1,4,3:1:0:0:
200,320,59233,6,0,P|165:271|161:193,1,135,12|12,0:1|0:1,0:0:0:0:
37,125,60274,2,0,P|52:66|79:38,1,90,12|12,0:1|0:0,0:0:0:0:
164,28,60968,1,12,0:0:0:0:
220,103,61314,2,0,L|328:113,1,90,12|12,0:0|0:1,0:0:0:0:
377,44,62008,6,0,P|398:81|400:132,1,90,4|8,3:1|0:0,0:0:0:0:
342,201,62702,2,0,P|302:270|304:381,1,180,0|4,3:0|3:2,0:0:0:0:
394,377,63742,1,10,0:1:0:0:
457,307,64089,2,0,P|447:251|423:206,1,90,0|8,3:0|0:0,0:0:0:0:
340,201,64783,6,0,L|153:174,1,180,4|4,3:1|3:2,0:0:0:0:
33,36,66170,1,6,3:1:0:0:
11,127,66517,1,14,0:1:0:0:
71,198,66863,2,0,L|53:286,1,90,6|14,3:1|0:1,0:0:0:0:
119,354,67557,6,0,P|187:314|290:302,1,180,4|0,3:1|3:0,0:0:0:0:
349,230,68598,1,8,0:0:0:0:
438,260,68944,2,0,P|437:201|413:158,1,90,4|8,3:2|0:0,0:0:0:0:
338,133,69638,2,0,L|239:119,1,90,0|8,3:0|0:0,0:0:0:0:
183,52,70332,5,4,3:1:0:0:
92,79,70678,2,0,P|76:128|75:173,1,90,8|0,0:0|3:0,0:0:0:0:
126,245,71372,1,8,0:0:0:0:
50,301,71719,2,0,P|171:302|224:340,1,180,6|4,3:1|3:2,0:0:0:0:
404,310,73106,5,4,3:1:0:0:
477,249,73453,2,0,L|490:142,1,90,8|0,0:0|3:0,0:0:0:0:
436,80,74147,1,8,0:0:0:0:
363,141,74494,2,0,L|350:248,1,90,6|8,3:1|0:0,0:0:0:0:
296,306,75187,2,0,P|256:330|204:338,1,90,0|8,3:0|0:0,0:0:0:0:
121,361,75881,6,0,P|121:302|218:243,1,180,4|4,3:1|3:2,0:0:0:0:
287,69,77268,1,6,3:1:0:0:
378,94,77615,1,10,0:1:0:0:
448,31,77962,2,0,P|465:63|468:118,1,90,2|10,3:1|0:1,0:0:0:0:
405,186,78655,6,0,P|377:262|367:363,1,180,4|0,3:1|3:0,0:0:0:0:
274,340,79696,1,8,0:0:0:0:
182,363,80043,2,0,L|86:348,1,90,4|8,3:2|0:0,0:0:0:0:
34,275,80736,1,0,3:0:0:0:
109,218,81083,2,0,L|94:113,1,90,8|4,0:0|3:1,0:0:0:0:
255,26,82124,5,0,3:1:0:0:
415,128,82817,2,0,L|403:218,1,90,4|8,3:2|0:0,0:0:0:0:
337,286,83511,2,0,P|394:312|433:310,1,90,4|8,3:2|0:0,0:0:0:0:
492,251,84204,6,0,P|363:255|156:364,2,360,4|0|4,3:1|3:0|3:1,0:0:0:0:
505,62,87673,5,12,0:0:0:0:
317,42,88366,2,0,P|297:105|296:145,1,90,12|12,0:0|0:0,0:0:0:0:
320,219,89060,1,12,0:1:0:0:
178,344,89754,5,4,3:1:0:0:
87,178,90447,1,0,3:0:0:0:
257,96,91141,2,0,P|332:111|420:179,1,180,0|0,3:0|3:0,0:0:0:0:
334,344,92528,5,4,3:1:0:0:
425,178,93222,1,0,3:0:0:0:
255,96,93916,2,0,P|180:111|92:179,1,180,0|6,3:0|3:1,0:0:0:0:
68,261,94956,1,14,0:1:0:0:
36,349,95303,5,4,3:1:0:0:
222,316,95996,1,0,3:0:0:0:
405,268,96690,2,0,L|425:81,1,180,0|0,3:0|3:0,0:0:0:0:
255,3,98077,5,4,3:1:0:0:
219,188,98771,1,0,3:0:0:0:
179,372,99465,2,0,L|-18:343,1,180,8|0,0:0|0:0,0:0:0:0:
36,160,100852,6,0,P|83:140|138:140,1,90,10|10,3:1|3:1,0:0:0:0:
205,94,101546,2,0,P|252:114|307:114,1,90,10|10,3:1|3:1,0:0:0:0:
354,186,102239,1,12,3:2:0:0:
447,79,102759,1,12,3:1:0:0:
