osu file format v14

[General]
AudioFilename: audio.mp3
AudioLeadIn: 0
PreviewTime: 89667
Countdown: 0
SampleSet: Soft
StackLeniency: 0.6
Mode: 0
LetterboxInBreaks: 0
EpilepsyWarning: 1
WidescreenStoryboard: 1

[Editor]
Bookmarks: 961,3735,14833,25932,37030,48128,62001,73099,89747,100845,102752
DistanceSpacing: 0.5
BeatDivisor: 4
GridSize: 16
TimelineZoom: 1.8

[Metadata]
Title:Oniichan, Gyutte Shite! Motto Shite!
TitleUnicode:お兄ちゃん、ギュッてして!もっとして!
Artist:Yakushi Ruri
ArtistUnicode:薬師るり
Creator:Left
Version:Agatsu x Seolv's Insane
Source:お兄ちゃん、朝までずっとギュッてして!夜までもっとエッチして!
Tags:Video game Onigyu Onigyuh おにギュ Oniichan, Asa Made Zutto Gyutte Shite! Yoru Made Motto Ecchi Shite! OP short ver. Tinkle Position Visual Novel Japanese Eroge Affirmation Agatsu Seolv
BeatmapID:2306807
BeatmapSetID:1063886

[Difficulty]
HPDrainRate:5
CircleSize:4
OverallDifficulty:8
ApproachRate:9
SliderMultiplier:1.7
SliderTickRate:1

[Events]
//Background and Video events
0,0,"collabbg.jpg",0,0
//Break Periods
//Storyboard Layer 0 (Background)
//Storyboard Layer 1 (Fail)
//Storyboard Layer 2 (Pass)
//Storyboard Layer 3 (Foreground)
//Storyboard Layer 4 (Overlay)
//Storyboard Sound Samples

[TimingPoints]
968,346.820809248555,4,2,7,80,1,0
3742,-100,4,2,7,75,0,0
14840,-100,4,2,7,75,0,1
24551,-71.4285714285714,4,2,7,80,0,1
24725,-100,4,2,7,5,0,1
24898,-76.9230769230769,4,2,7,80,0,1
25072,-83.3333333333333,4,2,7,5,0,1
25245,-83.3333333333333,4,2,7,80,0,1
25418,-100,4,2,7,5,0,1
25592,-90.9090909090909,4,2,7,80,0,1
25939,-100,4,2,7,68,0,0
28020,-100,4,2,7,68,0,0
29060,-100,4,2,7,68,0,0
30794,-100,4,2,7,68,0,0
31835,-100,4,2,7,68,0,0
47441,-83.3333333333333,4,2,7,68,0,0
47615,-100,4,2,7,5,0,0
47788,-83.3333333333333,4,2,7,68,0,0
48048,-100,4,2,7,68,0,0
48829,-100,4,2,7,68,0,0
49349,-100,4,2,7,68,0,0
50910,-100,4,2,7,68,0,0
51777,-100,4,2,7,68,0,0
53337,-100,4,2,7,68,0,0
56459,-100,4,2,7,73,0,0
57846,-100,4,2,7,80,0,0
59233,-100,4,2,7,88,0,0
61661,-100,4,2,7,68,0,0
62008,-100,4,2,7,85,0,0
84204,-100,4,2,7,85,0,0
89754,-100,4,2,7,75,0,1
94609,-83.3333333333333,4,2,7,75,0,1
95650,-100,4,2,7,75,0,1
100852,-100,4,2,7,80,0,0

[Colours]
Combo1 : 121,188,255
Combo2 : 255,157,111
Combo3 : 188,255,121
Combo4 : 255,140,198

[HitObjects]
19,83,968,6,0,B|84:64|84:64|160:103|124:140,2,170,12|12|12,3:1|3:2|3:1,0:0:0:0:
301,56,2008,2,0,P|281:78|342:120,1,127.5,12|0,3:2|0:0,0:0:0:0:
386,50,2355,6,0,P|405:33|516:22,2,127.5,14|14|14,0:1|0:1|0:1,0:0:0:0:
435,141,3048,5,10,0:1:0:0:
435,141,3135,1,8,0:0:0:0:
301,56,3309,1,10,0:1:0:0:
301,56,3395,1,8,0:0:0:0:
148,104,3569,2,0,L|97:96,1,42.5,8|8,0:0|0:0,0:0:0:0:
208,15,3742,5,4,3:1:0:0:
229,155,3915,1,2,0:0:0:0:
252,166,4002,1,2,0:0:0:0:
276,168,4089,2,0,P|296:162|313:150,1,42.5,8|0,0:0|0:0,0:0:0:0:
355,76,4262,2,0,P|360:55|358:34,1,42.5,2|0,0:0|0:0,0:0:0:0:
269,80,4436,5,2,3:2:0:0:
277,121,4522,1,0,0:0:0:0:
285,163,4609,1,2,0:0:0:0:
293,205,4696,1,2,0:0:0:0:
301,246,4783,2,0,L|312:298,1,42.5,8|0,0:0|0:0,0:0:0:0:
224,352,4956,5,0,0:0:0:0:
224,352,5043,1,0,0:0:0:0:
224,352,5129,2,0,P|218:332|206:315,3,42.5,4|0|2|0,3:2|0:0|0:0|0:0,0:0:0:0:
132,273,5476,2,0,P|111:268|35:317,1,85,8|2,0:0|0:0,0:0:0:0:
145,367,5823,5,6,3:1:0:0:
137,261,5996,1,0,0:0:0:0:
130,156,6170,1,10,0:1:0:0:
446,140,6517,6,0,L|401:141,3,42.5,4|2|0|2,3:1|0:0|0:0|0:0,0:0:0:0:
329,157,6863,2,0,P|297:134|306:88,1,85,8|2,0:0|0:0,0:0:0:0:
392,226,7210,1,0,3:2:0:0:
392,226,7297,1,0,0:0:0:0:
392,226,7384,2,0,L|371:263,1,42.5,2|2,0:0|0:0,0:0:0:0:
308,369,7557,5,8,0:0:0:0:
296,341,7643,1,0,0:0:0:0:
273,322,7730,1,0,0:0:0:0:
245,315,7817,1,0,0:0:0:0:
216,321,7903,1,4,3:2:0:0:
282,241,8077,1,2,0:0:0:0:
258,162,8251,1,8,0:0:0:0:
184,135,8424,1,2,0:0:0:0:
282,241,8598,5,14,0:1:0:0:
244,79,8771,1,0,0:0:0:0:
118,186,8944,1,10,0:1:0:0:
383,300,9291,6,0,P|405:246|377:213,1,85,4|2,3:1|0:0,0:0:0:0:
345,169,9551,1,0,0:0:0:0:
345,169,9638,2,0,L|297:174,1,42.5,8|0,0:0|0:0,0:0:0:0:
239,252,9811,2,0,L|191:257,1,42.5,2|2,0:0|0:0,0:0:0:0:
91,230,9985,5,0,3:0:0:0:
63,198,10071,1,0,0:0:0:0:
54,157,10158,1,2,0:0:0:0:
66,116,10245,1,0,0:0:0:0:
95,86,10332,2,0,P|115:55|117:26,1,42.5,8|0,0:0|0:0,0:0:0:0:
185,161,10505,5,0,0:0:0:0:
185,161,10592,1,0,0:0:0:0:
185,161,10678,2,0,P|148:160|121:172,3,42.5,0|0|0|2,3:2|0:0|0:0|0:0,0:0:0:0:
81,210,11025,2,0,P|69:228|91:316,1,85,8|2,0:2|0:0,0:0:0:0:
161,384,11372,5,6,3:1:0:0:
180,269,11546,1,0,0:0:0:0:
193,155,11719,1,10,0:1:0:0:
332,278,12066,6,0,L|331:233,3,42.5,4|2|0|0,3:1|0:0|0:0|0:0,0:0:0:0:
293,344,12413,2,0,P|339:356|379:340,1,85,8|2,0:0|0:0,0:0:0:0:
435,202,12759,1,4,3:2:0:0:
332,278,12933,1,2,0:2:0:0:
472,344,13106,1,8,0:0:0:0:
472,344,13193,1,0,0:0:0:0:
472,344,13280,2,0,L|458:285,1,42.5,0|0,0:0|0:0,0:0:0:0:
442,128,13453,5,14,0:1:0:0:
442,128,13540,1,8,0:0:0:0:
318,152,13713,1,10,0:1:0:0:
318,152,13800,1,8,0:0:0:0:
197,180,13973,1,10,0:1:0:0:
197,180,14060,2,0,L|183:92,1,85,8|10,0:0|0:1,0:0:0:0:
181,83,14320,5,8,0:0:0:0:
116,189,14494,1,10,0:1:0:0:
15,115,14667,1,10,0:1:0:0:
79,14,14840,5,4,3:1:0:0:
181,83,15014,2,0,L|242:78,1,42.5,0|0,0:0|0:0,0:0:0:0:
299,44,15187,2,0,P|309:48|400:68,1,85,8|0,0:0|0:0,0:0:0:0:
489,225,15534,5,0,3:0:0:0:
360,339,15707,2,0,L|367:290,1,42.5,0|0,0:0|0:0,0:0:0:0:
285,243,15881,2,0,B|266:261|259:281|259:281|262:305|276:329,1,85,8|0,0:0|0:0,0:0:0:0:
377,155,16228,5,0,3:0:0:0:
283,81,16401,2,0,L|217:90,1,42.5,0|0,0:0|0:0,0:0:0:0:
173,134,16574,2,0,P|159:130|87:118,1,85,8|0,0:0|0:0,0:0:0:0:
165,375,16921,6,0,B|184:357|191:337|191:337|187:312|180:300,1,85,0|0,3:0|0:0,0:0:0:0:
95,323,17181,1,0,0:0:0:0:
95,323,17268,2,0,L|4:337,1,85,8|0,0:0|0:0,0:0:0:0:
124,196,17615,5,4,3:1:0:0:
277,349,17788,2,0,L|285:301,1,42.5,0|0,0:0|0:0,0:0:0:0:
359,270,17962,2,0,L|342:175,1,85,8|0,0:0|0:0,0:0:0:0:
449,319,18309,5,0,3:0:0:0:
257,209,18482,2,0,L|198:202,1,42.5,0|0,0:0|0:0,0:0:0:0:
129,248,18655,2,0,B|112:226|108:207|108:207|114:187|133:165,1,85,8|0,0:0|0:0,0:0:0:0:
257,67,19002,5,0,3:0:0:0:
369,130,19176,1,0,0:0:0:0:
369,130,19262,1,0,0:0:0:0:
369,130,19349,2,0,L|352:39,1,85,8|0,0:0|0:0,0:0:0:0:
498,319,19696,6,0,P|466:321|420:285,1,85,6|0,3:1|0:0,0:0:0:0:
493,232,19956,1,0,0:0:0:0:
493,232,20043,2,0,L|514:147,1,85,14|0,0:1|0:0,0:0:0:0:
352,238,20389,5,4,3:1:0:0:
185,131,20563,1,0,0:0:0:0:
185,131,20650,1,0,0:0:0:0:
185,131,20736,2,0,P|155:158|164:212,1,85,8|0,0:0|0:0,0:0:0:0:
250,198,21083,5,0,3:0:0:0:
96,363,21257,2,0,L|90:308,1,42.5,0|0,0:0|0:0,0:0:0:0:
0,303,21430,2,0,L|21:221,1,85,8|0,0:0|0:0,0:0:0:0:
250,198,21777,5,12,0:0:0:0:
136,88,21950,1,8,0:0:0:0:
288,44,22124,1,12,0:0:0:0:
228,111,22297,5,0,0:0:0:0:
380,249,22470,6,0,L|452:241,1,42.5,14|0,0:1|0:0,0:0:0:0:
388,55,22644,2,0,L|460:63,1,42.5,8|0,0:1|0:0,0:0:0:0:
511,155,22817,2,0,B|494:147|494:147|444:152|444:152|426:144,1,85,6|8,3:1|0:0,0:0:0:0:
293,329,23164,5,4,3:1:0:0:
147,202,23337,2,0,L|197:198,1,42.5,0|0,0:0|0:0,0:0:0:0:
259,158,23511,2,0,P|263:138|275:61,1,85,8|0,0:0|0:0,0:0:0:0:
150,96,23858,5,4,3:2:0:0:
299,237,24031,2,0,L|348:226,1,42.5,0|0,0:0|0:0,0:0:0:0:
420,266,24204,2,0,B|441:308|441:308|420:364,1,85,8|0,0:0|0:0,0:0:0:0:
180,384,24551,6,0,P|148:362|138:281,1,118.999996368408,6|0,3:1|0:0,0:0:0:0:
4,220,24898,6,0,P|13:183|82:148,1,110.499994941712,10|0,0:1|0:0,0:0:0:0:
81,8,25245,6,0,P|118:4|173:53,1,101.999996887207,2|0,3:1|0:0,0:0:0:0:
277,3,25592,6,0,P|293:36|266:102,1,93.5000028533936,10|0,0:1|0:0,0:0:0:0:
195,168,25939,5,4,3:1:0:0:
195,168,26285,2,0,L|182:294,1,127.5,8|0,0:0|0:0,0:0:0:0:
180,318,26632,2,0,P|216:295|264:290,1,85,0|0,3:0|0:0,0:0:0:0:
316,332,26979,1,8,0:0:0:0:
132,384,27152,6,0,P|99:329|174:232,1,170,0|0,0:0|0:0,0:0:0:0:
173,237,27586,1,0,0:0:0:0:
173,237,27673,2,0,L|186:125,1,85,8|0,0:0|0:0,0:0:0:0:
75,23,28020,5,10,0:1:0:0:
392,185,28366,1,10,0:1:0:0:
84,357,28713,1,4,3:2:0:0:
84,357,29060,6,0,P|145:332|224:334,1,127.5,8|0,0:0|0:0,0:0:0:0:
232,351,29407,2,0,P|283:355|313:326,1,85,0|0,3:0|0:0,0:0:0:0:
328,245,29754,1,8,0:0:0:0:
401,366,29927,6,0,L|414:186,1,170,0|0,0:0|0:0,0:0:0:0:
478,72,30447,2,0,P|498:115|483:156,1,85,8|0,0:0|0:0,0:0:0:0:
332,53,30794,5,10,0:1:0:0:
242,355,31141,1,10,0:1:0:0:
17,142,31488,1,4,3:1:0:0:
17,142,31835,6,0,L|156:123,1,127.5,8|0,0:0|0:0,0:0:0:0:
170,123,32181,2,0,P|144:169|158:221,1,85,0|0,3:0|0:0,0:0:0:0:
245,189,32528,1,8,0:0:0:0:
266,91,32702,2,0,P|239:45|187:31,1,85,0|0,0:0|3:0,0:0:0:0:
245,189,33048,2,0,P|297:188|335:150,1,85,0|8,0:0|0:0,0:0:0:0:
370,95,33395,1,0,0:0:0:0:
441,292,33569,5,8,0:0:0:0:
107,356,33915,2,0,L|88:245,1,85,8|0,0:0|0:0,0:0:0:0:
13,165,34262,6,0,B|108:140|86:209|206:176,1,170,4|8,3:2|0:0,0:0:0:0:
240,91,34783,1,0,0:0:0:0:
284,196,34956,2,0,P|232:187|253:85,1,170,0|8,3:0|0:0,0:0:0:0:
374,19,35476,6,0,L|283:12,1,85,0|4,0:0|3:2,0:0:0:0:
383,116,35823,2,0,L|474:109,1,85,0|12,0:0|0:0,0:0:0:0:
284,196,36170,1,0,0:0:0:0:
383,282,36343,5,14,0:1:0:0:
129,66,36690,1,14,0:1:0:0:
70,384,37037,6,0,P|81:382|160:377,1,85,4|0,3:2|0:0,0:0:0:0:
256,204,37384,2,0,P|257:246|263:288,1,85,8|0,0:0|0:0,0:0:0:0:
178,261,37731,1,0,3:0:0:0:
335,119,37904,2,0,P|324:117|243:98,1,85,0|8,0:0|0:0,0:0:0:0:
13,163,38251,6,0,B|115:137|100:185|189:161,1,170,0|0,0:0|0:0,0:0:0:0:
336,271,38771,2,0,P|337:280|352:363,1,85,8|0,0:0|0:0,0:0:0:0:
350,354,39031,1,0,0:0:0:0:
350,354,39118,1,10,0:1:0:0:
232,275,39291,1,0,0:0:0:0:
168,373,39465,5,10,0:1:0:0:
336,271,39638,1,0,0:0:0:0:
189,153,39811,6,0,P|188:137|172:61,1,85,4|0,3:2|0:0,0:0:0:0:
329,143,40158,2,0,P|376:150|401:269,1,170,8|0,0:0|3:0,0:0:0:0:
220,295,40678,2,0,B|181:275|181:275|122:284,1,85,0|8,0:0|0:0,0:0:0:0:
5,380,41025,6,0,B|41:289|-12:318|45:204,1,170,0|0,0:0|0:0,0:0:0:0:
147,67,41546,2,0,P|151:83|165:160,1,85,8|0,0:0|0:0,0:0:0:0:
318,273,41892,1,10,0:1:0:0:
401,165,42066,1,0,0:0:0:0:
442,274,42239,5,10,0:1:0:0:
303,174,42413,1,0,0:0:0:0:
450,80,42586,6,0,L|479:-9,1,85,4|0,3:2|0:0,0:0:0:0:
327,62,42933,2,0,P|303:52|144:41,1,170,8|0,0:2|3:0,0:0:0:0:
206,194,43453,1,0,0:0:0:0:
87,95,43626,1,8,0:0:0:0:
0,206,43800,6,0,P|22:212|85:168,1,85,0|0,0:0|3:0,0:0:0:0:
187,38,44147,2,0,P|209:32|272:76,1,85,0|8,0:0|0:0,0:0:0:0:
397,226,44580,5,0,0:0:0:0:
397,226,44667,1,0,3:0:0:0:
456,151,44840,1,0,0:0:0:0:
423,318,45014,1,8,0:0:0:0:
294,205,45187,1,0,0:0:0:0:
165,323,45361,6,0,P|114:320|90:207,1,170,4|8,3:1|0:0,0:0:0:0:
224,270,45881,1,0,0:0:0:0:
0,209,46054,2,0,P|31:196|177:185,1,170,0|8,3:0|0:0,0:0:0:0:
324,26,46574,6,0,P|320:37|304:120,1,85,2|0,0:0|3:0,0:0:0:0:
427,275,46921,2,0,P|423:264|407:181,1,85,2|8,0:0|0:0,0:0:0:0:
269,270,47268,1,0,0:0:0:0:
95,216,47441,6,0,P|131:198|215:203,1,101.999996887207,6|0,3:1|0:0,0:0:0:0:
226,364,47788,2,0,P|190:382|106:377,1,101.999996887207,10|0,0:1|0:0,0:0:0:0:
136,146,48135,5,12,0:1:0:0:
23,339,48309,1,8,3:1:0:0:
23,339,48829,5,12,3:2:0:0:
136,146,49002,2,0,L|242:138,1,85,8|0,3:1|0:0,0:0:0:0:
336,286,49349,6,0,B|306:139|397:199|343:17,1,255,12|0,3:1|0:0,0:0:0:0:
348,37,50216,2,0,P|316:71|300:75,1,42.5,0|0,0:0|0:0,0:0:0:0:
253,102,50389,2,0,P|207:91|196:79,1,42.5,0|0,0:0|0:0,0:0:0:0:
156,41,50563,2,0,P|142:-3|147:-19,2,42.5,0|0|2,0:0|0:0|0:0,0:0:0:0:
253,102,50910,5,12,3:1:0:0:
362,290,51083,1,8,3:1:0:0:
362,290,51603,5,12,3:1:0:0:
253,102,51777,2,0,L|241:216,1,85,8|0,3:1|0:0,0:0:0:0:
215,347,52124,2,0,B|138:339|138:339|118:326|118:326|40:319,1,170,12|0,3:1|0:0,0:0:0:0:
17,245,52644,1,0,0:0:0:0:
236,216,52817,5,10,0:0:0:0:
123,187,52991,1,10,0:0:0:0:
437,140,53337,5,12,0:0:0:0:
92,60,53684,6,0,P|148:56|186:87,1,85,4|0,3:1|0:0,0:0:0:0:
185,85,53944,1,0,0:0:0:0:
185,85,54031,2,0,P|203:138|183:182,1,85,8|0,0:0|0:0,0:0:0:0:
277,327,54378,6,0,P|245:280|253:232,1,85,0|0,3:0|0:0,0:0:0:0:
252,233,54638,1,0,0:0:0:0:
252,233,54725,2,0,P|288:190|337:185,1,85,8|2,0:0|0:0,0:0:0:0:
332,186,54985,1,0,0:0:0:0:
332,186,55072,2,0,P|382:210|399:256,1,85,0|0,3:0|0:0,0:0:0:0:
403,251,55332,1,0,0:0:0:0:
403,251,55418,5,8,0:0:0:0:
379,118,55592,1,0,0:0:0:0:
496,86,55765,1,0,3:0:0:0:
502,72,55939,2,0,L|499:26,2,42.5,0|0|8,0:0|0:0|0:0,0:0:0:0:
508,156,56285,1,0,0:0:0:0:
366,253,56459,6,0,B|264:238|307:307|207:291,1,170,4|8,3:1|0:0,0:0:0:0:
163,192,56979,1,0,0:0:0:0:
104,332,57152,2,0,P|113:290|47:215,1,127.5,0|0,3:0|0:0,0:0:0:0:
53,228,57499,1,8,0:0:0:0:
10,143,57673,2,0,L|1:91,1,42.5,0|0,0:0|0:0,0:0:0:0:
57,29,57846,6,0,P|97:33|118:42,1,56.6666666666667,4|0,3:1|0:0,0:0:0:0:
185,98,58077,6,0,P|201:134|204:157,1,56.6666666666667,10|0,3:1|0:0,0:0:0:0:
210,253,58309,6,0,P|186:285|168:299,1,56.6666666666667,10|0,3:1|0:0,0:0:0:0:
321,357,58540,6,0,P|304:320|301:297,1,56.6666666666667,4|0,3:1|0:0,0:0:0:0:
315,203,58771,6,0,P|338:170|356:156,1,56.6666666666667,10|0,0:1|0:0,0:0:0:0:
434,107,59003,6,0,P|473:111|495:120,1,56.6666666666667,10|0,0:1|0:0,0:0:0:0:
503,259,59233,5,12,0:1:0:0:
405,240,59407,1,8,0:0:0:0:
107,380,59754,5,12,0:1:0:0:
267,345,59928,1,8,0:0:0:0:
170,296,60100,1,0,0:0:0:0:
170,296,60187,1,0,0:0:0:0:
170,296,60274,2,0,P|151:270|145:248,1,42.5,12|0,0:1|0:0,0:0:0:0:
239,259,60447,2,0,P|230:239|216:223,1,42.5,8|0,0:0|0:0,0:0:0:0:
81,187,60621,5,12,0:0:0:0:
195,141,60794,1,8,0:0:0:0:
47,86,60968,5,12,0:0:0:0:
221,150,61141,1,8,0:0:0:0:
113,30,61314,5,12,0:0:0:0:
149,50,61400,1,8,0:3:0:0:
191,50,61487,1,4,0:3:0:0:
147,66,61574,1,0,3:0:0:0:
120,100,61661,1,12,0:1:0:0:
110,148,61748,1,0,0:0:0:0:
121,188,61835,1,0,0:0:0:0:
144,228,61921,1,0,0:0:0:0:
181,250,62008,6,0,B|284:233|257:287|355:267,1,170,4|8,3:1|0:0,0:0:0:0:
505,121,62528,2,0,P|500:144|489:221,1,85,0|0,0:0|3:0,0:0:0:0:
338,99,62875,1,0,0:0:0:0:
338,99,62962,1,0,0:0:0:0:
338,99,63048,2,0,L|273:89,1,42.5,8|0,0:0|0:0,0:0:0:0:
363,189,63222,1,0,0:0:0:0:
184,347,63395,6,0,P|201:313|348:303,1,170,4|10,3:2|0:1,0:0:0:0:
171,119,63915,2,0,P|164:135|155:222,1,85,0|0,0:0|3:0,0:0:0:0:
100,43,64262,1,2,0:1:0:0:
263,185,64436,2,0,L|314:178,3,42.5,8|0|2|0,0:0|0:0|0:1|0:0,0:0:0:0:
360,116,64783,5,4,3:1:0:0:
454,248,64956,1,0,0:0:0:0:
502,178,65129,1,8,0:0:0:0:
341,278,65303,1,0,0:0:0:0:
465,377,65476,2,0,P|438:382|382:345,1,85,4|0,3:2|0:0,0:0:0:0:
341,278,65736,1,0,0:0:0:0:
341,278,65823,2,0,P|314:273|258:310,1,85,8|0,0:0|0:0,0:0:0:0:
201,369,66083,1,0,0:0:0:0:
201,369,66170,6,0,B|105:336|115:384|34:362,1,170,6|14,3:1|0:1,0:0:0:0:
201,216,66690,1,0,0:0:0:0:
97,115,66863,2,0,P|95:132|113:220,1,85,6|0,3:1|0:0,0:0:0:0:
293,183,67210,2,0,P|295:166|277:78,1,85,14|0,0:1|0:0,0:0:0:0:
224,42,67470,1,0,0:0:0:0:
224,42,67557,6,0,P|246:53|402:74,1,170,4|8,3:1|0:0,0:0:0:0:
293,183,68077,1,0,0:0:0:0:
462,280,68251,1,0,3:0:0:0:
429,188,68424,1,0,0:0:0:0:
248,289,68598,2,0,P|226:284|132:265,1,85,8|0,0:0|0:0,0:0:0:0:
100,329,68858,1,0,0:0:0:0:
100,329,68944,6,0,P|120:260|11:233,1,170,4|8,3:2|0:0,0:0:0:0:
216,80,69465,2,0,L|246:-4,1,85,2|0,0:1|3:0,0:0:0:0:
138,31,69811,1,2,0:1:0:0:
304,164,69985,2,0,L|332:244,1,85,8|0,0:0|0:0,0:0:0:0:
417,286,70245,1,0,0:0:0:0:
417,286,70332,6,0,B|323:265|336:319|221:283,2,170,4|8|0,3:1|0:0|3:0,0:0:0:0:
328,85,71199,1,0,0:0:0:0:
328,85,71285,1,0,0:0:0:0:
328,85,71372,2,0,L|399:70,1,42.5,8|0,0:0|0:0,0:0:0:0:
253,183,71546,2,0,L|294:191,1,42.5
142,54,71719,6,0,L|259:37,1,85,6|0,3:1|0:0,0:0:0:0:
81,176,72066,1,10,0:1:0:0:
212,283,72239,1,0,0:0:0:0:
75,355,72413,2,0,P|68:335|117:281,1,85,6|0,3:1|0:0,0:0:0:0:
181,210,72673,1,0,0:0:0:0:
173,205,72759,2,0,L|155:142,1,42.5,8|8,0:0|0:3,0:0:0:0:
319,24,72933,1,4,0:3:0:0:
319,24,73020,1,0,3:0:0:0:
319,24,73106,6,0,P|310:53|276:210,1,170,4|8,3:1|0:0,0:0:0:0:
334,302,73626,1,0,0:0:0:0:
161,195,73800,2,0,P|197:246|190:285,1,85,0|0,3:0|0:0,0:0:0:0:
195,289,74060,1,0,0:0:0:0:
189,309,74147,1,8,0:0:0:0:
103,352,74320,5,0,0:0:0:0:
81,345,74407,1,0,0:0:0:0:
57,331,74494,2,0,P|21:280|28:241,1,85,6|0,3:1|0:0,0:0:0:0:
161,195,74840,1,8,0:0:0:0:
20,77,75014,2,0,P|53:87|111:100,1,85,4|0,0:2|3:0,0:0:0:0:
255,66,75361,1,2,0:1:0:0:
161,195,75534,6,0,P|201:182|243:173,1,85,8|2,0:0|0:1,0:0:0:0:
272,177,75794,1,0,0:0:0:0:
272,177,75881,2,0,P|302:233|292:253,1,85,4|0,3:1|0:0,0:0:0:0:
181,298,76228,1,8,0:0:0:0:
321,376,76401,2,0,P|413:350|489:348,1,170,0|0,0:0|0:0,0:0:0:0:
503,351,76835,1,0,0:0:0:0:
512,362,76921,1,8,0:0:0:0:
390,317,77095,5,0,0:0:0:0:
390,317,77181,1,0,0:0:0:0:
390,317,77268,2,0,P|358:271|365:229,1,85,6|0,3:1|0:0,0:0:0:0:
288,156,77615,2,0,P|311:105|351:90,1,85,10|0,0:1|0:0,0:0:0:0:
473,78,77962,1,2,3:1:0:0:
412,159,78135,1,0,0:0:0:0:
380,0,78309,1,10,0:1:0:0:
288,156,78482,5,0,0:0:0:0:
283,177,78569,1,0,0:0:0:0:
279,199,78655,2,0,P|224:179|173:175,1,85,4|0,3:1|0:0,0:0:0:0:
178,183,78915,1,0,0:0:0:0:
211,162,79002,5,8,0:0:0:0:
241,132,79088,1,0,0:0:0:0:
254,92,79175,1,0,0:0:0:0:
248,50,79262,1,0,0:0:0:0:
224,16,79348,1,0,3:0:0:0:
103,101,79522,2,0,L|156:86,1,42.5,0|0,0:0|0:0,0:0:0:0:
227,9,79696,2,0,L|338:18,1,85,8|0,0:0|0:0,0:0:0:0:
339,20,79956,1,0,0:0:0:0:
364,22,80043,1,4,3:2:0:0:
457,130,80216,6,0,L|466:89,1,42.5
366,117,80389,1,8,0:0:0:0:
340,150,80475,1,0,0:0:0:0:
331,191,80562,1,2,0:1:0:0:
465,232,80736,1,0,0:0:0:0:
373,331,80910,2,0,L|332:319,1,42.5
275,252,81084,2,0,L|190:245,1,85,8|0,0:0|0:0,0:0:0:0:
120,216,81343,5,0,0:0:0:0:
112,224,81430,2,0,P|86:274|98:310,1,85,4|0,3:1|0:0,0:0:0:0:
212,324,81777,1,8,0:0:0:0:
254,318,81863,1,0,0:0:0:0:
296,313,81950,1,0,0:0:0:0:
338,307,82037,1,0,0:0:0:0:
380,302,82123,1,0,3:1:0:0:
504,202,82297,6,0,L|493:260,1,42.5,0|0,0:0|0:0,0:0:0:0:
512,384,82470,2,0,P|444:364|417:372,1,85,8|0,0:0|0:0,0:0:0:0:
406,377,82731,1,0,0:0:0:0:
376,373,82817,5,4,3:2:0:0:
316,259,82991,1,0,0:0:0:0:
348,148,83164,1,8,0:0:0:0:
318,177,83250,1,0,0:0:0:0:
278,191,83337,1,0,0:0:0:0:
236,186,83424,1,0,0:0:0:0:
201,164,83510,1,4,3:2:0:0:
114,68,83684,1,0,0:0:0:0:
4,138,83858,2,0,L|12:234,1,85,8|0,0:0|0:0,0:0:0:0:
15,257,84118,5,0,0:0:0:0:
18,289,84204,2,0,B|112:296|76:225|199:233,2,170,4|8|0,3:1|0:0|3:0,0:0:0:0:
183,357,85245,1,8,0:0:0:0:
313,157,85592,6,0,P|287:230|287:245,1,85,0|0,3:0|0:0,0:0:0:0:
412,183,85939,2,0,P|405:224|385:262,1,85,8|0,0:0|0:0,0:0:0:0:
261,272,86285,1,0,3:0:0:0:
412,376,86459,1,0,0:0:0:0:
429,359,86546,1,0,0:0:0:0:
455,354,86632,1,12,0:0:0:0:
385,262,86806,5,0,0:0:0:0:
359,257,86892,1,0,0:0:0:0:
342,240,86979,1,4,3:1:0:0:
291,133,87152,1,0,0:0:0:0:
341,27,87499,5,0,3:0:0:0:
257,221,87673,2,0,P|226:180|92:172,1,170,12|0,0:0|0:0,0:0:0:0:
45,259,88193,5,0,3:0:0:0:
0,49,88366,1,12,0:0:0:0:
163,250,88540,5,8,0:0:0:0:
196,39,88713,1,12,0:0:0:0:
31,285,88887,5,8,0:0:0:0:
264,160,89060,1,12,0:1:0:0:
252,173,89407,6,0,P|288:196|285:282,1,127.5,0|0,0:0|0:0,0:0:0:0:
212,328,89754,5,4,3:1:0:0:
399,307,89927,2,0,L|457:314,1,42.5,0|0,0:0|0:0,0:0:0:0:
512,360,90100,2,0,B|416:330|430:382|335:348,1,170,8|0,0:0|3:0,0:0:0:0:
453,193,90621,6,0,L|468:138,1,42.5,0|0,0:0|0:0,0:0:0:0:
385,62,90794,2,0,B|365:78|355:97|355:97|358:122|375:151,1,85,8|0,0:0|0:0,0:0:0:0:
193,231,91141,5,0,3:0:0:0:
112,157,91314,1,0,0:0:0:0:
112,157,91401,1,0,0:0:0:0:
112,157,91488,2,0,L|14:145,1,85,8|0,0:0|0:0,0:0:0:0:
184,63,91835,5,0,3:0:0:0:
342,243,92008,2,0,L|332:191,1,42.5,0|0,0:0|0:0,0:0:0:0:
277,148,92181,2,0,P|279:135|300:53,1,85,8|0,0:0|0:0,0:0:0:0:
112,157,92528,5,4,3:1:0:0:
281,306,92702,1,0,0:0:0:0:
281,306,92788,1,0,0:0:0:0:
281,306,92875,2,0,B|348:283|348:283|428:323|386:352,1,170,8|0,0:0|3:0,0:0:0:0:
199,248,93395,6,0,L|132:238,1,42.5,0|0,0:0|0:0,0:0:0:0:
66,277,93569,2,0,B|49:254|48:233|48:233|57:212|76:195,1,85,8|0,0:0|0:0,0:0:0:0:
267,54,93915,5,0,3:0:0:0:
181,154,94089,2,0,L|172:99,1,42.5,0|0,0:0|0:0,0:0:0:0:
112,5,94262,2,0,P|108:25|94:98,1,85,8|0,0:0|0:0,0:0:0:0:
295,182,94609,6,0,P|341:169|408:174,1,101.999996887207,6|0,3:1|0:0,0:0:0:0:
322,378,94956,2,0,P|372:380|421:366,1,101.999996887207,14|0,0:1|0:0,0:0:0:0:
357,277,95303,5,4,3:1:0:0:
492,172,95476,1,0,0:0:0:0:
492,172,95563,1,0,0:0:0:0:
492,172,95650,2,0,P|486:148|470:74,1,85,8|0,0:0|0:0,0:0:0:0:
371,162,95996,5,0,3:0:0:0:
471,303,96170,2,0,L|517:315,1,42.5,0|0,0:0|0:0,0:0:0:0:
379,363,96343,2,0,B|282:339|300:389|191:365,1,170,8|0,0:0|3:0,0:0:0:0:
41,275,96863,6,0,L|96:270,1,42.5,0|0,0:0|0:0,0:0:0:0:
158,219,97037,2,0,B|175:232|185:253|185:253|181:277|163:304,1,85,8|0,0:0|0:0,0:0:0:0:
8,137,97384,5,0,3:0:0:0:
81,82,97557,1,0,0:0:0:0:
81,82,97644,1,0,0:0:0:0:
81,82,97731,2,0,L|103:-6,1,85,8|0,0:0|0:0,0:0:0:0:
237,183,98077,5,4,3:1:0:0:
430,84,98251,2,0,L|381:66,1,42.5,0|0,0:0|0:0,0:0:0:0:
278,21,98424,2,0,P|282:33|305:132,1,85,8|0,0:0|0:0,0:0:0:0:
118,187,98771,5,0,3:0:0:0:
311,286,98945,2,0,L|262:304,1,42.5,0|0,0:0|0:0,0:0:0:0:
159,349,99118,2,0,P|163:337|186:238,1,85,8|0,0:0|0:0,0:0:0:0:
325,187,99465,5,8,0:0:0:0:
325,187,99551,1,8,0:0:0:0:
469,267,99725,1,8,0:0:0:0:
469,267,99811,1,8,0:0:0:0:
322,332,99985,6,0,L|268:339,1,42.5,8|8,0:0|0:0,0:0:0:0:
205,291,100158,1,0,0:0:0:0:
198,283,100245,2,0,L|88:259,1,85,8|0,0:0|0:0,0:0:0:0:
24,315,100505,2,0,L|13:262,1,42.5,8|0,0:0|0:0,0:0:0:0:
183,187,100678,2,0,L|194:134,1,42.5,8|0,0:0|0:0,0:0:0:0:
46,53,100852,6,0,L|151:40,1,85,10|0,3:1|0:0,0:0:0:0:
384,124,101199,2,0,L|279:111,1,85,10|0,3:1|0:0,0:0:0:0:
23,208,101546,6,0,P|51:249|36:313,1,85,10|0,3:1|0:0,0:0:0:0:
231,384,101893,2,0,L|244:279,1,85,10|0,3:1|0:0,0:0:0:0:
222,30,102239,6,0,P|165:81|233:162,1,170,12|0,3:2|0:0,0:0:0:0:
241,166,102673,1,0,0:0:0:0:
283,158,102759,1,12,3:1:0:0:
