osu file format v14

[General]
AudioFilename: audio.mp3
AudioLeadIn: 0
PreviewTime: 89667
Countdown: 0
SampleSet: Soft
StackLeniency: 0.2
Mode: 0
LetterboxInBreaks: 0
EpilepsyWarning: 1
WidescreenStoryboard: 1

[Editor]
DistanceSpacing: 1.1
BeatDivisor: 4
GridSize: 32
TimelineZoom: 2

[Metadata]
Title:Oniichan, Gyutte Shite! Motto Shite!
TitleUnicode:お兄ちゃん、ギュッてして!もっとして!
Artist:Yakushi Ruri
ArtistUnicode:薬師るり
Creator:Left
Version:AF's Insane
Source:お兄ちゃん、朝までずっとギュッてして!夜までもっとエッチして!
Tags:Video game Onigyu Onigyuh おにギュ Oniichan, Asa Made Zutto Gyutte Shite! Yoru Made Motto Ecchi Shite! OP short ver. Tinkle Position Visual Novel Japanese Eroge Affirmation Agatsu Seolv
BeatmapID:2228352
BeatmapSetID:1063886

[Difficulty]
HPDrainRate:5
CircleSize:3.8
OverallDifficulty:7.8
ApproachRate:9
SliderMultiplier:1
SliderTickRate:1

[Events]
//Background and Video events
0,0,"BG.png",0,0
//Break Periods
//Storyboard Layer 0 (Background)
//Storyboard Layer 1 (Fail)
//Storyboard Layer 2 (Pass)
//Storyboard Layer 3 (Foreground)
//Storyboard Layer 4 (Overlay)
//Storyboard Sound Samples

[TimingPoints]
968,346.820809248555,4,2,7,80,1,0
968,-45.4545454545455,4,2,7,80,0,0
1228,-45.4545454545455,4,2,7,5,0,0
1314,-45.4545454545455,4,2,7,80,0,0
1574,-45.4545454545455,4,2,7,5,0,0
1661,-50,4,2,7,80,0,0
1921,-50,4,2,7,5,0,0
2008,-50,4,2,7,80,0,0
2268,-50,4,2,7,5,0,0
2355,-50,4,2,7,80,0,0
2441,-50,4,2,7,5,0,0
2528,-50,4,2,7,80,0,0
2702,-50,4,2,7,5,0,0
2875,-50,4,2,7,80,0,0
2962,-50,4,2,7,5,0,0
3048,-50,4,2,7,80,0,0
3742,-62.5,4,2,7,75,0,0
19869,-62.5,4,2,7,5,0,0
20043,-62.5,4,2,7,75,0,0
20216,-62.5,4,2,7,5,0,0
20389,-62.5,4,2,7,75,0,0
24551,-62.5,4,2,7,80,0,0
24725,-62.5,4,2,7,5,0,0
24898,-62.5,4,2,7,80,0,0
25072,-62.5,4,2,7,5,0,0
25245,-62.5,4,2,7,80,0,0
25418,-62.5,4,2,7,5,0,0
25592,-62.5,4,2,7,80,0,0
25939,-71.4285714285714,4,2,7,68,0,0
28020,-59.5238095238095,4,2,7,68,0,0
28193,-59.5238095238095,4,2,7,5,0,0
28366,-59.5238095238095,4,2,7,68,0,0
28540,-59.5238095238095,4,2,7,5,0,0
28713,-71.4285714285714,4,2,7,68,0,0
30794,-59.5238095238095,4,2,7,68,0,0
30881,-59.5238095238095,4,2,7,5,0,0
31141,-59.5238095238095,4,2,7,68,0,0
31228,-59.5238095238095,4,2,7,5,0,0
31314,-59.5238095238095,4,2,7,68,0,0
31488,-71.4285714285714,4,2,7,68,0,0
33569,-59.5238095238095,4,2,7,68,0,0
34262,-71.4285714285714,4,2,7,68,0,0
36343,-59.5238095238095,4,2,7,68,0,0
37037,-71.4285714285714,4,2,7,68,0,0
39118,-49.5049504950495,4,2,7,68,0,0
39811,-71.4285714285714,4,2,7,68,0,0
41892,-49.5049504950495,4,2,7,68,0,0
42586,-71.4285714285714,4,2,7,68,0,0
44667,-49.5049504950495,4,2,7,68,0,0
45274,-49.5049504950495,4,2,7,5,0,0
45361,-71.4285714285714,4,2,7,68,0,0
47441,-59.5238095238095,4,2,7,68,0,0
47615,-59.5238095238095,4,2,7,5,0,0
47788,-59.5238095238095,4,2,7,68,0,0
48135,-68.4931506849315,4,2,7,68,0,0
48222,-68.4931506849315,4,2,7,5,0,0
48309,-68.4931506849315,4,2,7,68,0,0
48395,-68.4931506849315,4,2,7,5,0,0
48829,-68.4931506849315,4,2,7,68,0,0
48915,-68.4931506849315,4,2,7,5,0,0
49002,-68.4931506849315,4,2,7,68,0,0
49089,-68.4931506849315,4,2,7,5,0,0
49349,-68.4931506849315,4,2,7,68,0,0
50996,-68.4931506849315,4,2,7,5,0,0
51083,-68.4931506849315,4,2,7,68,0,0
51170,-68.4931506849315,4,2,7,5,0,0
51603,-68.4931506849315,4,2,7,68,0,0
51690,-68.4931506849315,4,2,7,5,0,0
51777,-68.4931506849315,4,2,7,68,0,0
51863,-68.4931506849315,4,2,7,5,0,0
52124,-68.4931506849315,4,2,7,68,0,0
56459,-68.4931506849315,4,2,7,73,0,0
57846,-68.4931506849315,4,2,7,80,0,0
59233,-68.4931506849315,4,2,7,88,0,0
60621,-50,4,2,7,88,0,0
62008,-58.8235294117647,4,2,7,85,0,0
89754,-62.5,4,2,7,75,0,0
100852,-62.5,4,2,7,80,0,0

[Colours]
Combo1 : 121,188,255
Combo2 : 255,157,111
Combo3 : 188,255,121
Combo4 : 255,140,198

[HitObjects]
109,38,968,6,0,P|83:87|74:141,1,110.000003356934,12|0,3:1|0:0,0:0:0:0:
199,183,1314,2,0,P|224:134|233:80,1,110.000003356934,12|0,3:2|0:0,0:0:0:0:
113,46,1661,6,0,P|90:90|82:139,1,100,12|0,3:1|0:0,0:0:0:0:
194,175,2007,2,0,P|217:131|225:82,1,100,12|0,3:2|0:0,0:0:0:0:
106,228,2355,5,14,0:1:0:0:
270,248,2615,1,14,0:1:0:0:
434,268,2875,1,14,0:1:0:0:
353,326,3048,5,10,0:1:0:0:
351,304,3135,1,8,0:0:0:0:
438,224,3309,1,10,0:1:0:0:
436,246,3396,1,8,0:0:0:0:
328,132,3569,5,8,0:0:0:0:
328,132,3655,1,8,0:0:0:0:
328,132,3742,2,0,P|367:122|406:131,1,80,4|2,3:1|0:0,0:0:0:0:
270,248,4089,2,0,L|230:246,3,40,8|0|2|0,0:0|0:0|0:0|0:0,0:0:0:0:
151,233,4436,2,0,L|154:312,1,80,2|2,3:2|0:0,0:0:0:0:
27,259,4783,2,0,L|30:179,1,80,8|0,0:0|0:0,0:0:0:0:
124,40,5129,5,4,3:2:0:0:
222,141,5303,1,2,0:0:0:0:
222,141,5389,1,0,0:0:0:0:
222,141,5476,2,0,L|142:144,1,80,8|2,0:0|0:0,0:0:0:0:
312,36,5823,2,0,L|232:32,1,80,6|0,3:1|0:0,0:0:0:0:
42,88,6170,1,10,0:1:0:0:
312,215,6517,5,4,3:1:0:0:
312,215,6603,2,0,L|315:135,1,80,2|2,0:0|0:0,0:0:0:0:
395,124,6863,2,0,L|391:203,1,80,8|2,0:0|0:0,0:0:0:0:
233,327,7210,2,0,L|229:247,1,80,0|2,3:2|0:0,0:0:0:0:
176,187,7470,1,2,0:0:0:0:
175,186,7557,2,0,P|136:182|98:193,1,80,8|0,0:0|0:0,0:0:0:0:
258,37,7904,6,0,P|297:41|335:30,1,80,4|2,3:2|0:0,0:0:0:0:
414,12,8164,1,2,0:0:0:0:
414,12,8251,2,0,L|410:91,1,80,8|2,0:0|0:0,0:0:0:0:
258,167,8598,1,14,0:1:0:0:
408,116,8771,1,0,0:0:0:0:
162,22,8944,1,10,0:1:0:0:
55,292,9291,5,4,3:1:0:0:
138,262,9465,1,2,0:0:0:0:
201,323,9638,2,0,L|240:320,3,40,8|0|2|2,0:0|0:0|0:0|0:0,0:0:0:0:
320,305,9985,2,0,L|315:384,1,80,0|2,3:0|0:0,0:0:0:0:
487,320,10332,2,0,L|482:240,1,80,8|0,0:0|0:0,0:0:0:0:
409,91,10678,5,0,3:2:0:0:
312,215,10852,1,0,0:0:0:0:
312,215,10939,1,2,0:0:0:0:
312,215,11025,2,0,P|351:221|390:213,1,80,8|2,0:2|0:0,0:0:0:0:
508,68,11372,2,0,P|468:61|429:69,1,80,6|0,3:1|0:0,0:0:0:0:
249,128,11719,1,10,0:1:0:0:
438,355,12066,5,4,3:1:0:0:
438,355,12153,2,0,L|441:275,1,80,2|0,0:0|0:0,0:0:0:0:
390,213,12413,2,0,P|351:221|312:215,1,80,8|2,0:0|0:0,0:0:0:0:
250,49,12759,2,0,P|256:88|248:127,1,80,4|2,3:2|0:2,0:0:0:0:
151,254,13106,2,0,L|111:252,3,40,8|0|0|0,0:0|0:0|0:0|0:0,0:0:0:0:
31,246,13453,5,14,0:1:0:0:
31,246,13539,2,0,L|34:325,1,80,8|10,0:0|0:1,0:0:0:0:
101,373,13800,2,0,L|180:369,1,80,8|10,0:0|0:1,0:0:0:0:
294,207,14147,1,0,0:0:0:0:
211,367,14320,1,8,0:0:0:0:
127,149,14494,1,10,0:1:0:0:
400,345,14840,6,0,L|479:342,2,80,4|0|8,3:1|0:0|0:0,0:0:0:0:
371,238,15534,2,0,L|450:235,2,80,0|0|8,3:0|0:0|0:0,0:0:0:0:
342,131,16228,2,0,L|421:128,2,80,0|0|8,3:0|0:0|0:0,0:0:0:0:
313,24,16921,2,0,L|392:21,1,80,0|0,3:0|0:0,0:0:0:0:
342,131,17268,1,8,0:0:0:0:
119,21,17615,6,0,L|199:24,2,80,4|0|8,3:1|0:0|0:0,0:0:0:0:
90,128,18308,2,0,L|170:131,2,80,0|0|8,3:0|0:0|0:0,0:0:0:0:
61,235,19002,2,0,L|141:238,2,80,0|0|8,3:0|0:0|0:0,0:0:0:0:
32,342,19696,2,0,L|112:345,1,80,6|0,3:1|0:0,0:0:0:0:
61,235,20043,1,14,0:1:0:0:
400,345,20389,6,0,L|479:342,2,80,4|0|8,3:1|0:0|0:0,0:0:0:0:
371,238,21083,2,0,L|450:235,2,80,0|0|8,3:0|0:0|0:0,0:0:0:0:
342,131,21777,2,0,L|421:128,1,80,12|8,0:0|0:0,0:0:0:0:
371,238,22124,1,12,0:0:0:0:
313,24,22470,2,0,L|392:21,1,80,14|8,0:1|0:1,0:0:0:0:
342,131,22817,1,6,3:1:0:0:
46,112,23164,6,0,L|43:32,2,80,4|0|8,3:1|0:0|0:0,0:0:0:0:
189,187,23858,2,0,L|191:107,2,80,4|0|8,3:2|0:0|0:0,0:0:0:0:
99,352,24551,6,0,L|19:354,1,80,6|0,3:1|0:0,0:0:0:0:
178,349,24898,2,0,L|98:351,1,80,10|0,0:1|0:0,0:0:0:0:
257,346,25245,2,0,L|177:348,1,80,2|0,3:1|0:0,0:0:0:0:
336,343,25592,2,0,L|256:345,1,80,10|0,0:1|0:0,0:0:0:0:
429,263,25939,5,4,3:1:0:0:
429,263,26285,2,0,L|425:193,1,69.9999978637696,8|0,0:0|0:0,0:0:0:0:
381,120,26632,2,0,P|446:94|514:106,1,139.999995727539,0|8,3:0|0:0,0:0:0:0:
321,61,27152,2,0,P|256:86|188:74,1,139.999995727539,0|0,0:0|0:0,0:0:0:0:
120,24,27673,1,8,0:0:0:0:
25,310,28020,6,0,L|20:184,1,125.999996154785,10|0,0:1|0:0,0:0:0:0:
102,170,28366,2,0,L|106:295,1,125.999996154785,10|0,0:1|0:0,0:0:0:0:
176,345,28713,5,4,3:2:0:0:
176,345,29060,2,0,L|246:343,1,69.9999978637696,8|0,0:0|0:0,0:0:0:0:
324,371,29407,2,0,P|337:302|318:236,1,139.999995727539,0|8,3:0|0:0,0:0:0:0:
390,70,29927,2,0,P|377:138|397:205,1,139.999995727539,0|0,0:0|0:0,0:0:0:0:
466,251,30447,1,8,0:0:0:0:
193,47,30794,6,0,L|67:51,1,125.999996154785,10|0,0:1|0:0,0:0:0:0:
53,135,31141,2,0,L|178:130,1,125.999996154785,10|0,0:1|0:0,0:0:0:0:
248,179,31488,5,4,3:1:0:0:
248,179,31835,2,0,L|245:248,1,69.9999978637696,8|0,0:0|0:0,0:0:0:0:
318,289,32181,2,0,P|347:226|337:158,1,139.999995727539,0|8,3:0|0:0,0:0:0:0:
397,0,32702,2,0,P|387:67|417:130,1,139.999995727539,0|0,0:0|0:0,0:0:0:0:
436,211,33222,2,0,L|505:208,1,69.9999978637696,8|0,0:0|0:0,0:0:0:0:
318,289,33569,6,0,L|192:283,1,125.999996154785,8|0,0:0|0:0,0:0:0:0:
172,365,33915,2,0,L|297:370,1,125.999996154785,8|0,0:0|0:0,0:0:0:0:
381,382,34262,6,0,P|406:318|397:249,1,139.999995727539,4|8,3:2|0:0,0:0:0:0:
337,189,34783,1,0,0:0:0:0:
337,189,34956,2,0,L|197:194,1,139.999995727539,0|8,3:0|0:0,0:0:0:0:
170,113,35476,2,0,L|240:110,1,69.9999978637696,0|4,0:0|3:2,0:0:0:0:
92,148,35823,2,0,P|84:114|92:80,1,69.9999978637696,0|12,0:0|0:0,0:0:0:0:
154,23,36170,1,0,0:0:0:0:
92,148,36343,6,0,P|106:208|93:269,1,125.999996154785,14|0,0:1|0:0,0:0:0:0:
34,330,36690,2,0,P|94:315|155:328,1,125.999996154785,14|0,0:1|0:0,0:0:0:0:
227,374,37037,5,4,3:2:0:0:
227,374,37384,2,0,L|296:369,1,69.9999978637696,8|0,0:0|0:0,0:0:0:0:
364,319,37731,1,0,3:0:0:0:
442,349,37904,2,0,P|447:315|439:281,1,69.9999978637696,0|8,0:0|0:0,0:0:0:0:
274,224,38251,2,0,P|342:234|405:204,1,139.999995727539,0|0,0:0|0:0,0:0:0:0:
444,129,38771,1,8,0:0:0:0:
134,185,39118,6,0,L|136:285,1,100.999997996521,10|2,0:1|0:0,0:0:0:0:
47,181,39465,2,0,L|49:281,1,100.999997996521,10|2,0:1|0:0,0:0:0:0:
85,77,39811,5,4,3:2:0:0:
85,77,40158,2,0,L|154:78,1,69.9999978637696,8|0,0:0|0:0,0:0:0:0:
224,30,40505,1,0,3:0:0:0:
285,86,40678,2,0,L|283:155,1,69.9999978637696,0|8,0:0|0:0,0:0:0:0:
368,34,41025,2,0,L|365:174,1,139.999995727539,0|0,0:0|0:0,0:0:0:0:
421,237,41546,1,8,0:0:0:0:
150,284,41892,6,0,L|49:281,1,100.999997996521,10|2,0:1|0:0,0:0:0:0:
154,371,42239,2,0,L|53:368,1,100.999997996521,10|2,0:1|0:0,0:0:0:0:
254,289,42586,5,4,3:2:0:0:
254,289,42933,2,0,L|255:358,1,69.9999978637696,8|0,0:2|0:0,0:0:0:0:
336,335,43280,1,0,3:0:0:0:
416,358,43453,2,0,L|418:289,1,69.9999978637696,0|8,0:0|0:0,0:0:0:0:
284,203,43800,2,0,P|352:219|420:204,1,139.999995727539,0|0,0:0|0:0,0:0:0:0:
383,127,44320,2,0,P|349:119|315:126,1,69.9999978637696,8|0,0:0|0:0,0:0:0:0:
150,284,44667,6,0,L|153:183,1,100.999997996521,0|2,3:0|0:0,0:0:0:0:
63,283,45014,2,0,L|67:183,1,100.999997996521,8|2,0:0|0:0,0:0:0:0:
117,38,45361,6,0,P|186:30|255:40,1,139.999995727539,4|8,3:1|0:0,0:0:0:0:
309,105,45881,1,0,0:0:0:0:
309,105,46054,2,0,L|304:244,1,139.999995727539,0|8,3:0|0:0,0:0:0:0:
386,264,46574,2,0,L|388:194,1,69.9999978637696,2|0,0:0|3:0,0:0:0:0:
350,339,46921,2,0,P|384:347|419:341,1,69.9999978637696,2|8,0:0|0:0,0:0:0:0:
479,282,47268,1,0,0:0:0:0:
350,339,47441,6,0,P|288:327|227:340,1,125.999996154785,6|0,3:1|0:0,0:0:0:0:
155,384,47788,2,0,P|166:322|153:261,1,125.999996154785,10|0,0:1|0:0,0:0:0:0:
96,201,48135,5,12,0:1:0:0:
241,194,48309,1,8,3:1:0:0:
96,201,48828,5,12,3:2:0:0:
241,194,49001,1,8,3:1:0:0:
95,201,49349,6,0,L|241:194,1,146.00000401001,12|0,3:1|0:0,0:0:0:0:
384,61,50910,5,12,3:1:0:0:
239,54,51084,1,8,3:1:0:0:
384,61,51603,5,12,3:1:0:0:
239,54,51776,1,8,3:1:0:0:
385,61,52124,6,0,L|239:54,1,146.00000401001,12|0,3:1|0:0,0:0:0:0:
384,61,52817,5,10,0:0:0:0:
239,54,52990,1,10,0:0:0:0:
239,54,53337,1,12,0:0:0:0:
383,323,53684,6,0,P|400:291|401:254,1,73.0000020050049,4|0,3:1|0:0,0:0:0:0:
271,221,54031,2,0,P|290:251|321:270,1,73.0000020050049,8|0,0:0|0:0,0:0:0:0:
415,174,54378,2,0,P|378:175|347:192,1,73.0000020050049,0|0,3:0|0:0,0:0:0:0:
164,315,54725,5,8,0:0:0:0:
164,315,54898,2,0,P|181:283|181:246,1,73.0000020050049,2|0,0:0|3:0,0:0:0:0:
51,212,55245,1,0,0:0:0:0:
51,212,55418,2,0,P|70:242|101:261,1,73.0000020050049,8|0,0:0|0:0,0:0:0:0:
195,165,55765,2,0,P|158:166|127:183,1,73.0000020050049,0|0,3:0|0:0,0:0:0:0:
164,315,56112,2,0,P|181:283|181:246,1,73.0000020050049,8|0,0:0|0:0,0:0:0:0:
133,67,56459,6,0,L|279:60,1,146.00000401001,4|8,3:1|0:0,0:0:0:0:
195,165,56979,1,0,0:0:0:0:
195,165,57152,2,0,L|341:158,1,146.00000401001,0|8,3:0|0:0,0:0:0:0:
340,158,57846,6,0,B|337:115|337:115|330:100|330:100|328:62,2,97.3333360066733,4|10|10,3:1|0:1|0:1,3:3:0:0:
450,238,58540,2,0,B|447:281|447:281|440:296|440:296|438:333,2,97.3333360066733,4|10|10,3:1|0:1|0:1,3:3:0:0:
436,122,59233,5,12,0:1:0:0:
195,165,59407,1,8,0:0:0:0:
436,122,59754,5,12,0:1:0:0:
195,165,59928,1,8,0:0:0:0:
436,122,60274,5,12,0:1:0:0:
195,165,60448,1,8,0:0:0:0:
280,267,60621,6,0,L|284:167,1,100,12|8,0:0|0:0,0:0:0:0:
100,261,60968,2,0,L|104:161,1,100,12|8,0:0|0:0,0:0:0:0:
190,264,61314,1,12,0:0:0:0:
191,239,61400,1,8,0:3:0:0:
192,214,61487,1,4,0:3:0:0:
193,189,61574,1,0,3:0:0:0:
194,164,61661,2,0,L|192:139,6,25,12|0|0|0|0|0|0,0:1|0:0|0:0|0:0|0:0|0:0|0:0,0:0:0:0:
283,167,62008,6,0,L|367:162,1,85.0000016212464,4|0,3:1|0:0,0:0:0:0:
505,290,62355,1,8,0:0:0:0:
451,49,62528,2,0,B|440:107|440:107|457:153|457:153|446:215,1,170.000003242493,0|0,0:0|0:0,0:0:0:0:
291,349,63048,2,0,B|276:309|276:309|288:268,1,85.0000016212464,8|0,0:0|0:0,0:0:0:0:
217,54,63395,6,0,B|232:94|232:94|219:134,1,85.0000016212464,4|0,3:2|0:0,0:0:0:0:
160,304,63742,1,10,0:1:0:0:
16,180,63915,2,0,P|55:108|136:97,1,170.000003242493,0|2,0:0|0:1,0:0:0:0:
306,163,64436,2,0,P|348:167|389:160,1,85.0000016212464,8|2,0:0|0:1,0:0:0:0:
217,54,64783,5,4,3:1:0:0:
154,219,64956,2,0,L|159:303,1,85.0000016212464,0|8,0:0|0:0,0:0:0:0:
71,270,65303,1,0,0:0:0:0:
259,253,65476,2,0,B|320:249|320:249|361:275|361:275|421:271,1,170.000003242493,4|8,3:2|0:0,0:0:0:0:
295,341,65996,1,0,0:0:0:0:
385,184,66170,6,0,B|398:144|398:144|383:104,1,85.0000016212464,6|0,3:1|0:0,0:0:0:0:
217,54,66517,2,0,B|204:94|204:94|219:134,1,85.0000016212464,14|0,0:1|0:0,0:0:0:0:
389,11,66863,2,0,L|304:16,1,85.0000016212464,6|0,3:1|0:0,0:0:0:0:
223,226,67210,2,0,L|308:221,1,85.0000016212464,14|0,0:1|0:0,0:0:0:0:
415,362,67557,6,0,B|327:368|340:309|255:316,1,170.000003242493,4|8,3:1|0:0,0:0:0:0:
219,134,68077,1,0,0:0:0:0:
385,184,68251,2,0,B|400:224|400:224|387:264,1,85.0000016212464,0|0,3:0|0:0,0:0:0:0:
161,381,68598,2,0,B|146:341|146:341|158:300,1,85.0000016212464,8|0,0:0|0:0,0:0:0:0:
190,226,68858,1,0,0:0:0:0:
190,226,68944,6,0,L|105:220,1,85.0000016212464,4|0,3:2|0:0,0:0:0:0:
219,134,69291,1,8,0:0:0:0:
69,78,69465,2,0,B|125:83|125:83|159:125|159:125|218:133,1,170.000003242493,2|2,0:1|0:1,0:0:0:0:
355,100,69985,2,0,L|361:15,1,85.0000016212464,8|0,0:0|0:0,0:0:0:0:
190,226,70332,6,0,B|229:245|229:245|271:239,1,85.0000016212464,4|0,3:1|0:0,0:0:0:0:
69,78,70678,2,0,L|65:162,1,85.0000016212464,8|0,0:0|0:0,0:0:0:0:
273,324,71025,2,0,L|269:239,1,85.0000016212464,0|0,3:0|0:0,0:0:0:0:
305,166,71285,1,0,0:0:0:0:
304,166,71372,2,0,P|346:159|387:170,1,85.0000016212464,8|0,0:0|0:0,0:0:0:0:
273,324,71719,6,0,P|231:330|190:319,1,85.0000016212464,6|0,3:1|0:0,0:0:0:0:
143,149,72066,5,10,0:1:0:0:
37,297,72239,1,0,0:0:0:0:
74,86,72413,5,6,3:1:0:0:
121,256,72586,1,0,0:0:0:0:
227,108,72759,5,8,0:0:0:0:
227,108,72846,1,8,0:3:0:0:
227,108,72933,1,4,0:3:0:0:
227,108,73020,1,0,3:0:0:0:
227,108,73106,6,0,L|311:105,1,85.0000016212464,4|0,3:1|0:0,0:0:0:0:
269,21,73453,1,8,0:0:0:0:
449,141,73626,2,0,B|393:146|393:146|359:188|359:188|300:196,1,170.000003242493,0|0,0:0|0:0,0:0:0:0:
219,209,74060,1,0,0:0:0:0:
219,209,74146,2,0,L|221:293,1,85.0000016212464,8|0,0:0|0:0,0:0:0:0:
439,312,74494,6,0,B|451:271|451:271|436:231,1,85.0000016212464,6|0,3:1|0:0,0:0:0:0:
311,105,74840,1,8,0:0:0:0:
194,313,75014,2,0,B|253:321|253:321|287:363|287:363|343:368,1,170.000003242493,4|2,0:2|0:1,0:0:0:0:
110,356,75534,2,0,P|104:315|108:273,1,85.0000016212464,8|2,0:0|0:1,0:0:0:0:
75,71,75881,5,4,3:1:0:0:
221,125,76055,2,0,P|225:167|218:208,1,85.0000016212464,0|8,0:0|0:0,0:0:0:0:
136,165,76401,1,0,0:0:0:0:
311,105,76574,2,0,B|370:113|370:113|404:155|404:155|460:160,1,170.000003242493,4|8,3:2|0:0,0:0:0:0:
449,70,77095,1,0,0:0:0:0:
322,195,77268,6,0,P|317:237|324:278,1,85.0000016212464,6|0,3:1|0:0,0:0:0:0:
509,331,77615,2,0,P|513:288|506:247,1,85.0000016212464,10|0,0:1|0:0,0:0:0:0:
311,105,77962,2,0,L|226:107,1,85.0000016212464,2|0,3:1|0:0,0:0:0:0:
324,278,78309,2,0,L|408:275,1,85.0000016212464,10|0,0:1|0:0,0:0:0:0:
213,223,78655,6,0,B|128:232|155:290|65:299,1,170.000003242493,4|8,3:1|0:0,0:0:0:0:
216,324,79176,1,0,0:0:0:0:
378,145,79349,2,0,L|382:61,1,85.0000016212464,0|0,3:0|0:0,0:0:0:0:
130,61,79696,2,0,L|133:145,1,85.0000016212464,8|0,0:0|0:0,0:0:0:0:
129,227,79956,1,0,0:0:0:0:
129,227,80043,6,0,P|171:231|212:222,1,85.0000016212464,4|0,3:2|0:0,0:0:0:0:
263,88,80389,1,8,0:0:0:0:
362,246,80563,2,0,B|273:256|300:314|215:323,1,170.000003242493,2|2,0:1|0:1,0:0:0:0:
445,289,81083,2,0,P|451:247|447:205,1,85.0000016212464,8|0,0:0|0:0,0:0:0:0:
428,126,81343,1,0,0:0:0:0:
428,126,81430,6,0,L|512:121,1,85.0000016212464,4|0,3:1|0:0,0:0:0:0:
263,88,81777,2,0,L|179:83,1,85.0000016212464,8|0,0:0|0:0,0:0:0:0:
357,1,82124,2,0,P|364:42|356:84,1,85.0000016212464,0|0,3:1|0:0,0:0:0:0:
325,159,82384,1,0,0:0:0:0:
325,159,82470,2,0,P|316:200|324:242,1,85.0000016212464,8|0,0:0|0:0,0:0:0:0:
174,364,82817,6,0,P|182:322|174:280,1,85.0000016212464,4|0,3:2|0:0,0:0:0:0:
34,184,83164,1,8,0:0:0:0:
238,173,83337,1,0,0:0:0:0:
94,326,83511,2,0,L|10:321,1,85.0000016212464,4|0,3:2|0:0,0:0:0:0:
277,367,83858,2,0,L|361:362,1,85.0000016212464,8|0,0:0|0:0,0:0:0:0:
443,360,84118,1,0,0:0:0:0:
443,360,84204,6,0,B|457:319|457:319|441:280,1,85.0000016212464,4|0,3:1|0:0,0:0:0:0:
324,80,84551,2,0,B|310:121|310:121|325:159,1,85.0000016212464,8|0,0:0|0:0,0:0:0:0:
398,196,84811,1,0,0:0:0:0:
398,196,84898,2,0,B|309:206|336:264|251:273,1,170.000003242493,0|8,3:0|0:0,0:0:0:0:
66,206,85418,1,0,0:0:0:0:
152,168,85592,6,0,L|147:252,1,85.0000016212464,0|0,3:0|0:0,0:0:0:0:
66,80,85939,2,0,B|107:66|107:66|145:81,1,85.0000016212464,8|0,0:0|0:0,0:0:0:0:
223,111,86199,1,0,0:0:0:0:
223,111,86285,2,0,L|227:26,1,85.0000016212464,0|0,3:0|0:0,0:0:0:0:
393,111,86632,2,0,L|397:195,1,85.0000016212464,12|0,0:0|0:0,0:0:0:0:
252,272,86979,6,0,B|337:281|310:339|400:348,1,170.000003242493,4|0,3:1|0:0,0:0:0:0:
463,280,87499,5,0,3:0:0:0:
187,339,87673,1,12,0:0:0:0:
187,339,88193,5,0,3:0:0:0:
283,141,88366,1,12,0:0:0:0:
187,339,88540,1,8,0:0:0:0:
334,288,88713,1,12,0:0:0:0:
136,192,88887,1,8,0:0:0:0:
318,68,89060,2,0,B|374:73|374:73|408:115|408:115|467:123,1,170.000003242493,12|0,0:1|0:0,0:0:0:0:
479,342,89754,6,0,L|400:345,2,80,4|0|8,3:1|0:0|0:0,0:0:0:0:
371,238,90448,2,0,L|450:235,2,80,0|0|8,3:0|0:0|0:0,0:0:0:0:
421,128,91142,2,0,L|342:131,1,80,0|0,3:0|0:0,0:0:0:0:
371,238,91488,1,8,0:0:0:0:
313,24,91835,2,0,L|392:21,1,80,0|0,3:0|0:0,0:0:0:0:
342,131,92182,1,8,0:0:0:0:
119,21,92529,6,0,L|199:24,2,80,4|0|8,3:1|0:0|0:0,0:0:0:0:
170,131,93222,2,0,L|90:128,2,80,0|0|8,3:0|0:0|0:0,0:0:0:0:
61,235,93916,2,0,L|141:238,1,80,0|0,3:0|0:0,0:0:0:0:
90,128,94262,1,8,0:0:0:0:
112,345,94610,2,0,L|32:342,1,80,6|0,3:1|0:0,0:0:0:0:
165,216,94956,2,0,L|245:219,1,80,14|0,0:1|0:0,0:0:0:0:
400,345,95303,6,0,L|479:342,2,80,4|0|8,3:1|0:0|0:0,0:0:0:0:
450,235,95997,2,0,L|371:238,2,80,0|0|8,3:0|0:0|0:0,0:0:0:0:
342,131,96691,2,0,L|421:128,1,80,0|0,3:0|0:0,0:0:0:0:
371,238,97038,1,8,0:0:0:0:
392,21,97384,2,0,L|313:24,1,80,0|0,3:0|0:0,0:0:0:0:
421,127,97731,1,8,0:0:0:0:
46,112,98078,6,0,L|43:32,1,80,4|0,3:1|0:0,0:0:0:0:
151,71,98424,1,8,0:0:0:0:
162,310,98771,6,0,L|165:230,1,80,0|0,3:0|0:0,0:0:0:0:
57,269,99117,1,8,0:0:0:0:
246,87,99465,5,8,0:0:0:0:
244,67,99551,1,8,0:0:0:0:
243,47,99638,1,8,0:0:0:0:
241,27,99725,1,8,0:0:0:0:
240,7,99811,1,8,0:0:0:0:
400,115,99985,1,8,0:0:0:0:
398,134,100071,1,8,0:0:0:0:
397,154,100158,2,0,L|399:193,2,40,0|8|8,0:0|0:0|0:0,0:0:0:0:
301,253,100505,1,8,0:0:0:0:
498,184,100678,1,8,0:0:0:0:
246,87,100852,5,10,3:1:0:0:
307,340,101199,1,10,3:1:0:0:
350,22,101546,1,10,3:1:0:0:
103,264,101893,1,10,3:1:0:0:
418,230,102239,6,0,B|339:225|362:169|276:164,1,160,12|0,3:2|0:0,0:0:0:0:
21,47,102759,1,12,3:1:0:0:
