osu file format v14

[General]
AudioFilename: audio.mp3
AudioLeadIn: 0
PreviewTime: 97953
Countdown: 0
SampleSet: Normal
StackLeniency: 0.7
Mode: 1
LetterboxInBreaks: 0
WidescreenStoryboard: 0

[Editor]
Bookmarks: 18037,31370,52703,74037,108703,119370,151370,186037,196703,207370,228703,239370,250037
DistanceSpacing: 1.1
BeatDivisor: 4
GridSize: 32
TimelineZoom: 1.6

[Metadata]
Title:Onii-chan, Migite no Shiyou o Kinshi Shimasu! (TamolarM Bootleg Remix)
TitleUnicode:お兄ちゃん、右手の使用を禁止します! (TamolarM Bootleg Remix)
Artist:Yakushi Ruri
ArtistUnicode:薬師るり
Creator:[R]
Version:Little Oni
Source:お兄ちゃん、右手の使用を禁止します!
Tags:ron nozdormu galette onikin j-core jcore japanese electronic visual novel eroge video game galgame hayakore tatsumi
BeatmapID:4297814
BeatmapSetID:2056678

[Difficulty]
HPDrainRate:5
CircleSize:5
OverallDifficulty:7
ApproachRate:5
SliderMultiplier:1.4
SliderTickRate:1

[Events]
//Background and Video events
0,0,"BG.jpg",0,20
//Break Periods
//Storyboard Layer 0 (Background)
//Storyboard Layer 1 (Fail)
//Storyboard Layer 2 (Pass)
//Storyboard Layer 3 (Foreground)
//Storyboard Layer 4 (Overlay)
//Storyboard Sound Samples

[TimingPoints]
704,333.333333333333,4,1,0,85,1,0
97370,-98.0392156862745,4,1,0,85,0,0
97537,-96.1538461538461,4,1,0,85,0,0
97703,-94.3396226415094,4,1,0,85,0,0
97870,-92.5925925925926,4,1,0,85,0,0
98037,-90.9090909090909,4,1,0,95,0,1
130037,-90.9090909090909,4,1,0,85,0,0
130203,-92.5925925925926,4,1,0,85,0,0
130370,-94.3396226415094,4,1,0,85,0,0
130537,-96.1538461538461,4,1,0,85,0,0
130620,-97.0873786407767,4,1,0,85,0,0
130703,-98.0392156862745,4,1,0,85,0,0
130787,-99.009900990099,4,1,0,85,0,0
130870,-100,4,1,0,85,0,0
175370,-90.9090909090909,4,1,0,95,0,1
186037,-90.9090909090909,4,1,0,95,0,0
188703,-90.9090909090909,4,1,0,95,0,1
196703,-90.9090909090909,4,1,0,95,0,0
199370,-90.9090909090909,4,1,0,95,0,1
216703,-90.9090909090909,4,1,0,85,0,0
217037,-100,4,1,0,85,0,0
260787,-28.5714285714286,4,1,0,85,0,0
262037,-100,4,1,0,75,0,0
263370,-100,4,1,0,65,0,0
264703,-100,4,1,0,55,0,0
266037,-100,4,1,0,45,0,0
267370,-100,4,1,0,35,0,0

[HitObjects]
256,192,704,5,4,0:0:0:0:
256,192,870,1,8,0:0:0:0:
256,192,953,1,8,0:0:0:0:
256,192,1037,1,0,0:0:0:0:
256,192,1203,1,8,0:0:0:0:
256,192,1287,1,0,0:0:0:0:
256,192,1370,1,8,0:0:0:0:
256,192,1453,1,8,0:0:0:0:
256,192,1537,1,8,0:0:0:0:
256,192,1703,1,8,0:0:0:0:
256,192,1870,1,8,0:0:0:0:
256,192,2037,1,4,0:0:0:0:
256,192,2203,1,8,0:0:0:0:
256,192,2370,1,0,0:0:0:0:
256,192,2453,1,0,0:0:0:0:
256,192,2537,1,8,0:0:0:0:
256,192,2703,1,0,0:0:0:0:
256,192,2787,1,0,0:0:0:0:
256,192,2870,1,8,0:0:0:0:
256,192,2953,1,8,0:0:0:0:
256,192,3037,1,0,0:0:0:0:
256,192,3203,1,8,0:0:0:0:
256,192,3370,1,0,0:0:0:0:
256,192,3453,1,8,0:0:0:0:
256,192,3537,1,0,0:0:0:0:
256,192,3620,1,0,0:0:0:0:
256,192,3703,1,8,0:0:0:0:
256,192,3870,1,0,0:0:0:0:
256,192,4037,1,8,0:0:0:0:
256,192,4120,1,8,0:0:0:0:
256,192,4203,1,0,0:0:0:0:
256,192,4287,1,8,0:0:0:0:
256,192,4370,1,0,0:0:0:0:
256,192,4453,1,8,0:0:0:0:
256,192,4537,1,0,0:0:0:0:
256,192,4620,1,0,0:0:0:0:
256,192,4703,1,8,0:0:0:0:
256,192,4870,1,0,0:0:0:0:
256,192,5037,1,8,0:0:0:0:
256,192,5120,1,0,0:0:0:0:
256,192,5203,1,0,0:0:0:0:
256,192,5370,1,8,0:0:0:0:
256,192,5453,1,0,0:0:0:0:
256,192,5537,1,0,0:0:0:0:
256,192,5620,1,0,0:0:0:0:
256,192,5703,1,8,0:0:0:0:
256,192,5870,1,0,0:0:0:0:
256,192,6037,1,8,0:0:0:0:
256,192,6120,1,0,0:0:0:0:
256,192,6203,1,8,0:0:0:0:
256,192,6287,1,8,0:0:0:0:
256,192,6370,1,0,0:0:0:0:
256,192,6537,1,8,0:0:0:0:
256,192,6703,1,0,0:0:0:0:
256,192,6787,1,0,0:0:0:0:
256,192,6870,1,8,0:0:0:0:
256,192,6926,1,0,0:0:0:0:
256,192,6981,1,0,0:0:0:0:
256,192,7037,1,8,0:0:0:0:
256,192,7120,1,0,0:0:0:0:
256,192,7203,1,8,0:0:0:0:
256,192,7287,1,8,0:0:0:0:
256,192,7370,1,0,0:0:0:0:
256,192,7537,1,8,0:0:0:0:
256,192,7703,1,0,0:0:0:0:
256,192,7787,1,8,0:0:0:0:
256,192,7870,1,8,0:0:0:0:
256,192,8037,1,0,0:0:0:0:
256,192,8120,1,8,0:0:0:0:
256,192,8203,1,8,0:0:0:0:
256,192,8287,1,0,0:0:0:0:
256,192,8370,1,8,0:0:0:0:
256,192,8537,1,0,0:0:0:0:
256,192,8703,1,8,0:0:0:0:
256,192,8787,1,0,0:0:0:0:
256,192,8870,1,8,0:0:0:0:
256,192,8953,1,8,0:0:0:0:
256,192,9037,1,0,0:0:0:0:
256,192,9203,1,8,0:0:0:0:
256,192,9370,1,0,0:0:0:0:
256,192,9453,1,0,0:0:0:0:
256,192,9537,1,8,0:0:0:0:
256,192,9620,1,0,0:0:0:0:
256,192,9703,1,8,0:0:0:0:
256,192,9787,1,0,0:0:0:0:
256,192,9870,1,8,0:0:0:0:
256,192,9953,1,0,0:0:0:0:
256,192,10037,1,8,0:0:0:0:
256,192,10203,1,0,0:0:0:0:
256,192,10370,1,8,0:0:0:0:
256,192,10453,1,8,0:0:0:0:
256,192,10537,1,0,0:0:0:0:
256,192,10703,1,8,0:0:0:0:
256,192,10787,1,8,0:0:0:0:
256,192,10870,1,0,0:0:0:0:
256,192,10953,1,8,0:0:0:0:
256,192,11037,1,0,0:0:0:0:
256,192,11203,1,8,0:0:0:0:
256,192,11370,1,0,0:0:0:0:
256,192,11453,1,0,0:0:0:0:
256,192,11537,1,8,0:0:0:0:
256,192,11620,1,8,0:0:0:0:
256,192,11703,1,0,0:0:0:0:
256,192,11870,1,8,0:0:0:0:
256,192,12037,1,0,0:0:0:0:
256,192,12120,1,0,0:0:0:0:
256,192,12203,1,8,0:0:0:0:
256,192,12259,1,0,0:0:0:0:
256,192,12315,1,0,0:0:0:0:
256,192,12370,1,8,0:0:0:0:
256,192,12453,1,0,0:0:0:0:
256,192,12537,1,8,0:0:0:0:
256,192,12620,1,8,0:0:0:0:
256,192,12703,1,4,0:0:0:0:
256,192,13037,1,8,0:0:0:0:
256,192,13203,1,4,0:0:0:0:
256,192,13537,1,8,0:0:0:0:
256,192,13703,1,4,0:0:0:0:
256,192,14037,1,0,0:0:0:0:
256,192,14203,1,12,0:0:0:0:
256,192,14537,1,12,0:0:0:0:
256,192,14703,1,12,0:0:0:0:
256,192,14870,1,0,0:0:0:0:
256,192,14926,1,0,0:0:0:0:
256,192,14981,1,0,0:0:0:0:
256,192,15037,1,8,0:0:0:0:
256,192,15203,1,8,0:0:0:0:
256,192,15370,1,4,0:0:0:0:
256,192,15703,1,4,0:0:0:0:
256,192,16037,1,12,0:0:0:0:
256,192,16370,1,12,0:0:0:0:
256,192,16537,1,12,0:0:0:0:
256,192,16870,1,8,0:0:0:0:
256,192,16953,1,0,0:0:0:0:
256,192,17037,1,8,0:0:0:0:
256,192,17120,1,0,0:0:0:0:
256,192,17203,1,8,0:0:0:0:
256,192,17259,1,8,0:0:0:0:
256,192,17315,1,8,0:0:0:0:
256,192,17370,1,0,0:0:0:0:
256,192,17453,1,0,0:0:0:0:
256,192,17537,1,8,0:0:0:0:
256,192,17620,1,0,0:0:0:0:
256,192,17703,1,8,0:0:0:0:
256,192,17787,1,0,0:0:0:0:
256,192,17870,1,8,0:0:0:0:
256,192,17953,1,8,0:0:0:0:
256,192,18037,1,4,0:0:0:0:
256,192,18203,1,8,0:0:0:0:
256,192,18287,1,0,0:0:0:0:
256,192,18370,1,8,0:0:0:0:
256,192,18537,1,0,0:0:0:0:
256,192,18703,1,8,0:0:0:0:
256,192,18787,1,8,0:0:0:0:
256,192,18870,1,0,0:0:0:0:
256,192,18953,1,0,0:0:0:0:
256,192,19037,1,8,0:0:0:0:
256,192,19120,1,8,0:0:0:0:
256,192,19203,1,0,0:0:0:0:
256,192,19370,1,8,0:0:0:0:
256,192,19537,1,0,0:0:0:0:
256,192,19620,1,0,0:0:0:0:
256,192,19703,1,8,0:0:0:0:
256,192,19870,1,8,0:0:0:0:
256,192,19953,1,0,0:0:0:0:
256,192,20037,1,8,0:0:0:0:
256,192,20120,1,8,0:0:0:0:
256,192,20203,1,0,0:0:0:0:
256,192,20287,1,0,0:0:0:0:
256,192,20370,1,8,0:0:0:0:
256,192,20537,1,0,0:0:0:0:
256,192,20703,1,8,0:0:0:0:
256,192,20787,1,8,0:0:0:0:
256,192,20870,1,0,0:0:0:0:
256,192,20953,1,0,0:0:0:0:
256,192,21037,1,8,0:0:0:0:
256,192,21203,1,8,0:0:0:0:
256,192,21370,1,8,0:0:0:0:
256,192,21453,1,8,0:0:0:0:
256,192,21537,1,8,0:0:0:0:
256,192,21620,1,0,0:0:0:0:
256,192,21703,1,8,0:0:0:0:
256,192,21787,1,8,0:0:0:0:
256,192,21870,1,0,0:0:0:0:
256,192,22037,1,8,0:0:0:0:
256,192,22203,1,0,0:0:0:0:
256,192,22287,1,0,0:0:0:0:
256,192,22370,1,8,0:0:0:0:
256,192,22537,1,8,0:0:0:0:
256,192,22620,1,8,0:0:0:0:
256,192,22703,1,0,0:0:0:0:
256,192,22787,1,8,0:0:0:0:
256,192,22870,1,0,0:0:0:0:
256,192,22953,1,0,0:0:0:0:
256,192,23037,1,8,0:0:0:0:
256,192,23203,1,0,0:0:0:0:
256,192,23370,1,8,0:0:0:0:
256,192,23453,1,0,0:0:0:0:
256,192,23537,1,8,0:0:0:0:
256,192,23620,1,0,0:0:0:0:
256,192,23703,1,8,0:0:0:0:
256,192,23787,1,8,0:0:0:0:
256,192,23870,1,0,0:0:0:0:
256,192,23953,1,0,0:0:0:0:
256,192,24037,1,8,0:0:0:0:
256,192,24120,1,0,0:0:0:0:
256,192,24203,1,8,0:0:0:0:
256,192,24287,1,0,0:0:0:0:
256,192,24370,1,8,0:0:0:0:
256,192,24426,1,8,0:0:0:0:
256,192,24481,1,8,0:0:0:0:
256,192,24537,1,0,0:0:0:0:
256,192,24620,1,0,0:0:0:0:
256,192,24703,1,8,0:0:0:0:
256,192,24787,1,0,0:0:0:0:
256,192,24870,1,8,0:0:0:0:
256,192,24953,1,0,0:0:0:0:
256,192,25037,1,8,0:0:0:0:
256,192,25120,1,8,0:0:0:0:
256,192,25203,1,0,0:0:0:0:
256,192,25287,1,0,0:0:0:0:
256,192,25370,1,8,0:0:0:0:
256,192,25453,1,0,0:0:0:0:
256,192,25537,1,8,0:0:0:0:
256,192,25620,1,8,0:0:0:0:
256,192,25703,1,0,0:0:0:0:
256,192,25787,1,0,0:0:0:0:
256,192,25870,1,8,0:0:0:0:
256,192,25953,1,0,0:0:0:0:
256,192,26037,1,8,0:0:0:0:
256,192,26120,1,8,0:0:0:0:
256,192,26203,1,8,0:0:0:0:
256,192,26287,1,0,0:0:0:0:
256,192,26370,1,8,0:0:0:0:
256,192,26453,1,8,0:0:0:0:
256,192,26537,1,0,0:0:0:0:
256,192,26620,1,8,0:0:0:0:
256,192,26703,1,0,0:0:0:0:
256,192,26787,1,0,0:0:0:0:
256,192,26870,1,8,0:0:0:0:
256,192,26953,1,0,0:0:0:0:
256,192,27037,1,8,0:0:0:0:
256,192,27120,1,0,0:0:0:0:
256,192,27203,1,8,0:0:0:0:
256,192,27245,1,8,0:0:0:0:
256,192,27287,1,8,0:0:0:0:
256,192,27370,1,0,0:0:0:0:
256,192,27453,1,0,0:0:0:0:
256,192,27537,1,8,0:0:0:0:
256,192,27620,1,0,0:0:0:0:
256,192,27703,1,8,0:0:0:0:
256,192,27745,1,8,0:0:0:0:
256,192,27787,1,8,0:0:0:0:
256,192,27870,1,0,0:0:0:0:
256,192,27953,1,0,0:0:0:0:
256,192,28037,1,8,0:0:0:0:
256,192,28120,1,8,0:0:0:0:
256,192,28203,1,8,0:0:0:0:
256,192,28287,1,0,0:0:0:0:
256,192,28370,1,8,0:0:0:0:
256,192,28537,1,0,0:0:0:0:
256,192,28703,1,12,0:0:0:0:
256,192,28870,1,12,0:0:0:0:
256,192,29037,1,0,0:0:0:0:
256,192,29203,1,0,0:0:0:0:
256,192,29370,1,12,0:0:0:0:
256,192,29537,1,12,0:0:0:0:
256,192,29703,1,0,0:0:0:0:
256,192,29870,1,0,0:0:0:0:
256,192,30037,1,12,0:0:0:0:
256,192,30203,1,12,0:0:0:0:
256,192,30370,1,12,0:0:0:0:
256,192,30537,1,8,0:0:0:0:
256,192,30592,1,8,0:0:0:0:
256,192,30648,1,8,0:0:0:0:
256,192,30703,1,0,0:0:0:0:
256,192,30787,1,0,0:0:0:0:
256,192,30870,1,8,0:0:0:0:
256,192,30953,1,0,0:0:0:0:
256,192,31037,1,8,0:0:0:0:
256,192,31203,1,8,0:0:0:0:
256,192,31370,1,4,0:0:0:0:
256,192,31703,1,8,0:0:0:0:
256,192,31870,1,0,0:0:0:0:
256,192,31953,1,0,0:0:0:0:
256,192,32037,1,8,0:0:0:0:
256,192,32120,1,0,0:0:0:0:
256,192,32203,1,8,0:0:0:0:
256,192,32287,1,8,0:0:0:0:
256,192,32370,1,0,0:0:0:0:
256,192,32537,1,8,0:0:0:0:
256,192,32703,1,0,0:0:0:0:
256,192,32787,1,0,0:0:0:0:
256,192,32870,1,8,0:0:0:0:
256,192,32953,1,8,0:0:0:0:
256,192,33037,1,0,0:0:0:0:
256,192,33203,1,8,0:0:0:0:
256,192,33370,1,0,0:0:0:0:
256,192,33453,1,0,0:0:0:0:
256,192,33537,1,8,0:0:0:0:
256,192,33620,1,0,0:0:0:0:
256,192,33703,1,8,0:0:0:0:
256,192,33870,1,8,0:0:0:0:
256,192,34037,1,8,0:0:0:0:
256,192,34120,1,8,0:0:0:0:
256,192,34203,1,0,0:0:0:0:
256,192,34370,1,8,0:0:0:0:
256,192,34537,1,0,0:0:0:0:
256,192,34620,1,0,0:0:0:0:
256,192,34703,1,8,0:0:0:0:
256,192,34787,1,8,0:0:0:0:
256,192,34870,1,8,0:0:0:0:
256,192,34953,1,0,0:0:0:0:
256,192,35037,1,8,0:0:0:0:
256,192,35203,1,0,0:0:0:0:
256,192,35370,1,8,0:0:0:0:
256,192,35453,1,8,0:0:0:0:
256,192,35537,1,0,0:0:0:0:
256,192,35620,1,0,0:0:0:0:
256,192,35703,1,8,0:0:0:0:
256,192,35787,1,0,0:0:0:0:
256,192,35870,1,8,0:0:0:0:
256,192,36037,1,8,0:0:0:0:
256,192,36120,1,8,0:0:0:0:
256,192,36203,1,0,0:0:0:0:
256,192,36287,1,8,0:0:0:0:
256,192,36370,1,0,0:0:0:0:
256,192,36537,1,0,0:0:0:0:
256,192,36703,1,8,0:0:0:0:
256,192,36787,1,8,0:0:0:0:
256,192,36870,1,0,0:0:0:0:
256,192,37037,1,8,0:0:0:0:
256,192,37203,1,0,0:0:0:0:
256,192,37287,1,8,0:0:0:0:
256,192,37370,1,8,0:0:0:0:
256,192,37453,1,0,0:0:0:0:
256,192,37537,1,8,0:0:0:0:
256,192,37620,1,8,0:0:0:0:
256,192,37703,1,0,0:0:0:0:
256,192,37870,1,8,0:0:0:0:
256,192,38037,1,0,0:0:0:0:
256,192,38120,1,8,0:0:0:0:
256,192,38203,1,0,0:0:0:0:
256,192,38287,1,0,0:0:0:0:
256,192,38370,1,8,0:0:0:0:
256,192,38453,1,0,0:0:0:0:
256,192,38537,1,8,0:0:0:0:
256,192,38703,1,8,0:0:0:0:
256,192,38787,1,8,0:0:0:0:
256,192,38870,1,0,0:0:0:0:
256,192,38953,1,0,0:0:0:0:
256,192,39037,1,8,0:0:0:0:
256,192,39203,1,8,0:0:0:0:
256,192,39370,1,8,0:0:0:0:
256,192,39453,1,8,0:0:0:0:
256,192,39537,1,0,0:0:0:0:
256,192,39703,1,8,0:0:0:0:
256,192,39870,1,0,0:0:0:0:
256,192,39953,1,0,0:0:0:0:
256,192,40037,1,8,0:0:0:0:
256,192,40120,1,0,0:0:0:0:
256,192,40203,1,0,0:0:0:0:
256,192,40287,1,0,0:0:0:0:
256,192,40370,1,8,0:0:0:0:
256,192,40537,1,0,0:0:0:0:
256,192,40703,1,8,0:0:0:0:
256,192,40787,1,0,0:0:0:0:
256,192,40870,1,8,0:0:0:0:
256,192,40953,1,8,0:0:0:0:
256,192,41037,1,0,0:0:0:0:
256,192,41120,1,8,0:0:0:0:
256,192,41203,1,0,0:0:0:0:
256,192,41370,1,0,0:0:0:0:
256,192,41453,1,0,0:0:0:0:
256,192,41537,1,8,0:0:0:0:
256,192,41620,1,0,0:0:0:0:
256,192,41703,1,8,0:0:0:0:
256,192,41870,1,8,0:0:0:0:
256,192,42037,1,4,0:0:0:0:
256,192,42370,1,8,0:0:0:0:
256,192,42537,1,0,0:0:0:0:
256,192,42620,1,0,0:0:0:0:
256,192,42703,1,8,0:0:0:0:
256,192,42787,1,0,0:0:0:0:
256,192,42870,1,8,0:0:0:0:
256,192,42953,1,8,0:0:0:0:
256,192,43037,1,0,0:0:0:0:
256,192,43203,1,8,0:0:0:0:
256,192,43370,1,0,0:0:0:0:
256,192,43453,1,0,0:0:0:0:
256,192,43537,1,8,0:0:0:0:
256,192,43620,1,8,0:0:0:0:
256,192,43703,1,0,0:0:0:0:
256,192,43870,1,8,0:0:0:0:
256,192,44037,1,0,0:0:0:0:
256,192,44120,1,0,0:0:0:0:
256,192,44203,1,8,0:0:0:0:
256,192,44287,1,0,0:0:0:0:
256,192,44370,1,8,0:0:0:0:
256,192,44537,1,8,0:0:0:0:
256,192,44703,1,8,0:0:0:0:
256,192,44787,1,8,0:0:0:0:
256,192,44870,1,0,0:0:0:0:
256,192,45037,1,8,0:0:0:0:
256,192,45203,1,0,0:0:0:0:
256,192,45287,1,0,0:0:0:0:
256,192,45370,1,8,0:0:0:0:
256,192,45453,1,8,0:0:0:0:
256,192,45537,1,8,0:0:0:0:
256,192,45620,1,0,0:0:0:0:
256,192,45703,1,8,0:0:0:0:
256,192,45870,1,0,0:0:0:0:
256,192,46037,1,8,0:0:0:0:
256,192,46120,1,8,0:0:0:0:
256,192,46203,1,0,0:0:0:0:
256,192,46287,1,0,0:0:0:0:
256,192,46370,1,8,0:0:0:0:
256,192,46453,1,0,0:0:0:0:
256,192,46537,1,8,0:0:0:0:
256,192,46703,1,8,0:0:0:0:
256,192,46787,1,8,0:0:0:0:
256,192,46870,1,0,0:0:0:0:
256,192,46953,1,8,0:0:0:0:
256,192,47037,1,0,0:0:0:0:
256,192,47203,1,0,0:0:0:0:
256,192,47370,1,8,0:0:0:0:
256,192,47453,1,8,0:0:0:0:
256,192,47537,1,0,0:0:0:0:
256,192,47703,1,8,0:0:0:0:
256,192,47870,1,0,0:0:0:0:
256,192,48037,1,8,0:0:0:0:
256,192,48120,1,8,0:0:0:0:
256,192,48203,1,0,0:0:0:0:
256,192,48370,1,8,0:0:0:0:
256,192,48537,1,0,0:0:0:0:
256,192,48703,1,8,0:0:0:0:
256,192,48787,1,8,0:0:0:0:
256,192,48870,1,0,0:0:0:0:
256,192,48953,1,0,0:0:0:0:
256,192,49037,1,8,0:0:0:0:
256,192,49120,1,8,0:0:0:0:
256,192,49203,1,0,0:0:0:0:
256,192,49287,1,0,0:0:0:0:
256,192,49370,1,8,0:0:0:0:
256,192,49453,1,0,0:0:0:0:
256,192,49537,1,8,0:0:0:0:
256,192,49620,1,0,0:0:0:0:
256,192,49703,1,8,0:0:0:0:
256,192,49787,1,0,0:0:0:0:
256,192,49870,1,8,0:0:0:0:
256,192,49953,1,0,0:0:0:0:
256,192,50037,1,8,0:0:0:0:
256,192,50120,1,8,0:0:0:0:
256,192,50203,1,0,0:0:0:0:
256,192,50287,1,0,0:0:0:0:
256,192,50370,1,8,0:0:0:0:
256,192,50453,1,8,0:0:0:0:
256,192,50537,1,0,0:0:0:0:
256,192,50620,1,0,0:0:0:0:
256,192,50703,1,8,0:0:0:0:
256,192,50787,1,0,0:0:0:0:
256,192,50870,1,8,0:0:0:0:
256,192,50912,1,8,0:0:0:0:
256,192,50953,1,8,0:0:0:0:
256,192,51037,1,0,0:0:0:0:
256,192,51120,1,0,0:0:0:0:
256,192,51203,1,8,0:0:0:0:
256,192,51287,1,8,0:0:0:0:
256,192,51370,1,4,0:0:0:0:
256,192,51537,1,0,0:0:0:0:
256,192,51620,1,0,0:0:0:0:
256,192,51703,1,0,0:0:0:0:
256,192,51870,1,8,0:0:0:0:
256,192,52037,1,8,0:0:0:0:
256,192,52120,1,8,0:0:0:0:
256,192,52203,1,8,0:0:0:0:
256,192,52370,1,8,0:0:0:0:
256,192,52537,1,8,0:0:0:0:
256,192,52703,1,4,0:0:0:0:
256,192,53037,1,8,0:0:0:0:
256,192,53203,1,0,0:0:0:0:
256,192,53370,1,8,0:0:0:0:
256,192,53453,1,8,0:0:0:0:
256,192,53537,1,0,0:0:0:0:
256,192,53703,1,0,0:0:0:0:
256,192,53870,1,8,0:0:0:0:
256,192,54037,1,8,0:0:0:0:
256,192,54120,1,0,0:0:0:0:
256,192,54203,1,8,0:0:0:0:
256,192,54287,1,8,0:0:0:0:
256,192,54370,1,0,0:0:0:0:
256,192,54537,1,8,0:0:0:0:
256,192,54703,1,0,0:0:0:0:
256,192,54870,1,0,0:0:0:0:
256,192,54953,1,0,0:0:0:0:
256,192,55037,1,8,0:0:0:0:
256,192,55203,1,0,0:0:0:0:
256,192,55370,1,8,0:0:0:0:
256,192,55453,1,8,0:0:0:0:
256,192,55537,1,0,0:0:0:0:
256,192,55703,1,8,0:0:0:0:
256,192,55870,1,0,0:0:0:0:
256,192,56037,1,0,0:0:0:0:
256,192,56120,1,8,0:0:0:0:
256,192,56203,1,0,0:0:0:0:
256,192,56370,1,8,0:0:0:0:
256,192,56537,1,0,0:0:0:0:
256,192,56703,1,0,0:0:0:0:
256,192,56787,1,0,0:0:0:0:
256,192,56870,1,8,0:0:0:0:
256,192,56953,1,8,0:0:0:0:
256,192,57037,1,0,0:0:0:0:
256,192,57203,1,8,0:0:0:0:
256,192,57370,1,0,0:0:0:0:
256,192,57537,1,0,0:0:0:0:
256,192,57620,1,0,0:0:0:0:
256,192,57703,1,8,0:0:0:0:
256,192,57870,1,8,0:0:0:0:
256,192,58037,1,0,0:0:0:0:
256,192,58370,1,8,0:0:0:0:
256,192,58537,1,0,0:0:0:0:
256,192,58703,1,0,0:0:0:0:
256,192,58787,1,8,0:0:0:0:
256,192,58870,1,0,0:0:0:0:
256,192,59037,1,8,0:0:0:0:
256,192,59203,1,0,0:0:0:0:
256,192,59370,1,8,0:0:0:0:
256,192,59453,1,8,0:0:0:0:
256,192,59537,1,0,0:0:0:0:
256,192,59620,1,8,0:0:0:0:
256,192,59703,1,0,0:0:0:0:
256,192,59787,1,0,0:0:0:0:
256,192,59870,1,8,0:0:0:0:
256,192,60037,1,0,0:0:0:0:
256,192,60203,1,8,0:0:0:0:
256,192,60287,1,8,0:0:0:0:
256,192,60370,1,0,0:0:0:0:
256,192,60537,1,8,0:0:0:0:
256,192,60703,1,0,0:0:0:0:
256,192,60870,1,0,0:0:0:0:
256,192,60953,1,0,0:0:0:0:
256,192,61037,1,8,0:0:0:0:
256,192,61203,1,0,0:0:0:0:
256,192,61370,1,8,0:0:0:0:
256,192,61453,1,8,0:0:0:0:
256,192,61537,1,0,0:0:0:0:
256,192,61703,1,8,0:0:0:0:
256,192,61870,1,8,0:0:0:0:
256,192,62037,1,0,0:0:0:0:
256,192,62120,1,8,0:0:0:0:
256,192,62203,1,0,0:0:0:0:
256,192,62287,1,0,0:0:0:0:
256,192,62370,1,8,0:0:0:0:
256,192,62537,1,0,0:0:0:0:
256,192,62703,1,8,0:0:0:0:
256,192,62787,1,8,0:0:0:0:
256,192,62870,1,0,0:0:0:0:
256,192,63037,1,8,0:0:0:0:
256,192,63203,1,8,0:0:0:0:
256,192,63370,1,4,0:0:0:0:
256,192,63703,1,8,0:0:0:0:
256,192,63870,1,0,0:0:0:0:
256,192,63953,1,0,0:0:0:0:
256,192,64037,1,8,0:0:0:0:
256,192,64120,1,8,0:0:0:0:
256,192,64203,1,0,0:0:0:0:
256,192,64287,1,0,0:0:0:0:
256,192,64370,1,8,0:0:0:0:
256,192,64537,1,0,0:0:0:0:
256,192,64703,1,8,0:0:0:0:
256,192,64787,1,0,0:0:0:0:
256,192,64870,1,8,0:0:0:0:
256,192,64953,1,8,0:0:0:0:
256,192,65037,1,0,0:0:0:0:
256,192,65120,1,0,0:0:0:0:
256,192,65203,1,8,0:0:0:0:
256,192,65287,1,8,0:0:0:0:
256,192,65370,1,0,0:0:0:0:
256,192,65537,1,0,0:0:0:0:
256,192,65620,1,0,0:0:0:0:
256,192,65703,1,8,0:0:0:0:
256,192,65870,1,0,0:0:0:0:
256,192,66037,1,8,0:0:0:0:
256,192,66120,1,8,0:0:0:0:
256,192,66203,1,0,0:0:0:0:
256,192,66287,1,0,0:0:0:0:
256,192,66370,1,8,0:0:0:0:
256,192,66537,1,0,0:0:0:0:
256,192,66703,1,0,0:0:0:0:
256,192,66787,1,8,0:0:0:0:
256,192,66870,1,0,0:0:0:0:
256,192,67037,1,8,0:0:0:0:
256,192,67203,1,0,0:0:0:0:
256,192,67370,1,0,0:0:0:0:
256,192,67453,1,0,0:0:0:0:
256,192,67537,1,8,0:0:0:0:
256,192,67620,1,8,0:0:0:0:
256,192,67703,1,0,0:0:0:0:
256,192,67870,1,8,0:0:0:0:
256,192,68037,1,0,0:0:0:0:
256,192,68120,1,0,0:0:0:0:
256,192,68203,1,8,0:0:0:0:
256,192,68287,1,0,0:0:0:0:
256,192,68370,1,8,0:0:0:0:
256,192,68537,1,8,0:0:0:0:
256,192,68620,1,8,0:0:0:0:
256,192,68703,1,0,0:0:0:0:
256,192,69037,1,8,0:0:0:0:
256,192,69203,1,0,0:0:0:0:
256,192,69370,1,0,0:0:0:0:
256,192,69453,1,8,0:0:0:0:
256,192,69537,1,0,0:0:0:0:
256,192,69620,1,0,0:0:0:0:
256,192,69703,1,8,0:0:0:0:
256,192,69870,1,0,0:0:0:0:
256,192,70037,1,8,0:0:0:0:
256,192,70120,1,8,0:0:0:0:
256,192,70203,1,0,0:0:0:0:
256,192,70287,1,8,0:0:0:0:
256,192,70370,1,0,0:0:0:0:
256,192,70453,1,0,0:0:0:0:
256,192,70537,1,8,0:0:0:0:
256,192,70620,1,8,0:0:0:0:
256,192,70703,1,0,0:0:0:0:
256,192,70870,1,0,0:0:0:0:
256,192,70953,1,8,0:0:0:0:
256,192,71037,1,0,0:0:0:0:
256,192,71203,1,8,0:0:0:0:
256,192,71370,1,0,0:0:0:0:
256,192,71453,1,0,0:0:0:0:
256,192,71537,1,0,0:0:0:0:
256,192,71620,1,0,0:0:0:0:
256,192,71703,1,8,0:0:0:0:
256,192,71870,1,0,0:0:0:0:
256,192,72037,1,8,0:0:0:0:
256,192,72120,1,0,0:0:0:0:
256,192,72203,1,0,0:0:0:0:
256,192,72287,1,0,0:0:0:0:
256,192,72370,1,8,0:0:0:0:
256,192,72537,1,8,0:0:0:0:
256,192,72620,1,8,0:0:0:0:
256,192,72703,1,0,0:0:0:0:
256,192,72787,1,8,0:0:0:0:
256,192,72870,1,0,0:0:0:0:
256,192,72953,1,0,0:0:0:0:
256,192,73037,1,8,0:0:0:0:
256,192,73203,1,0,0:0:0:0:
256,192,73370,1,8,0:0:0:0:
256,192,73453,1,8,0:0:0:0:
256,192,73537,1,0,0:0:0:0:
256,192,73703,1,8,0:0:0:0:
256,192,73870,1,8,0:0:0:0:
256,192,74037,1,4,0:0:0:0:
256,192,74370,1,8,0:0:0:0:
256,192,74537,1,0,0:0:0:0:
256,192,74703,1,8,0:0:0:0:
256,192,74787,1,0,0:0:0:0:
256,192,74870,1,8,0:0:0:0:
256,192,74953,1,8,0:0:0:0:
256,192,75037,1,0,0:0:0:0:
256,192,75203,1,8,0:0:0:0:
256,192,75370,1,0,0:0:0:0:
256,192,75453,1,8,0:0:0:0:
256,192,75537,1,0,0:0:0:0:
256,192,75620,1,0,0:0:0:0:
256,192,75703,1,8,0:0:0:0:
256,192,75870,1,8,0:0:0:0:
256,192,76037,1,8,0:0:0:0:
256,192,76120,1,8,0:0:0:0:
256,192,76203,1,0,0:0:0:0:
256,192,76370,1,8,0:0:0:0:
256,192,76537,1,0,0:0:0:0:
256,192,76620,1,0,0:0:0:0:
256,192,76703,1,8,0:0:0:0:
256,192,76787,1,0,0:0:0:0:
256,192,76870,1,8,0:0:0:0:
256,192,76953,1,8,0:0:0:0:
256,192,77037,1,0,0:0:0:0:
256,192,77203,1,8,0:0:0:0:
256,192,77370,1,0,0:0:0:0:
256,192,77453,1,0,0:0:0:0:
256,192,77537,1,0,0:0:0:0:
256,192,77620,1,0,0:0:0:0:
256,192,77703,1,8,0:0:0:0:
256,192,77787,1,0,0:0:0:0:
256,192,77870,1,8,0:0:0:0:
256,192,78037,1,8,0:0:0:0:
256,192,78120,1,0,0:0:0:0:
256,192,78203,1,0,0:0:0:0:
256,192,78287,1,0,0:0:0:0:
256,192,78370,1,8,0:0:0:0:
256,192,78537,1,0,0:0:0:0:
256,192,78703,1,8,0:0:0:0:
256,192,78787,1,8,0:0:0:0:
256,192,78870,1,0,0:0:0:0:
256,192,78953,1,8,0:0:0:0:
256,192,79037,1,0,0:0:0:0:
256,192,79203,1,0,0:0:0:0:
256,192,79370,1,12,0:0:0:0:
256,192,79703,1,0,0:0:0:0:
256,192,79870,1,8,0:0:0:0:
256,192,80037,1,0,0:0:0:0:
256,192,80120,1,0,0:0:0:0:
256,192,80203,1,8,0:0:0:0:
256,192,80287,1,8,0:0:0:0:
256,192,80370,1,0,0:0:0:0:
256,192,80537,1,8,0:0:0:0:
256,192,80703,1,0,0:0:0:0:
256,192,80787,1,0,0:0:0:0:
256,192,80870,1,0,0:0:0:0:
256,192,80953,1,0,0:0:0:0:
256,192,81037,1,8,0:0:0:0:
256,192,81203,1,0,0:0:0:0:
256,192,81370,1,8,0:0:0:0:
256,192,81453,1,8,0:0:0:0:
256,192,81537,1,0,0:0:0:0:
256,192,81703,1,8,0:0:0:0:
256,192,81870,1,0,0:0:0:0:
256,192,81953,1,8,0:0:0:0:
256,192,82037,1,0,0:0:0:0:
256,192,82120,1,0,0:0:0:0:
256,192,82203,1,8,0:0:0:0:
256,192,82287,1,8,0:0:0:0:
256,192,82370,1,0,0:0:0:0:
256,192,82537,1,8,0:0:0:0:
256,192,82703,1,0,0:0:0:0:
256,192,82787,1,0,0:0:0:0:
256,192,82870,1,8,0:0:0:0:
256,192,83037,1,0,0:0:0:0:
256,192,83203,1,8,0:0:0:0:
256,192,83287,1,8,0:0:0:0:
256,192,83370,1,0,0:0:0:0:
256,192,83453,1,0,0:0:0:0:
256,192,83537,1,8,0:0:0:0:
256,192,83620,1,0,0:0:0:0:
256,192,83703,1,8,0:0:0:0:
256,192,83870,1,0,0:0:0:0:
256,192,84037,1,8,0:0:0:0:
256,192,84120,1,8,0:0:0:0:
256,192,84203,1,0,0:0:0:0:
256,192,84287,1,0,0:0:0:0:
256,192,84370,1,8,0:0:0:0:
256,192,84537,1,8,0:0:0:0:
256,192,84703,1,4,0:0:0:0:
256,192,85037,1,8,0:0:0:0:
256,192,85203,1,0,0:0:0:0:
256,192,85370,1,8,0:0:0:0:
256,192,85453,1,0,0:0:0:0:
256,192,85537,1,8,0:0:0:0:
256,192,85620,1,8,0:0:0:0:
256,192,85703,1,0,0:0:0:0:
256,192,85870,1,8,0:0:0:0:
256,192,86037,1,0,0:0:0:0:
256,192,86120,1,0,0:0:0:0:
256,192,86203,1,0,0:0:0:0:
256,192,86287,1,0,0:0:0:0:
256,192,86370,1,8,0:0:0:0:
256,192,86537,1,0,0:0:0:0:
256,192,86703,1,8,0:0:0:0:
256,192,86787,1,0,0:0:0:0:
256,192,86870,1,0,0:0:0:0:
256,192,86953,1,0,0:0:0:0:
256,192,87037,1,8,0:0:0:0:
256,192,87203,1,0,0:0:0:0:
256,192,87370,1,8,0:0:0:0:
256,192,87537,1,8,0:0:0:0:
256,192,87620,1,8,0:0:0:0:
256,192,87703,1,0,0:0:0:0:
256,192,87870,1,0,0:0:0:0:
256,192,87953,1,8,0:0:0:0:
256,192,88037,1,0,0:0:0:0:
256,192,88120,1,0,0:0:0:0:
256,192,88203,1,8,0:0:0:0:
256,192,88287,1,8,0:0:0:0:
256,192,88370,1,0,0:0:0:0:
256,192,88537,1,8,0:0:0:0:
256,192,88703,1,0,0:0:0:0:
256,192,88787,1,0,0:0:0:0:
256,192,88870,1,8,0:0:0:0:
256,192,88953,1,8,0:0:0:0:
256,192,89037,1,0,0:0:0:0:
256,192,89203,1,8,0:0:0:0:
256,192,89370,1,0,0:0:0:0:
256,192,89453,1,0,0:0:0:0:
256,192,89537,1,0,0:0:0:0:
256,192,89620,1,0,0:0:0:0:
256,192,89703,1,8,0:0:0:0:
256,192,89870,1,0,0:0:0:0:
256,192,90037,1,8,0:0:0:0:
256,192,90370,1,12,0:0:0:0:
256,192,90537,1,12,0:0:0:0:
256,192,90703,1,12,0:0:0:0:
256,192,90870,1,12,0:0:0:0:
256,192,91037,1,0,0:0:0:0:
256,192,91370,1,8,0:0:0:0:
256,192,91703,1,12,0:0:0:0:
256,192,91870,1,0,0:0:0:0:
256,192,91926,1,0,0:0:0:0:
256,192,91981,1,0,0:0:0:0:
256,192,92037,1,8,0:0:0:0:
256,192,92120,1,8,0:0:0:0:
256,192,92203,1,0,0:0:0:0:
256,192,92287,1,8,0:0:0:0:
256,192,92370,1,0,0:0:0:0:
256,192,92703,1,12,0:0:0:0:
256,192,93203,1,4,0:0:0:0:
256,192,93703,1,12,0:0:0:0:
256,192,94203,1,4,0:0:0:0:
256,192,94703,1,12,0:0:0:0:
256,192,95037,1,0,0:0:0:0:
256,192,95370,1,8,0:0:0:0:
256,192,95537,1,0,0:0:0:0:
256,192,95620,1,0,0:0:0:0:
256,192,95703,1,8,0:0:0:0:
256,192,95870,1,8,0:0:0:0:
256,192,95953,1,8,0:0:0:0:
256,192,96037,1,0,0:0:0:0:
256,192,96203,1,8,0:0:0:0:
256,192,96287,1,8,0:0:0:0:
256,192,96370,1,0,0:0:0:0:
256,192,96426,1,0,0:0:0:0:
256,192,96481,1,0,0:0:0:0:
256,192,96537,1,8,0:0:0:0:
256,192,96620,1,8,0:0:0:0:
256,192,96703,1,0,0:0:0:0:
256,192,97037,1,0,0:0:0:0:
256,192,97370,1,8,0:0:0:0:
256,192,97537,1,0,0:0:0:0:
256,192,97703,1,8,0:0:0:0:
256,192,97870,1,8,0:0:0:0:
256,192,98037,1,4,0:0:0:0:
256,192,98203,1,0,0:0:0:0:
256,192,98287,1,0,0:0:0:0:
256,192,98370,1,8,0:0:0:0:
256,192,98453,1,0,0:0:0:0:
256,192,98537,1,8,0:0:0:0:
256,192,98620,1,8,0:0:0:0:
256,192,98703,1,0,0:0:0:0:
256,192,98787,1,0,0:0:0:0:
256,192,98870,1,8,0:0:0:0:
256,192,98953,1,0,0:0:0:0:
256,192,99037,1,0,0:0:0:0:
256,192,99120,1,0,0:0:0:0:
256,192,99203,1,8,0:0:0:0:
256,192,99287,1,8,0:0:0:0:
256,192,99370,1,0,0:0:0:0:
256,192,99453,1,8,0:0:0:0:
256,192,99537,1,0,0:0:0:0:
256,192,99620,1,0,0:0:0:0:
256,192,99703,1,8,0:0:0:0:
256,192,99787,1,8,0:0:0:0:
256,192,99870,1,8,0:0:0:0:
256,192,99953,1,0,0:0:0:0:
256,192,100037,1,8,0:0:0:0:
256,192,100120,1,8,0:0:0:0:
256,192,100203,1,0,0:0:0:0:
256,192,100287,1,0,0:0:0:0:
256,192,100370,1,8,0:0:0:0:
256,192,100453,1,0,0:0:0:0:
256,192,100537,1,8,0:0:0:0:
256,192,100620,1,0,0:0:0:0:
256,192,100703,1,8,0:0:0:0:
256,192,100787,1,0,0:0:0:0:
256,192,100870,1,0,0:0:0:0:
256,192,100953,1,0,0:0:0:0:
256,192,101037,1,8,0:0:0:0:
256,192,101120,1,0,0:0:0:0:
256,192,101203,1,8,0:0:0:0:
256,192,101287,1,8,0:0:0:0:
256,192,101370,1,0,0:0:0:0:
256,192,101453,1,8,0:0:0:0:
256,192,101537,1,0,0:0:0:0:
256,192,101620,1,0,0:0:0:0:
256,192,101703,1,8,0:0:0:0:
256,192,101787,1,0,0:0:0:0:
256,192,101870,1,8,0:0:0:0:
256,192,101953,1,8,0:0:0:0:
256,192,102037,1,0,0:0:0:0:
256,192,102120,1,8,0:0:0:0:
256,192,102203,1,8,0:0:0:0:
256,192,102287,1,0,0:0:0:0:
256,192,102370,1,8,0:0:0:0:
256,192,102453,1,8,0:0:0:0:
256,192,102537,1,0,0:0:0:0:
256,192,102620,1,8,0:0:0:0:
256,192,102703,1,0,0:0:0:0:
256,192,102787,1,0,0:0:0:0:
256,192,102870,1,0,0:0:0:0:
256,192,102953,1,0,0:0:0:0:
256,192,103037,1,8,0:0:0:0:
256,192,103120,1,0,0:0:0:0:
256,192,103203,1,0,0:0:0:0:
256,192,103287,1,0,0:0:0:0:
256,192,103370,1,8,0:0:0:0:
256,192,103453,1,8,0:0:0:0:
256,192,103537,1,0,0:0:0:0:
256,192,103620,1,0,0:0:0:0:
256,192,103703,1,8,0:0:0:0:
256,192,103787,1,0,0:0:0:0:
256,192,103870,1,8,0:0:0:0:
256,192,103953,1,0,0:0:0:0:
256,192,104037,1,8,0:0:0:0:
256,192,104120,1,8,0:0:0:0:
256,192,104203,1,0,0:0:0:0:
256,192,104287,1,0,0:0:0:0:
256,192,104370,1,8,0:0:0:0:
256,192,104453,1,8,0:0:0:0:
256,192,104537,1,8,0:0:0:0:
256,192,104620,1,8,0:0:0:0:
256,192,104703,1,0,0:0:0:0:
256,192,104787,1,8,0:0:0:0:
256,192,104870,1,0,0:0:0:0:
256,192,104953,1,0,0:0:0:0:
256,192,105037,1,8,0:0:0:0:
256,192,105120,1,0,0:0:0:0:
256,192,105203,1,8,0:0:0:0:
256,192,105287,1,0,0:0:0:0:
256,192,105370,1,8,0:0:0:0:
256,192,105453,1,8,0:0:0:0:
256,192,105537,1,0,0:0:0:0:
256,192,105620,1,0,0:0:0:0:
256,192,105703,1,8,0:0:0:0:
256,192,105787,1,0,0:0:0:0:
256,192,105870,1,0,0:0:0:0:
256,192,105953,1,0,0:0:0:0:
256,192,106037,1,8,0:0:0:0:
256,192,106120,1,8,0:0:0:0:
256,192,106203,1,8,0:0:0:0:
256,192,106287,1,8,0:0:0:0:
256,192,106370,1,0,0:0:0:0:
256,192,106453,1,0,0:0:0:0:
256,192,106537,1,0,0:0:0:0:
256,192,106620,1,0,0:0:0:0:
256,192,106703,1,8,0:0:0:0:
256,192,106787,1,8,0:0:0:0:
256,192,106870,1,0,0:0:0:0:
256,192,106953,1,0,0:0:0:0:
256,192,107037,1,8,0:0:0:0:
256,192,107120,1,0,0:0:0:0:
256,192,107203,1,8,0:0:0:0:
256,192,107287,1,8,0:0:0:0:
256,192,107370,1,0,0:0:0:0:
256,192,107453,1,0,0:0:0:0:
256,192,107537,1,8,0:0:0:0:
256,192,107620,1,0,0:0:0:0:
256,192,107703,1,8,0:0:0:0:
256,192,107787,1,8,0:0:0:0:
256,192,107870,1,0,0:0:0:0:
256,192,107953,1,0,0:0:0:0:
256,192,108037,1,8,0:0:0:0:
256,192,108120,1,8,0:0:0:0:
256,192,108203,1,8,0:0:0:0:
256,192,108287,1,0,0:0:0:0:
256,192,108370,1,8,0:0:0:0:
256,192,108453,1,8,0:0:0:0:
256,192,108537,1,0,0:0:0:0:
256,192,108620,1,0,0:0:0:0:
256,192,108703,1,8,0:0:0:0:
256,192,108870,1,8,0:0:0:0:
256,192,108953,1,0,0:0:0:0:
256,192,109037,1,8,0:0:0:0:
256,192,109120,1,0,0:0:0:0:
256,192,109203,1,8,0:0:0:0:
256,192,109287,1,8,0:0:0:0:
256,192,109370,1,0,0:0:0:0:
256,192,109453,1,0,0:0:0:0:
256,192,109537,1,8,0:0:0:0:
256,192,109620,1,8,0:0:0:0:
256,192,109703,1,8,0:0:0:0:
256,192,109787,1,0,0:0:0:0:
256,192,109870,1,8,0:0:0:0:
256,192,109953,1,8,0:0:0:0:
256,192,110037,1,0,0:0:0:0:
256,192,110120,1,8,0:0:0:0:
256,192,110203,1,0,0:0:0:0:
256,192,110287,1,0,0:0:0:0:
256,192,110370,1,8,0:0:0:0:
256,192,110453,1,8,0:0:0:0:
256,192,110537,1,8,0:0:0:0:
256,192,110620,1,0,0:0:0:0:
256,192,110703,1,8,0:0:0:0:
256,192,110787,1,8,0:0:0:0:
256,192,110870,1,0,0:0:0:0:
256,192,110953,1,0,0:0:0:0:
256,192,111037,1,8,0:0:0:0:
256,192,111120,1,8,0:0:0:0:
256,192,111203,1,8,0:0:0:0:
256,192,111287,1,8,0:0:0:0:
256,192,111370,1,0,0:0:0:0:
256,192,111453,1,8,0:0:0:0:
256,192,111537,1,0,0:0:0:0:
256,192,111620,1,0,0:0:0:0:
256,192,111703,1,8,0:0:0:0:
256,192,111787,1,0,0:0:0:0:
256,192,111870,1,8,0:0:0:0:
256,192,111953,1,8,0:0:0:0:
256,192,112037,1,0,0:0:0:0:
256,192,112120,1,0,0:0:0:0:
256,192,112203,1,8,0:0:0:0:
256,192,112287,1,0,0:0:0:0:
256,192,112370,1,8,0:0:0:0:
256,192,112453,1,0,0:0:0:0:
256,192,112537,1,8,0:0:0:0:
256,192,112620,1,8,0:0:0:0:
256,192,112703,1,0,0:0:0:0:
256,192,112787,1,0,0:0:0:0:
256,192,112870,1,8,0:0:0:0:
256,192,112953,1,0,0:0:0:0:
256,192,113037,1,8,0:0:0:0:
256,192,113120,1,8,0:0:0:0:
256,192,113203,1,8,0:0:0:0:
256,192,113287,1,0,0:0:0:0:
256,192,113370,1,8,0:0:0:0:
256,192,113453,1,8,0:0:0:0:
256,192,113537,1,0,0:0:0:0:
256,192,113620,1,0,0:0:0:0:
256,192,113703,1,8,0:0:0:0:
256,192,113787,1,8,0:0:0:0:
256,192,113870,1,8,0:0:0:0:
256,192,113953,1,8,0:0:0:0:
256,192,114037,1,0,0:0:0:0:
256,192,114120,1,0,0:0:0:0:
256,192,114203,1,8,0:0:0:0:
256,192,114287,1,0,0:0:0:0:
256,192,114370,1,8,0:0:0:0:
256,192,114453,1,8,0:0:0:0:
256,192,114537,1,0,0:0:0:0:
256,192,114620,1,8,0:0:0:0:
256,192,114703,1,0,0:0:0:0:
256,192,114787,1,0,0:0:0:0:
256,192,114870,1,0,0:0:0:0:
256,192,114953,1,0,0:0:0:0:
256,192,115037,1,8,0:0:0:0:
256,192,115120,1,8,0:0:0:0:
256,192,115203,1,0,0:0:0:0:
256,192,115287,1,0,0:0:0:0:
256,192,115370,1,8,0:0:0:0:
256,192,115453,1,0,0:0:0:0:
256,192,115537,1,8,0:0:0:0:
256,192,115620,1,8,0:0:0:0:
256,192,115703,1,0,0:0:0:0:
256,192,115787,1,0,0:0:0:0:
256,192,115870,1,8,0:0:0:0:
256,192,115953,1,0,0:0:0:0:
256,192,116037,1,8,0:0:0:0:
256,192,116120,1,8,0:0:0:0:
256,192,116203,1,8,0:0:0:0:
256,192,116287,1,0,0:0:0:0:
256,192,116370,1,8,0:0:0:0:
256,192,116453,1,8,0:0:0:0:
256,192,116537,1,8,0:0:0:0:
256,192,116620,1,8,0:0:0:0:
256,192,116703,1,0,0:0:0:0:
256,192,116787,1,0,0:0:0:0:
256,192,116870,1,8,0:0:0:0:
256,192,116953,1,0,0:0:0:0:
256,192,117037,1,8,0:0:0:0:
256,192,117120,1,8,0:0:0:0:
256,192,117203,1,0,0:0:0:0:
256,192,117287,1,8,0:0:0:0:
256,192,117370,1,0,0:0:0:0:
256,192,117453,1,0,0:0:0:0:
256,192,117537,1,0,0:0:0:0:
256,192,117620,1,0,0:0:0:0:
256,192,117703,1,8,0:0:0:0:
256,192,117787,1,0,0:0:0:0:
256,192,117870,1,8,0:0:0:0:
256,192,117953,1,8,0:0:0:0:
256,192,118037,1,0,0:0:0:0:
256,192,118120,1,0,0:0:0:0:
256,192,118203,1,8,0:0:0:0:
256,192,118287,1,0,0:0:0:0:
256,192,118370,1,8,0:0:0:0:
256,192,118453,1,8,0:0:0:0:
256,192,118537,1,8,0:0:0:0:
256,192,118620,1,0,0:0:0:0:
256,192,118703,1,8,0:0:0:0:
256,192,118787,1,8,0:0:0:0:
256,192,118870,1,0,0:0:0:0:
256,192,119037,1,8,0:0:0:0:
256,192,119203,1,8,0:0:0:0:
256,192,119370,1,0,0:0:0:0:
256,192,119453,1,0,0:0:0:0:
256,192,119537,1,0,0:0:0:0:
256,192,119620,1,0,0:0:0:0:
256,192,119703,1,8,0:0:0:0:
256,192,119787,1,0,0:0:0:0:
256,192,119870,1,0,0:0:0:0:
256,192,119953,1,0,0:0:0:0:
256,192,120037,1,8,0:0:0:0:
256,192,120120,1,0,0:0:0:0:
256,192,120203,1,0,0:0:0:0:
256,192,120287,1,0,0:0:0:0:
256,192,120370,1,8,0:0:0:0:
256,192,120453,1,0,0:0:0:0:
256,192,120537,1,0,0:0:0:0:
256,192,120620,1,0,0:0:0:0:
256,192,120703,1,8,0:0:0:0:
256,192,120787,1,8,0:0:0:0:
256,192,120870,1,0,0:0:0:0:
256,192,120953,1,0,0:0:0:0:
256,192,121037,1,8,0:0:0:0:
256,192,121120,1,8,0:0:0:0:
256,192,121203,1,0,0:0:0:0:
256,192,121287,1,0,0:0:0:0:
256,192,121370,1,8,0:0:0:0:
256,192,121453,1,8,0:0:0:0:
256,192,121537,1,0,0:0:0:0:
256,192,121620,1,0,0:0:0:0:
256,192,121703,1,8,0:0:0:0:
256,192,121787,1,8,0:0:0:0:
256,192,121870,1,0,0:0:0:0:
256,192,121953,1,0,0:0:0:0:
256,192,122037,1,8,0:0:0:0:
256,192,122120,1,0,0:0:0:0:
256,192,122203,1,8,0:0:0:0:
256,192,122287,1,8,0:0:0:0:
256,192,122370,1,0,0:0:0:0:
256,192,122453,1,0,0:0:0:0:
256,192,122537,1,8,0:0:0:0:
256,192,122620,1,0,0:0:0:0:
256,192,122703,1,8,0:0:0:0:
256,192,122787,1,8,0:0:0:0:
256,192,122870,1,0,0:0:0:0:
256,192,122953,1,0,0:0:0:0:
256,192,123037,1,8,0:0:0:0:
256,192,123120,1,8,0:0:0:0:
256,192,123203,1,8,0:0:0:0:
256,192,123287,1,8,0:0:0:0:
256,192,123370,1,0,0:0:0:0:
256,192,123453,1,8,0:0:0:0:
256,192,123537,1,0,0:0:0:0:
256,192,123620,1,0,0:0:0:0:
256,192,123703,1,8,0:0:0:0:
256,192,123787,1,0,0:0:0:0:
256,192,123870,1,8,0:0:0:0:
256,192,123953,1,8,0:0:0:0:
256,192,124037,1,0,0:0:0:0:
256,192,124120,1,0,0:0:0:0:
256,192,124203,1,8,0:0:0:0:
256,192,124287,1,0,0:0:0:0:
256,192,124370,1,8,0:0:0:0:
256,192,124453,1,0,0:0:0:0:
256,192,124537,1,8,0:0:0:0:
256,192,124620,1,8,0:0:0:0:
256,192,124703,1,0,0:0:0:0:
256,192,124787,1,0,0:0:0:0:
256,192,124870,1,8,0:0:0:0:
256,192,125037,1,8,0:0:0:0:
256,192,125203,1,8,0:0:0:0:
256,192,125287,1,8,0:0:0:0:
256,192,125370,1,0,0:0:0:0:
256,192,125537,1,0,0:0:0:0:
256,192,125703,1,8,0:0:0:0:
256,192,125870,1,0,0:0:0:0:
256,192,126037,1,8,0:0:0:0:
256,192,126120,1,8,0:0:0:0:
256,192,126203,1,0,0:0:0:0:
256,192,126370,1,0,0:0:0:0:
256,192,126537,1,0,0:0:0:0:
256,192,126620,1,0,0:0:0:0:
256,192,126703,1,8,0:0:0:0:
256,192,126870,1,8,0:0:0:0:
256,192,127037,1,0,0:0:0:0:
256,192,127203,1,8,0:0:0:0:
256,192,127370,1,0,0:0:0:0:
256,192,127453,1,0,0:0:0:0:
256,192,127537,1,0,0:0:0:0:
256,192,127620,1,0,0:0:0:0:
256,192,127703,1,8,0:0:0:0:
256,192,127787,1,0,0:0:0:0:
256,192,127870,1,0,0:0:0:0:
256,192,127953,1,0,0:0:0:0:
256,192,128037,1,8,0:0:0:0:
256,192,128092,1,0,0:0:0:0:
256,192,128148,1,0,0:0:0:0:
256,192,128203,1,8,0:0:0:0:
256,192,128287,1,0,0:0:0:0:
256,192,128370,1,8,0:0:0:0:
256,192,128426,1,8,0:0:0:0:
256,192,128481,1,8,0:0:0:0:
256,192,128537,1,8,0:0:0:0:
256,192,128592,1,8,0:0:0:0:
256,192,128648,1,8,0:0:0:0:
256,192,128703,1,0,0:0:0:0:
256,192,128870,1,0,0:0:0:0:
256,192,128953,1,0,0:0:0:0:
256,192,129037,1,8,0:0:0:0:
256,192,129203,1,0,0:0:0:0:
256,192,129370,1,8,0:0:0:0:
256,192,129453,1,0,0:0:0:0:
256,192,129537,1,8,0:0:0:0:
256,192,129620,1,0,0:0:0:0:
256,192,129703,1,8,0:0:0:0:
256,192,129787,1,8,0:0:0:0:
256,192,129870,1,0,0:0:0:0:
256,192,129926,1,0,0:0:0:0:
256,192,129981,1,0,0:0:0:0:
256,192,130037,1,8,0:0:0:0:
256,192,130203,1,0,0:0:0:0:
256,192,130370,1,8,0:0:0:0:
256,192,130537,1,0,0:0:0:0:
256,192,130620,1,8,0:0:0:0:
256,192,130703,1,0,0:0:0:0:
256,192,130787,1,8,0:0:0:0:
256,192,130870,1,0,0:0:0:0:
256,192,131037,1,8,0:0:0:0:
256,192,131203,1,0,0:0:0:0:
256,192,131370,1,8,0:0:0:0:
256,192,131426,1,8,0:0:0:0:
256,192,131481,1,8,0:0:0:0:
256,192,131537,1,8,0:0:0:0:
256,192,131592,1,8,0:0:0:0:
256,192,131648,1,8,0:0:0:0:
256,192,131703,1,0,0:0:0:0:
256,192,131870,1,0,0:0:0:0:
256,192,132037,1,8,0:0:0:0:
256,192,132120,1,0,0:0:0:0:
256,192,132203,1,0,0:0:0:0:
256,192,132287,1,0,0:0:0:0:
256,192,132370,1,8,0:0:0:0:
256,192,132537,1,8,0:0:0:0:
256,192,132703,1,0,0:0:0:0:
256,192,133037,1,8,0:0:0:0:
256,192,133203,1,0,0:0:0:0:
256,192,133287,1,8,0:0:0:0:
256,192,133370,1,0,0:0:0:0:
256,192,133453,1,0,0:0:0:0:
256,192,133537,1,8,0:0:0:0:
256,192,133703,1,0,0:0:0:0:
256,192,133870,1,0,0:0:0:0:
256,192,133953,1,0,0:0:0:0:
256,192,134037,1,8,0:0:0:0:
256,192,134287,1,8,0:0:0:0:
256,192,134370,1,0,0:0:0:0:
256,192,134537,1,0,0:0:0:0:
256,192,134703,1,8,0:0:0:0:
256,192,134759,1,8,0:0:0:0:
256,192,134815,1,8,0:0:0:0:
256,192,134870,1,8,0:0:0:0:
256,192,134926,1,8,0:0:0:0:
256,192,134981,1,8,0:0:0:0:
256,192,135037,1,0,0:0:0:0:
256,192,135203,1,8,0:0:0:0:
256,192,135370,1,0,0:0:0:0:
256,192,135537,1,0,0:0:0:0:
256,192,135703,1,8,0:0:0:0:
256,192,135870,1,0,0:0:0:0:
256,192,135953,1,8,0:0:0:0:
256,192,136037,1,8,0:0:0:0:
256,192,136120,1,0,0:0:0:0:
256,192,136203,1,8,0:0:0:0:
256,192,136370,1,8,0:0:0:0:
256,192,136537,1,0,0:0:0:0:
256,192,136703,1,8,0:0:0:0:
256,192,136759,1,8,0:0:0:0:
256,192,136815,1,8,0:0:0:0:
256,192,136870,1,8,0:0:0:0:
256,192,136926,1,8,0:0:0:0:
256,192,136981,1,8,0:0:0:0:
256,192,137037,1,0,0:0:0:0:
256,192,137203,1,0,0:0:0:0:
256,192,137370,1,8,0:0:0:0:
256,192,137537,1,0,0:0:0:0:
256,192,137703,1,8,0:0:0:0:
256,192,137787,1,8,0:0:0:0:
256,192,137870,1,8,0:0:0:0:
256,192,138037,1,0,0:0:0:0:
256,192,138370,1,8,0:0:0:0:
256,192,138537,1,0,0:0:0:0:
256,192,138620,1,0,0:0:0:0:
256,192,138703,1,0,0:0:0:0:
256,192,138870,1,8,0:0:0:0:
256,192,139037,1,0,0:0:0:0:
256,192,139120,1,8,0:0:0:0:
256,192,139203,1,0,0:0:0:0:
256,192,139287,1,0,0:0:0:0:
256,192,139370,1,8,0:0:0:0:
256,192,139620,1,8,0:0:0:0:
256,192,139703,1,0,0:0:0:0:
256,192,139870,1,0,0:0:0:0:
256,192,140037,1,8,0:0:0:0:
256,192,140092,1,8,0:0:0:0:
256,192,140148,1,8,0:0:0:0:
256,192,140203,1,8,0:0:0:0:
256,192,140259,1,8,0:0:0:0:
256,192,140315,1,8,0:0:0:0:
256,192,140370,1,0,0:0:0:0:
256,192,140537,1,8,0:0:0:0:
256,192,140703,1,0,0:0:0:0:
256,192,140870,1,0,0:0:0:0:
256,192,141037,1,8,0:0:0:0:
256,192,141203,1,0,0:0:0:0:
256,192,141287,1,8,0:0:0:0:
256,192,141370,1,0,0:0:0:0:
256,192,141453,1,8,0:0:0:0:
256,192,141537,1,0,0:0:0:0:
256,192,141703,1,8,0:0:0:0:
256,192,141870,1,0,0:0:0:0:
256,192,142037,1,8,0:0:0:0:
256,192,142092,1,8,0:0:0:0:
256,192,142148,1,8,0:0:0:0:
256,192,142203,1,8,0:0:0:0:
256,192,142259,1,8,0:0:0:0:
256,192,142315,1,8,0:0:0:0:
256,192,142370,1,0,0:0:0:0:
256,192,142537,1,0,0:0:0:0:
256,192,142703,1,8,0:0:0:0:
256,192,142787,1,0,0:0:0:0:
256,192,142870,1,0,0:0:0:0:
256,192,142953,1,0,0:0:0:0:
256,192,143037,1,8,0:0:0:0:
256,192,143203,1,8,0:0:0:0:
256,192,143370,1,0,0:0:0:0:
256,192,143703,1,8,0:0:0:0:
256,192,143870,1,0,0:0:0:0:
256,192,143953,1,8,0:0:0:0:
256,192,144037,1,0,0:0:0:0:
256,192,144120,1,0,0:0:0:0:
256,192,144203,1,8,0:0:0:0:
256,192,144370,1,0,0:0:0:0:
256,192,144537,1,0,0:0:0:0:
256,192,144620,1,0,0:0:0:0:
256,192,144703,1,8,0:0:0:0:
256,192,144953,1,8,0:0:0:0:
256,192,145037,1,0,0:0:0:0:
256,192,145203,1,0,0:0:0:0:
256,192,145370,1,8,0:0:0:0:
256,192,145426,1,8,0:0:0:0:
256,192,145481,1,8,0:0:0:0:
256,192,145537,1,8,0:0:0:0:
256,192,145592,1,8,0:0:0:0:
256,192,145648,1,8,0:0:0:0:
256,192,145703,1,0,0:0:0:0:
256,192,145870,1,8,0:0:0:0:
256,192,146037,1,0,0:0:0:0:
256,192,146203,1,0,0:0:0:0:
256,192,146370,1,8,0:0:0:0:
256,192,146537,1,8,0:0:0:0:
256,192,146620,1,0,0:0:0:0:
256,192,146703,1,8,0:0:0:0:
256,192,146787,1,8,0:0:0:0:
256,192,146870,1,0,0:0:0:0:
256,192,147037,1,8,0:0:0:0:
256,192,147203,1,0,0:0:0:0:
256,192,147370,1,0,0:0:0:0:
256,192,147426,1,0,0:0:0:0:
256,192,147481,1,0,0:0:0:0:
256,192,147537,1,0,0:0:0:0:
256,192,147592,1,0,0:0:0:0:
256,192,147648,1,0,0:0:0:0:
256,192,147703,1,8,0:0:0:0:
256,192,147870,1,8,0:0:0:0:
256,192,148037,1,0,0:0:0:0:
256,192,148120,1,8,0:0:0:0:
256,192,148203,1,0,0:0:0:0:
256,192,148370,1,8,0:0:0:0:
256,192,148537,1,8,0:0:0:0:
256,192,148620,1,8,0:0:0:0:
256,192,148703,1,0,0:0:0:0:
256,192,148787,1,0,0:0:0:0:
256,192,148870,1,0,0:0:0:0:
256,192,148953,1,0,0:0:0:0:
256,192,149037,1,8,0:0:0:0:
256,192,149120,1,8,0:0:0:0:
256,192,149203,1,0,0:0:0:0:
256,192,149287,1,0,0:0:0:0:
256,192,149370,1,8,0:0:0:0:
256,192,149453,1,8,0:0:0:0:
256,192,149537,1,0,0:0:0:0:
256,192,149620,1,0,0:0:0:0:
256,192,149703,1,8,0:0:0:0:
256,192,149787,1,0,0:0:0:0:
256,192,149870,1,8,0:0:0:0:
256,192,149953,1,8,0:0:0:0:
256,192,150037,8,0,151203,0:0:0:0:
256,192,151370,5,4,0:0:0:0:
256,192,151537,1,8,0:0:0:0:
256,192,151703,1,0,0:0:0:0:
256,192,151787,1,0,0:0:0:0:
256,192,151870,1,8,0:0:0:0:
256,192,152037,1,0,0:0:0:0:
256,192,152120,1,0,0:0:0:0:
256,192,152203,1,8,0:0:0:0:
256,192,152287,1,8,0:0:0:0:
256,192,152370,1,0,0:0:0:0:
256,192,152537,1,8,0:0:0:0:
256,192,152703,1,0,0:0:0:0:
256,192,152787,1,8,0:0:0:0:
256,192,152870,1,0,0:0:0:0:
256,192,152953,1,0,0:0:0:0:
256,192,153037,1,8,0:0:0:0:
256,192,153203,1,8,0:0:0:0:
256,192,153370,1,8,0:0:0:0:
256,192,153453,1,8,0:0:0:0:
256,192,153537,1,0,0:0:0:0:
256,192,153703,1,8,0:0:0:0:
256,192,153870,1,0,0:0:0:0:
256,192,153953,1,0,0:0:0:0:
256,192,154037,1,8,0:0:0:0:
256,192,154120,1,0,0:0:0:0:
256,192,154203,1,8,0:0:0:0:
256,192,154287,1,8,0:0:0:0:
256,192,154370,1,0,0:0:0:0:
256,192,154537,1,8,0:0:0:0:
256,192,154703,1,0,0:0:0:0:
256,192,154787,1,0,0:0:0:0:
256,192,154870,1,0,0:0:0:0:
256,192,154953,1,0,0:0:0:0:
256,192,155037,1,8,0:0:0:0:
256,192,155120,1,0,0:0:0:0:
256,192,155203,1,8,0:0:0:0:
256,192,155370,1,8,0:0:0:0:
256,192,155453,1,0,0:0:0:0:
256,192,155537,1,0,0:0:0:0:
256,192,155620,1,0,0:0:0:0:
256,192,155703,1,8,0:0:0:0:
256,192,155870,1,0,0:0:0:0:
256,192,156037,1,8,0:0:0:0:
256,192,156120,1,8,0:0:0:0:
256,192,156203,1,0,0:0:0:0:
256,192,156287,1,8,0:0:0:0:
256,192,156370,1,0,0:0:0:0:
256,192,156537,1,0,0:0:0:0:
256,192,156703,1,12,0:0:0:0:
256,192,157037,1,0,0:0:0:0:
256,192,157203,1,8,0:0:0:0:
256,192,157370,1,0,0:0:0:0:
256,192,157453,1,0,0:0:0:0:
256,192,157537,1,8,0:0:0:0:
256,192,157620,1,8,0:0:0:0:
256,192,157703,1,0,0:0:0:0:
256,192,157870,1,8,0:0:0:0:
256,192,158037,1,0,0:0:0:0:
256,192,158120,1,0,0:0:0:0:
256,192,158203,1,0,0:0:0:0:
256,192,158287,1,0,0:0:0:0:
256,192,158370,1,8,0:0:0:0:
256,192,158537,1,0,0:0:0:0:
256,192,158703,1,8,0:0:0:0:
256,192,158787,1,8,0:0:0:0:
256,192,158870,1,0,0:0:0:0:
256,192,159037,1,8,0:0:0:0:
256,192,159203,1,0,0:0:0:0:
256,192,159287,1,8,0:0:0:0:
256,192,159370,1,0,0:0:0:0:
256,192,159453,1,0,0:0:0:0:
256,192,159537,1,8,0:0:0:0:
256,192,159620,1,8,0:0:0:0:
256,192,159703,1,0,0:0:0:0:
256,192,159870,1,8,0:0:0:0:
256,192,160037,1,0,0:0:0:0:
256,192,160120,1,0,0:0:0:0:
256,192,160203,1,8,0:0:0:0:
256,192,160370,1,0,0:0:0:0:
256,192,160537,1,8,0:0:0:0:
256,192,160620,1,8,0:0:0:0:
256,192,160703,1,0,0:0:0:0:
256,192,160787,1,0,0:0:0:0:
256,192,160870,1,8,0:0:0:0:
256,192,160953,1,0,0:0:0:0:
256,192,161037,1,8,0:0:0:0:
256,192,161203,1,0,0:0:0:0:
256,192,161370,1,8,0:0:0:0:
256,192,161453,1,8,0:0:0:0:
256,192,161537,1,0,0:0:0:0:
256,192,161620,1,0,0:0:0:0:
256,192,161703,1,8,0:0:0:0:
256,192,161870,1,8,0:0:0:0:
256,192,162037,1,4,0:0:0:0:
256,192,162370,1,8,0:0:0:0:
256,192,162537,1,0,0:0:0:0:
256,192,162703,1,8,0:0:0:0:
256,192,162787,1,0,0:0:0:0:
256,192,162870,1,8,0:0:0:0:
256,192,162953,1,8,0:0:0:0:
256,192,163037,1,0,0:0:0:0:
256,192,163203,1,8,0:0:0:0:
256,192,163370,1,0,0:0:0:0:
256,192,163453,1,0,0:0:0:0:
256,192,163537,1,0,0:0:0:0:
256,192,163620,1,0,0:0:0:0:
256,192,163703,1,8,0:0:0:0:
256,192,163870,1,0,0:0:0:0:
256,192,164037,1,8,0:0:0:0:
256,192,164120,1,0,0:0:0:0:
256,192,164203,1,0,0:0:0:0:
256,192,164287,1,0,0:0:0:0:
256,192,164370,1,8,0:0:0:0:
256,192,164537,1,0,0:0:0:0:
256,192,164703,1,8,0:0:0:0:
256,192,164870,1,8,0:0:0:0:
256,192,164953,1,8,0:0:0:0:
256,192,165037,1,0,0:0:0:0:
256,192,165203,1,0,0:0:0:0:
256,192,165287,1,8,0:0:0:0:
256,192,165370,1,0,0:0:0:0:
256,192,165453,1,0,0:0:0:0:
256,192,165537,1,8,0:0:0:0:
256,192,165620,1,8,0:0:0:0:
256,192,165703,1,0,0:0:0:0:
256,192,165870,1,8,0:0:0:0:
256,192,166037,1,0,0:0:0:0:
256,192,166120,1,0,0:0:0:0:
256,192,166203,1,8,0:0:0:0:
256,192,166287,1,8,0:0:0:0:
256,192,166370,1,0,0:0:0:0:
256,192,166537,1,8,0:0:0:0:
256,192,166703,1,0,0:0:0:0:
256,192,166787,1,0,0:0:0:0:
256,192,166870,1,0,0:0:0:0:
256,192,166953,1,0,0:0:0:0:
256,192,167037,1,8,0:0:0:0:
256,192,167203,1,0,0:0:0:0:
256,192,167370,1,8,0:0:0:0:
256,192,167703,1,12,0:0:0:0:
256,192,167870,1,12,0:0:0:0:
256,192,168037,1,12,0:0:0:0:
256,192,168203,1,12,0:0:0:0:
256,192,168370,1,0,0:0:0:0:
256,192,168703,1,8,0:0:0:0:
256,192,169037,1,12,0:0:0:0:
256,192,169203,1,0,0:0:0:0:
256,192,169259,1,0,0:0:0:0:
256,192,169315,1,0,0:0:0:0:
256,192,169370,1,8,0:0:0:0:
256,192,169453,1,8,0:0:0:0:
256,192,169537,1,0,0:0:0:0:
256,192,169620,1,8,0:0:0:0:
256,192,169703,1,0,0:0:0:0:
256,192,170037,1,12,0:0:0:0:
256,192,170537,1,4,0:0:0:0:
256,192,171037,1,12,0:0:0:0:
256,192,171537,1,4,0:0:0:0:
256,192,172037,1,12,0:0:0:0:
256,192,172370,1,0,0:0:0:0:
256,192,172703,1,8,0:0:0:0:
256,192,172870,1,0,0:0:0:0:
256,192,172953,1,0,0:0:0:0:
256,192,173037,1,8,0:0:0:0:
256,192,173203,1,8,0:0:0:0:
256,192,173287,1,8,0:0:0:0:
256,192,173370,1,0,0:0:0:0:
256,192,173537,1,8,0:0:0:0:
256,192,173620,1,8,0:0:0:0:
256,192,173703,1,0,0:0:0:0:
256,192,173759,1,0,0:0:0:0:
256,192,173815,1,0,0:0:0:0:
256,192,173870,1,8,0:0:0:0:
256,192,173953,1,8,0:0:0:0:
256,192,174037,1,0,0:0:0:0:
256,192,174370,1,0,0:0:0:0:
256,192,174703,1,12,0:0:0:0:
256,192,175370,1,4,0:0:0:0:
256,192,175537,1,0,0:0:0:0:
256,192,175620,1,0,0:0:0:0:
256,192,175703,1,8,0:0:0:0:
256,192,175787,1,0,0:0:0:0:
256,192,175870,1,8,0:0:0:0:
256,192,175953,1,8,0:0:0:0:
256,192,176037,1,0,0:0:0:0:
256,192,176120,1,0,0:0:0:0:
256,192,176203,1,8,0:0:0:0:
256,192,176287,1,0,0:0:0:0:
256,192,176370,1,0,0:0:0:0:
256,192,176453,1,0,0:0:0:0:
256,192,176537,1,8,0:0:0:0:
256,192,176620,1,8,0:0:0:0:
256,192,176703,1,0,0:0:0:0:
256,192,176787,1,8,0:0:0:0:
256,192,176870,1,0,0:0:0:0:
256,192,176953,1,0,0:0:0:0:
256,192,177037,1,8,0:0:0:0:
256,192,177120,1,8,0:0:0:0:
256,192,177203,1,8,0:0:0:0:
256,192,177287,1,0,0:0:0:0:
256,192,177370,1,8,0:0:0:0:
256,192,177453,1,8,0:0:0:0:
256,192,177537,1,0,0:0:0:0:
256,192,177620,1,0,0:0:0:0:
256,192,177703,1,8,0:0:0:0:
256,192,177787,1,0,0:0:0:0:
256,192,177870,1,8,0:0:0:0:
256,192,177953,1,0,0:0:0:0:
256,192,178037,1,8,0:0:0:0:
256,192,178120,1,0,0:0:0:0:
256,192,178203,1,0,0:0:0:0:
256,192,178287,1,0,0:0:0:0:
256,192,178370,1,8,0:0:0:0:
256,192,178453,1,0,0:0:0:0:
256,192,178537,1,8,0:0:0:0:
256,192,178620,1,8,0:0:0:0:
256,192,178703,1,0,0:0:0:0:
256,192,178787,1,0,0:0:0:0:
256,192,178870,1,8,0:0:0:0:
256,192,178953,1,0,0:0:0:0:
256,192,179037,1,0,0:0:0:0:
256,192,179120,1,0,0:0:0:0:
256,192,179203,1,8,0:0:0:0:
256,192,179287,1,8,0:0:0:0:
256,192,179370,1,0,0:0:0:0:
256,192,179453,1,0,0:0:0:0:
256,192,179537,1,8,0:0:0:0:
256,192,179620,1,0,0:0:0:0:
256,192,179703,1,8,0:0:0:0:
256,192,179787,1,8,0:0:0:0:
256,192,179870,1,0,0:0:0:0:
256,192,179953,1,8,0:0:0:0:
256,192,180037,1,0,0:0:0:0:
256,192,180120,1,0,0:0:0:0:
256,192,180203,1,0,0:0:0:0:
256,192,180287,1,0,0:0:0:0:
256,192,180370,1,8,0:0:0:0:
256,192,180453,1,0,0:0:0:0:
256,192,180537,1,0,0:0:0:0:
256,192,180620,1,0,0:0:0:0:
256,192,180703,1,8,0:0:0:0:
256,192,180787,1,8,0:0:0:0:
256,192,180870,1,8,0:0:0:0:
256,192,180953,1,8,0:0:0:0:
256,192,181037,1,0,0:0:0:0:
256,192,181120,1,0,0:0:0:0:
256,192,181203,1,8,0:0:0:0:
256,192,181287,1,0,0:0:0:0:
256,192,181370,1,8,0:0:0:0:
256,192,181453,1,8,0:0:0:0:
256,192,181537,1,0,0:0:0:0:
256,192,181620,1,0,0:0:0:0:
256,192,181703,1,8,0:0:0:0:
256,192,181787,1,8,0:0:0:0:
256,192,181870,1,8,0:0:0:0:
256,192,181953,1,8,0:0:0:0:
256,192,182037,1,0,0:0:0:0:
256,192,182120,1,8,0:0:0:0:
256,192,182203,1,0,0:0:0:0:
256,192,182287,1,0,0:0:0:0:
256,192,182370,1,8,0:0:0:0:
256,192,182453,1,0,0:0:0:0:
256,192,182537,1,8,0:0:0:0:
256,192,182620,1,0,0:0:0:0:
256,192,182703,1,8,0:0:0:0:
256,192,182787,1,8,0:0:0:0:
256,192,182870,1,0,0:0:0:0:
256,192,182953,1,0,0:0:0:0:
256,192,183037,1,8,0:0:0:0:
256,192,183120,1,8,0:0:0:0:
256,192,183203,1,8,0:0:0:0:
256,192,183287,1,8,0:0:0:0:
256,192,183370,1,0,0:0:0:0:
256,192,183453,1,0,0:0:0:0:
256,192,183537,1,8,0:0:0:0:
256,192,183620,1,0,0:0:0:0:
256,192,183703,1,8,0:0:0:0:
256,192,183787,1,0,0:0:0:0:
256,192,183870,1,0,0:0:0:0:
256,192,183953,1,0,0:0:0:0:
256,192,184037,1,8,0:0:0:0:
256,192,184120,1,8,0:0:0:0:
256,192,184203,1,0,0:0:0:0:
256,192,184287,1,0,0:0:0:0:
256,192,184370,1,8,0:0:0:0:
256,192,184453,1,0,0:0:0:0:
256,192,184537,1,8,0:0:0:0:
256,192,184620,1,8,0:0:0:0:
256,192,184703,1,0,0:0:0:0:
256,192,184787,1,0,0:0:0:0:
256,192,184870,1,8,0:0:0:0:
256,192,184953,1,0,0:0:0:0:
256,192,185037,1,8,0:0:0:0:
256,192,185120,1,8,0:0:0:0:
256,192,185203,1,8,0:0:0:0:
256,192,185287,1,8,0:0:0:0:
256,192,185370,1,0,0:0:0:0:
256,192,186037,1,8,0:0:0:0:
256,192,186203,1,0,0:0:0:0:
256,192,186370,1,12,0:0:0:0:
256,192,186537,1,8,0:0:0:0:
256,192,186620,1,8,0:0:0:0:
256,192,186703,1,0,0:0:0:0:
256,192,186870,1,8,0:0:0:0:
256,192,186953,1,0,0:0:0:0:
256,192,187037,1,8,0:0:0:0:
256,192,187120,1,0,0:0:0:0:
256,192,187203,1,8,0:0:0:0:
256,192,187287,1,8,0:0:0:0:
256,192,187370,1,0,0:0:0:0:
256,192,187537,1,8,0:0:0:0:
256,192,187703,1,8,0:0:0:0:
256,192,187787,1,8,0:0:0:0:
256,192,187870,1,0,0:0:0:0:
256,192,188037,1,12,0:0:0:0:
256,192,188203,1,4,0:0:0:0:
256,192,188370,1,12,0:0:0:0:
256,192,188703,1,4,0:0:0:0:
256,192,188870,1,0,0:0:0:0:
256,192,188953,1,0,0:0:0:0:
256,192,189037,1,8,0:0:0:0:
256,192,189120,1,0,0:0:0:0:
256,192,189203,1,8,0:0:0:0:
256,192,189287,1,8,0:0:0:0:
256,192,189370,1,0,0:0:0:0:
256,192,189453,1,0,0:0:0:0:
256,192,189537,1,8,0:0:0:0:
256,192,189620,1,0,0:0:0:0:
256,192,189703,1,8,0:0:0:0:
256,192,189787,1,0,0:0:0:0:
256,192,189870,1,8,0:0:0:0:
256,192,189953,1,8,0:0:0:0:
256,192,190037,1,0,0:0:0:0:
256,192,190120,1,0,0:0:0:0:
256,192,190203,1,8,0:0:0:0:
256,192,190287,1,0,0:0:0:0:
256,192,190370,1,8,0:0:0:0:
256,192,190453,1,8,0:0:0:0:
256,192,190537,1,0,0:0:0:0:
256,192,190620,1,8,0:0:0:0:
256,192,190703,1,0,0:0:0:0:
256,192,190787,1,0,0:0:0:0:
256,192,190870,1,0,0:0:0:0:
256,192,190953,1,0,0:0:0:0:
256,192,191037,1,8,0:0:0:0:
256,192,191120,1,8,0:0:0:0:
256,192,191203,1,8,0:0:0:0:
256,192,191287,1,8,0:0:0:0:
256,192,191370,1,0,0:0:0:0:
256,192,191453,1,0,0:0:0:0:
256,192,191537,1,8,0:0:0:0:
256,192,191620,1,0,0:0:0:0:
256,192,191703,1,8,0:0:0:0:
256,192,191787,1,8,0:0:0:0:
256,192,191870,1,8,0:0:0:0:
256,192,191953,1,0,0:0:0:0:
256,192,192037,1,8,0:0:0:0:
256,192,192120,1,8,0:0:0:0:
256,192,192203,1,0,0:0:0:0:
256,192,192287,1,0,0:0:0:0:
256,192,192370,1,8,0:0:0:0:
256,192,192453,1,8,0:0:0:0:
256,192,192537,1,8,0:0:0:0:
256,192,192620,1,8,0:0:0:0:
256,192,192703,1,0,0:0:0:0:
256,192,192787,1,8,0:0:0:0:
256,192,192870,1,0,0:0:0:0:
256,192,192953,1,0,0:0:0:0:
256,192,193037,1,8,0:0:0:0:
256,192,193120,1,0,0:0:0:0:
256,192,193203,1,8,0:0:0:0:
256,192,193287,1,0,0:0:0:0:
256,192,193370,1,8,0:0:0:0:
256,192,193453,1,8,0:0:0:0:
256,192,193537,1,0,0:0:0:0:
256,192,193620,1,0,0:0:0:0:
256,192,193703,1,8,0:0:0:0:
256,192,193787,1,8,0:0:0:0:
256,192,193870,1,8,0:0:0:0:
256,192,193953,1,8,0:0:0:0:
256,192,194037,1,0,0:0:0:0:
256,192,194120,1,0,0:0:0:0:
256,192,194203,1,8,0:0:0:0:
256,192,194287,1,0,0:0:0:0:
256,192,194370,1,8,0:0:0:0:
256,192,194453,1,8,0:0:0:0:
256,192,194537,1,0,0:0:0:0:
256,192,194620,1,8,0:0:0:0:
256,192,194703,1,0,0:0:0:0:
256,192,194787,1,0,0:0:0:0:
256,192,194870,1,0,0:0:0:0:
256,192,194953,1,0,0:0:0:0:
256,192,195037,1,8,0:0:0:0:
256,192,195120,1,0,0:0:0:0:
256,192,195203,1,8,0:0:0:0:
256,192,195287,1,8,0:0:0:0:
256,192,195370,1,0,0:0:0:0:
256,192,195453,1,0,0:0:0:0:
256,192,195537,1,8,0:0:0:0:
256,192,195620,1,0,0:0:0:0:
256,192,195703,1,8,0:0:0:0:
256,192,195787,1,8,0:0:0:0:
256,192,195870,1,8,0:0:0:0:
256,192,195953,1,0,0:0:0:0:
256,192,196037,1,8,0:0:0:0:
256,192,196120,1,8,0:0:0:0:
256,192,196203,1,8,0:0:0:0:
256,192,196287,1,8,0:0:0:0:
256,192,196370,1,0,0:0:0:0:
256,192,196537,1,0,0:0:0:0:
256,192,196703,1,8,0:0:0:0:
256,192,196870,1,0,0:0:0:0:
256,192,197037,1,8,0:0:0:0:
256,192,197203,1,0,0:0:0:0:
256,192,197370,1,8,0:0:0:0:
256,192,197537,1,0,0:0:0:0:
256,192,197703,1,8,0:0:0:0:
256,192,197870,1,0,0:0:0:0:
256,192,197953,1,0,0:0:0:0:
256,192,198037,1,8,0:0:0:0:
256,192,198203,1,0,0:0:0:0:
256,192,198370,1,8,0:0:0:0:
256,192,198537,1,0,0:0:0:0:
256,192,198703,1,8,0:0:0:0:
256,192,198870,1,8,0:0:0:0:
256,192,199037,1,8,0:0:0:0:
256,192,199120,1,0,0:0:0:0:
256,192,199203,1,8,0:0:0:0:
256,192,199259,1,8,0:0:0:0:
256,192,199315,1,8,0:0:0:0:
256,192,199370,1,0,0:0:0:0:
256,192,199453,1,0,0:0:0:0:
256,192,199537,1,0,0:0:0:0:
256,192,199620,1,0,0:0:0:0:
256,192,199703,1,8,0:0:0:0:
256,192,199787,1,0,0:0:0:0:
256,192,199870,1,8,0:0:0:0:
256,192,199953,1,8,0:0:0:0:
256,192,200037,1,0,0:0:0:0:
256,192,200120,1,0,0:0:0:0:
256,192,200203,1,8,0:0:0:0:
256,192,200287,1,0,0:0:0:0:
256,192,200370,1,8,0:0:0:0:
256,192,200453,1,0,0:0:0:0:
256,192,200537,1,8,0:0:0:0:
256,192,200620,1,8,0:0:0:0:
256,192,200703,1,0,0:0:0:0:
256,192,200787,1,0,0:0:0:0:
256,192,200870,1,8,0:0:0:0:
256,192,200953,1,0,0:0:0:0:
256,192,201037,1,8,0:0:0:0:
256,192,201120,1,8,0:0:0:0:
256,192,201203,1,8,0:0:0:0:
256,192,201287,1,0,0:0:0:0:
256,192,201370,1,8,0:0:0:0:
256,192,201453,1,8,0:0:0:0:
256,192,201537,1,0,0:0:0:0:
256,192,201620,1,0,0:0:0:0:
256,192,201703,1,8,0:0:0:0:
256,192,201787,1,8,0:0:0:0:
256,192,201870,1,8,0:0:0:0:
256,192,201953,1,8,0:0:0:0:
256,192,202037,1,0,0:0:0:0:
256,192,202120,1,8,0:0:0:0:
256,192,202203,1,0,0:0:0:0:
256,192,202287,1,0,0:0:0:0:
256,192,202370,1,8,0:0:0:0:
256,192,202453,1,0,0:0:0:0:
256,192,202537,1,8,0:0:0:0:
256,192,202620,1,0,0:0:0:0:
256,192,202703,1,8,0:0:0:0:
256,192,202787,1,8,0:0:0:0:
256,192,202870,1,0,0:0:0:0:
256,192,202953,1,0,0:0:0:0:
256,192,203037,1,8,0:0:0:0:
256,192,203120,1,8,0:0:0:0:
256,192,203203,1,8,0:0:0:0:
256,192,203287,1,8,0:0:0:0:
256,192,203370,1,0,0:0:0:0:
256,192,203453,1,0,0:0:0:0:
256,192,203537,1,8,0:0:0:0:
256,192,203620,1,0,0:0:0:0:
256,192,203703,1,8,0:0:0:0:
256,192,203787,1,8,0:0:0:0:
256,192,203870,1,0,0:0:0:0:
256,192,203953,1,8,0:0:0:0:
256,192,204037,1,0,0:0:0:0:
256,192,204120,1,0,0:0:0:0:
256,192,204203,1,0,0:0:0:0:
256,192,204287,1,0,0:0:0:0:
256,192,204370,1,8,0:0:0:0:
256,192,204453,1,8,0:0:0:0:
256,192,204537,1,8,0:0:0:0:
256,192,204620,1,8,0:0:0:0:
256,192,204703,1,0,0:0:0:0:
256,192,204787,1,8,0:0:0:0:
256,192,204870,1,8,0:0:0:0:
256,192,204953,1,0,0:0:0:0:
256,192,205037,1,8,0:0:0:0:
256,192,205120,1,8,0:0:0:0:
256,192,205203,1,0,0:0:0:0:
256,192,205287,1,0,0:0:0:0:
256,192,205370,1,8,0:0:0:0:
256,192,205453,1,8,0:0:0:0:
256,192,205537,1,0,0:0:0:0:
256,192,205620,1,0,0:0:0:0:
256,192,205703,1,8,0:0:0:0:
256,192,205787,1,0,0:0:0:0:
256,192,205870,1,8,0:0:0:0:
256,192,205953,1,8,0:0:0:0:
256,192,206037,1,0,0:0:0:0:
256,192,206120,1,8,0:0:0:0:
256,192,206203,1,0,0:0:0:0:
256,192,206287,1,0,0:0:0:0:
256,192,206370,1,8,0:0:0:0:
256,192,206453,1,8,0:0:0:0:
256,192,206537,1,8,0:0:0:0:
256,192,206620,1,0,0:0:0:0:
256,192,206703,1,8,0:0:0:0:
256,192,206787,1,8,0:0:0:0:
256,192,206870,1,0,0:0:0:0:
256,192,207037,1,8,0:0:0:0:
256,192,207203,1,8,0:0:0:0:
256,192,207370,1,0,0:0:0:0:
256,192,207453,1,0,0:0:0:0:
256,192,207537,1,0,0:0:0:0:
256,192,207620,1,0,0:0:0:0:
256,192,207703,1,8,0:0:0:0:
256,192,207787,1,0,0:0:0:0:
256,192,207870,1,0,0:0:0:0:
256,192,207953,1,0,0:0:0:0:
256,192,208037,1,8,0:0:0:0:
256,192,208120,1,0,0:0:0:0:
256,192,208203,1,0,0:0:0:0:
256,192,208287,1,0,0:0:0:0:
256,192,208370,1,8,0:0:0:0:
256,192,208453,1,0,0:0:0:0:
256,192,208537,1,0,0:0:0:0:
256,192,208620,1,0,0:0:0:0:
256,192,208703,1,8,0:0:0:0:
256,192,208787,1,8,0:0:0:0:
256,192,208870,1,0,0:0:0:0:
256,192,208953,1,8,0:0:0:0:
256,192,209037,1,0,0:0:0:0:
256,192,209120,1,0,0:0:0:0:
256,192,209203,1,8,0:0:0:0:
256,192,209287,1,0,0:0:0:0:
256,192,209370,1,8,0:0:0:0:
256,192,209453,1,8,0:0:0:0:
256,192,209537,1,0,0:0:0:0:
256,192,209620,1,8,0:0:0:0:
256,192,209703,1,0,0:0:0:0:
256,192,209787,1,0,0:0:0:0:
256,192,209870,1,8,0:0:0:0:
256,192,209953,1,0,0:0:0:0:
256,192,210037,1,8,0:0:0:0:
256,192,210120,1,8,0:0:0:0:
256,192,210203,1,8,0:0:0:0:
256,192,210287,1,8,0:0:0:0:
256,192,210370,1,0,0:0:0:0:
256,192,210453,1,0,0:0:0:0:
256,192,210537,1,8,0:0:0:0:
256,192,210620,1,0,0:0:0:0:
256,192,210703,1,8,0:0:0:0:
256,192,210787,1,8,0:0:0:0:
256,192,210870,1,0,0:0:0:0:
256,192,210953,1,0,0:0:0:0:
256,192,211037,1,8,0:0:0:0:
256,192,211120,1,0,0:0:0:0:
256,192,211203,1,0,0:0:0:0:
256,192,211287,1,0,0:0:0:0:
256,192,211370,1,8,0:0:0:0:
256,192,211453,1,8,0:0:0:0:
256,192,211537,1,0,0:0:0:0:
256,192,211620,1,0,0:0:0:0:
256,192,211703,1,8,0:0:0:0:
256,192,211787,1,0,0:0:0:0:
256,192,211870,1,8,0:0:0:0:
256,192,211953,1,8,0:0:0:0:
256,192,212037,1,0,0:0:0:0:
256,192,212120,1,0,0:0:0:0:
256,192,212203,1,8,0:0:0:0:
256,192,212287,1,0,0:0:0:0:
256,192,212370,1,8,0:0:0:0:
256,192,212453,1,0,0:0:0:0:
256,192,212537,1,8,0:0:0:0:
256,192,212620,1,8,0:0:0:0:
256,192,212703,1,0,0:0:0:0:
256,192,212787,1,0,0:0:0:0:
256,192,212870,1,8,0:0:0:0:
256,192,213037,1,8,0:0:0:0:
256,192,213203,1,8,0:0:0:0:
256,192,213287,1,8,0:0:0:0:
256,192,213370,1,0,0:0:0:0:
256,192,213537,1,0,0:0:0:0:
256,192,213703,1,8,0:0:0:0:
256,192,213870,1,0,0:0:0:0:
256,192,214037,1,8,0:0:0:0:
256,192,214120,1,8,0:0:0:0:
256,192,214203,1,0,0:0:0:0:
256,192,214370,1,0,0:0:0:0:
256,192,214537,1,0,0:0:0:0:
256,192,214620,1,0,0:0:0:0:
256,192,214703,1,8,0:0:0:0:
256,192,214870,1,8,0:0:0:0:
256,192,215037,1,0,0:0:0:0:
256,192,215203,1,8,0:0:0:0:
256,192,215370,1,0,0:0:0:0:
256,192,215453,1,0,0:0:0:0:
256,192,215537,1,0,0:0:0:0:
256,192,215620,1,0,0:0:0:0:
256,192,215703,1,8,0:0:0:0:
256,192,215787,1,0,0:0:0:0:
256,192,215870,1,0,0:0:0:0:
256,192,215953,1,0,0:0:0:0:
256,192,216037,1,8,0:0:0:0:
256,192,216092,1,0,0:0:0:0:
256,192,216148,1,0,0:0:0:0:
256,192,216203,1,8,0:0:0:0:
256,192,216287,1,0,0:0:0:0:
256,192,216370,1,8,0:0:0:0:
256,192,216426,1,8,0:0:0:0:
256,192,216481,1,8,0:0:0:0:
256,192,216537,1,8,0:0:0:0:
256,192,216592,1,8,0:0:0:0:
256,192,216648,1,8,0:0:0:0:
256,192,216703,1,0,0:0:0:0:
256,192,217037,1,0,0:0:0:0:
256,192,217370,1,0,0:0:0:0:
256,192,217426,1,0,0:0:0:0:
256,192,217481,1,0,0:0:0:0:
256,192,217537,1,8,0:0:0:0:
256,192,217703,1,0,0:0:0:0:
256,192,218037,1,4,0:0:0:0:
256,192,218203,1,8,0:0:0:0:
256,192,218370,1,0,0:0:0:0:
256,192,218453,1,0,0:0:0:0:
256,192,218537,1,8,0:0:0:0:
256,192,218703,1,0,0:0:0:0:
256,192,218870,1,8,0:0:0:0:
256,192,218953,1,8,0:0:0:0:
256,192,219037,1,0,0:0:0:0:
256,192,219203,1,8,0:0:0:0:
256,192,219370,1,0,0:0:0:0:
256,192,219453,1,0,0:0:0:0:
256,192,219537,1,8,0:0:0:0:
256,192,219620,1,8,0:0:0:0:
256,192,219703,1,0,0:0:0:0:
256,192,219870,1,8,0:0:0:0:
256,192,220037,1,0,0:0:0:0:
256,192,220203,1,0,0:0:0:0:
256,192,220287,1,0,0:0:0:0:
256,192,220370,1,8,0:0:0:0:
256,192,220537,1,8,0:0:0:0:
256,192,220703,1,0,0:0:0:0:
256,192,221037,1,8,0:0:0:0:
256,192,221203,1,0,0:0:0:0:
256,192,221370,1,8,0:0:0:0:
256,192,221453,1,0,0:0:0:0:
256,192,221537,1,8,0:0:0:0:
256,192,221703,1,0,0:0:0:0:
256,192,221870,1,8,0:0:0:0:
256,192,222037,1,0,0:0:0:0:
256,192,222120,1,0,0:0:0:0:
256,192,222203,1,8,0:0:0:0:
256,192,222370,1,0,0:0:0:0:
256,192,222537,1,8,0:0:0:0:
256,192,222620,1,8,0:0:0:0:
256,192,222703,1,0,0:0:0:0:
256,192,222787,1,0,0:0:0:0:
256,192,222870,1,8,0:0:0:0:
256,192,223037,1,8,0:0:0:0:
256,192,223203,1,8,0:0:0:0:
256,192,223370,1,0,0:0:0:0:
256,192,223703,1,8,0:0:0:0:
256,192,223870,1,0,0:0:0:0:
256,192,223953,1,8,0:0:0:0:
256,192,224037,1,0,0:0:0:0:
256,192,224203,1,0,0:0:0:0:
256,192,224287,1,0,0:0:0:0:
256,192,224370,1,8,0:0:0:0:
256,192,224537,1,0,0:0:0:0:
256,192,224703,1,8,0:0:0:0:
256,192,224787,1,8,0:0:0:0:
256,192,224870,1,0,0:0:0:0:
256,192,224953,1,8,0:0:0:0:
256,192,225037,1,0,0:0:0:0:
256,192,225203,1,8,0:0:0:0:
256,192,225370,1,0,0:0:0:0:
256,192,225453,1,0,0:0:0:0:
256,192,225537,1,8,0:0:0:0:
256,192,225703,1,8,0:0:0:0:
256,192,225870,1,8,0:0:0:0:
256,192,226037,1,0,0:0:0:0:
256,192,226120,1,0,0:0:0:0:
256,192,226203,1,0,0:0:0:0:
256,192,226370,1,8,0:0:0:0:
256,192,226537,1,0,0:0:0:0:
256,192,226703,1,0,0:0:0:0:
256,192,226787,1,0,0:0:0:0:
256,192,226870,1,8,0:0:0:0:
256,192,227037,1,8,0:0:0:0:
256,192,227203,1,0,0:0:0:0:
256,192,227537,1,0,0:0:0:0:
256,192,227870,1,0,0:0:0:0:
256,192,228203,1,8,0:0:0:0:
256,192,228287,1,0,0:0:0:0:
256,192,228370,1,8,0:0:0:0:
256,192,228453,1,0,0:0:0:0:
256,192,228537,1,8,0:0:0:0:
256,192,228703,1,4,0:0:0:0:
256,192,229037,1,8,0:0:0:0:
256,192,229203,1,0,0:0:0:0:
256,192,229370,1,8,0:0:0:0:
256,192,229453,1,0,0:0:0:0:
256,192,229537,1,8,0:0:0:0:
256,192,229620,1,8,0:0:0:0:
256,192,229703,1,0,0:0:0:0:
256,192,229870,1,8,0:0:0:0:
256,192,230037,1,0,0:0:0:0:
256,192,230120,1,0,0:0:0:0:
256,192,230203,1,8,0:0:0:0:
256,192,230287,1,8,0:0:0:0:
256,192,230370,1,0,0:0:0:0:
256,192,230537,1,8,0:0:0:0:
256,192,230703,1,0,0:0:0:0:
256,192,230787,1,0,0:0:0:0:
256,192,230870,1,8,0:0:0:0:
256,192,230953,1,0,0:0:0:0:
256,192,231037,1,8,0:0:0:0:
256,192,231203,1,8,0:0:0:0:
256,192,231370,1,8,0:0:0:0:
256,192,231453,1,8,0:0:0:0:
256,192,231537,1,0,0:0:0:0:
256,192,231703,1,8,0:0:0:0:
256,192,231870,1,0,0:0:0:0:
256,192,231953,1,0,0:0:0:0:
256,192,232037,1,8,0:0:0:0:
256,192,232120,1,0,0:0:0:0:
256,192,232203,1,8,0:0:0:0:
256,192,232287,1,8,0:0:0:0:
256,192,232370,1,0,0:0:0:0:
256,192,232537,1,8,0:0:0:0:
256,192,232703,1,0,0:0:0:0:
256,192,232787,1,8,0:0:0:0:
256,192,232870,1,0,0:0:0:0:
256,192,232953,1,0,0:0:0:0:
256,192,233037,1,8,0:0:0:0:
256,192,233120,1,0,0:0:0:0:
256,192,233203,1,8,0:0:0:0:
256,192,233370,1,8,0:0:0:0:
256,192,233453,1,8,0:0:0:0:
256,192,233537,1,0,0:0:0:0:
256,192,233620,1,8,0:0:0:0:
256,192,233703,1,0,0:0:0:0:
256,192,233870,1,0,0:0:0:0:
256,192,234037,1,8,0:0:0:0:
256,192,234120,1,8,0:0:0:0:
256,192,234203,1,0,0:0:0:0:
256,192,234370,1,8,0:0:0:0:
256,192,234537,1,0,0:0:0:0:
256,192,234620,1,0,0:0:0:0:
256,192,234703,1,8,0:0:0:0:
256,192,234870,1,0,0:0:0:0:
256,192,235037,1,8,0:0:0:0:
256,192,235203,1,0,0:0:0:0:
256,192,235287,1,8,0:0:0:0:
256,192,235370,1,0,0:0:0:0:
256,192,235537,1,0,0:0:0:0:
256,192,235703,1,8,0:0:0:0:
256,192,235787,1,0,0:0:0:0:
256,192,235870,1,8,0:0:0:0:
256,192,236037,1,8,0:0:0:0:
256,192,236120,1,8,0:0:0:0:
256,192,236203,1,0,0:0:0:0:
256,192,236287,1,8,0:0:0:0:
256,192,236370,1,0,0:0:0:0:
256,192,236453,1,0,0:0:0:0:
256,192,236537,1,8,0:0:0:0:
256,192,236620,1,0,0:0:0:0:
256,192,236703,1,8,0:0:0:0:
256,192,236787,1,8,0:0:0:0:
256,192,236870,1,0,0:0:0:0:
256,192,236953,1,0,0:0:0:0:
256,192,237037,1,8,0:0:0:0:
256,192,237120,1,8,0:0:0:0:
256,192,237203,1,0,0:0:0:0:
256,192,237287,1,0,0:0:0:0:
256,192,237370,1,8,0:0:0:0:
256,192,237453,1,0,0:0:0:0:
256,192,237537,1,8,0:0:0:0:
256,192,237578,1,8,0:0:0:0:
256,192,237620,1,8,0:0:0:0:
256,192,237703,1,0,0:0:0:0:
256,192,237787,1,0,0:0:0:0:
256,192,237870,1,8,0:0:0:0:
256,192,237953,1,8,0:0:0:0:
256,192,238037,1,4,0:0:0:0:
256,192,238203,1,0,0:0:0:0:
256,192,238287,1,0,0:0:0:0:
256,192,238370,1,0,0:0:0:0:
256,192,238537,1,8,0:0:0:0:
256,192,238703,1,8,0:0:0:0:
256,192,238787,1,8,0:0:0:0:
256,192,238870,1,8,0:0:0:0:
256,192,239037,1,8,0:0:0:0:
256,192,239203,1,8,0:0:0:0:
256,192,239370,1,4,0:0:0:0:
256,192,239703,1,8,0:0:0:0:
256,192,239870,1,0,0:0:0:0:
256,192,240037,1,8,0:0:0:0:
256,192,240120,1,0,0:0:0:0:
256,192,240203,1,8,0:0:0:0:
256,192,240287,1,8,0:0:0:0:
256,192,240370,1,0,0:0:0:0:
256,192,240537,1,8,0:0:0:0:
256,192,240703,1,0,0:0:0:0:
256,192,240787,1,0,0:0:0:0:
256,192,240870,1,8,0:0:0:0:
256,192,240953,1,8,0:0:0:0:
256,192,241037,1,0,0:0:0:0:
256,192,241203,1,8,0:0:0:0:
256,192,241370,1,0,0:0:0:0:
256,192,241453,1,0,0:0:0:0:
256,192,241537,1,8,0:0:0:0:
256,192,241620,1,0,0:0:0:0:
256,192,241703,1,8,0:0:0:0:
256,192,241870,1,8,0:0:0:0:
256,192,242037,1,8,0:0:0:0:
256,192,242120,1,8,0:0:0:0:
256,192,242203,1,0,0:0:0:0:
256,192,242370,1,8,0:0:0:0:
256,192,242537,1,0,0:0:0:0:
256,192,242620,1,0,0:0:0:0:
256,192,242703,1,8,0:0:0:0:
256,192,242787,1,0,0:0:0:0:
256,192,242870,1,8,0:0:0:0:
256,192,242953,1,8,0:0:0:0:
256,192,243037,1,0,0:0:0:0:
256,192,243203,1,8,0:0:0:0:
256,192,243370,1,0,0:0:0:0:
256,192,243453,1,8,0:0:0:0:
256,192,243537,1,0,0:0:0:0:
256,192,243620,1,0,0:0:0:0:
256,192,243703,1,8,0:0:0:0:
256,192,243787,1,0,0:0:0:0:
256,192,243870,1,8,0:0:0:0:
256,192,244037,1,8,0:0:0:0:
256,192,244120,1,8,0:0:0:0:
256,192,244203,1,0,0:0:0:0:
256,192,244287,1,8,0:0:0:0:
256,192,244370,1,0,0:0:0:0:
256,192,244537,1,0,0:0:0:0:
256,192,244703,1,8,0:0:0:0:
256,192,244787,1,8,0:0:0:0:
256,192,244870,1,0,0:0:0:0:
256,192,245037,1,8,0:0:0:0:
256,192,245203,1,0,0:0:0:0:
256,192,245287,1,0,0:0:0:0:
256,192,245370,1,8,0:0:0:0:
256,192,245453,1,8,0:0:0:0:
256,192,245537,1,0,0:0:0:0:
256,192,245703,1,8,0:0:0:0:
256,192,245870,1,0,0:0:0:0:
256,192,245953,1,8,0:0:0:0:
256,192,246037,1,0,0:0:0:0:
256,192,246120,1,0,0:0:0:0:
256,192,246203,1,8,0:0:0:0:
256,192,246287,1,8,0:0:0:0:
256,192,246370,1,0,0:0:0:0:
256,192,246537,1,8,0:0:0:0:
256,192,246703,1,0,0:0:0:0:
256,192,246787,1,8,0:0:0:0:
256,192,246870,1,8,0:0:0:0:
256,192,246953,1,0,0:0:0:0:
256,192,247037,1,8,0:0:0:0:
256,192,247203,1,8,0:0:0:0:
256,192,247370,1,8,0:0:0:0:
256,192,247453,1,8,0:0:0:0:
256,192,247537,1,0,0:0:0:0:
256,192,247703,1,8,0:0:0:0:
256,192,247870,1,0,0:0:0:0:
256,192,247953,1,0,0:0:0:0:
256,192,248037,1,8,0:0:0:0:
256,192,248120,1,0,0:0:0:0:
256,192,248203,1,8,0:0:0:0:
256,192,248287,1,8,0:0:0:0:
256,192,248370,1,0,0:0:0:0:
256,192,248537,1,8,0:0:0:0:
256,192,248703,1,0,0:0:0:0:
256,192,248787,1,8,0:0:0:0:
256,192,248870,1,0,0:0:0:0:
256,192,248953,1,0,0:0:0:0:
256,192,249037,1,8,0:0:0:0:
256,192,249203,1,0,0:0:0:0:
256,192,249370,1,8,0:0:0:0:
256,192,249453,1,8,0:0:0:0:
256,192,249537,1,8,0:0:0:0:
256,192,249620,1,0,0:0:0:0:
256,192,249703,1,8,0:0:0:0:
256,192,249870,1,8,0:0:0:0:
256,192,250037,1,4,0:0:0:0:
256,192,250370,1,8,0:0:0:0:
256,192,250537,1,0,0:0:0:0:
256,192,250703,1,8,0:0:0:0:
256,192,250787,1,8,0:0:0:0:
256,192,250870,1,0,0:0:0:0:
256,192,250953,1,0,0:0:0:0:
256,192,251037,1,8,0:0:0:0:
256,192,251203,1,0,0:0:0:0:
256,192,251370,1,8,0:0:0:0:
256,192,251453,1,0,0:0:0:0:
256,192,251537,1,8,0:0:0:0:
256,192,251620,1,8,0:0:0:0:
256,192,251703,1,0,0:0:0:0:
256,192,251870,1,8,0:0:0:0:
256,192,252037,1,0,0:0:0:0:
256,192,252120,1,0,0:0:0:0:
256,192,252203,1,8,0:0:0:0:
256,192,252370,1,8,0:0:0:0:
256,192,252537,1,8,0:0:0:0:
256,192,252703,1,0,0:0:0:0:
256,192,253037,1,8,0:0:0:0:
256,192,253203,1,0,0:0:0:0:
256,192,253370,1,8,0:0:0:0:
256,192,253453,1,0,0:0:0:0:
256,192,253537,1,8,0:0:0:0:
256,192,253703,1,0,0:0:0:0:
256,192,253870,1,8,0:0:0:0:
256,192,254037,1,0,0:0:0:0:
256,192,254120,1,0,0:0:0:0:
256,192,254203,1,8,0:0:0:0:
256,192,254287,1,8,0:0:0:0:
256,192,254370,1,0,0:0:0:0:
256,192,254537,1,8,0:0:0:0:
256,192,254703,1,0,0:0:0:0:
256,192,254787,1,0,0:0:0:0:
256,192,254870,1,8,0:0:0:0:
256,192,255037,1,8,0:0:0:0:
256,192,255203,1,8,0:0:0:0:
256,192,255370,1,0,0:0:0:0:
256,192,255703,1,8,0:0:0:0:
256,192,255870,1,0,0:0:0:0:
256,192,256037,1,8,0:0:0:0:
256,192,256120,1,8,0:0:0:0:
256,192,256203,1,0,0:0:0:0:
256,192,256370,1,8,0:0:0:0:
256,192,256537,1,0,0:0:0:0:
256,192,256703,1,0,0:0:0:0:
256,192,257037,1,8,0:0:0:0:
256,192,257203,1,0,0:0:0:0:
256,192,257370,1,8,0:0:0:0:
256,192,257453,1,0,0:0:0:0:
256,192,257537,1,0,0:0:0:0:
256,192,257703,1,8,0:0:0:0:
256,192,257870,1,0,0:0:0:0:
256,192,258037,1,0,0:0:0:0:
256,192,258370,1,8,0:0:0:0:
256,192,258537,1,0,0:0:0:0:
256,192,258703,1,0,0:0:0:0:
256,192,258787,1,0,0:0:0:0:
256,192,258870,1,0,0:0:0:0:
256,192,259037,1,8,0:0:0:0:
256,192,259203,1,0,0:0:0:0:
256,192,259537,1,0,0:0:0:0:
256,192,259870,1,0,0:0:0:0:
256,192,260203,1,0,0:0:0:0:
256,192,260703,1,12,0:0:0:0:
256,192,260787,8,0,268703,0:0:0:0:
