osu file format v14

[General]
AudioFilename: audio.mp3
AudioLeadIn: 0
PreviewTime: 75039
Countdown: 0
SampleSet: Normal
StackLeniency: 0.7
Mode: 1
LetterboxInBreaks: 0
WidescreenStoryboard: 0

[Editor]
Bookmarks: 19039,29706,40372,51039,96372,107039
DistanceSpacing: 0.5
BeatDivisor: 4
GridSize: 32
TimelineZoom: 1.6

[Metadata]
Title:Onii-chan, Migite no Shiyou o Kinshi Shimasu!
TitleUnicode:お兄ちゃん、右手の使用を禁止します!
Artist:Yakushi Ruri
ArtistUnicode:薬師るり
Creator:[R]
Version:Kantan
Source:お兄ちゃん、右手の使用を禁止します!
Tags:galette onikin visual novel eroge volta ron
BeatmapID:1966752
BeatmapSetID:940794

[Difficulty]
HPDrainRate:7
CircleSize:5
OverallDifficulty:3
ApproachRate:5
SliderMultiplier:1.4
SliderTickRate:1

[Events]
//Background and Video events
0,0,"BG.jpg",0,20
//Break Periods
//Storyboard Layer 0 (Background)
//Storyboard Layer 1 (Fail)
//Storyboard Layer 2 (Pass)
//Storyboard Layer 3 (Foreground)
//Storyboard Sound Samples

[TimingPoints]
373,333.333333333333,4,1,0,80,1,0
75039,-100,4,1,0,90,0,1
117706,-100,4,1,0,80,0,0

[HitObjects]
256,192,373,5,4,0:0:0:0:
256,192,1372,1,4,0:0:0:0:
256,192,2372,1,12,0:0:0:0:
256,192,3039,1,12,0:0:0:0:
256,192,3706,1,12,0:0:0:0:
256,192,4206,1,12,0:0:0:0:
256,192,5706,1,4,0:0:0:0:
256,192,7039,1,8,0:0:0:0:
256,192,7372,1,0,0:0:0:0:
256,192,7706,1,8,0:0:0:0:
256,192,8039,1,8,0:0:0:0:
256,192,8372,1,0,0:0:0:0:
256,192,9706,1,0,0:0:0:0:
256,192,10039,1,0,0:0:0:0:
256,192,10372,1,8,0:0:0:0:
256,192,10706,1,8,0:0:0:0:
256,192,11039,1,4,0:0:0:0:
256,192,12372,1,8,0:0:0:0:
256,192,12706,1,0,0:0:0:0:
256,192,13039,1,8,0:0:0:0:
256,192,13372,1,8,0:0:0:0:
256,192,13706,1,0,0:0:0:0:
256,192,15039,1,0,0:0:0:0:
256,192,15372,1,0,0:0:0:0:
256,192,15706,1,8,0:0:0:0:
256,192,16039,1,8,0:0:0:0:
256,192,16372,1,4,0:0:0:0:
256,192,17039,1,4,0:0:0:0:
256,192,17706,1,4,0:0:0:0:
256,192,18372,1,12,0:0:0:0:
256,192,19039,1,4,0:0:0:0:
256,192,19372,1,8,0:0:0:0:
256,192,20372,1,0,0:0:0:0:
256,192,20706,1,8,0:0:0:0:
256,192,21039,1,0,0:0:0:0:
256,192,21706,1,0,0:0:0:0:
256,192,22039,1,8,0:0:0:0:
256,192,23039,1,0,0:0:0:0:
256,192,23372,1,8,0:0:0:0:
256,192,24039,1,8,0:0:0:0:
256,192,24372,1,4,0:0:0:0:
256,192,24706,1,8,0:0:0:0:
256,192,25706,1,0,0:0:0:0:
256,192,26039,1,8,0:0:0:0:
256,192,26372,1,0,0:0:0:0:
256,192,27039,1,0,0:0:0:0:
256,192,27372,1,8,0:0:0:0:
256,192,28372,1,0,0:0:0:0:
256,192,28706,1,8,0:0:0:0:
256,192,29372,1,8,0:0:0:0:
256,192,29706,1,0,0:0:0:0:
256,192,30372,1,0,0:0:0:0:
256,192,31039,1,8,0:0:0:0:
256,192,31372,1,0,0:0:0:0:
256,192,31706,1,0,0:0:0:0:
256,192,32372,1,0,0:0:0:0:
256,192,33039,1,0,0:0:0:0:
256,192,33539,1,8,0:0:0:0:
256,192,35039,1,0,0:0:0:0:
256,192,35706,1,0,0:0:0:0:
256,192,36372,1,8,0:0:0:0:
256,192,36706,1,0,0:0:0:0:
256,192,37039,1,0,0:0:0:0:
256,192,37706,1,0,0:0:0:0:
256,192,38372,1,0,0:0:0:0:
256,192,38872,1,8,0:0:0:0:
256,192,40372,1,4,0:0:0:0:
256,192,41039,1,0,0:0:0:0:
256,192,41706,1,8,0:0:0:0:
256,192,42039,1,8,0:0:0:0:
256,192,42372,1,0,0:0:0:0:
256,192,43039,1,0,0:0:0:0:
256,192,43706,1,0,0:0:0:0:
256,192,44206,1,8,0:0:0:0:
256,192,45706,1,0,0:0:0:0:
256,192,46372,1,0,0:0:0:0:
256,192,47039,1,8,0:0:0:0:
256,192,47372,1,8,0:0:0:0:
256,192,47706,1,0,0:0:0:0:
256,192,48372,1,0,0:0:0:0:
256,192,49039,1,0,0:0:0:0:
256,192,49539,1,8,0:0:0:0:
256,192,51039,1,4,0:0:0:0:
256,192,51872,1,8,0:0:0:0:
256,192,52206,1,8,0:0:0:0:
256,192,53039,1,0,0:0:0:0:
256,192,53706,1,8,0:0:0:0:
256,192,54372,1,0,0:0:0:0:
256,192,54872,1,8,0:0:0:0:
256,192,56372,1,4,0:0:0:0:
256,192,57206,1,8,0:0:0:0:
256,192,57539,1,8,0:0:0:0:
256,192,58372,1,0,0:0:0:0:
256,192,59039,1,8,0:0:0:0:
256,192,59706,1,8,0:0:0:0:
256,192,60206,1,0,0:0:0:0:
256,192,61706,1,4,0:0:0:0:
256,192,62539,1,8,0:0:0:0:
256,192,62872,1,8,0:0:0:0:
256,192,63706,1,0,0:0:0:0:
256,192,64372,1,8,0:0:0:0:
256,192,65039,1,0,0:0:0:0:
256,192,65539,1,8,0:0:0:0:
256,192,67039,1,8,0:0:0:0:
256,192,67706,1,8,0:0:0:0:
256,192,68039,1,0,0:0:0:0:
256,192,68372,1,8,0:0:0:0:
256,192,69039,1,8,0:0:0:0:
256,192,69372,1,0,0:0:0:0:
256,192,69706,1,8,0:0:0:0:
256,192,70706,1,8,0:0:0:0:
256,192,71706,1,8,0:0:0:0:
256,192,72372,1,0,0:0:0:0:
256,192,72706,1,8,0:0:0:0:
256,192,73372,1,8,0:0:0:0:
256,192,73706,1,0,0:0:0:0:
256,192,74372,1,8,0:0:0:0:
256,192,75039,1,4,0:0:0:0:
256,192,76039,1,8,0:0:0:0:
256,192,76372,1,0,0:0:0:0:
256,192,77039,1,8,0:0:0:0:
256,192,77706,1,0,0:0:0:0:
256,192,78039,1,8,0:0:0:0:
256,192,78706,1,8,0:0:0:0:
256,192,79039,1,0,0:0:0:0:
256,192,79706,1,0,0:0:0:0:
256,192,80039,1,8,0:0:0:0:
256,192,80372,1,4,0:0:0:0:
256,192,81372,1,8,0:0:0:0:
256,192,81706,1,0,0:0:0:0:
256,192,82372,1,0,0:0:0:0:
256,192,82706,1,8,0:0:0:0:
256,192,83039,1,0,0:0:0:0:
256,192,83706,1,0,0:0:0:0:
256,192,84039,1,8,0:0:0:0:
256,192,84706,1,8,0:0:0:0:
256,192,85039,1,0,0:0:0:0:
256,192,85706,1,4,0:0:0:0:
256,192,86706,1,8,0:0:0:0:
256,192,87039,1,0,0:0:0:0:
256,192,87706,1,8,0:0:0:0:
256,192,88372,1,0,0:0:0:0:
256,192,88706,1,8,0:0:0:0:
256,192,89372,1,8,0:0:0:0:
256,192,89706,1,0,0:0:0:0:
256,192,90372,1,0,0:0:0:0:
256,192,90706,1,8,0:0:0:0:
256,192,91039,1,4,0:0:0:0:
256,192,92039,1,8,0:0:0:0:
256,192,92372,1,0,0:0:0:0:
256,192,93039,1,0,0:0:0:0:
256,192,93372,1,8,0:0:0:0:
256,192,93706,1,0,0:0:0:0:
256,192,94372,1,0,0:0:0:0:
256,192,94706,1,8,0:0:0:0:
256,192,95372,1,8,0:0:0:0:
256,192,95706,1,0,0:0:0:0:
256,192,96372,1,4,0:0:0:0:
256,192,97372,1,8,0:0:0:0:
256,192,97706,1,0,0:0:0:0:
256,192,98372,1,8,0:0:0:0:
256,192,99039,1,0,0:0:0:0:
256,192,99372,1,8,0:0:0:0:
256,192,100372,1,12,0:0:0:0:
256,192,100706,1,12,0:0:0:0:
256,192,101706,1,4,0:0:0:0:
256,192,102706,1,8,0:0:0:0:
256,192,103039,1,0,0:0:0:0:
256,192,103706,1,0,0:0:0:0:
256,192,104039,1,8,0:0:0:0:
256,192,104372,1,0,0:0:0:0:
256,192,105039,1,0,0:0:0:0:
256,192,105372,1,8,0:0:0:0:
256,192,106039,1,8,0:0:0:0:
256,192,106372,1,0,0:0:0:0:
256,192,107039,1,4,0:0:0:0:
256,192,108039,1,0,0:0:0:0:
256,192,108372,1,8,0:0:0:0:
256,192,109039,1,8,0:0:0:0:
256,192,109706,1,0,0:0:0:0:
256,192,110706,1,0,0:0:0:0:
256,192,111039,1,8,0:0:0:0:
256,192,111706,1,0,0:0:0:0:
256,192,112372,1,12,0:0:0:0:
256,192,113372,1,0,0:0:0:0:
256,192,113706,1,8,0:0:0:0:
256,192,114706,1,0,0:0:0:0:
256,192,115039,1,8,0:0:0:0:
256,192,115706,1,8,0:0:0:0:
256,192,116372,1,0,0:0:0:0:
256,192,116706,1,0,0:0:0:0:
256,192,117039,1,8,0:0:0:0:
256,192,117372,1,8,0:0:0:0:
256,192,117706,1,4,0:0:0:0:
256,192,119039,1,0,0:0:0:0:
256,192,119706,1,0,0:0:0:0:
256,192,120039,1,8,0:0:0:0:
256,192,120372,1,0,0:0:0:0:
256,192,121039,1,8,0:0:0:0:
256,192,121706,1,0,0:0:0:0:
256,192,122372,1,8,0:0:0:0:
256,192,122706,1,8,0:0:0:0:
256,192,123039,1,0,0:0:0:0:
256,192,124372,1,0,0:0:0:0:
256,192,125039,1,0,0:0:0:0:
256,192,125372,1,8,0:0:0:0:
256,192,125706,1,0,0:0:0:0:
256,192,126372,1,8,0:0:0:0:
256,192,127039,1,0,0:0:0:0:
256,192,127706,1,8,0:0:0:0:
256,192,128372,1,0,0:0:0:0:
256,192,128706,1,0,0:0:0:0:
256,192,129039,1,8,0:0:0:0:
256,192,129706,1,0,0:0:0:0:
256,192,130039,1,0,0:0:0:0:
256,192,130372,1,8,0:0:0:0:
256,192,131039,1,8,0:0:0:0:
256,192,131706,1,0,0:0:0:0:
256,192,132206,1,0,0:0:0:0:
