osu file format v14

[General]
AudioFilename: audio.mp3
AudioLeadIn: 0
PreviewTime: 3017
Countdown: 0
SampleSet: Normal
StackLeniency: 0.7
Mode: 1
LetterboxInBreaks: 0
WidescreenStoryboard: 0

[Editor]
Bookmarks: 14031,25002,35974,46945,71631
DistanceSpacing: 1.05
BeatDivisor: 4
GridSize: 32
TimelineZoom: 1.7

[Metadata]
Title:Onii-chan, Gyutte Shite!
TitleUnicode:お兄ちゃん、ギュッてして!
Artist:Yakushi Ruri
ArtistUnicode:薬師るり
Creator:[R]
Version:Little Oni
Source:お兄ちゃん、朝までずっとギュッてして!
Tags:ron volta roger ][_-gh-_][ oniichan onigyuh asa made zutto tinkle position visual novel eroge japanese video game
BeatmapID:2721222
BeatmapSetID:1313074

[Difficulty]
HPDrainRate:6
CircleSize:5
OverallDifficulty:6
ApproachRate:5
SliderMultiplier:1.4
SliderTickRate:1

[Events]
//Background and Video events
0,0,"BG.png",0,40
//Break Periods
//Storyboard Layer 0 (Background)
//Storyboard Layer 1 (Fail)
//Storyboard Layer 2 (Pass)
//Storyboard Layer 3 (Foreground)
//Storyboard Layer 4 (Overlay)
//Storyboard Sound Samples

[TimingPoints]
317,342.857142857143,4,1,0,90,1,0
1817,-100,4,1,0,80,0,0
5074,-83.3333333333333,4,1,0,80,0,0
5417,-71.4285714285714,4,1,0,80,0,0
5845,-74.0740740740741,4,1,0,80,0,0
5931,-76.9230769230769,4,1,0,80,0,0
6017,-80,4,1,0,80,0,0
6102,-83.3333333333333,4,1,0,80,0,0
6274,-90.9090909090909,4,1,0,80,0,0
6445,-100,4,1,0,80,0,0
7817,-83.3333333333333,4,1,0,80,0,0
8159,-71.4285714285714,4,1,0,80,0,0
8417,-74.0740740740741,4,1,0,80,0,0
8502,-76.9230769230769,4,1,0,80,0,0
8674,-83.3333333333333,4,1,0,80,0,0
8845,-90.9090909090909,4,1,0,80,0,0
8931,-95.2380952380952,4,1,0,80,0,0
9102,-100,4,1,0,80,0,0
10559,-83.3333333333333,4,1,0,80,0,0
10902,-71.4285714285714,4,1,0,80,0,0
11331,-74.0740740740741,4,1,0,80,0,0
11417,-76.9230769230769,4,1,0,80,0,0
11502,-80,4,1,0,80,0,0
11588,-83.3333333333333,4,1,0,80,0,0
11759,-90.9090909090909,4,1,0,80,0,0
11931,-100,4,1,0,80,0,0
13302,-83.3333333333333,4,1,0,80,0,0
13645,-71.4285714285714,4,1,0,80,0,0
14331,-100,4,1,0,80,0,0
22217,-66.6666666666667,4,1,0,90,0,0
23588,-100,4,1,0,80,0,0
30445,-80.6451612903226,4,1,0,80,0,0
30531,-83.3333333333333,4,1,0,80,0,0
30617,-86.2068965517241,4,1,0,80,0,0
30702,-89.2857142857143,4,1,0,80,0,0
30788,-92.5925925925926,4,1,0,80,0,0
30874,-96.1538461538461,4,1,0,80,0,0
30959,-100,4,1,0,80,0,0
31131,-75.7575757575758,4,1,0,80,0,0
31217,-78.125,4,1,0,80,0,0
31302,-80.6451612903226,4,1,0,80,0,0
31388,-83.3333333333333,4,1,0,80,0,0
31474,-86.2068965517241,4,1,0,80,0,0
31559,-89.2857142857143,4,1,0,80,0,0
31645,-92.5925925925926,4,1,0,80,0,0
31731,-96.1538461538461,4,1,0,80,0,0
31817,-100,4,1,0,80,0,0
41417,-80.6451612903226,4,1,0,80,0,0
41502,-83.3333333333333,4,1,0,80,0,0
41588,-86.2068965517241,4,1,0,80,0,0
41674,-89.2857142857143,4,1,0,80,0,0
41759,-92.5925925925926,4,1,0,80,0,0
41845,-96.1538461538461,4,1,0,80,0,0
41931,-100,4,1,0,80,0,0
42102,-75.7575757575758,4,1,0,80,0,0
42188,-78.125,4,1,0,80,0,0
42274,-80.6451612903226,4,1,0,80,0,0
42359,-83.3333333333333,4,1,0,80,0,0
42445,-86.2068965517241,4,1,0,80,0,0
42531,-89.2857142857143,4,1,0,80,0,0
42617,-92.5925925925926,4,1,0,80,0,0
42702,-96.1538461538461,4,1,0,80,0,0
42788,-100,4,1,0,80,0,0
57959,-98.0392156862745,4,1,0,80,0,0
58045,-96.1538461538461,4,1,0,80,0,0
58131,-94.3396226415094,4,1,0,80,0,0
58217,-92.5925925925926,4,1,0,80,0,0
58302,-90.9090909090909,4,1,0,80,0,0
58388,-89.2857142857143,4,1,0,80,0,0
58474,-87.719298245614,4,1,0,80,0,0
58559,-86.2068965517241,4,1,0,80,0,0
58645,-84.7457627118644,4,1,0,80,0,0
58731,-83.3333333333333,4,1,0,80,0,0
58817,-81.9672131147541,4,1,0,80,0,0
58902,-80.6451612903226,4,1,0,80,0,0
58988,-79.3650793650794,4,1,0,80,0,0
59074,-78.125,4,1,0,80,0,0
59159,-76.9230769230769,4,1,0,80,0,0
59245,-75.7575757575758,4,1,0,80,0,0
60017,-78.125,4,1,0,80,0,0
60102,-80.6451612903226,4,1,0,80,0,0
60188,-83.3333333333333,4,1,0,80,0,0
60274,-86.2068965517241,4,1,0,80,0,0
60359,-89.2857142857143,4,1,0,80,0,0
60445,-92.5925925925926,4,1,0,80,0,0
60659,-100,4,1,0,80,0,1
82602,-100,4,1,0,80,0,0
90959,-98.0392156862745,4,1,0,80,0,0
91045,-97.0873786407767,4,1,0,80,0,0
91131,-96.1538461538461,4,1,0,80,0,0
91217,-95.2380952380952,4,1,0,80,0,0
91302,-94.3396226415094,4,1,0,80,0,0
91388,-93.4579439252336,4,1,0,80,0,0
91474,-92.5925925925926,4,1,0,80,0,0
91559,-91.743119266055,4,1,0,80,0,0
91645,-90.9090909090909,4,1,0,80,0,0
91731,-90.0900900900901,4,1,0,80,0,0
91817,-89.2857142857143,4,1,0,80,0,0
91902,-88.4955752212389,4,1,0,80,0,0
91988,-87.719298245614,4,1,0,80,0,0
92074,-86.9565217391304,4,1,0,80,0,0
92159,-86.2068965517241,4,1,0,80,0,0
92245,-85.4700854700855,4,1,0,80,0,0
92331,-84.7457627118644,4,1,0,80,0,0
92417,-84.0336134453781,4,1,0,80,0,0
92502,-83.3333333333333,4,1,0,80,0,0
92588,-82.6446280991736,4,1,0,80,0,0
92674,-81.9672131147541,4,1,0,80,0,0
92759,-81.3008130081301,4,1,0,80,0,0
92845,-80.6451612903226,4,1,0,80,0,0
92931,-80,4,1,0,80,0,0
93017,-79.3650793650794,4,1,0,80,0,0
93102,-78.7401574803149,4,1,0,80,0,0
93188,-78.125,4,1,0,80,0,0
93274,-77.5193798449612,4,1,0,80,0,0
93359,-76.9230769230769,4,1,0,80,0,0

[HitObjects]
256,192,317,5,4,0:0:0:0:
256,192,488,1,8,0:0:0:0:
256,192,659,1,8,0:0:0:0:
256,192,831,1,4,0:0:0:0:
256,192,1002,1,8,0:0:0:0:
256,192,1174,1,8,0:0:0:0:
256,192,1345,1,4,0:0:0:0:
256,192,1517,1,8,0:0:0:0:
256,192,1859,1,0,0:0:0:0:
256,192,2031,1,8,0:0:0:0:
256,192,2117,1,0,0:0:0:0:
256,192,2202,1,8,0:0:0:0:
256,192,2288,1,8,0:0:0:0:
256,192,2374,1,0,0:0:0:0:
256,192,2459,1,0,0:0:0:0:
256,192,2545,1,8,0:0:0:0:
256,192,2631,1,0,0:0:0:0:
256,192,2717,1,8,0:0:0:0:
256,192,2802,1,0,0:0:0:0:
256,192,2888,1,8,0:0:0:0:
256,192,2974,1,8,0:0:0:0:
256,192,3059,1,0,0:0:0:0:
256,192,3231,1,0,0:0:0:0:
256,192,3317,1,0,0:0:0:0:
256,192,3402,1,8,0:0:0:0:
256,192,3488,1,0,0:0:0:0:
256,192,3659,1,0,0:0:0:0:
256,192,3745,1,8,0:0:0:0:
256,192,3831,1,8,0:0:0:0:
256,192,3917,1,0,0:0:0:0:
256,192,4002,1,8,0:0:0:0:
256,192,4088,1,0,0:0:0:0:
256,192,4259,1,8,0:0:0:0:
256,192,4431,1,0,0:0:0:0:
256,192,4517,1,0,0:0:0:0:
256,192,4602,1,8,0:0:0:0:
256,192,4689,1,8,0:0:0:0:
256,192,4774,1,0,0:0:0:0:
256,192,4945,1,8,0:0:0:0:
256,192,5117,1,4,0:0:0:0:
256,192,5288,1,8,0:0:0:0:
256,192,5459,1,4,0:0:0:0:
256,192,5631,1,8,0:0:0:0:
256,192,5802,1,0,0:0:0:0:
256,192,5888,1,8,0:0:0:0:
256,192,5974,1,0,0:0:0:0:
256,192,6059,1,0,0:0:0:0:
256,192,6145,1,8,0:0:0:0:
256,192,6317,1,0,0:0:0:0:
256,192,6488,1,8,0:0:0:0:
256,192,6574,1,8,0:0:0:0:
256,192,6659,1,0,0:0:0:0:
256,192,6745,1,0,0:0:0:0:
256,192,6831,1,8,0:0:0:0:
256,192,6917,1,0,0:0:0:0:
256,192,7002,1,8,0:0:0:0:
256,192,7088,1,8,0:0:0:0:
256,192,7259,1,8,0:0:0:0:
256,192,7345,1,0,0:0:0:0:
256,192,7431,1,0,0:0:0:0:
256,192,7517,1,8,0:0:0:0:
256,192,7688,1,0,0:0:0:0:
256,192,7859,1,12,0:0:0:0:
256,192,8031,1,0,0:0:0:0:
256,192,8202,1,12,0:0:0:0:
256,192,8374,1,8,0:0:0:0:
256,192,8459,1,8,0:0:0:0:
256,192,8545,1,0,0:0:0:0:
256,192,8717,1,8,0:0:0:0:
256,192,8888,1,8,0:0:0:0:
256,192,8974,1,0,0:0:0:0:
256,192,9145,1,0,0:0:0:0:
256,192,9231,1,8,0:0:0:0:
256,192,9317,1,8,0:0:0:0:
256,192,9403,1,0,0:0:0:0:
256,192,9488,1,0,0:0:0:0:
256,192,9574,1,8,0:0:0:0:
256,192,9745,1,0,0:0:0:0:
256,192,9917,1,8,0:0:0:0:
256,192,10003,1,0,0:0:0:0:
256,192,10088,1,8,0:0:0:0:
256,192,10174,1,8,0:0:0:0:
256,192,10260,1,0,0:0:0:0:
256,192,10431,1,8,0:0:0:0:
256,192,10603,1,4,0:0:0:0:
256,192,10774,1,8,0:0:0:0:
256,192,10945,1,4,0:0:0:0:
256,192,11117,1,8,0:0:0:0:
256,192,11288,1,0,0:0:0:0:
256,192,11374,1,8,0:0:0:0:
256,192,11460,1,0,0:0:0:0:
256,192,11545,1,0,0:0:0:0:
256,192,11631,1,8,0:0:0:0:
256,192,11803,1,0,0:0:0:0:
256,192,11974,1,8,0:0:0:0:
256,192,12060,1,8,0:0:0:0:
256,192,12145,1,0,0:0:0:0:
256,192,12231,1,0,0:0:0:0:
256,192,12317,1,8,0:0:0:0:
256,192,12403,1,0,0:0:0:0:
256,192,12488,1,8,0:0:0:0:
256,192,12574,1,8,0:0:0:0:
256,192,12745,1,8,0:0:0:0:
256,192,12831,1,0,0:0:0:0:
256,192,12917,1,0,0:0:0:0:
256,192,13003,1,8,0:0:0:0:
256,192,13174,1,0,0:0:0:0:
256,192,13345,1,12,0:0:0:0:
256,192,13517,1,0,0:0:0:0:
256,192,13688,1,12,0:0:0:0:
256,192,13859,1,8,0:0:0:0:
256,192,13945,1,8,0:0:0:0:
256,192,14031,1,0,0:0:0:0:
256,192,14374,1,8,0:0:0:0:
256,192,14545,1,0,0:0:0:0:
256,192,14631,1,0,0:0:0:0:
256,192,14717,1,8,0:0:0:0:
256,192,14888,1,0,0:0:0:0:
256,192,15059,1,8,0:0:0:0:
256,192,15145,1,0,0:0:0:0:
256,192,15231,1,8,0:0:0:0:
256,192,15317,1,8,0:0:0:0:
256,192,15402,1,0,0:0:0:0:
256,192,15574,1,8,0:0:0:0:
256,192,15659,1,8,0:0:0:0:
256,192,15745,1,0,0:0:0:0:
256,192,15917,1,8,0:0:0:0:
256,192,16088,1,0,0:0:0:0:
256,192,16174,1,0,0:0:0:0:
256,192,16259,1,8,0:0:0:0:
256,192,16431,1,8,0:0:0:0:
256,192,16602,1,8,0:0:0:0:
256,192,16688,1,8,0:0:0:0:
256,192,16774,1,0,0:0:0:0:
256,192,17117,1,8,0:0:0:0:
256,192,17288,1,0,0:0:0:0:
256,192,17374,1,0,0:0:0:0:
256,192,17460,1,8,0:0:0:0:
256,192,17545,1,8,0:0:0:0:
256,192,17631,1,0,0:0:0:0:
256,192,17802,1,8,0:0:0:0:
256,192,17974,1,8,0:0:0:0:
256,192,18060,1,8,0:0:0:0:
256,192,18145,1,0,0:0:0:0:
256,192,18317,1,8,0:0:0:0:
256,192,18402,1,8,0:0:0:0:
256,192,18488,1,0,0:0:0:0:
256,192,18574,1,0,0:0:0:0:
256,192,18660,1,8,0:0:0:0:
256,192,18831,1,0,0:0:0:0:
256,192,19002,1,8,0:0:0:0:
256,192,19174,1,8,0:0:0:0:
256,192,19345,1,8,0:0:0:0:
256,192,19431,1,8,0:0:0:0:
256,192,19517,1,0,0:0:0:0:
256,192,19859,1,8,0:0:0:0:
256,192,20030,1,0,0:0:0:0:
256,192,20116,1,0,0:0:0:0:
256,192,20202,1,8,0:0:0:0:
256,192,20373,1,0,0:0:0:0:
256,192,20544,1,8,0:0:0:0:
256,192,20630,1,0,0:0:0:0:
256,192,20716,1,8,0:0:0:0:
256,192,20802,1,8,0:0:0:0:
256,192,20887,1,0,0:0:0:0:
256,192,21059,1,8,0:0:0:0:
256,192,21144,1,8,0:0:0:0:
256,192,21230,1,0,0:0:0:0:
256,192,21402,1,8,0:0:0:0:
256,192,21573,1,0,0:0:0:0:
256,192,21659,1,0,0:0:0:0:
256,192,21744,1,8,0:0:0:0:
256,192,21916,1,8,0:0:0:0:
256,192,22259,1,4,0:0:0:0:
256,192,22431,1,12,0:0:0:0:
256,192,22602,1,4,0:0:0:0:
256,192,22774,1,12,0:0:0:0:
256,192,22945,1,12,0:0:0:0:
256,192,23288,1,12,0:0:0:0:
256,192,23459,1,4,0:0:0:0:
256,192,23802,1,0,0:0:0:0:
256,192,23888,1,0,0:0:0:0:
256,192,23974,1,8,0:0:0:0:
256,192,24145,1,8,0:0:0:0:
256,192,24317,1,4,0:0:0:0:
256,192,24488,1,8,0:0:0:0:
256,192,24659,1,12,0:0:0:0:
256,192,24831,1,8,0:0:0:0:
256,192,25002,1,4,0:0:0:0:
256,192,25345,1,8,0:0:0:0:
256,192,25517,1,0,0:0:0:0:
256,192,25602,1,0,0:0:0:0:
256,192,25688,1,8,0:0:0:0:
256,192,25859,1,0,0:0:0:0:
256,192,26031,1,8,0:0:0:0:
256,192,26202,1,8,0:0:0:0:
256,192,26288,1,8,0:0:0:0:
256,192,26374,1,0,0:0:0:0:
256,192,26545,1,0,0:0:0:0:
256,192,26631,1,0,0:0:0:0:
256,192,26717,1,8,0:0:0:0:
256,192,26802,1,0,0:0:0:0:
256,192,26888,1,8,0:0:0:0:
256,192,27059,1,0,0:0:0:0:
256,192,27231,1,8,0:0:0:0:
256,192,27317,1,0,0:0:0:0:
256,192,27402,1,8,0:0:0:0:
256,192,27574,1,0,0:0:0:0:
256,192,27745,1,8,0:0:0:0:
256,192,28088,1,8,0:0:0:0:
256,192,28259,1,0,0:0:0:0:
256,192,28431,1,8,0:0:0:0:
256,192,28602,1,0,0:0:0:0:
256,192,28688,1,0,0:0:0:0:
256,192,28774,1,0,0:0:0:0:
256,192,28945,1,8,0:0:0:0:
256,192,29117,1,0,0:0:0:0:
256,192,29202,1,8,0:0:0:0:
256,192,29288,1,0,0:0:0:0:
256,192,29374,1,0,0:0:0:0:
256,192,29459,1,8,0:0:0:0:
256,192,29631,1,8,0:0:0:0:
256,192,29802,1,0,0:0:0:0:
256,192,29974,1,8,0:0:0:0:
256,192,30059,1,0,0:0:0:0:
256,192,30145,1,8,0:0:0:0:
256,192,30317,1,0,0:0:0:0:
256,192,30488,1,8,0:0:0:0:
256,192,30574,1,0,0:0:0:0:
256,192,30659,1,0,0:0:0:0:
256,192,30745,1,0,0:0:0:0:
256,192,30831,1,8,0:0:0:0:
256,192,31002,1,8,0:0:0:0:
256,192,31174,1,8,0:0:0:0:
256,192,31259,1,8,0:0:0:0:
256,192,31345,1,0,0:0:0:0:
256,192,31431,1,0,0:0:0:0:
256,192,31517,1,8,0:0:0:0:
256,192,31602,1,0,0:0:0:0:
256,192,31688,1,8,0:0:0:0:
256,192,31774,1,8,0:0:0:0:
256,192,31859,1,0,0:0:0:0:
256,192,32031,1,0,0:0:0:0:
256,192,32202,1,8,0:0:0:0:
256,192,32374,1,0,0:0:0:0:
256,192,32459,1,0,0:0:0:0:
256,192,32545,1,8,0:0:0:0:
256,192,32631,1,8,0:0:0:0:
256,192,32717,1,0,0:0:0:0:
256,192,32888,1,8,0:0:0:0:
256,192,33059,1,0,0:0:0:0:
256,192,33231,1,8,0:0:0:0:
256,192,33317,1,8,0:0:0:0:
256,192,33402,1,8,0:0:0:0:
256,192,33488,1,8,0:0:0:0:
256,192,33574,1,0,0:0:0:0:
256,192,33745,1,8,0:0:0:0:
256,192,33917,1,0,0:0:0:0:
256,192,34088,1,0,0:0:0:0:
256,192,34174,1,0,0:0:0:0:
256,192,34259,1,8,0:0:0:0:
256,192,34431,1,8,0:0:0:0:
256,192,34517,1,0,0:0:0:0:
256,192,34602,1,0,0:0:0:0:
256,192,34688,1,0,0:0:0:0:
256,192,34774,1,8,0:0:0:0:
256,192,34945,1,8,0:0:0:0:
256,192,35117,1,0,0:0:0:0:
256,192,35288,1,0,0:0:0:0:
256,192,35374,1,0,0:0:0:0:
256,192,35459,1,8,0:0:0:0:
256,192,35545,1,8,0:0:0:0:
256,192,35631,1,0,0:0:0:0:
256,192,35802,1,8,0:0:0:0:
256,192,35974,1,4,0:0:0:0:
256,192,36317,1,8,0:0:0:0:
256,192,36489,1,0,0:0:0:0:
256,192,36574,1,0,0:0:0:0:
256,192,36660,1,8,0:0:0:0:
256,192,36831,1,0,0:0:0:0:
256,192,37003,1,8,0:0:0:0:
256,192,37174,1,8,0:0:0:0:
256,192,37260,1,8,0:0:0:0:
256,192,37346,1,0,0:0:0:0:
256,192,37517,1,0,0:0:0:0:
256,192,37603,1,0,0:0:0:0:
256,192,37689,1,8,0:0:0:0:
256,192,37774,1,0,0:0:0:0:
256,192,37860,1,8,0:0:0:0:
256,192,38031,1,0,0:0:0:0:
256,192,38203,1,8,0:0:0:0:
256,192,38289,1,0,0:0:0:0:
256,192,38374,1,8,0:0:0:0:
256,192,38546,1,0,0:0:0:0:
256,192,38717,1,8,0:0:0:0:
256,192,39060,1,8,0:0:0:0:
256,192,39231,1,0,0:0:0:0:
256,192,39403,1,8,0:0:0:0:
256,192,39574,1,0,0:0:0:0:
256,192,39660,1,0,0:0:0:0:
256,192,39746,1,0,0:0:0:0:
256,192,39917,1,8,0:0:0:0:
256,192,40089,1,0,0:0:0:0:
256,192,40174,1,8,0:0:0:0:
256,192,40260,1,0,0:0:0:0:
256,192,40346,1,0,0:0:0:0:
256,192,40431,1,8,0:0:0:0:
256,192,40603,1,8,0:0:0:0:
256,192,40774,1,0,0:0:0:0:
256,192,40946,1,8,0:0:0:0:
256,192,41031,1,0,0:0:0:0:
256,192,41117,1,8,0:0:0:0:
256,192,41289,1,0,0:0:0:0:
256,192,41460,1,8,0:0:0:0:
256,192,41546,1,0,0:0:0:0:
256,192,41631,1,0,0:0:0:0:
256,192,41717,1,0,0:0:0:0:
256,192,41803,1,8,0:0:0:0:
256,192,41974,1,8,0:0:0:0:
256,192,42146,1,8,0:0:0:0:
256,192,42231,1,8,0:0:0:0:
256,192,42317,1,0,0:0:0:0:
256,192,42403,1,0,0:0:0:0:
256,192,42489,1,8,0:0:0:0:
256,192,42574,1,0,0:0:0:0:
256,192,42660,1,8,0:0:0:0:
256,192,42746,1,8,0:0:0:0:
256,192,42831,1,0,0:0:0:0:
256,192,43003,1,0,0:0:0:0:
256,192,43088,1,0,0:0:0:0:
256,192,43174,1,8,0:0:0:0:
256,192,43259,1,0,0:0:0:0:
256,192,43345,1,8,0:0:0:0:
256,192,43517,1,0,0:0:0:0:
256,192,43689,1,8,0:0:0:0:
256,192,43774,1,8,0:0:0:0:
256,192,43860,1,0,0:0:0:0:
256,192,44031,1,0,0:0:0:0:
256,192,44203,1,8,0:0:0:0:
256,192,44288,1,8,0:0:0:0:
256,192,44374,1,0,0:0:0:0:
256,192,44459,1,0,0:0:0:0:
256,192,44546,1,8,0:0:0:0:
256,192,44717,1,0,0:0:0:0:
256,192,44889,1,0,0:0:0:0:
256,192,44974,1,8,0:0:0:0:
256,192,45060,1,0,0:0:0:0:
256,192,45231,1,8,0:0:0:0:
256,192,45403,1,0,0:0:0:0:
256,192,45489,1,0,0:0:0:0:
256,192,45574,1,0,0:0:0:0:
256,192,45660,1,0,0:0:0:0:
256,192,45746,1,8,0:0:0:0:
256,192,45917,1,8,0:0:0:0:
256,192,46089,1,0,0:0:0:0:
256,192,46260,1,8,0:0:0:0:
256,192,46346,1,0,0:0:0:0:
256,192,46431,1,8,0:0:0:0:
256,192,46517,1,8,0:0:0:0:
256,192,46603,1,0,0:0:0:0:
256,192,46774,1,0,0:0:0:0:
256,192,46946,1,12,0:0:0:0:
256,192,47117,1,0,0:0:0:0:
256,192,47288,1,0,0:0:0:0:
256,192,47459,1,0,0:0:0:0:
256,192,47631,1,8,0:0:0:0:
256,192,47974,1,0,0:0:0:0:
256,192,48317,1,8,0:0:0:0:
256,192,48488,1,8,0:0:0:0:
256,192,48659,1,0,0:0:0:0:
256,192,48831,1,0,0:0:0:0:
256,192,49002,1,8,0:0:0:0:
256,192,49345,1,0,0:0:0:0:
256,192,49688,1,8,0:0:0:0:
256,192,49859,1,8,0:0:0:0:
256,192,50031,1,8,0:0:0:0:
256,192,50202,1,0,0:0:0:0:
256,192,50374,1,8,0:0:0:0:
256,192,50717,1,0,0:0:0:0:
256,192,51059,1,8,0:0:0:0:
256,192,51231,1,0,0:0:0:0:
256,192,51402,1,0,0:0:0:0:
256,192,51574,1,8,0:0:0:0:
256,192,51745,1,8,0:0:0:0:
256,192,51917,1,0,0:0:0:0:
256,192,52088,1,8,0:0:0:0:
256,192,52259,1,8,0:0:0:0:
256,192,52431,1,4,0:0:0:0:
256,192,52602,1,8,0:0:0:0:
256,192,52774,1,0,0:0:0:0:
256,192,52945,1,0,0:0:0:0:
256,192,53117,1,8,0:0:0:0:
256,192,53202,1,8,0:0:0:0:
256,192,53288,1,0,0:0:0:0:
256,192,53374,1,0,0:0:0:0:
256,192,53459,1,8,0:0:0:0:
256,192,53631,1,8,0:0:0:0:
256,192,53802,1,0,0:0:0:0:
256,192,53974,1,8,0:0:0:0:
256,192,54145,1,8,0:0:0:0:
256,192,54317,1,0,0:0:0:0:
256,192,54488,1,0,0:0:0:0:
256,192,54574,1,0,0:0:0:0:
256,192,54659,1,8,0:0:0:0:
256,192,54745,1,0,0:0:0:0:
256,192,54831,1,8,0:0:0:0:
256,192,54917,1,8,0:0:0:0:
256,192,55002,1,8,0:0:0:0:
256,192,55088,1,8,0:0:0:0:
256,192,55174,1,0,0:0:0:0:
256,192,55345,1,8,0:0:0:0:
256,192,55517,1,8,0:0:0:0:
256,192,55688,1,0,0:0:0:0:
256,192,55859,1,0,0:0:0:0:
256,192,55945,1,0,0:0:0:0:
256,192,56031,1,8,0:0:0:0:
256,192,56117,1,8,0:0:0:0:
256,192,56202,1,0,0:0:0:0:
256,192,56374,1,8,0:0:0:0:
256,192,56545,1,4,0:0:0:0:
256,192,56717,1,8,0:0:0:0:
256,192,56888,1,8,0:0:0:0:
256,192,57059,1,4,0:0:0:0:
256,192,57231,1,8,0:0:0:0:
256,192,57402,1,8,0:0:0:0:
256,192,57574,1,4,0:0:0:0:
256,192,57917,1,0,0:0:0:0:
256,192,58002,1,0,0:0:0:0:
256,192,58088,1,8,0:0:0:0:
256,192,58174,1,0,0:0:0:0:
256,192,58259,1,8,0:0:0:0:
256,192,58345,1,8,0:0:0:0:
256,192,58431,1,8,0:0:0:0:
256,192,58517,1,0,0:0:0:0:
256,192,58602,1,8,0:0:0:0:
256,192,58688,1,8,0:0:0:0:
256,192,58774,1,0,0:0:0:0:
256,192,58859,1,0,0:0:0:0:
256,192,58945,1,8,0:0:0:0:
256,192,59031,1,0,0:0:0:0:
256,192,59117,1,8,0:0:0:0:
256,192,59202,1,8,0:0:0:0:
256,192,59288,1,0,0:0:0:0:
256,192,59459,1,8,0:0:0:0:
256,192,59631,1,8,0:0:0:0:
256,192,59802,1,0,0:0:0:0:
256,192,59974,1,8,0:0:0:0:
256,192,60059,1,0,0:0:0:0:
256,192,60145,1,0,0:0:0:0:
256,192,60231,1,0,0:0:0:0:
256,192,60317,1,8,0:0:0:0:
256,192,60402,1,8,0:0:0:0:
256,192,60488,1,8,0:0:0:0:
256,192,60659,1,4,0:0:0:0:
256,192,61002,1,8,0:0:0:0:
256,192,61174,1,0,0:0:0:0:
256,192,61345,1,8,0:0:0:0:
256,192,61517,1,8,0:0:0:0:
256,192,61602,1,8,0:0:0:0:
256,192,61688,1,0,0:0:0:0:
256,192,61859,1,0,0:0:0:0:
256,192,62031,1,8,0:0:0:0:
256,192,62202,1,0,0:0:0:0:
256,192,62288,1,0,0:0:0:0:
256,192,62374,1,0,0:0:0:0:
256,192,62545,1,8,0:0:0:0:
256,192,62717,1,0,0:0:0:0:
256,192,62888,1,0,0:0:0:0:
256,192,62974,1,0,0:0:0:0:
256,192,63059,1,8,0:0:0:0:
256,192,63231,1,0,0:0:0:0:
256,192,63402,1,8,0:0:0:0:
256,192,63488,1,0,0:0:0:0:
256,192,63574,1,8,0:0:0:0:
256,192,63659,1,8,0:0:0:0:
256,192,63745,1,0,0:0:0:0:
256,192,63917,1,8,0:0:0:0:
256,192,64088,1,0,0:0:0:0:
256,192,64174,1,0,0:0:0:0:
256,192,64259,1,8,0:0:0:0:
256,192,64345,1,8,0:0:0:0:
256,192,64431,1,0,0:0:0:0:
256,192,64602,1,8,0:0:0:0:
256,192,64774,1,0,0:0:0:0:
256,192,64945,1,8,0:0:0:0:
256,192,65031,1,0,0:0:0:0:
256,192,65117,1,8,0:0:0:0:
256,192,65288,1,0,0:0:0:0:
256,192,65459,1,12,0:0:0:0:
256,192,65631,1,0,0:0:0:0:
256,192,65802,1,12,0:0:0:0:
256,192,66145,1,0,0:0:0:0:
256,192,66317,1,8,0:0:0:0:
256,192,66402,1,8,0:0:0:0:
256,192,66488,1,0,0:0:0:0:
256,192,66574,1,0,0:0:0:0:
256,192,66659,1,8,0:0:0:0:
256,192,66831,1,0,0:0:0:0:
256,192,67002,1,8,0:0:0:0:
256,192,67088,1,0,0:0:0:0:
256,192,67174,1,8,0:0:0:0:
256,192,67345,1,8,0:0:0:0:
256,192,67517,1,0,0:0:0:0:
256,192,67688,1,0,0:0:0:0:
256,192,67774,1,0,0:0:0:0:
256,192,67859,1,8,0:0:0:0:
256,192,67945,1,0,0:0:0:0:
256,192,68031,1,8,0:0:0:0:
256,192,68202,1,0,0:0:0:0:
256,192,68374,1,8,0:0:0:0:
256,192,68459,1,0,0:0:0:0:
256,192,68545,1,8,0:0:0:0:
256,192,68631,1,8,0:0:0:0:
256,192,68717,1,0,0:0:0:0:
256,192,68888,1,8,0:0:0:0:
256,192,69059,1,0,0:0:0:0:
256,192,69145,1,0,0:0:0:0:
256,192,69231,1,0,0:0:0:0:
256,192,69402,1,8,0:0:0:0:
256,192,69574,1,0,0:0:0:0:
256,192,69745,1,0,0:0:0:0:
256,192,69831,1,0,0:0:0:0:
256,192,69917,1,8,0:0:0:0:
256,192,70088,1,8,0:0:0:0:
256,192,70174,1,8,0:0:0:0:
256,192,70259,1,8,0:0:0:0:
256,192,70345,1,8,0:0:0:0:
256,192,70431,1,0,0:0:0:0:
256,192,70602,1,8,0:0:0:0:
256,192,70774,1,8,0:0:0:0:
256,192,70859,1,0,0:0:0:0:
256,192,70945,1,0,0:0:0:0:
256,192,71031,1,0,0:0:0:0:
256,192,71117,1,8,0:0:0:0:
256,192,71202,1,0,0:0:0:0:
256,192,71288,1,8,0:0:0:0:
256,192,71374,1,8,0:0:0:0:
256,192,71459,1,8,0:0:0:0:
256,192,71631,1,4,0:0:0:0:
256,192,71974,1,8,0:0:0:0:
256,192,72146,1,0,0:0:0:0:
256,192,72317,1,8,0:0:0:0:
256,192,72489,1,8,0:0:0:0:
256,192,72574,1,8,0:0:0:0:
256,192,72660,1,0,0:0:0:0:
256,192,72831,1,0,0:0:0:0:
256,192,73003,1,8,0:0:0:0:
256,192,73174,1,0,0:0:0:0:
256,192,73260,1,0,0:0:0:0:
256,192,73346,1,0,0:0:0:0:
256,192,73517,1,8,0:0:0:0:
256,192,73689,1,0,0:0:0:0:
256,192,73860,1,0,0:0:0:0:
256,192,73946,1,0,0:0:0:0:
256,192,74031,1,8,0:0:0:0:
256,192,74203,1,0,0:0:0:0:
256,192,74374,1,8,0:0:0:0:
256,192,74460,1,0,0:0:0:0:
256,192,74546,1,8,0:0:0:0:
256,192,74631,1,8,0:0:0:0:
256,192,74717,1,0,0:0:0:0:
256,192,74888,1,0,0:0:0:0:
256,192,75059,1,12,0:0:0:0:
256,192,75317,1,12,0:0:0:0:
256,192,75574,1,0,0:0:0:0:
256,192,75745,1,12,0:0:0:0:
256,192,75917,1,8,0:0:0:0:
256,192,76003,1,0,0:0:0:0:
256,192,76089,1,8,0:0:0:0:
256,192,76260,1,0,0:0:0:0:
256,192,76431,1,12,0:0:0:0:
256,192,76603,1,0,0:0:0:0:
256,192,76774,1,12,0:0:0:0:
256,192,77117,1,0,0:0:0:0:
256,192,77289,1,8,0:0:0:0:
256,192,77374,1,8,0:0:0:0:
256,192,77460,1,0,0:0:0:0:
256,192,77546,1,0,0:0:0:0:
256,192,77631,1,8,0:0:0:0:
256,192,77803,1,0,0:0:0:0:
256,192,77974,1,8,0:0:0:0:
256,192,78060,1,0,0:0:0:0:
256,192,78146,1,8,0:0:0:0:
256,192,78317,1,8,0:0:0:0:
256,192,78489,1,0,0:0:0:0:
256,192,78660,1,0,0:0:0:0:
256,192,78746,1,0,0:0:0:0:
256,192,78831,1,8,0:0:0:0:
256,192,78917,1,0,0:0:0:0:
256,192,79003,1,8,0:0:0:0:
256,192,79174,1,0,0:0:0:0:
256,192,79346,1,8,0:0:0:0:
256,192,79431,1,0,0:0:0:0:
256,192,79517,1,8,0:0:0:0:
256,192,79602,1,8,0:0:0:0:
256,192,79689,1,0,0:0:0:0:
256,192,79860,1,8,0:0:0:0:
256,192,80031,1,0,0:0:0:0:
256,192,80117,1,0,0:0:0:0:
256,192,80203,1,0,0:0:0:0:
256,192,80374,1,8,0:0:0:0:
256,192,80546,1,0,0:0:0:0:
256,192,80717,1,0,0:0:0:0:
256,192,80803,1,0,0:0:0:0:
256,192,80889,1,8,0:0:0:0:
256,192,81060,1,8,0:0:0:0:
256,192,81146,1,8,0:0:0:0:
256,192,81231,1,8,0:0:0:0:
256,192,81317,1,8,0:0:0:0:
256,192,81403,1,0,0:0:0:0:
256,192,81574,1,8,0:0:0:0:
256,192,81746,1,8,0:0:0:0:
256,192,81831,1,0,0:0:0:0:
256,192,81917,1,0,0:0:0:0:
256,192,82003,1,0,0:0:0:0:
256,192,82089,1,8,0:0:0:0:
256,192,82174,1,0,0:0:0:0:
256,192,82260,1,8,0:0:0:0:
256,192,82345,1,8,0:0:0:0:
256,192,82431,1,8,0:0:0:0:
256,192,82602,1,4,0:0:0:0:
256,192,82945,1,8,0:0:0:0:
256,192,83117,1,0,0:0:0:0:
256,192,83202,1,0,0:0:0:0:
256,192,83288,1,0,0:0:0:0:
256,192,83459,1,0,0:0:0:0:
256,192,83631,1,8,0:0:0:0:
256,192,83802,1,8,0:0:0:0:
256,192,83888,1,8,0:0:0:0:
256,192,83974,1,0,0:0:0:0:
256,192,84059,1,0,0:0:0:0:
256,192,84145,1,8,0:0:0:0:
256,192,84317,1,0,0:0:0:0:
256,192,84488,1,8,0:0:0:0:
256,192,84574,1,8,0:0:0:0:
256,192,84659,1,0,0:0:0:0:
256,192,84831,1,8,0:0:0:0:
256,192,85002,1,0,0:0:0:0:
256,192,85174,1,0,0:0:0:0:
256,192,85259,1,0,0:0:0:0:
256,192,85345,1,8,0:0:0:0:
256,192,85517,1,0,0:0:0:0:
256,192,85688,1,8,0:0:0:0:
256,192,85774,1,0,0:0:0:0:
256,192,85859,1,8,0:0:0:0:
256,192,85945,1,8,0:0:0:0:
256,192,86031,1,0,0:0:0:0:
256,192,86202,1,0,0:0:0:0:
256,192,86374,1,8,0:0:0:0:
256,192,86459,1,8,0:0:0:0:
256,192,86545,1,0,0:0:0:0:
256,192,86717,1,0,0:0:0:0:
256,192,86888,1,0,0:0:0:0:
256,192,86974,1,0,0:0:0:0:
256,192,87059,1,8,0:0:0:0:
256,192,87145,1,0,0:0:0:0:
256,192,87231,1,8,0:0:0:0:
256,192,87402,1,0,0:0:0:0:
256,192,87574,1,0,0:0:0:0:
256,192,87659,1,0,0:0:0:0:
256,192,87745,1,8,0:0:0:0:
256,192,87831,1,0,0:0:0:0:
256,192,87917,1,8,0:0:0:0:
256,192,88088,1,4,0:0:0:0:
256,192,88431,1,8,0:0:0:0:
256,192,88602,1,0,0:0:0:0:
256,192,88688,1,0,0:0:0:0:
256,192,88774,1,0,0:0:0:0:
256,192,88945,1,0,0:0:0:0:
256,192,89117,1,8,0:0:0:0:
256,192,89202,1,0,0:0:0:0:
256,192,89288,1,8,0:0:0:0:
256,192,89459,1,4,0:0:0:0:
256,192,89631,1,8,0:0:0:0:
256,192,89802,1,8,0:0:0:0:
256,192,89888,1,0,0:0:0:0:
256,192,90059,1,0,0:0:0:0:
256,192,90145,1,8,0:0:0:0:
256,192,90231,1,8,0:0:0:0:
256,192,90317,1,0,0:0:0:0:
256,192,90402,1,0,0:0:0:0:
256,192,90488,1,8,0:0:0:0:
256,192,90659,1,0,0:0:0:0:
256,192,90831,1,12,0:0:0:0:
256,192,91002,1,0,0:0:0:0:
256,192,91088,1,0,0:0:0:0:
256,192,91174,1,8,0:0:0:0:
256,192,91259,1,0,0:0:0:0:
256,192,91345,1,8,0:0:0:0:
256,192,91431,1,0,0:0:0:0:
256,192,91517,1,8,0:0:0:0:
256,192,91602,1,0,0:0:0:0:
256,192,91688,1,0,0:0:0:0:
256,192,91774,1,0,0:0:0:0:
256,192,91859,1,8,0:0:0:0:
256,192,91945,1,8,0:0:0:0:
256,192,92031,1,0,0:0:0:0:
256,192,92117,1,0,0:0:0:0:
256,192,92202,1,8,0:0:0:0:
256,192,92288,1,8,0:0:0:0:
256,192,92374,1,8,0:0:0:0:
256,192,92459,1,8,0:0:0:0:
256,192,92545,1,0,0:0:0:0:
256,192,92631,1,0,0:0:0:0:
256,192,92717,1,0,0:0:0:0:
256,192,92802,1,0,0:0:0:0:
256,192,92888,1,8,0:0:0:0:
256,192,92974,1,0,0:0:0:0:
256,192,93059,1,0,0:0:0:0:
256,192,93145,1,0,0:0:0:0:
256,192,93231,1,8,0:0:0:0:
256,192,93317,1,8,0:0:0:0:
256,192,93402,1,8,0:0:0:0:
256,192,93574,1,4,0:0:0:0:
256,192,93745,1,8,0:0:0:0:
256,192,93917,1,8,0:0:0:0:
256,192,94002,1,0,0:0:0:0:
256,192,94088,1,8,0:0:0:0:
256,192,94174,1,8,0:0:0:0:
256,192,94259,1,0,0:0:0:0:
256,192,94345,1,0,0:0:0:0:
256,192,94431,1,8,0:0:0:0:
256,192,94602,1,0,0:0:0:0:
256,192,94774,1,8,0:0:0:0:
256,192,94859,1,8,0:0:0:0:
256,192,94945,1,0,0:0:0:0:
256,192,95117,1,0,0:0:0:0:
256,192,95202,1,8,0:0:0:0:
256,192,95288,1,8,0:0:0:0:
256,192,95374,1,0,0:0:0:0:
256,192,95459,1,8,0:0:0:0:
256,192,95631,1,4,0:0:0:0:
256,192,95974,1,4,0:0:0:0:
256,192,96317,1,4,0:0:0:0:
256,192,96488,1,8,0:0:0:0:
256,192,96659,1,8,0:0:0:0:
256,192,96745,1,8,0:0:0:0:
256,192,96831,1,0,0:0:0:0:
256,192,96917,1,0,0:0:0:0:
256,192,97002,1,8,0:0:0:0:
256,192,97174,1,8,0:0:0:0:
256,192,97345,1,4,0:0:0:0:
256,192,97517,1,4,0:0:0:0:
256,192,97688,1,8,0:0:0:0:
256,192,97859,1,4,0:0:0:0:
256,192,98031,1,4,0:0:0:0:
256,192,98374,1,12,0:0:0:0:
