osu file format v14

[General]
AudioFilename: audio.mp3
AudioLeadIn: 0
PreviewTime: 53378
Countdown: 0
SampleSet: Soft
StackLeniency: 0.7
Mode: 0
LetterboxInBreaks: 0
WidescreenStoryboard: 0

[Editor]
Bookmarks: 148348,148697,149046,149395,149744,150093,150442,150790,151139,151488,151837,152186,152535,152883,153232,153581,153930,154279,154628,154976,155325,155674,156023,156372,156721,157069,157418,157767,158116,158465,158814,159162,159511
DistanceSpacing: 0.8
BeatDivisor: 4
GridSize: 32
TimelineZoom: 2

[Metadata]
Title:Love Election
TitleUnicode:ラブ・エレクション
Artist:Yakushi Ruri
ArtistUnicode:薬師るり
Creator:kowari
Version:Affection
Source:ワールド・エレクション
Tags:shizuku- kazato asa shikibe mayu ayesha altugle world election visual novel vn galgame eroge whirlpool piacci ワルエレ waruere japanese rock j-rock jrock female vocal vocalist
BeatmapID:3944530
BeatmapSetID:1912253

[Difficulty]
HPDrainRate:6
CircleSize:4
OverallDifficulty:8.5
ApproachRate:9.2
SliderMultiplier:1.9
SliderTickRate:1

[Events]
//Background and Video events
0,0,"LoveElection.jpg",0,0
//Break Periods
2,148548,156721
//Storyboard Layer 0 (Background)
//Storyboard Layer 1 (Fail)
//Storyboard Layer 2 (Pass)
//Storyboard Layer 3 (Foreground)
//Storyboard Layer 4 (Overlay)
//Storyboard Sound Samples

[TimingPoints]
442,348.837209302326,4,2,1,80,1,0
17186,-125,4,2,1,60,0,0
28348,-111.111111111111,4,2,1,70,0,0
52244,-83.3333333333333,4,2,1,80,0,0
53465,-90.9090909090909,4,2,1,80,0,0
78755,-100,4,2,1,80,0,0
85383,-83.3333333333333,4,2,1,80,0,0
88523,-111.111111111111,4,2,1,65,0,0
97418,-111.111111111111,4,2,1,70,0,0
103697,-99.9999999999999,4,2,1,70,0,0
109104,-90.9090909090909,4,2,1,70,0,0
110848,-71.4285714285714,4,2,1,80,0,0
112069,-90.9090909090909,4,2,1,80,0,0
132825,-76.9230769230769,4,2,1,80,0,0
134395,-90.9090909090909,4,2,1,80,0,0
146953,-71.4285714285714,4,2,1,80,0,0
159511,-90.9090909090909,4,2,1,80,0,0
174686,-76.9230769230769,4,2,1,80,0,0
175035,-90.9090909090909,4,2,1,80,0,0
188639,-71.4285714285714,4,2,1,80,0,0
192302,-100,4,2,1,80,0,0
192389,-71.4285714285714,4,2,1,80,0,0

[Colours]
Combo1 : 17,254,176
Combo2 : 173,255,95
Combo3 : 255,88,100
Combo4 : 255,94,55

[HitObjects]
196,86,4627,5,8,0:0:0:0:
262,275,4802,1,8,0:0:0:0:
326,148,4976,1,0,1:0:0:0:
140,303,5151,5,8,0:0:0:0:
416,229,5325,1,8,0:0:0:0:
18,121,5674,1,8,0:0:0:0:
172,187,5848,5,0,3:0:0:0:
172,187,5936,1,0,3:0:0:0:
172,187,6023,2,0,P|187:248|208:294,1,95,4|0,1:2|0:0,0:0:0:0:
22,384,6372,2,0,P|38:320|67:283,1,95,8|0,0:0|0:0,0:0:0:0:
271,207,6721,1,0,1:0:0:0:
131,361,6895,1,0,1:0:0:0:
358,285,7069,1,8,0:0:0:0:
160,146,7244,6,0,B|133:130|106:129|106:129|53:99|7:96,1,142.5,4|0,1:2|0:0,0:0:0:0:
17,98,7593,1,0,1:0:0:0:
244,51,7767,2,0,P|308:42|353:28,1,95,8|0,0:0|3:0,0:0:0:0:
346,28,8029,1,0,3:0:0:0:
354,21,8116,1,0,1:0:0:0:
266,170,8290,2,0,P|247:229|243:276,1,95,0|8,1:0|0:0,0:0:0:0:
493,369,8639,6,0,B|504:304|473:238|473:238|444:252,1,142.5,4|0,1:2|0:0,0:0:0:0:
453,245,8988,2,0,P|399:231|354:215,1,95,0|8,1:0|0:0,0:0:0:0:
221,371,9337,2,0,P|284:344|329:335,1,95,2|0,3:0|1:0,0:0:0:0:
394,121,9686,1,0,1:0:0:0:
404,332,9860,1,8,0:0:0:0:
257,164,10035,6,0,P|177:147|109:203,1,142.5,4|0,1:2|0:0,0:0:0:0:
124,183,10383,2,0,P|133:243|144:287,1,95,0|8,1:0|0:0,0:0:0:0:
207,56,10732,2,0,L|219:-2,2,47.5,2|0|0,1:3|3:0|0:0,0:0:0:0:
41,109,11081,1,0,1:0:0:0:
238,201,11255,1,8,0:0:0:0:
49,293,11430,5,4,1:2:0:0:
134,202,11604,1,0,1:0:0:0:
220,384,11779,5,0,3:0:0:0:
220,384,11866,1,0,3:0:0:0:
220,384,11953,1,8,0:2:0:0:
202,114,12128,1,0,3:0:0:0:
207,120,12215,1,0,3:0:0:0:
212,126,12302,2,0,L|223:194,1,47.5,0|0,3:0|3:0,0:0:0:0:
328,317,12476,2,0,L|317:249,1,47.5,0|0,3:0|3:0,0:0:0:0:
380,117,12651,2,0,L|311:152,1,47.5,8|0,0:0|3:0,0:0:0:0:
131,215,12825,6,0,P|117:267|183:358,1,142.5,4|0,1:2|0:0,0:0:0:0:
160,347,13174,2,0,P|212:329|257:316,1,95,0|8,3:0|0:0,0:0:0:0:
432,207,13523,2,0,L|419:281,1,47.5,0|0,3:0|3:0,0:0:0:0:
413,384,13697,1,8,0:0:0:0:
223,159,13872,1,8,0:3:0:0:
263,182,13959,1,8,0:3:0:0:
310,183,14046,1,4,0:3:0:0:
352,161,14133,1,4,0:3:0:0:
378,122,14221,6,0,P|390:62|394:17,1,95,4|0,1:2|3:0,0:0:0:0:
392,20,14482,1,0,3:0:0:0:
390,10,14569,1,8,0:0:0:0:
510,178,14744,2,0,L|448:156,1,47.5,4|0,1:3|0:0,0:0:0:0:
276,81,14918,5,0,1:0:0:0:
240,67,15005,1,0,3:0:0:0:
201,66,15093,1,0,1:2:0:0:
167,84,15180,1,0,3:3:0:0:
139,109,15267,1,8,0:3:0:0:
102,118,15354,1,8,0:3:0:0:
66,102,15442,2,0,L|53:39,1,47.5,4|4,0:3|0:3,0:0:0:0:
231,173,15616,6,0,P|215:272|210:339,1,142.5,8|0,1:2|0:0,0:0:0:0:
308,384,15965,2,0,L|291:311,1,47.5,8|0,1:2|0:0,0:0:0:0:
19,165,16314,2,0,L|36:238,1,47.5,8|0,1:2|0:0,0:0:0:0:
0,297,16488,6,0,P|77:289|123:217,1,142.5,8|0,1:2|0:0,0:0:0:0:
121,234,16837,2,0,P|191:246|237:260,1,95,8|0,1:2|0:0,0:0:0:0:
429,124,17186,6,0,B|379:125|353:145|353:145|303:129|251:145,1,152,4|0,1:2|1:0,0:0:0:0:
379,40,17709,2,0,L|391:-15,2,38,0|0|0,3:0|1:0|1:0,0:0:0:0:
408,225,18058,2,0,P|392:290|411:350,1,114,8|0,0:0|0:0,0:0:0:0:
408,346,18407,6,0,B|351:331|351:331|312:340|312:340|251:326,2,152,0|8|0,1:0|0:0|1:0,0:0:0:0:
478,282,19279,1,2,3:0:0:0:
480,300,19366,1,0,3:0:0:0:
485,319,19453,1,0,1:0:0:0:
491,337,19540,1,0,3:0:0:0:
499,354,19627,1,8,0:0:0:0:
296,242,19802,5,0,3:0:0:0:
296,242,19889,1,0,3:0:0:0:
296,242,19976,2,0,P|242:221|163:276,1,152,4|0,1:3|0:0,0:0:0:0:
53,332,20500,2,0,P|84:339|122:344,1,38,4|4,3:3|3:3,0:0:0:0:
211,347,20674,1,2,3:3:0:0:
64,225,20848,2,0,P|49:158|46:117,1,76,8|0,0:0|0:0,0:0:0:0:
193,24,21197,6,0,L|170:190,1,152,0|8,1:3|0:0,0:0:0:0:
108,70,21721,2,0,L|72:56,1,38,0|0,3:0|3:0,0:0:0:0:
0,56,21895,2,0,L|36:70,1,38,4|0,0:3|0:0,0:0:0:0:
222,116,22069,1,0,3:0:0:0:
240,112,22156,1,0,3:0:0:0:
259,107,22243,1,0,1:2:0:0:
276,98,22330,1,0,3:0:0:0:
291,89,22418,2,0,B|335:75|335:75|368:78|368:78|409:67,1,114,8|0,0:0|0:0,0:0:0:0:
466,0,22767,6,0,P|495:75|457:157,1,152,4|4,1:2|0:3,0:0:0:0:
303,176,23290,1,0,3:0:0:0:
303,176,23377,1,0,3:0:0:0:
303,176,23465,1,4,0:3:0:0:
489,280,23639,2,0,L|471:215,1,38,8|0,0:0|0:0,0:0:0:0:
479,244,23988,6,0,B|410:219|398:265|311:222,2,152,0|8|0,1:0|0:3|1:0,0:0:0:0:
416,358,24860,1,0,3:0:0:0:
408,340,24947,1,0,3:0:0:0:
403,322,25034,1,0,1:0:0:0:
400,303,25121,1,0,3:0:0:0:
399,284,25208,1,8,0:0:0:0:
295,121,25383,5,0,3:0:0:0:
295,121,25471,1,0,3:0:0:0:
295,121,25558,2,0,L|272:284,1,152,0|4,1:0|0:3,0:0:0:0:
210,384,26081,2,0,L|252:370,1,38,0|4,3:0|0:3,0:0:0:0:
324,344,26255,1,4,0:3:0:0:
91,268,26430,2,0,P|139:281|187:287,1,76,8|0,0:0|0:0,0:0:0:0:
378,166,26779,2,0,L|329:176,1,38,0|0,1:0|0:0,0:0:0:0:
170,194,27128,5,0,3:0:0:0:
170,194,27215,1,0,3:0:0:0:
170,194,27302,1,0,3:0:0:0:
331,165,27651,1,0,3:0:0:0:
170,194,28000,5,0,3:0:0:0:
331,165,28174,1,2,3:0:0:0:
176,66,28348,6,0,B|147:60|147:60|123:62|123:62|77:46|32:39,1,128.249996086121,4|0,1:2|0:0,0:0:0:0:
39,41,28697,1,8,0:0:0:0:
87,246,28872,1,0,0:0:0:0:
87,246,28959,1,4,0:3:0:0:
87,246,29046,1,4,0:3:0:0:
176,66,29221,1,8,0:0:0:0:
46,123,29395,2,0,L|30:177,1,42.7499986953736,2|0,3:0|0:0,0:0:0:0:
191,319,29569,6,0,P|203:278|159:152,1,170.999994781494,0|0,1:0|1:0,0:0:0:0:
7,298,30093,2,0,P|54:285|118:276,1,85.4999973907472,4|0,0:3|0:0,0:0:0:0:
280,198,30442,1,0,3:0:0:0:
248,201,30529,1,0,3:0:0:0:
216,195,30616,1,0,1:0:0:0:
188,181,30703,1,0,3:0:0:0:
165,159,30790,1,8,0:0:0:0:
233,0,30965,5,0,3:0:0:0:
233,0,31052,1,0,3:0:0:0:
233,0,31139,2,0,B|200:66|242:121|242:121|256:98|289:71,1,170.999994781494,0|8,1:0|0:0,0:0:0:0:
459,63,31662,2,0,P|427:54|398:41,1,42.7499986953736,0|0,3:0|3:0,0:0:0:0:
330,0,31837,1,4,0:3:0:0:
384,243,32011,2,0,P|364:173|352:101,1,128.249996086121,8|0,0:0|0:0,0:0:0:0:
355,109,32360,6,0,P|403:128|446:136,1,85.4999973907472,4|0,0:3|0:0,0:0:0:0:
477,327,32709,2,0,P|414:352|329:327,1,128.249996086121,8|0,0:0|0:0,0:0:0:0:
347,338,33058,1,4,1:3:0:0:
230,251,33232,1,2,3:0:0:0:
260,242,33319,1,0,3:0:0:0:
291,233,33406,1,0,3:0:0:0:
322,224,33493,1,0,3:0:0:0:
353,215,33580,1,8,0:0:0:0:
156,190,33755,5,0,3:0:0:0:
156,190,33843,1,0,3:0:0:0:
156,190,33930,2,0,B|120:242|153:318|153:318|150:350|135:366,1,170.999994781494,4|8,1:3|0:0,0:0:0:0:
334,337,34453,2,0,P|297:320|277:307,1,42.7499986953736,0|4,3:0|0:3,0:0:0:0:
230,251,34628,1,4,0:3:0:0:
14,307,34802,2,0,P|69:291|119:282,1,85.4999973907472,8|0,0:0|0:0,0:0:0:0:
271,144,35151,6,0,P|212:152|112:77,2,170.999994781494,0|8|4,1:0|0:0|0:3,0:0:0:0:
413,98,36023,2,0,L|430:36,1,42.7499986953736,0|0,3:0|3:0,0:0:0:0:
313,0,36197,2,0,P|320:24|324:41,1,42.7499986953736,0|0,1:0|3:0,0:0:0:0:
480,201,36372,2,0,P|499:131|512:104,1,85.4999973907472,8|0,0:0|3:0,0:0:0:0:
504,119,36633,1,0,3:0:0:0:
504,119,36721,5,0,1:0:0:0:
344,171,36895,1,0,0:0:0:0:
512,281,37069,5,8,0:0:0:0:
238,177,37244,1,0,3:0:0:0:
238,177,37331,1,4,0:3:0:0:
238,177,37418,1,4,0:3:0:0:
345,379,37593,2,0,P|357:316|371:274,1,85.4999973907472,8|0,0:0|0:0,0:0:0:0:
220,51,37942,6,0,B|267:102|257:189|257:189|233:173,1,170.999994781494,4|4,1:2|0:3,0:0:0:0:
350,121,38465,2,0,L|396:137,2,42.7499986953736,0|0|2,3:0|3:0|1:3,0:0:0:0:
142,118,38814,5,8,0:0:0:0:
74,151,38930,1,8,0:0:0:0:
72,228,39046,1,8,0:3:0:0:
124,292,39162,5,8,0:3:0:0:
133,313,39279,1,4,0:3:0:0:
131,333,39395,1,4,0:3:0:0:
62,367,39511,6,0,B|23:307|32:231|32:231|79:254,1,170.999994781494,4|2,1:2|1:3,0:0:0:0:
270,307,40035,1,0,3:0:0:0:
127,175,40209,6,0,L|114:111,1,42.7499986953736,8|0,0:0|0:0,0:0:0:0:
185,300,40383,2,0,L|202:399,1,85.4999973907472,4|0,0:3|0:0,0:0:0:0:
334,352,40645,5,0,3:0:0:0:
324,344,40732,2,0,L|251:332,1,42.7499986953736,8|0,0:0|0:0,0:0:0:0:
25,132,41430,6,0,L|91:117,1,42.7499986953736,0|0,3:0|3:0,0:0:0:0:
212,85,41604,1,8,0:3:0:0:
68,43,41779,5,4,0:3:0:0:
195,170,41953,2,0,P|212:200|233:252,1,85.4999973907472,4|0,0:3|0:0,0:0:0:0:
152,11,42302,5,0,1:0:0:0:
152,11,42476,1,0,3:0:0:0:
116,185,42651,1,8,0:0:0:0:
217,83,42825,2,0,B|273:67|318:78|318:78|326:70|347:55,1,128.249996086121
412,21,43174,2,0,L|429:74,1,42.7499986953736,8|0,0:0|0:0,0:0:0:0:
454,286,43435,5,0,3:0:0:0:
448,278,43523,2,0,B|423:211|458:159|458:159|530:184,1,170.999994781494,0|8,1:0|0:0,0:0:0:0:
335,251,44046,1,0,0:0:0:0:
485,298,44221,6,0,L|428:267,1,42.7499986953736,2|0,3:0|0:0,0:0:0:0:
282,169,44395,1,0,3:0:0:0:
311,157,44482,1,0,1:0:0:0:
343,156,44569,1,0,3:0:0:0:
373,166,44656,1,0,0:0:0:0:
398,186,44743,1,8,0:0:0:0:
446,371,44918,1,4,0:3:0:0:
220,248,45093,6,0,B|159:224|104:236|104:236|88:215|46:185,1,170.999994781494,4|8,1:2|0:0,0:0:0:0:
17,375,45616,2,0,P|51:362|79:350,1,42.7499986953736,2|4,3:2|0:3,0:0:0:0:
137,311,45790,1,4,0:3:0:0:
11,95,45965,2,0,P|-5:155|32:234,1,128.249996086121,8|0,0:0|0:0,0:0:0:0:
23,223,46314,6,0,B|71:210|90:190|90:190|138:191|188:167,1,170.999994781494,4|4,1:2|0:3,0:0:0:0:
285,20,46837,2,0,P|269:77|264:129,1,85.4999973907472,8|0,0:0|3:0,0:0:0:0:
267,112,47098,1,0,3:0:0:0:
269,120,47186,1,0,1:0:0:0:
340,329,47360,1,4,0:3:0:0:
425,99,47535,1,8,0:0:0:0:
512,236,47709,5,8,0:0:0:0:
512,236,47796,1,8,0:0:0:0:
512,236,47883,2,0,B|451:222|451:222|403:231|403:231|318:212,1,170.999994781494,4|8,1:2|0:0,0:0:0:0:
172,132,48407,1,0,3:0:0:0:
172,132,48494,1,4,0:3:0:0:
172,132,48581,1,4,0:3:0:0:
234,310,48755,1,0,3:0:0:0:
75,212,48930,1,8,0:0:0:0:
75,212,49104,2,0,L|137:201,1,42.7499986953736,2|0,3:0|0:0,0:0:0:0:
347,84,49279,5,12,1:2:0:0:
241,341,49453,1,4,0:3:0:0:
81,50,49628,5,8,1:2:0:0:
143,306,49802,1,4,0:3:0:0:
3,141,49976,6,0,B|44:156|44:156|97:157,1,85.4999973907472,8|0,0:0|0:0,0:0:0:0:
313,50,50325,2,0,L|251:69,1,42.7499986953736,8|0,0:0|0:0,0:0:0:0:
0,246,50500,6,0,B|82:258|82:258|184:225,1,170.999994781494,4|0,1:2|3:0,0:0:0:0:
169,225,50936,1,0,3:0:0:0:
173,219,51023,1,4,0:3:0:0:
232,86,51197,5,0,3:0:0:0:
236,93,51285,1,0,3:0:0:0:
243,99,51372,1,4,0:3:0:0:
274,311,51546,5,0,3:0:0:0:
284,285,51633,1,0,3:0:0:0:
306,269,51721,1,4,0:3:0:0:
363,47,51895,6,0,L|379:116,1,42.7499986953736,0|0,1:0|1:0,0:0:0:0:
469,289,52069,2,0,L|453:220,1,42.7499986953736,12|0,0:2|0:0,0:0:0:0:
482,11,52244,6,0,P|499:100|437:160,1,170.999994781494,8|0,1:2|0:0,0:0:0:0:
297,227,52593,6,0,B|341:238|380:219|380:219|410:247|466:247,1,170.999994781494,8|0,1:2|0:0,0:0:0:0:
322,143,52942,6,0,P|311:111|301:58,1,56.9999982604981,8|0,1:2|0:0,0:0:0:0:
362,318,53116,1,8,0:3:0:0:
339,350,53203,1,8,0:3:0:0:
305,371,53290,1,4,0:3:0:0:
266,375,53377,1,4,0:3:0:0:
227,362,53465,6,0,P|160:344|101:334,1,104.500003189087,4|0,1:2|0:0,0:0:0:0:
214,133,53814,1,8,0:0:0:0:
0,177,53988,1,0,3:0:0:0:
23,207,54075,1,0,3:0:0:0:
58,225,54162,1,4,1:3:0:0:
96,226,54249,1,0,3:0:0:0:
132,210,54336,1,4,1:3:0:0:
252,24,54511,1,8,0:0:0:0:
85,102,54686,2,0,P|74:55|61:18,1,52.2500015945435,2|0,3:0|0:0,0:0:0:0:
214,133,54860,6,0,P|200:204|200:255,1,104.500003189087,4|0,0:3|3:0,0:0:0:0:
351,65,55209,1,8,0:0:0:0:
465,233,55383,1,0,3:0:0:0:
427,241,55470,1,0,3:0:0:0:
388,236,55557,1,4,1:3:0:0:
354,216,55644,1,0,3:0:0:0:
330,185,55731,1,4,1:3:0:0:
468,17,55907,2,0,L|446:91,1,52.2500015945435,8|0,0:0|0:0,0:0:0:0:
479,182,56081,2,0,L|457:256,1,52.2500015945435,8|0,0:3|0:0,0:0:0:0:
418,360,56255,5,4,1:2:0:0:
330,185,56430,1,0,0:0:0:0:
512,303,56604,1,8,0:0:0:0:
230,288,56779,5,0,3:0:0:0:
230,288,56866,1,0,3:0:0:0:
230,288,56953,1,4,1:2:0:0:
479,182,57128,1,0,0:0:0:0:
393,383,57302,1,8,0:0:0:0:
250,153,57476,6,0,B|229:80|230:-3|230:-3|316:22,1,209.000006378174,4|0,1:0|0:0,0:0:0:0:
390,70,58000,1,8,0:0:0:0:
143,107,58174,2,0,P|81:88|26:59,1,104.500003189087,4|0,1:2|0:0,0:0:0:0:
279,11,58523,2,0,L|254:74,1,52.2500015945435,8|0,1:3|0:0,0:0:0:0:
134,237,58697,1,8,0:0:0:0:
161,208,58784,1,8,0:3:0:0:
195,191,58871,1,4,0:3:0:0:
234,186,58958,1,4,0:3:0:0:
271,193,59046,6,0,P|334:183|389:172,1,104.500003189087,4|0,1:2|0:0,0:0:0:0:
415,34,59395,1,8,0:0:0:0:
509,285,59569,1,0,3:0:0:0:
509,285,59657,1,0,3:0:0:0:
509,285,59744,2,0,L|446:268,1,52.2500015945435,4|0,0:3|0:0,0:0:0:0:
452,127,59918,2,0,L|469:190,1,52.2500015945435,4|0,0:3|0:0,0:0:0:0:
512,380,60093,1,8,0:0:0:0:
343,241,60267,5,8,0:3:0:0:
343,241,60354,1,4,0:3:0:0:
343,241,60442,2,0,B|300:219|255:227|255:227|188:197|121:193,1,209.000006378174,4|8,1:2|0:0,0:0:0:0:
26,348,60965,2,0,L|90:330,1,52.2500015945435,4|0,1:3|0:0,0:0:0:0:
168,308,61139,1,0,3:0:0:0:
42,188,61314,5,0,1:0:0:0:
232,241,61488,1,8,0:0:0:0:
72,38,61662,6,0,L|133:89,1,52.2500015945435,2|0,3:0|0:0,0:0:0:0:
271,161,61837,2,0,P|354:157|412:90,1,156.750004783631,4|0,1:2|0:0,0:0:0:0:
492,0,62186,6,0,L|474:68,1,52.2500015945435,8|0,0:0|0:0,0:0:0:0:
487,217,62360,2,0,L|505:149,1,52.2500015945435,2|0,0:3|0:0,0:0:0:0:
312,11,62535,5,8,1:3:0:0:
305,41,62622,1,8,0:3:0:0:
314,73,62709,1,4,0:3:0:0:
511,323,62883,6,0,L|438:300,1,52.2500015945435,8|0,0:0|0:0,0:0:0:0:
229,209,63058,2,0,B|208:299|256:367|256:367|273:353|299:347,1,209.000006378174,4|8,1:2|0:0,0:0:0:0:
373,185,63581,1,12,0:0:0:0:
113,333,63755,1,4,1:3:0:0:
436,267,63930,5,12,0:0:0:0:
436,267,64017,1,8,0:0:0:0:
436,267,64104,1,4,1:3:0:0:
64,143,64279,1,12,0:0:0:0:
250,3,64453,5,8,0:0:0:0:
250,3,64540,1,8,0:0:0:0:
250,3,64628,2,0,B|251:53|251:53|275:113,1,104.500003189087,0|0,1:0|0:0,0:0:0:0:
111,294,64976,2,0,P|132:219|143:137,1,156.750004783631,8|0,0:0|3:0,0:0:0:0:
141,130,65325,2,0,L|81:110,1,52.2500015945435,4|0,1:3|3:0,0:0:0:0:
237,214,65500,2,0,L|297:234,1,52.2500015945435,4|0,1:3|3:0,0:0:0:0:
111,294,65674,1,8,0:0:0:0:
271,103,65848,6,0,P|340:88|381:74,1,104.500003189087,0|0,1:0|0:0,0:0:0:0:
192,17,66197,1,0,1:0:0:0:
416,187,66372,1,8,0:0:0:0:
386,0,66546,2,0,L|364:65,1,52.2500015945435,2|0,3:0|0:0,0:0:0:0:
286,230,66721,1,4,0:3:0:0:
506,185,66895,6,0,L|447:167,1,52.2500015945435,4|0,0:3|0:0,0:0:0:0:
271,103,67069,1,10,0:0:0:0:
232,100,67156,1,2,0:0:0:0:
195,112,67243,1,2,0:0:0:0:
165,137,67330,1,2,0:0:0:0:
146,171,67418,6,0,P|150:231|165:293,1,104.500003189087,4|0,1:2|0:0,0:0:0:0:
350,384,67767,1,8,0:0:0:0:
284,117,67942,1,0,3:0:0:0:
276,142,68029,1,0,3:0:0:0:
269,167,68116,1,4,1:2:0:0:
263,193,68203,1,0,3:0:0:0:
260,218,68290,1,8,1:3:0:0:
186,384,68465,1,8,0:0:0:0:
0,205,68639,6,0,B|68:172|124:188|124:188|141:181|156:148,1,156.750004783631,4|0,1:2|0:0,0:0:0:0:
121,40,68988,2,0,L|107:97,1,52.2500015945435,0|0,1:0|0:0,0:0:0:0:
60,278,69162,1,8,0:0:0:0:
237,93,69337,2,0,B|286:150|267:247|267:247|204:218,1,209.000006378174,4|4,1:2|1:3,0:0:0:0:
368,43,69860,1,8,0:0:0:0:
368,43,69947,1,8,0:3:0:0:
368,43,70035,1,4,0:3:0:0:
368,43,70122,1,4,0:3:0:0:
368,43,70209,6,0,P|433:27|483:21,1,104.500003189087,4|0,1:2|0:0,0:0:0:0:
301,147,70558,1,8,0:0:0:0:
470,252,70732,1,0,3:0:0:0:
470,252,70819,1,0,3:0:0:0:
470,252,70907,2,0,L|454:192,1,52.2500015945435,4|0,0:3|0:0,0:0:0:0:
430,118,71081,1,4,0:3:0:0:
266,248,71255,1,8,0:0:0:0:
498,361,71430,5,8,0:3:0:0:
498,361,71517,1,4,0:3:0:0:
498,361,71604,2,0,B|447:333|362:362|362:362|329:345|329:345|288:336,1,209.000006378174,4|8,1:2|0:0,0:0:0:0:
69,306,72128,2,0,L|138:285,1,52.2500015945435,2|0,0:3|0:0,0:0:0:0:
318,233,72302,1,0,0:0:0:0:
92,179,72476,1,0,1:0:0:0:
204,376,72651,1,8,0:0:0:0:
235,120,72825,5,0,3:0:0:0:
235,120,72912,1,0,3:0:0:0:
235,120,73000,2,0,P|247:58|263:11,1,104.500003189087,4|0,1:2|0:0,0:0:0:0:
318,233,73348,1,8,0:0:0:0:
103,53,73523,2,0,L|119:123,1,52.2500015945435,2|0,3:0|0:0,0:0:0:0:
179,351,73697,5,4,1:3:0:0:
259,18,73872,1,12,1:2:0:0:
179,351,74046,1,8,1:2:0:0:
0,202,74221,6,0,B|43:185|95:199|95:199|149:164|219:170,1,209.000006378174,4|0,1:2|0:0,0:0:0:0:
471,314,74744,1,8,0:0:0:0:
390,23,74918,2,0,P|386:87|361:196,1,156.750004783631,4|0,1:2|0:0,0:0:0:0:
359,188,75267,6,0,L|290:159,1,52.2500015945435,8|0,1:2|0:0,0:0:0:0:
212,29,75441,2,0,L|281:58,1,52.2500015945435,8|0,1:2|0:0,0:0:0:0:
485,150,75616,5,8,0:3:0:0:
485,150,75703,1,4,0:3:0:0:
485,150,75790,2,0,P|499:214|516:258,1,104.500003189087,4|0,1:2|0:0,0:0:0:0:
272,384,76139,2,0,P|280:329|301:276,1,104.500003189087,8|0,0:0|0:0,0:0:0:0:
485,150,76488,1,0,1:0:0:0:
402,332,76662,1,0,1:0:0:0:
496,131,76837,1,8,0:0:0:0:
264,198,77011,6,0,B|191:200|107:147|107:147|153:111,1,209.000006378174,4|4,1:2|0:3,0:0:0:0:
247,40,77535,1,8,0:0:0:0:
144,293,77709,2,0,P|149:320|160:358,1,52.2500015945435,2|0,3:0|0:0,0:0:0:0:
292,162,77883,5,12,1:2:0:0:
0,239,78058,1,4,1:3:0:0:
0,239,78407,2,0,P|62:186|138:198,1,156.750004783631,4|0,1:2|0:0,0:0:0:0:
141,201,78755,2,0,P|203:181|254:157,1,95,0|8,1:0|0:0,0:0:0:0:
356,31,79104,2,0,P|337:89|331:115,1,47.5,2|0,3:0|3:0,0:0:0:0:
322,262,79279,1,4,0:3:0:0:
246,58,79453,1,4,0:3:0:0:
485,217,79628,6,0,P|444:206|417:197,1,47.5,8|0,0:0|0:0,0:0:0:0:
222,338,79802,2,0,B|261:298|308:294|308:294|355:337|426:316,1,190,4|4,0:3|0:3,0:0:0:0:
512,113,80325,1,8,0:0:0:0:
371,240,80500,2,0,B|348:181|352:122|352:122|386:103,1,142.5,4|0,1:3|0:0,0:0:0:0:
369,100,80848,2,0,P|432:74|479:38,1,95,0|8,1:0|0:0,0:0:0:0:
484,217,81197,1,4,1:2:0:0:
258,40,81372,5,0,3:0:0:0:
258,40,81546,2,0,L|244:120,1,47.5,2|0,1:3|1:3,0:0:0:0:
146,251,81721,1,0,0:0:0:0:
146,251,81895,2,0,L|160:171,1,47.5,2|0,1:3|1:3,0:0:0:0:
327,145,82069,6,0,L|379:129,1,47.5,4|4,1:3|0:3,0:0:0:0:
78,101,82244,2,0,L|26:117,1,47.5,4|4,1:3|0:3,0:0:0:0:
221,318,82418,5,8,0:0:0:0:
164,0,82593,2,0,B|152:28|152:28|162:89|209:162,1,142.5,4|0,1:2|0:0,0:0:0:0:
198,138,82942,2,0,L|257:111,1,47.5,0|0,1:0|1:0,0:0:0:0:
221,318,83116,2,0,P|234:239|247:193,1,95,4|0,0:3|1:0,0:0:0:0:
244,215,83378,1,0,1:0:0:0:
250,206,83465,1,4,0:3:0:0:
316,41,83639,1,0,1:0:0:0:
337,67,83726,1,0,1:0:0:0:
344,99,83814,1,4,0:3:0:0:
148,217,83988,6,0,B|113:208|96:194|96:194|49:194|8:175,1,142.5,4|0,1:2|0:0,0:0:0:0:
6,170,84337,2,0,L|14:237,1,47.5,0|0,1:0|1:0,0:0:0:0:
31,363,84511,1,4,0:3:0:0:
217,166,84686,1,0,1:0:0:0:
229,120,84773,1,0,1:0:0:0:
222,74,84860,1,0,1:0:0:0:
194,35,84947,1,0,1:0:0:0:
153,13,85035,2,0,L|85:-6,1,47.5,8|8,0:3|0:3,0:0:0:0:
0,89,85209,2,0,P|19:81|45:76,1,47.5,4|4,0:3|0:3,0:0:0:0:
300,37,85383,6,0,B|363:31|417:82|417:82|385:100|386:124,1,170.999994781494,12|0,1:2|0:0,0:0:0:0:
482,209,85732,2,0,P|475:172|474:135,1,56.9999982604981,8|0,1:2|0:0,0:0:0:0:
185,204,86081,2,0,P|192:241|204:281,1,56.9999982604981,8|0,1:2|0:0,0:0:0:0:
298,282,86255,2,0,B|326:215|300:145|300:145|267:177,1,170.999994781494,8|0,1:2|0:0,0:0:0:0:
185,204,86604,6,0,P|115:192|13:156,1,170.999994781494,12|0,1:2|0:0,0:0:0:0:
11,149,86953,1,8,0:0:0:0:
11,149,87825,2,0,L|29:227,1,56.9999982604981,8|0,1:2|0:2,0:2:0:0:
173,340,88000,2,0,L|155:262,1,56.9999982604981,8|0,1:2|0:2,0:2:0:0:
100,86,88174,5,4,1:3:0:0:
100,86,88348,1,0,1:3:0:0:
0,305,88523,2,0,B|39:322|39:322|111:313|167:281,1,170.999994781494,2|4,3:0|0:3,0:0:0:0:
274,202,89046,1,0,1:3:0:0:
233,351,89221,1,2,3:0:0:0:
365,133,89395,5,8,0:0:0:0:
406,367,89569,1,2,1:3:0:0:
512,272,89744,6,0,P|445:255|359:240,1,128.249996086121,4|0,0:3|0:0,0:0:0:0:
376,245,90093,1,8,0:0:0:0:
489,173,90267,1,0,3:0:0:0:
492,167,90354,1,4,0:3:0:0:
492,160,90442,1,4,0:3:0:0:
250,182,90616,2,0,P|309:179|358:154,1,85.4999973907472,2|0,1:3|0:0,0:0:0:0:
454,0,90965,6,0,B|402:53|420:122|420:122|442:93|457:82,1,170.999994781494,4|8,1:2|0:0,0:0:0:0:
332,0,91488,2,0,P|316:59|312:104,1,85.4999973907472,0|0,3:0|1:0,0:0:0:0:
364,217,91837,1,4,3:3:0:0:
341,194,91924,1,0,3:0:0:0:
312,180,92011,1,4,3:3:0:0:
281,175,92098,1,0,3:0:0:0:
249,182,92185,1,8,0:0:0:0:
296,372,92360,5,8,0:3:0:0:
296,372,92447,1,4,0:3:0:0:
296,372,92535,2,0,B|269:319|283:264|283:264|252:286|205:285,1,170.999994781494,4|8,1:2|0:0,0:0:0:0:
31,293,93058,2,0,P|41:296|80:312,1,42.7499986953736,0|8,3:0|0:3,0:0:0:0:
158,369,93232,1,4,0:3:0:0:
132,148,93407,2,0,P|145:205|153:247,1,85.4999973907472,8|0,0:0|0:0,0:0:0:0:
0,41,93755,6,0,B|33:76|75:77|75:77|123:50|182:67,1,170.999994781494,4|8,1:2|0:0,0:0:0:0:
214,170,94279,2,0,P|159:155|99:137,1,85.4999973907472,2|4,0:0|0:3,0:0:0:0:
234,0,94628,1,4,3:3:0:0:
242,19,94715,1,0,3:0:0:0:
248,39,94802,1,4,3:3:0:0:
251,61,94889,1,0,3:0:0:0:
251,82,94976,1,8,0:0:0:0:
171,244,95151,5,8,0:3:0:0:
171,244,95238,1,4,0:3:0:0:
171,244,95325,2,0,B|228:230|228:230|279:243|279:243|339:224,1,170.999994781494,0|8,1:0|0:0,0:0:0:0:
438,112,95848,2,0,L|426:173,1,42.7499986953736,0|8,3:0|0:3,0:0:0:0:
392,359,96023,1,4,0:3:0:0:
322,142,96197,2,0,B|321:187|321:187|343:244,1,85.4999973907472,8|0,0:0|0:0,0:0:0:0:
512,384,96546,6,0,P|447:354|362:376,1,128.249996086121,4|0,1:2|0:0,0:0:0:0:
385,367,96895,2,0,P|320:355|269:340,1,85.4999973907472,8|0,0:0|0:0,0:0:0:0:
222,150,97244,1,8,0:3:0:0:
151,292,97418,5,8,0:0:0:0:
207,347,97535,1,8,0:0:0:0:
231,272,97651,1,8,0:3:0:0:
172,317,97767,5,8,0:3:0:0:
215,311,97883,1,4,0:3:0:0:
191,286,98000,1,4,0:3:0:0:
195,305,98116,6,0,B|133:283|73:312|73:312|49:289|21:282,1,170.999994781494,4|4,1:2|0:3,0:0:0:0:
138,384,98639,1,0,0:0:0:0:
225,187,98814,6,0,L|237:248,1,42.7499986953736,8|0,0:0|0:0,0:0:0:0:
138,101,98988,2,0,B|142:54|142:54|162:9,1,85.4999973907472,8|0,1:3|0:0,0:0:0:0:
63,149,99250,1,0,3:0:0:0:
55,161,99337,2,0,L|0:175,1,42.7499986953736,4|0,1:3|0:0,0:0:0:0:
480,158,100209,6,0,L|440:145,1,42.7499986953736,2|0,0:3|0:0,0:0:0:0:
264,99,100383,1,8,0:0:0:0:
392,222,100558,5,0,1:0:0:0:
340,22,100732,1,0,1:0:0:0:
290,206,100907,6,0,B|287:264|326:303|326:303|328:324|317:340,1,128.249996086121,4|0,1:2|0:0,0:0:0:0:
320,333,101255,1,8,0:0:0:0:
392,222,101430,2,0,L|439:211,1,42.7499986953736,2|0,3:0|0:0,0:0:0:0:
231,322,101604,1,4,0:3:0:0:
231,322,101779,2,0,P|187:328|134:346,1,85.4999973907472,8|0,0:0|0:0,0:0:0:0:
475,346,102128,6,0,P|484:248|424:209,1,170.999994781494,4|8,1:3|0:0,0:0:0:0:
203,168,102651,2,0,L|149:157,2,42.7499986953736,4|0|0,0:3|3:0|3:0,0:0:0:0:
312,258,103000,1,0,3:0:0:0:
309,226,103087,1,0,0:0:0:0:
312,194,103174,1,0,3:0:0:0:
320,163,103261,1,0,0:0:0:0:
333,133,103348,1,8,0:0:0:0:
499,0,103523,2,0,P|490:29|480:53,1,42.7499986953736,2|0,3:0|0:0,0:0:0:0:
509,127,103697,6,0,B|459:134|420:103|420:103|363:99|317:146,1,190,4|8,1:2|0:0,0:0:0:0:
205,296,104221,2,0,L|190:342,2,47.5,0|0|0,3:0|3:0|3:0,0:0:0:0:
174,38,104569,2,0,P|167:109|221:180,1,142.5,8|0,0:0|0:0,0:0:0:0:
210,178,104918,6,0,B|166:165|166:165|127:169|127:169|86:147|18:136,1,190,0|4,1:0|0:3,0:0:0:0:
82,58,105442,1,8,0:0:0:0:
12,294,105616,1,0,1:0:0:0:
12,294,105703,1,0,1:0:0:0:
12,294,105790,2,0,P|70:275|118:266,1,95,8|4,0:3|0:3,0:0:0:0:
388,293,106139,1,8,0:0:0:0:
361,332,106226,1,8,0:0:0:0:
322,358,106313,1,8,0:3:0:0:
275,365,106400,1,4,0:3:0:0:
230,354,106488,6,0,B|184:289|216:207|216:207|273:232,1,190,4|8,1:2|0:0,0:0:0:0:
456,315,107011,1,0,3:3:0:0:
456,315,107098,1,4,0:3:0:0:
456,315,107186,2,0,P|401:307|350:291,1,95,8|4,0:3|0:3,0:3:0:0:
193,172,107535,1,8,0:0:0:0:
411,113,107709,2,0,L|392:183,1,47.5,6|0,0:3|0:0,0:0:0:0:
310,384,107883,5,12,1:2:0:0:
512,168,108058,1,4,0:3:0:0:
150,250,108232,5,8,1:2:0:0:
486,93,108407,1,4,0:3:0:0:
144,34,108581,6,0,P|196:54|263:68,1,95,8|0,1:2|0:0,0:0:0:0:
503,21,108930,2,0,L|459:50,1,47.5,6|0,1:3|0:0,0:0:0:0:
332,197,109104,6,0,B|294:271|319:364|319:364|380:339,1,209.000006378174,4|0,1:2|3:0,0:0:0:0:
363,350,109540,1,0,3:0:0:0:
372,350,109628,1,4,1:3:0:0:
215,220,109802,5,0,3:0:0:0:
233,243,109889,1,0,3:0:0:0:
258,259,109976,1,4,1:3:0:0:
372,37,110151,5,0,1:0:0:0:
340,71,110238,1,0,1:0:0:0:
338,117,110325,1,4,1:3:0:0:
512,268,110500,6,0,L|432:245,1,52.2500015945435,0|0,1:0|1:0,0:0:0:0:
145,231,110674,2,0,L|225:254,1,52.2500015945435,12|0,1:2|0:0,0:0:0:0:
509,169,110848,6,0,B|453:160|411:177|411:177|364:146|305:145,1,199.499993911743,12|0,1:2|0:0,0:0:0:0:
195,245,111197,6,0,B|211:195|211:195|201:143|201:143|220:107|220:107|216:30,1,199.499993911743,12|0,1:2|0:0,0:0:0:0:
319,259,111546,6,0,P|328:306|341:345,1,66.4999979705811,12|0,1:2|0:0,0:0:0:0:
108,186,111721,1,8,0:0:0:0:
60,199,111808,1,8,0:0:0:0:
29,236,111895,1,8,0:0:0:0:
24,285,111982,1,8,0:0:0:0:
48,327,112069,6,0,P|134:313|172:302,1,104.500003189087,4|4,1:2|0:3,0:0:0:0:
317,145,112418,1,8,0:0:0:0:
264,353,112592,1,0,1:3:0:0:
280,317,112679,1,0,3:0:0:0:
279,279,112766,1,4,1:3:0:0:
261,244,112853,1,0,3:0:0:0:
231,221,112941,1,4,3:0:0:0:
150,308,113116,1,8,0:0:0:0:
375,334,113290,2,0,P|422:345|459:358,1,52.2500015945435,2|0,3:0|0:0,0:0:0:0:
512,204,113465,6,0,P|441:218|390:218,1,104.500003189087,4|0,0:3|3:0,0:0:0:0:
201,100,113813,1,8,0:0:0:0:
365,4,113988,1,0,1:3:0:0:
396,28,114076,1,0,3:0:0:0:
416,62,114163,1,4,1:3:0:0:
421,101,114250,1,0,3:0:0:0:
413,139,114337,1,4,1:0:0:0:
308,333,114511,2,0,L|322:282,1,52.2500015945435,8|0,0:0|0:0,0:0:0:0:
315,105,114685,2,0,L|300:155,1,52.2500015945435,8|0,0:3|0:0,0:0:0:0:
159,382,114860,5,4,1:2:0:0:
239,217,115034,1,4,0:3:0:0:
378,382,115209,1,8,0:0:0:0:
119,132,115383,5,0,3:0:0:0:
119,132,115470,1,0,3:0:0:0:
119,132,115558,1,4,1:2:0:0:
408,238,115732,1,4,0:3:0:0:
152,384,115906,1,8,0:0:0:0:
315,105,116081,6,0,B|359:85|406:85|406:85|447:57|521:43,1,209.000006378174,4|4,1:2|0:3,0:0:0:0:
408,238,116604,1,8,0:0:0:0:
235,15,116779,2,0,P|225:67|216:128,1,104.500003189087,4|0,1:2|0:0,0:0:0:0:
378,382,117127,2,0,L|396:316,1,52.2500015945435,8|0,1:3|0:0,0:0:0:0:
495,234,117302,1,8,0:0:0:0:
461,203,117389,1,8,0:3:0:0:
410,192,117476,1,4,0:3:0:0:
362,205,117563,1,4,0:3:0:0:
319,227,117651,6,0,L|201:206,1,104.500003189087,4|0,1:2|0:0,0:0:0:0:
252,353,117999,1,8,0:0:0:0:
33,124,118174,1,0,3:0:0:0:
33,124,118261,1,0,3:0:0:0:
33,124,118348,2,0,L|50:187,1,52.2500015945435,4|0,0:3|0:0,0:0:0:0:
159,319,118523,2,0,L|142:256,1,52.2500015945435,4|0,0:3|0:0,0:0:0:0:
95,49,118697,1,8,0:0:0:0:
0,265,118872,5,8,0:3:0:0:
0,265,118959,1,4,0:3:0:0:
0,265,119046,2,0,B|41:283|41:283|140:281|215:203,1,209.000006378174,4|8,1:2|0:0,0:0:0:0:
325,103,119569,2,0,L|310:153,1,52.2500015945435,4|0,1:3|0:0,0:0:0:0:
277,262,119744,1,0,3:0:0:0:
398,62,119918,5,0,1:0:0:0:
391,300,120092,1,8,0:0:0:0:
153,189,120267,6,0,L|218:210,1,52.2500015945435,2|0,3:0|0:0,0:0:0:0:
480,288,120442,2,0,B|506:234|495:160|495:160|459:184,1,156.750004783631,4|0,1:2|0:0,0:0:0:0:
391,300,120790,6,0,L|409:368,1,52.2500015945435,8|0,0:0|0:0,0:0:0:0:
300,144,120965,2,0,L|282:76,1,52.2500015945435,2|0,0:3|0:0,0:0:0:0:
163,303,121139,5,8,1:3:0:0:
196,296,121226,1,8,0:3:0:0:
224,276,121313,1,4,0:3:0:0:
479,133,121488,6,0,P|440:144|404:156,1,52.2500015945435,8|0,0:0|0:0,0:0:0:0:
140,214,121662,2,0,B|82:217|32:157|32:157|35:196|-1:256,1,209.000006378174,4|0,1:2|1:0,0:0:0:0:
161,96,122185,5,12,0:0:0:0:
89,324,122360,1,4,1:3:0:0:
215,19,122534,5,12,0:0:0:0:
215,19,122622,1,8,0:0:0:0:
215,19,122709,1,4,1:3:0:0:
309,288,122883,1,12,0:0:0:0:
482,137,123058,5,8,0:0:0:0:
482,137,123145,1,8,0:0:0:0:
482,137,123232,2,0,P|423:127|370:106,1,104.500003189087,4|4,1:2|0:3,0:0:0:0:
144,278,123581,2,0,P|213:236|303:255,1,156.750004783631,8|2,0:0|0:0,0:0:0:0:
294,253,123930,2,0,L|274:313,1,52.2500015945435,4|0,1:3|3:0,0:0:0:0:
259,133,124104,2,0,L|279:73,1,52.2500015945435,4|0,1:3|3:0,0:0:0:0:
413,254,124279,1,8,0:0:0:0:
158,201,124453,6,0,P|142:151|132:99,1,104.500003189087,0|0,1:0|0:0,0:0:0:0:
259,133,124802,1,0,1:0:0:0:
23,245,124976,1,8,0:0:0:0:
269,319,125151,2,0,L|204:297,1,52.2500015945435,2|0,3:0|0:0,0:0:0:0:
0,238,125325,1,4,0:3:0:0:
0,238,125499,6,0,L|59:220,1,52.2500015945435,4|0,0:3|0:0,0:0:0:0:
244,65,125674,1,10,0:0:0:0:
285,99,125761,1,2,0:0:0:0:
302,146,125848,1,2,0:0:0:0:
295,194,125935,1,2,0:0:0:0:
259,227,126023,6,0,L|133:194,1,104.500003189087,4|0,1:2|0:0,0:0:0:0:
385,153,126372,1,8,0:0:0:0:
217,321,126546,1,0,3:0:0:0:
253,335,126633,1,0,3:0:0:0:
292,333,126720,1,4,1:3:0:0:
327,317,126807,1,0,3:0:0:0:
353,288,126894,1,4,1:3:0:0:
413,21,127069,1,8,0:0:0:0:
465,348,127244,6,0,B|481:273|481:273|456:177,1,156.750004783631,4|0,1:2|0:0,0:0:0:0:
310,269,127592,2,0,L|384:250,1,52.2500015945435,0|0,1:0|0:0,0:0:0:0:
512,100,127767,1,8,0:0:0:0:
377,340,127942,2,0,B|302:322|302:322|244:335|244:335|158:306,1,209.000006378174,4|4,1:2|0:3,0:0:0:0:
29,168,128465,1,8,0:0:0:0:
83,384,128639,2,0,L|67:309,1,52.2500015945435,10|0,0:3|0:0,0:0:0:0:
29,168,128814,6,0,P|82:148|154:135,1,104.500003189087,4|0,1:2|0:0,0:0:0:0:
242,220,129162,1,8,0:0:0:0:
130,17,129337,1,0,3:0:0:0:
130,17,129424,1,0,3:0:0:0:
130,17,129511,2,0,P|178:33|203:47,1,52.2500015945435,4|0,0:3|0:0,0:0:0:0:
348,138,129685,1,4,0:3:0:0:
128,137,129860,1,8,0:0:0:0:
374,32,130034,5,8,0:3:0:0:
374,32,130122,1,4,0:3:0:0:
374,32,130209,2,0,B|409:90|384:181|384:181|355:129|317:128,1,209.000006378174,4|8,1:2|0:0,0:0:0:0:
500,60,130732,2,0,P|498:86|494:120,1,52.2500015945435,2|0,0:3|0:0,0:0:0:0:
416,317,130906,1,2,3:0:0:0:
348,138,131081,1,0,1:0:0:0:
512,380,131255,1,8,0:0:0:0:
256,267,131430,5,0,3:0:0:0:
256,267,131517,1,0,3:0:0:0:
256,267,131604,2,0,P|194:279|147:295,1,104.500003189087,4|0,1:2|0:0,0:0:0:0:
318,357,131953,1,8,0:0:0:0:
212,147,132127,2,0,P|248:156|282:168,1,52.2500015945435,2|0,3:0|0:0,0:0:0:0:
425,201,132302,5,4,1:3:0:0:
75,163,132476,1,12,1:2:0:0:
425,201,132651,1,8,1:2:0:0:
133,384,132825,6,0,B|81:312|97:204|97:204|188:243,1,246.999988693238,4|0,1:2|0:0,0:0:0:0:
353,52,133348,1,8,0:0:0:0:
489,329,133523,2,0,B|385:283|402:350|298:294,1,185.249991519928,4|0,1:2|0:0,0:0:0:0:
299,305,133872,6,0,L|284:231,1,61.7499971733095,8|0,1:2|0:0,0:0:0:0:
310,43,134046,2,0,L|325:117,1,61.7499971733095,8|0,1:2|0:0,0:0:0:0:
150,227,134220,5,8,0:3:0:0:
150,227,134308,1,4,0:3:0:0:
150,227,134395,2,0,P|164:163|181:119,1,104.500003189087,4|0,1:2|0:0,0:0:0:0:
388,200,134744,1,8,0:0:0:0:
200,334,134918,1,0,3:0:0:0:
149,345,135005,1,0,3:0:0:0:
99,332,135092,1,4,1:3:0:0:
62,296,135179,1,0,3:0:0:0:
45,246,135266,1,4,1:3:0:0:
198,88,135442,1,8,0:0:0:0:
355,211,135616,5,8,0:3:0:0:
355,211,135703,1,4,0:3:0:0:
355,211,135790,2,0,L|461:184,1,104.500003189087,0|0,1:0|1:0,0:0:0:0:
358,63,136139,1,8,0:0:0:0:
426,299,136314,2,0,P|442:349|450:375,1,52.2500015945435,2|0,3:0|3:0,0:0:0:0:
255,245,136488,1,8,0:3:0:0:
239,212,136575,1,4,0:3:0:0:
245,178,136662,1,4,0:3:0:0:
455,189,136837,1,8,0:0:0:0:
306,357,137011,5,8,3:3:0:0:
306,357,137098,1,4,0:3:0:0:
306,357,137186,1,12,0:0:0:0:
381,124,137360,1,4,0:3:0:0:
141,225,137535,5,12,0:0:0:0:
453,74,137709,1,4,0:3:0:0:
428,245,137883,6,0,L|350:216,1,52.2500015945435,4|0,0:3|0:0,0:0:0:0:
188,64,138058,2,0,L|217:142,1,52.2500015945435,8|0,0:0|0:0,0:0:0:0:
226,317,138232,1,8,0:0:0:0:
186,350,138319,1,8,0:0:0:0:
135,358,138406,1,8,0:3:0:0:
88,337,138493,1,4,0:3:0:0:
58,295,138580,5,4,1:3:0:0:
287,164,138755,2,0,L|274:229,1,52.2500015945435,2|0,3:0|0:0,0:0:0:0:
32,125,138930,5,8,0:0:0:0:
276,299,139104,2,0,B|221:237|247:145|247:145|309:174,1,209.000006378174,4|8,1:0|0:3,0:0:0:0:
142,236,139628,1,8,0:0:0:0:
324,60,139802,2,0,P|349:53|377:48,1,52.2500015945435,2|2,0:0|0:0,0:0:0:0:
470,92,139976,5,4,1:3:0:0:
492,127,140064,1,0,1:0:0:0:
493,168,140151,1,0,3:0:0:0:
474,205,140238,1,0,3:0:0:0:
427,227,140325,5,8,0:0:0:0:
382,199,140412,1,0,3:0:0:0:
329,205,140500,1,8,3:3:0:0:
294,244,140587,1,8,3:0:0:0:
282,292,140674,2,0,L|302:362,1,52.2500015945435,4|0,0:3|0:0,0:0:0:0:
404,384,140848,2,0,L|384:314,1,52.2500015945435,0|0,1:2|0:0,0:0:0:0:
249,170,141023,5,8,0:0:0:0:
245,174,141110,1,8,0:0:0:0:
241,179,141197,2,0,L|180:167,1,52.2500015945435,6|2,1:2|0:0,0:0:0:0:
59,296,141372,5,0,1:0:0:0:
28,241,141459,1,0,3:0:0:0:
29,178,141546,1,4,1:3:0:0:
62,125,141633,1,0,0:0:0:0:
105,94,141721,5,8,3:2:0:0:
155,107,141808,1,0,3:0:0:0:
205,94,141895,1,4,1:3:0:0:
236,52,141982,1,4,0:3:0:0:
242,10,142069,5,0,3:0:0:0:
237,7,142157,1,0,3:0:0:0:
231,5,142244,2,0,L|171:16,1,52.2500015945435,2|2,3:1|3:0,0:0:0:0:
351,127,142418,2,0,L|411:116,1,52.2500015945435,8|0,1:2|3:0,0:0:0:0:
135,249,142593,2,0,L|75:260,1,52.2500015945435,2|0,3:1|3:0,0:0:0:0:
274,379,142767,5,0,1:0:0:0:
276,373,142854,1,0,3:0:0:0:
279,367,142941,1,0,3:0:0:0:
280,360,143028,1,0,3:0:0:0:
275,334,143115,5,8,0:0:0:0:
252,320,143203,1,0,3:0:0:0:
234,300,143291,1,0,3:0:0:0:
223,275,143378,1,0,3:0:0:0:
216,233,143465,5,4,0:3:0:0:
250,209,143552,1,0,3:0:0:0:
276,176,143639,1,4,0:3:0:0:
286,135,143726,1,0,3:0:0:0:
278,93,143814,2,0,P|267:47|255:21,1,52.2500015945435,8|0,0:0|0:0,0:0:0:0:
27,169,143988,5,0,3:0:0:0:
32,172,144075,1,0,3:0:0:0:
38,173,144162,2,0,B|111:194|168:125|168:125|134:123|97:100,1,209.000006378174,4|8,1:2|0:0,0:0:0:0:
118,294,144686,1,4,0:3:0:0:
173,37,144860,5,8,0:0:0:0:
238,313,145035,2,0,P|224:277|219:253,1,52.2500015945435,0|0,3:0|0:0,0:0:0:0:
281,0,145209,5,8,0:0:0:0:
341,340,145383,2,0,B|355:269|355:269|332:209|332:209|350:122,1,209.000006378174,4|0,1:2|1:0,0:0:0:0:
359,133,145819,1,0,1:0:0:0:
371,127,145907,1,4,0:3:0:0:
153,230,146081,5,0,1:0:0:0:
140,235,146168,1,0,1:0:0:0:
128,239,146255,1,4,0:3:0:0:
324,24,146430,5,0,1:0:0:0:
309,69,146517,1,0,1:0:0:0:
296,113,146604,1,4,0:3:0:0:
216,360,146779,5,0,1:0:0:0:
231,315,146866,1,0,1:0:0:0:
243,270,146953,2,0,P|282:262|325:255,1,66.4999979705811,12|0,0:0|0:0,0:0:0:0:
508,176,147128,6,0,B|423:189|381:126|381:126|408:121|454:96,1,199.499993911743,12|0,1:2|0:0,0:0:0:0:
253,27,147476,6,0,B|303:100|277:178|277:178|194:158,1,199.499993911743,8|0,0:0|0:0,0:0:0:0:
371,29,147825,6,0,P|415:19|464:16,1,66.4999979705811,8|0,0:0|0:0,0:0:0:0:
165,94,148000,1,8,0:3:0:0:
148,97,148087,1,8,0:3:0:0:
132,101,148174,1,4,0:3:0:0:
116,105,148261,1,4,0:3:0:0:
100,109,148348,1,4,1:2:0:0:
100,109,159511,6,0,P|114:195|125:233,1,104.500003189087,4|4,1:2|0:3,0:0:0:0:
280,30,159860,1,8,0:0:0:0:
362,179,160035,1,0,1:3:0:0:
326,195,160122,1,0,3:0:0:0:
288,194,160209,1,4,1:3:0:0:
253,176,160296,1,0,3:0:0:0:
230,146,160384,1,4,3:0:0:0:
162,7,160558,1,8,0:0:0:0:
410,27,160732,2,0,P|399:74|386:111,1,52.2500015945435,2|0,3:0|0:0,0:0:0:0:
461,207,160907,6,0,P|390:193|341:167,1,104.500003189087,4|0,0:3|3:0,0:0:0:0:
186,108,161256,1,8,0:0:0:0:
273,346,161430,1,0,1:0:0:0:
311,354,161517,1,0,3:0:0:0:
350,349,161604,1,4,1:3:0:0:
384,329,161692,1,0,3:0:0:0:
408,298,161779,1,4,1:3:0:0:
413,167,161953,2,0,L|362:181,1,52.2500015945435,8|0,0:0|0:0,0:0:0:0:
243,249,162128,2,0,L|193:264,1,52.2500015945435,8|0,0:3|0:0,0:0:0:0:
58,294,162302,5,4,1:2:0:0:
191,171,162477,1,4,0:3:0:0:
76,78,162651,1,8,0:0:0:0:
254,69,162825,5,0,3:0:0:0:
254,69,162913,1,0,3:0:0:0:
254,69,163000,1,4,1:2:0:0:
61,180,163174,1,4,0:3:0:0:
312,289,163349,1,8,0:0:0:0:
154,3,163523,6,0,B|93:67|127:154|127:154|178:108,1,209.000006378174,4|4,1:2|0:3,0:0:0:0:
292,68,164046,1,8,0:0:0:0:
31,286,164221,2,0,P|86:266|147:257,1,104.500003189087,4|0,1:2|0:0,0:0:0:0:
374,189,164570,2,0,L|308:171,1,52.2500015945435,8|0,1:3|0:0,0:0:0:0:
90,371,164744,1,8,0:0:0:0:
140,384,164831,1,8,0:3:0:0:
192,371,164918,1,4,0:3:0:0:
224,339,165006,1,4,0:3:0:0:
241,295,165093,6,0,L|220:177,1,104.500003189087,4|0,1:2|0:0,0:0:0:0:
183,45,165442,1,8,0:0:0:0:
353,205,165616,1,0,3:0:0:0:
353,205,165703,1,0,3:0:0:0:
353,205,165791,2,0,L|416:222,1,52.2500015945435,4|0,0:3|0:0,0:0:0:0:
124,191,165965,2,0,L|61:174,1,52.2500015945435,4|0,0:3|0:0,0:0:0:0:
245,331,166139,1,8,0:0:0:0:
199,54,166314,5,8,0:3:0:0:
199,54,166401,1,4,0:3:0:0:
199,54,166488,2,0,B|266:47|266:47|325:72|325:72|409:54,1,209.000006378174,4|8,1:2|0:0,0:0:0:0:
463,232,167011,2,0,L|413:217,1,52.2500015945435,4|0,1:3|0:0,0:0:0:0:
246,162,167186,1,0,3:0:0:0:
488,127,167360,5,0,1:0:0:0:
252,271,167535,1,8,0:0:0:0:
424,2,167709,6,0,L|407:51,1,52.2500015945435,2|0,3:0|0:0,0:0:0:0:
344,362,167883,2,0,P|359:299|378:241,1,104.500003189087,4|4,1:2|0:3,0:0:0:0:
245,78,168232,6,0,L|263:146,1,52.2500015945435,8|0,0:0|0:0,0:0:0:0:
481,292,168407,2,0,L|463:224,1,52.2500015945435,2|0,0:3|0:0,0:0:0:0:
151,208,168581,5,8,1:3:0:0:
170,214,168668,1,8,0:3:0:0:
190,219,168756,1,4,0:3:0:0:
512,151,168930,2,0,P|487:143|461:136,1,52.2500015945435,8|0,0:0|0:0,0:0:0:0:
173,96,169104,6,0,B|110:72|110:72|158:231,1,209.000006378174,12|0,1:2|1:2,0:2:0:0:
369,262,169628,5,12,0:0:0:0:
40,192,169802,1,4,1:3:0:0:
266,46,169977,5,12,0:0:0:0:
266,46,170064,1,8,0:0:0:0:
266,46,170151,1,4,1:3:0:0:
149,373,170325,1,12,0:0:0:0:
14,91,170500,5,8,0:0:0:0:
14,91,170587,1,8,0:0:0:0:
14,91,170674,2,0,P|24:150|45:203,1,104.500003189087,4|4,1:2|0:3,0:0:0:0:
315,136,171023,2,0,B|234:151|234:151|148:105,1,156.750004783631,8|0,0:0|0:0,0:0:0:0:
157,110,171372,2,0,L|177:50,1,52.2500015945435,4|0,1:3|3:0,0:0:0:0:
201,258,171546,2,0,L|181:318,1,52.2500015945435,4|0,1:3|3:0,0:0:0:0:
315,136,171721,1,8,0:0:0:0:
83,333,171895,6,0,P|133:317|185:307,1,104.500003189087,0|0,1:0|0:0,0:0:0:0:
409,362,172244,1,0,1:0:0:0:
216,209,172418,1,8,0:0:0:0:
327,384,172593,6,0,L|303:324,1,52.2500015945435,2|0,3:0|0:0,0:0:0:0:
240,120,172767,1,4,0:3:0:0:
219,352,172942,6,0,P|223:313|232:281,1,52.2500015945435,4|0,0:3|0:0,0:0:0:0:
311,61,173116,1,10,0:0:0:0:
365,55,173203,1,2,0:0:0:0:
414,76,173291,1,2,0:0:0:0:
442,117,173378,1,2,0:0:0:0:
454,170,173465,6,0,B|444:226|444:226|417:283,1,104.500003189087,4|0,1:2|0:0,0:0:0:0:
219,352,173814,1,8,0:0:0:0:
197,161,173988,1,0,3:0:0:0:
233,147,174075,1,0,3:0:0:0:
272,149,174163,1,4,1:3:0:0:
307,165,174250,1,0,3:0:0:0:
333,194,174337,1,4,1:3:0:0:
402,384,174511,1,8,0:0:0:0:
255,237,174686,6,0,B|237:184|244:118|244:118|214:162|153:177,1,185.249991519928,4|0,1:2|0:0,0:0:0:0:
193,175,175035,2,0,L|119:156,1,52.2500015945435,0|0,1:0|0:0,0:0:0:0:
350,74,175209,1,8,0:0:0:0:
51,283,175383,2,0,P|5:204|54:64,1,209.000006378174,0|8,1:0|0:0,0:0:0:0:
255,237,175907,1,8,0:0:0:0:
166,22,176081,2,0,L|150:97,1,52.2500015945435,10|0,0:3|3:0,0:0:0:0:
151,280,176256,6,0,P|162:330|181:379,1,104.500003189087,4|0,1:2|0:0,0:0:0:0:
302,150,176605,1,8,0:0:0:0:
266,290,176779,1,0,3:0:0:0:
266,290,176866,1,0,3:0:0:0:
266,290,176953,2,0,P|305:309|339:320,1,52.2500015945435,4|0,0:3|0:0,0:0:0:0:
441,166,177128,1,4,0:3:0:0:
205,185,177302,1,8,0:0:0:0:
409,367,177477,5,8,0:3:0:0:
409,367,177564,1,4,0:3:0:0:
409,367,177651,2,0,B|420:343|413:291|413:291|459:238|437:140,1,209.000006378174,2|8,1:3|0:0,0:0:0:0:
280,0,178174,2,0,L|295:81,1,52.2500015945435,2|0,3:0|0:0,0:0:0:0:
324,213,178349,1,4,0:3:0:0:
465,54,178523,1,0,1:0:0:0:
174,172,178698,1,8,0:0:0:0:
466,267,178872,5,0,3:0:0:0:
466,267,178959,1,0,3:0:0:0:
466,267,179046,2,0,P|454:205|438:158,1,104.500003189087,4|0,1:2|0:0,0:0:0:0:
227,14,179395,1,8,0:0:0:0:
172,202,179570,2,0,P|208:193|242:181,1,52.2500015945435,2|0,3:0|0:0,0:0:0:0:
366,71,179744,5,4,1:3:0:0:
242,331,179918,1,12,1:2:0:0:
366,71,180093,1,8,1:2:0:0:
9,120,180267,6,0,P|59:193|198:185,1,209.000006378174,4|0,1:2|0:0,0:0:0:0:
321,383,180791,1,8,0:0:0:0:
482,144,180965,2,0,B|363:120|363:120|388:165,1,156.750004783631,4|0,1:2|0:0,0:0:0:0:
417,232,181314,6,0,L|401:159,1,52.2500015945435,8|0,1:2|0:0,0:0:0:0:
262,25,181488,2,0,L|276:96,1,52.2500015945435,8|0,1:2|0:0,0:0:0:0:
348,352,181662,5,8,3:3:0:0:
348,352,181750,1,4,3:3:0:0:
348,352,181837,2,0,P|399:330|461:318,1,104.500003189087,4|0,1:2|0:0,0:0:0:0:
171,201,182186,2,0,P|107:177|36:165,1,104.500003189087,8|0,0:0|0:0,0:0:0:0:
301,120,182535,1,4,1:3:0:0:
220,316,182709,1,4,1:3:0:0:
310,97,182883,1,8,0:0:0:0:
104,362,183058,6,0,B|203:316|219:402|338:331,1,209.000006378174,4|4,1:2|1:3,0:0:0:0:
469,148,183581,1,8,0:0:0:0:
190,179,183755,6,0,P|225:188|271:203,1,52.2500015945435,4|4,1:3|1:3,0:0:0:0:
512,341,183930,1,8,1:2:0:0:
190,179,184104,2,0,B|159:120|166:56|166:56|198:74,1,156.750004783631,8|0,1:2|0:0,0:0:0:0:
282,93,184453,6,0,P|345:72|397:48,1,104.500003189087,4|0,1:2|0:0,0:0:0:0:
71,152,184802,2,0,B|47:216|33:273|33:273,1,104.500003189087,0|8,1:0|0:0,0:0:0:0:
265,333,185151,2,0,P|256:290|245:253,1,52.2500015945435,10|0,0:3|0:0,0:0:0:0:
190,179,185325,1,0,1:0:0:0:
119,383,185500,1,0,1:0:0:0:
295,171,185674,5,8,0:0:0:0:
7,263,185848,2,0,P|63:291|163:243,1,156.750004783631,4|0,1:2|0:0,0:0:0:0:
152,256,186197,2,0,P|200:268|280:288,1,104.500003189087,4|8,1:3|0:0,0:0:0:0:
459,380,186546,2,0,B|444:329|422:306|422:306|425:267|401:217,1,156.750004783631,4|0,1:2|0:0,0:0:0:0:
329,141,186895,2,0,L|313:213,1,52.2500015945435,0|0,1:0|0:0,0:0:0:0:
281,384,187069,1,8,0:0:0:0:
512,192,187244,5,8,0:3:0:0:
512,192,187331,1,4,0:3:0:0:
512,192,187418,2,0,P|449:170|399:145,1,104.500003189087,4|0,1:2|3:0,0:0:0:0:
410,146,187680,1,0,3:0:0:0:
406,138,187767,2,0,L|420:72,1,52.2500015945435,8|0,0:0|0:0,0:0:0:0:
303,293,187942,2,0,L|289:359,1,52.2500015945435,0|0,1:0|1:0,0:0:0:0:
228,51,188116,6,0,L|246:-31,1,52.2500015945435,8|8,0:3|0:3,0:0:0:0:
80,292,188290,2,0,L|62:374,1,52.2500015945435,4|4,0:3|0:3,0:0:0:0:
35,56,188465,5,8,0:0:0:0:
215,285,188639,2,0,B|257:202|240:121|240:121|166:159,1,199.499993911743,4|0,1:2|0:0,0:0:0:0:
126,188,188988,6,0,P|168:200|200:213,1,66.4999979705811,0|0,1:0|1:0,0:0:0:0:
362,332,189162,1,4,0:3:0:0:
273,77,189337,6,0,P|280:112|288:160,1,66.4999979705811,0|0,1:0|1:0,0:0:0:0:
235,361,189511,1,4,0:3:0:0:
435,181,189686,6,0,P|392:215|356:229,1,66.4999979705811,0|0,1:0|1:0,0:0:0:0:
107,280,189860,1,12,0:3:0:0:
334,0,190035,6,0,P|357:74|370:156,1,132.999995941162,4|0,1:2|0:0,0:0:0:0:
452,300,190296,1,0,0:0:0:0:
444,288,190384,1,0,1:0:0:0:
403,253,190471,1,0,1:0:0:0:
347,247,190558,1,8,1:2:0:0:
302,276,190645,1,0,3:0:0:0:
270,318,190732,1,0,1:0:0:0:
223,345,190820,1,0,1:0:0:0:
169,343,190907,1,8,1:2:0:0:
124,310,190994,1,8,3:2:0:0:
111,283,191081,6,0,L|193:263,1,66.4999979705811,8|8,0:3|0:3,0:0:0:0:
431,112,191255,2,0,L|349:132,1,66.4999979705811,4|4,0:3|0:3,0:0:0:0:
88,182,191430,6,0,P|169:153|248:239,1,199.499993911743,12|0,1:2|0:0,0:0:0:0:
338,371,191779,6,0,B|311:287|366:224|366:224|391:285,1,199.499993911743,12|0,1:2|0:0,0:0:0:0:
261,51,192128,6,0,P|272:82|282:113,1,66.4999979705811,12|0,0:0|3:0,0:0:0:0:
140,316,192302,6,0,L|149:238,1,47.5,8|0,0:2|0:2,0:2:0:0:
