osu file format v14

[General]
AudioFilename: air raid.mp3
AudioLeadIn: 0
PreviewTime: 186277
Countdown: 0
SampleSet: Soft
StackLeniency: 0.7
Mode: 3
LetterboxInBreaks: 0
SpecialStyle: 0
WidescreenStoryboard: 1

[Editor]
Bookmarks: 237877,282277,297637
DistanceSpacing: 0.8
BeatDivisor: 8
GridSize: 8
TimelineZoom: 2.100001

[Metadata]
Title:Air Raid
TitleUnicode:Air Raid
Artist:Yakou
ArtistUnicode:夜孔
Creator:-Kamikaze-
Version:Nuclear
Source:
Tags:JAPAN NATIONAL DAY COMPILATION speedcore maki chordstreams Radio Active Hardcore RAHC021
BeatmapID:1024723
BeatmapSetID:479940

[Difficulty]
HPDrainRate:7.5
CircleSize:7
OverallDifficulty:9
ApproachRate:5
SliderMultiplier:1.4
SliderTickRate:1

[Events]
//Background and Video events
0,0,"AIRRAID.jpg",0,0
//Break Periods
//Storyboard Layer 0 (Background)
//Storyboard Layer 1 (Fail)
//Storyboard Layer 2 (Pass)
//Storyboard Layer 3 (Foreground)
//Storyboard Sound Samples

[TimingPoints]
37,240,4,2,1,50,1,0
46117,-200,4,2,1,50,0,0
46837,-71.4285714285714,4,2,1,50,0,0
47077,-200,4,2,1,50,0,0
47797,-71.4285714285714,4,2,1,50,0,0
48037,-200,4,2,1,50,0,0
48757,-71.4285714285714,4,2,1,50,0,0
48997,-200,4,2,1,50,0,0
49717,-71.4285714285714,4,2,1,50,0,0
49957,-200,4,2,1,50,0,0
50677,-71.4285714285714,4,2,1,50,0,0
50917,-200,4,2,1,50,0,0
51637,-71.4285714285714,4,2,1,50,0,0
51877,-200,4,2,1,50,0,0
52597,-71.4285714285714,4,2,1,50,0,0
52837,-200,4,2,1,50,0,0
53557,-71.4285714285714,4,2,1,50,0,0
53797,-133.333333333333,4,2,1,50,0,0
54037,-80,4,2,1,50,0,0
54277,-133.333333333333,4,2,1,50,0,0
54517,-80,4,2,1,50,0,0
54757,-133.333333333333,4,2,1,50,0,0
54997,-80,4,2,1,50,0,0
55237,-133.333333333333,4,2,1,50,0,0
55477,-80,4,2,1,50,0,0
55717,-133.333333333333,4,2,1,50,0,0
55957,-80,4,2,1,50,0,0
56197,-133.333333333333,4,2,1,50,0,0
56437,-80,4,2,1,50,0,0
56677,-133.333333333333,4,2,1,50,0,0
56917,-80,4,2,1,50,0,0
57157,-133.333333333333,4,2,1,50,0,0
57397,-80,4,2,1,50,0,0
57637,-111.111111111111,4,2,1,50,0,0
57757,-90.9090909090909,4,2,1,50,0,0
57877,-111.111111111111,4,2,1,50,0,0
57997,-90.9090909090909,4,2,1,50,0,0
58117,-111.111111111111,4,2,1,50,0,0
58237,-90.9090909090909,4,2,1,50,0,0
58357,-111.111111111111,4,2,1,50,0,0
58477,-90.9090909090909,4,2,1,50,0,0
58597,-111.111111111111,4,2,1,50,0,0
58717,-90.9090909090909,4,2,1,50,0,0
58837,-111.111111111111,4,2,1,50,0,0
58957,-90.9090909090909,4,2,1,50,0,0
59077,-111.111111111111,4,2,1,50,0,0
59197,-90.9090909090909,4,2,1,50,0,0
59317,-111.111111111111,4,2,1,50,0,0
59437,-90.9090909090909,4,2,1,50,0,0
59557,-100,4,2,1,50,0,0
63397,-100,4,2,1,50,0,1
124837,-200,4,2,1,50,0,0
186277,-100,4,2,1,50,0,0
190117,-100,4,2,1,50,0,1
251557,-133.333333333333,4,2,1,50,0,0
266197,-100,4,2,1,50,0,0
266917,-100,4,2,1,50,0,1
312997,-100,4,2,1,50,0,0

[HitObjects]
256,192,37,5,0,0:0:0:0:
402,192,37,1,0,0:0:0:0:
256,192,997,1,0,0:0:0:0:
329,192,1477,1,0,0:0:0:0:
182,192,1477,1,0,0:0:0:0:
109,192,1957,1,0,0:0:0:0:
182,192,2917,1,0,0:0:0:0:
402,192,3877,1,0,0:0:0:0:
256,192,3877,1,0,0:0:0:0:
256,192,4837,1,0,0:0:0:0:
36,192,5797,1,0,0:0:0:0:
109,192,6757,1,0,0:0:0:0:
475,192,7717,1,0,0:0:0:0:
256,192,7717,1,0,0:0:0:0:
256,192,8677,1,0,0:0:0:0:
182,192,9637,1,0,0:0:0:0:
256,192,10597,1,0,0:0:0:0:
109,192,11557,1,0,0:0:0:0:
182,192,11557,1,0,0:0:0:0:
109,192,12517,1,0,0:0:0:0:
256,192,12997,1,0,0:0:0:0:
402,192,13477,1,0,0:0:0:0:
329,192,14437,1,0,0:0:0:0:
182,192,15397,1,0,0:0:0:0:
36,192,15397,1,0,0:0:0:0:
182,192,16357,1,0,0:0:0:0:
402,192,17317,1,0,0:0:0:0:
475,192,18277,1,0,0:0:0:0:
36,192,19237,1,0,0:0:0:0:
329,192,19237,1,0,0:0:0:0:
36,192,20197,1,0,0:0:0:0:
402,192,21157,1,0,0:0:0:0:
475,192,22117,1,0,0:0:0:0:
182,192,23077,1,0,0:0:0:0:
329,192,23077,1,0,0:0:0:0:
182,192,24037,1,0,0:0:0:0:
256,192,24037,128,0,30757:0:0:0:0:
109,192,24997,1,0,0:0:0:0:
402,192,25957,1,0,0:0:0:0:
329,192,26917,1,0,0:0:0:0:
36,192,26917,1,0,0:0:0:0:
329,192,27877,1,0,0:0:0:0:
109,192,28837,1,0,0:0:0:0:
182,192,29797,1,0,0:0:0:0:
329,192,30277,128,0,30757:0:0:0:0:
36,192,30757,1,14,0:0:0:0:
475,192,30757,1,14,0:0:0:0:
182,192,30757,1,14,0:0:0:0:
402,192,30757,1,14,0:0:0:0:
109,192,30877,1,0,0:0:0:0:
402,192,30997,1,0,0:0:0:0:
329,192,31117,1,0,0:0:0:0:
182,192,31237,1,0,0:0:0:0:
256,192,31357,1,0,0:0:0:0:
36,192,31477,1,0,0:0:0:0:
402,192,31597,1,0,0:0:0:0:
182,192,31717,1,0,0:0:0:0:
475,192,31717,1,0,0:0:0:0:
182,192,31837,1,0,0:0:0:0:
402,192,31837,1,0,0:0:0:0:
182,192,31957,1,0,0:0:0:0:
329,192,31957,1,0,0:0:0:0:
182,192,32077,1,0,0:0:0:0:
109,192,32077,1,0,0:0:0:0:
256,192,32197,1,0,0:0:0:0:
36,192,32197,1,0,0:0:0:0:
329,192,32257,1,0,0:0:0:0:
402,192,32317,1,0,0:0:0:0:
475,192,32377,1,0,0:0:0:0:
36,192,32437,1,0,0:0:0:0:
109,192,32497,1,0,0:0:0:0:
182,192,32557,1,0,0:0:0:0:
256,192,32617,1,0,0:0:0:0:
402,192,32677,1,0,0:0:0:0:
109,192,32797,1,0,0:0:0:0:
475,192,32917,1,0,0:0:0:0:
36,192,33037,1,0,0:0:0:0:
402,192,33157,1,0,0:0:0:0:
182,192,33277,1,0,0:0:0:0:
402,192,33397,1,0,0:0:0:0:
182,192,33517,1,0,0:0:0:0:
329,192,33637,1,0,0:0:0:0:
109,192,33697,1,0,0:0:0:0:
402,192,33757,1,0,0:0:0:0:
475,192,33877,1,0,0:0:0:0:
256,192,33997,1,0,0:0:0:0:
475,192,34117,1,0,0:0:0:0:
36,192,34177,1,0,0:0:0:0:
475,192,34237,1,0,0:0:0:0:
36,192,34297,1,0,0:0:0:0:
329,192,34357,1,8,0:0:0:0:
402,192,34357,1,0,0:0:0:0:
182,192,34417,1,8,0:0:0:0:
109,192,34417,1,0,0:0:0:0:
329,192,34477,1,8,0:0:0:0:
402,192,34477,1,0,0:0:0:0:
109,192,34537,1,8,0:0:0:0:
182,192,34537,1,0,0:0:0:0:
402,192,34597,1,6,0:0:0:0:
475,192,34597,1,6,0:0:0:0:
36,192,34597,1,0,0:0:0:0:
329,192,34597,1,0,0:0:0:0:
109,192,34717,1,0,0:0:0:0:
256,192,34837,1,0,0:0:0:0:
402,192,34957,1,0,0:0:0:0:
36,192,34957,1,0,0:0:0:0:
182,192,35077,1,0,0:0:0:0:
329,192,35197,1,0,0:0:0:0:
109,192,35197,1,0,0:0:0:0:
475,192,35317,1,0,0:0:0:0:
256,192,35317,1,0,0:0:0:0:
329,192,35437,1,0,0:0:0:0:
109,192,35437,1,0,0:0:0:0:
182,192,35557,1,8,0:0:0:0:
256,192,35557,1,0,0:0:0:0:
475,192,35557,1,0,0:0:0:0:
109,192,35677,1,8,0:0:0:0:
36,192,35677,1,0,0:0:0:0:
402,192,35677,1,0,0:0:0:0:
329,192,35797,1,8,0:0:0:0:
182,192,35797,1,0,0:0:0:0:
475,192,35797,1,0,0:0:0:0:
36,192,35917,1,8,0:0:0:0:
256,192,35917,1,0,0:0:0:0:
402,192,35917,1,0,0:0:0:0:
475,192,36037,1,8,0:0:0:0:
182,192,36037,1,0,0:0:0:0:
329,192,36037,1,0,0:0:0:0:
109,192,36157,1,8,0:0:0:0:
402,192,36157,1,0,0:0:0:0:
36,192,36157,1,0,0:0:0:0:
182,192,36277,1,8,0:0:0:0:
329,192,36277,1,0,0:0:0:0:
109,192,36397,1,8,0:0:0:0:
256,192,36397,1,0,0:0:0:0:
36,192,36517,1,0,0:0:0:0:
475,192,36517,1,0,0:0:0:0:
256,192,36637,1,0,0:0:0:0:
402,192,36757,1,0,0:0:0:0:
182,192,36757,1,0,0:0:0:0:
109,192,36877,1,0,0:0:0:0:
329,192,36997,1,0,0:0:0:0:
182,192,37117,1,0,0:0:0:0:
475,192,37117,1,0,0:0:0:0:
36,192,37237,1,0,0:0:0:0:
329,192,37357,1,0,0:0:0:0:
182,192,37357,1,0,0:0:0:0:
475,192,37477,1,0,0:0:0:0:
109,192,37597,1,0,0:0:0:0:
256,192,37657,1,0,0:0:0:0:
402,192,37717,1,0,0:0:0:0:
475,192,37717,1,0,0:0:0:0:
182,192,37837,1,0,0:0:0:0:
36,192,37837,1,0,0:0:0:0:
329,192,37957,1,0,0:0:0:0:
475,192,37957,1,0,0:0:0:0:
109,192,37997,1,0,0:0:0:0:
182,192,38037,1,0,0:0:0:0:
256,192,38077,1,0,0:0:0:0:
329,192,38117,1,0,0:0:0:0:
402,192,38157,1,0,0:0:0:0:
475,192,38197,1,0,0:0:0:0:
36,192,38237,1,0,0:0:0:0:
109,192,38277,1,0,0:0:0:0:
182,192,38317,1,0,0:0:0:0:
256,192,38357,1,0,0:0:0:0:
329,192,38397,1,0,0:0:0:0:
36,192,38437,1,6,0:0:0:0:
475,192,38437,1,6,0:0:0:0:
109,192,38437,1,6,0:0:0:0:
402,192,38437,1,0,0:0:0:0:
182,192,38557,1,0,0:0:0:0:
402,192,38677,1,0,0:0:0:0:
109,192,38797,1,0,0:0:0:0:
329,192,38917,1,0,0:0:0:0:
36,192,39037,1,0,0:0:0:0:
109,192,39037,1,0,0:0:0:0:
402,192,39157,1,0,0:0:0:0:
256,192,39277,1,0,0:0:0:0:
182,192,39277,1,0,0:0:0:0:
475,192,39397,1,0,0:0:0:0:
402,192,39457,1,0,0:0:0:0:
329,192,39517,1,0,0:0:0:0:
256,192,39577,1,0,0:0:0:0:
182,192,39637,1,0,0:0:0:0:
109,192,39697,1,0,0:0:0:0:
36,192,39757,1,0,0:0:0:0:
475,192,39817,1,0,0:0:0:0:
402,192,39877,1,0,0:0:0:0:
182,192,39937,1,0,0:0:0:0:
256,192,39967,1,0,0:0:0:0:
329,192,39997,1,0,0:0:0:0:
402,192,40027,1,0,0:0:0:0:
475,192,40057,1,0,0:0:0:0:
36,192,40087,1,0,0:0:0:0:
109,192,40117,1,0,0:0:0:0:
182,192,40147,1,0,0:0:0:0:
256,192,40177,1,0,0:0:0:0:
329,192,40207,1,0,0:0:0:0:
402,192,40237,1,0,0:0:0:0:
475,192,40267,1,0,0:0:0:0:
36,192,40297,1,0,0:0:0:0:
109,192,40327,1,0,0:0:0:0:
256,192,40357,1,0,0:0:0:0:
182,192,40357,1,0,0:0:0:0:
329,192,40597,1,0,0:0:0:0:
256,192,40717,1,0,0:0:0:0:
329,192,40837,1,0,0:0:0:0:
109,192,40837,1,0,0:0:0:0:
329,192,40957,1,0,0:0:0:0:
182,192,40957,1,0,0:0:0:0:
329,192,41077,1,0,0:0:0:0:
109,192,41077,1,0,0:0:0:0:
329,192,41197,1,0,0:0:0:0:
182,192,41197,1,0,0:0:0:0:
475,192,41317,1,8,0:0:0:0:
256,192,41317,1,8,0:0:0:0:
36,192,41317,1,0,0:0:0:0:
329,192,41437,1,8,0:0:0:0:
402,192,41437,1,0,0:0:0:0:
109,192,41437,1,0,0:0:0:0:
182,192,41557,1,8,0:0:0:0:
475,192,41557,1,8,0:0:0:0:
36,192,41557,1,0,0:0:0:0:
256,192,41677,1,8,0:0:0:0:
402,192,41677,1,0,0:0:0:0:
109,192,41677,1,0,0:0:0:0:
329,192,41797,1,8,0:0:0:0:
475,192,41797,1,8,0:0:0:0:
182,192,41797,1,0,0:0:0:0:
402,192,41917,1,8,0:0:0:0:
36,192,41917,1,0,0:0:0:0:
256,192,41917,1,0,0:0:0:0:
329,192,42037,1,8,0:0:0:0:
182,192,42037,1,8,0:0:0:0:
109,192,42037,1,0,0:0:0:0:
36,192,42157,1,8,0:0:0:0:
475,192,42157,1,0,0:0:0:0:
256,192,42157,1,0,0:0:0:0:
109,192,42277,1,6,0:0:0:0:
329,192,42277,1,6,0:0:0:0:
182,192,42277,1,6,0:0:0:0:
402,192,42277,1,0,0:0:0:0:
402,192,42517,1,0,0:0:0:0:
329,192,42577,1,0,0:0:0:0:
256,192,42637,1,0,0:0:0:0:
182,192,42697,1,0,0:0:0:0:
109,192,42757,1,0,0:0:0:0:
36,192,42757,1,0,0:0:0:0:
329,192,42877,1,0,0:0:0:0:
256,192,42877,1,0,0:0:0:0:
109,192,42997,1,0,0:0:0:0:
182,192,42997,1,0,0:0:0:0:
329,192,43117,1,0,0:0:0:0:
402,192,43117,1,0,0:0:0:0:
475,192,43237,1,0,0:0:0:0:
402,192,43297,1,0,0:0:0:0:
329,192,43357,1,0,0:0:0:0:
256,192,43417,1,0,0:0:0:0:
36,192,43477,1,0,0:0:0:0:
182,192,43477,1,0,0:0:0:0:
475,192,43597,1,0,0:0:0:0:
329,192,43597,1,0,0:0:0:0:
256,192,43657,1,0,0:0:0:0:
182,192,43717,1,0,0:0:0:0:
109,192,43777,1,0,0:0:0:0:
36,192,43837,1,0,0:0:0:0:
402,192,43837,1,0,0:0:0:0:
329,192,44077,1,0,0:0:0:0:
329,192,44197,1,0,0:0:0:0:
36,192,44317,1,8,0:0:0:0:
182,192,44317,1,0,0:0:0:0:
109,192,44557,1,8,0:0:0:0:
256,192,44557,1,0,0:0:0:0:
402,192,44797,1,0,0:0:0:0:
329,192,44797,1,0,0:0:0:0:
182,192,44917,1,0,0:0:0:0:
329,192,45037,1,8,0:0:0:0:
109,192,45037,1,0,0:0:0:0:
182,192,45157,1,8,0:0:0:0:
402,192,45157,1,8,0:0:0:0:
36,192,45157,1,0,0:0:0:0:
109,192,45397,1,8,0:0:0:0:
256,192,45397,1,8,0:0:0:0:
475,192,45397,1,0,0:0:0:0:
36,192,45637,1,8,0:0:0:0:
182,192,45637,1,8,0:0:0:0:
329,192,45637,1,0,0:0:0:0:
109,192,45877,1,8,0:0:0:0:
256,192,45877,1,8,0:0:0:0:
402,192,45877,1,0,0:0:0:0:
475,192,45877,1,0,0:0:0:0:
36,192,46117,1,6,0:0:0:0:
182,192,46117,1,6,0:0:0:0:
329,192,46117,1,6,0:0:0:0:
475,192,46117,1,0,0:0:0:0:
256,192,46117,1,0,0:0:0:0:
36,192,47077,1,6,0:0:0:0:
109,192,47077,1,6,0:0:0:0:
329,192,47077,1,6,0:0:0:0:
402,192,47077,1,0,0:0:0:0:
475,192,47077,1,0,0:0:0:0:
36,192,48037,1,6,0:0:0:0:
182,192,48037,1,6,0:0:0:0:
329,192,48037,1,6,0:0:0:0:
402,192,48037,1,0,0:0:0:0:
256,192,48037,1,0,0:0:0:0:
36,192,48997,1,6,0:0:0:0:
109,192,48997,1,6,0:0:0:0:
182,192,48997,1,6,0:0:0:0:
329,192,48997,1,0,0:0:0:0:
475,192,48997,1,0,0:0:0:0:
36,192,49957,1,6,0:0:0:0:
182,192,49957,1,6,0:0:0:0:
256,192,49957,1,0,0:0:0:0:
402,192,49957,1,0,0:0:0:0:
475,192,49957,1,0,0:0:0:0:
109,192,50917,1,14,0:0:0:0:
182,192,50917,1,14,0:0:0:0:
329,192,50917,1,14,0:0:0:0:
402,192,50917,1,0,0:0:0:0:
256,192,50917,1,0,0:0:0:0:
36,192,51877,1,6,0:0:0:0:
182,192,51877,1,6,0:0:0:0:
475,192,51877,1,6,0:0:0:0:
329,192,51877,1,0,0:0:0:0:
256,192,51877,1,0,0:0:0:0:
109,192,52837,1,6,0:0:0:0:
402,192,52837,1,6,0:0:0:0:
475,192,52837,1,6,0:0:0:0:
36,192,52837,1,0,0:0:0:0:
329,192,52837,1,0,0:0:0:0:
36,192,53797,1,6,0:0:0:0:
182,192,53797,1,6,0:0:0:0:
329,192,53797,1,6,0:0:0:0:
402,192,53797,1,0,0:0:0:0:
475,192,53797,1,0,0:0:0:0:
109,192,54277,1,6,0:0:0:0:
256,192,54277,1,6,0:0:0:0:
402,192,54277,1,6,0:0:0:0:
475,192,54277,1,0,0:0:0:0:
36,192,54277,1,0,0:0:0:0:
36,192,54757,1,6,0:0:0:0:
109,192,54757,1,6,0:0:0:0:
182,192,54757,1,6,0:0:0:0:
329,192,54757,1,0,0:0:0:0:
475,192,54757,1,0,0:0:0:0:
402,192,55237,1,6,0:0:0:0:
256,192,55237,1,6,0:0:0:0:
182,192,55237,1,6,0:0:0:0:
109,192,55237,1,0,0:0:0:0:
36,192,55237,1,0,0:0:0:0:
475,192,55717,1,6,0:0:0:0:
402,192,55717,1,6,0:0:0:0:
256,192,55717,1,6,0:0:0:0:
109,192,55717,1,0,0:0:0:0:
36,192,55717,1,0,0:0:0:0:
36,192,56197,1,6,0:0:0:0:
182,192,56197,1,6,0:0:0:0:
329,192,56197,1,6,0:0:0:0:
475,192,56197,1,0,0:0:0:0:
402,192,56197,1,0,0:0:0:0:
36,192,56677,1,6,0:0:0:0:
109,192,56677,1,6,0:0:0:0:
329,192,56677,1,6,0:0:0:0:
402,192,56677,1,0,0:0:0:0:
475,192,56677,1,0,0:0:0:0:
256,192,56677,1,0,0:0:0:0:
36,192,57157,1,6,0:0:0:0:
182,192,57157,1,6,0:0:0:0:
329,192,57157,1,6,0:0:0:0:
402,192,57157,1,0,0:0:0:0:
475,192,57157,1,0,0:0:0:0:
36,192,57637,1,6,0:0:0:0:
109,192,57637,1,6,0:0:0:0:
182,192,57637,1,6,0:0:0:0:
475,192,57637,1,0,0:0:0:0:
402,192,57637,1,0,0:0:0:0:
36,192,57877,1,6,0:0:0:0:
109,192,57877,1,6,0:0:0:0:
475,192,57877,1,6,0:0:0:0:
402,192,57877,1,0,0:0:0:0:
329,192,57877,1,0,0:0:0:0:
36,192,58117,1,6,0:0:0:0:
256,192,58117,1,6,0:0:0:0:
329,192,58117,1,6,0:0:0:0:
402,192,58117,1,0,0:0:0:0:
475,192,58117,1,0,0:0:0:0:
182,192,58357,1,6,0:0:0:0:
256,192,58357,1,6,0:0:0:0:
329,192,58357,1,6,0:0:0:0:
402,192,58357,1,0,0:0:0:0:
475,192,58357,1,0,0:0:0:0:
109,192,58597,1,6,0:0:0:0:
182,192,58597,1,6,0:0:0:0:
256,192,58597,1,6,0:0:0:0:
329,192,58597,1,0,0:0:0:0:
402,192,58597,1,0,0:0:0:0:
36,192,58837,1,6,0:0:0:0:
109,192,58837,1,6,0:0:0:0:
182,192,58837,1,6,0:0:0:0:
256,192,58837,1,0,0:0:0:0:
329,192,58837,1,0,0:0:0:0:
36,192,59077,1,6,0:0:0:0:
109,192,59077,1,6,0:0:0:0:
182,192,59077,1,6,0:0:0:0:
256,192,59077,1,0,0:0:0:0:
475,192,59077,1,0,0:0:0:0:
182,192,59317,1,6,0:0:0:0:
109,192,59317,1,6,0:0:0:0:
36,192,59317,1,6,0:0:0:0:
402,192,59317,1,0,0:0:0:0:
475,192,59317,1,0,0:0:0:0:
256,192,59557,1,6,0:0:0:0:
109,192,59557,1,6,0:0:0:0:
402,192,59557,1,0,0:0:0:0:
475,192,59557,1,0,0:0:0:0:
329,192,59677,1,6,0:0:0:0:
475,192,59677,1,6,0:0:0:0:
182,192,59677,1,0,0:0:0:0:
36,192,59677,1,0,0:0:0:0:
36,192,59797,1,6,0:0:0:0:
109,192,59797,1,6,0:0:0:0:
256,192,59797,1,0,0:0:0:0:
402,192,59797,1,0,0:0:0:0:
109,192,59917,1,6,0:0:0:0:
182,192,59917,1,6,0:0:0:0:
329,192,59917,1,0,0:0:0:0:
475,192,59917,1,0,0:0:0:0:
475,192,60037,1,6,0:0:0:0:
402,192,60037,1,6,0:0:0:0:
256,192,60037,1,0,0:0:0:0:
36,192,60037,1,0,0:0:0:0:
329,192,60157,1,6,0:0:0:0:
402,192,60157,1,6,0:0:0:0:
36,192,60157,1,0,0:0:0:0:
182,192,60157,1,0,0:0:0:0:
329,192,60277,1,6,0:0:0:0:
109,192,60277,1,6,0:0:0:0:
256,192,60277,1,0,0:0:0:0:
475,192,60277,1,0,0:0:0:0:
36,192,60397,1,6,0:0:0:0:
182,192,60397,1,6,0:0:0:0:
256,192,60397,1,0,0:0:0:0:
402,192,60397,1,0,0:0:0:0:
182,192,60517,1,14,0:0:0:0:
109,192,60517,1,14,0:0:0:0:
36,192,60517,1,0,0:0:0:0:
329,192,60577,1,14,0:0:0:0:
402,192,60577,1,14,0:0:0:0:
475,192,60577,1,0,0:0:0:0:
36,192,60637,1,14,0:0:0:0:
109,192,60637,1,14,0:0:0:0:
182,192,60637,1,0,0:0:0:0:
329,192,60697,1,14,0:0:0:0:
402,192,60697,1,14,0:0:0:0:
475,192,60697,1,0,0:0:0:0:
182,192,60757,1,14,0:0:0:0:
109,192,60757,1,14,0:0:0:0:
36,192,60757,1,0,0:0:0:0:
475,192,60817,1,14,0:0:0:0:
402,192,60817,1,14,0:0:0:0:
329,192,60817,1,0,0:0:0:0:
36,192,60877,1,14,0:0:0:0:
182,192,60877,1,14,0:0:0:0:
109,192,60877,1,0,0:0:0:0:
475,192,60937,1,14,0:0:0:0:
402,192,60937,1,14,0:0:0:0:
329,192,60937,1,0,0:0:0:0:
36,192,60997,1,14,0:0:0:0:
109,192,60997,1,14,0:0:0:0:
182,192,60997,1,0,0:0:0:0:
329,192,61057,1,14,0:0:0:0:
402,192,61057,1,14,0:0:0:0:
475,192,61057,1,0,0:0:0:0:
109,192,61117,1,14,0:0:0:0:
182,192,61117,1,14,0:0:0:0:
36,192,61117,1,0,0:0:0:0:
329,192,61177,1,14,0:0:0:0:
402,192,61177,1,14,0:0:0:0:
475,192,61177,1,0,0:0:0:0:
182,192,61237,1,14,0:0:0:0:
109,192,61237,1,14,0:0:0:0:
36,192,61237,1,0,0:0:0:0:
475,192,61297,1,14,0:0:0:0:
402,192,61297,1,14,0:0:0:0:
329,192,61297,1,0,0:0:0:0:
36,192,61357,1,14,0:0:0:0:
182,192,61357,1,14,0:0:0:0:
109,192,61357,1,0,0:0:0:0:
475,192,61417,1,14,0:0:0:0:
402,192,61417,1,14,0:0:0:0:
329,192,61417,1,0,0:0:0:0:
182,192,61477,1,6,0:0:0:0:
109,192,61477,1,0,0:0:0:0:
36,192,61477,1,14,0:0:0:0:
256,192,62437,128,0,63397:0:0:0:0:
36,192,63397,1,14,0:0:0:0:
109,192,63397,1,14,0:0:0:0:
475,192,63397,1,14,0:0:0:0:
402,192,63397,1,14,0:0:0:0:
329,192,63397,1,0,0:0:0:0:
182,192,63517,1,2,0:0:0:0:
109,192,63517,1,2,0:0:0:0:
329,192,63517,1,0,0:0:0:0:
256,192,63517,1,0,0:0:0:0:
475,192,63637,1,2,0:0:0:0:
36,192,63637,1,2,0:0:0:0:
402,192,63637,1,0,0:0:0:0:
182,192,63637,1,0,0:0:0:0:
36,192,63757,1,2,0:0:0:0:
402,192,63757,1,2,0:0:0:0:
256,192,63757,1,0,0:0:0:0:
109,192,63757,1,0,0:0:0:0:
329,192,63877,1,2,0:0:0:0:
475,192,63877,1,2,0:0:0:0:
109,192,63877,1,0,0:0:0:0:
182,192,63877,1,0,0:0:0:0:
182,192,63997,1,2,0:0:0:0:
256,192,63997,1,2,0:0:0:0:
329,192,63997,1,0,0:0:0:0:
402,192,63997,1,0,0:0:0:0:
402,192,64117,1,2,0:0:0:0:
256,192,64117,1,2,0:0:0:0:
36,192,64117,1,0,0:0:0:0:
109,192,64117,1,0,0:0:0:0:
182,192,64237,1,2,0:0:0:0:
475,192,64237,1,2,0:0:0:0:
329,192,64237,1,0,0:0:0:0:
36,192,64237,1,0,0:0:0:0:
109,192,64357,1,2,0:0:0:0:
182,192,64357,1,2,0:0:0:0:
402,192,64357,1,0,0:0:0:0:
475,192,64357,1,0,0:0:0:0:
256,192,64417,1,0,0:0:0:0:
329,192,64477,1,2,0:0:0:0:
109,192,64477,1,2,0:0:0:0:
36,192,64477,1,0,0:0:0:0:
402,192,64537,1,0,0:0:0:0:
475,192,64597,1,2,0:0:0:0:
182,192,64597,1,2,0:0:0:0:
256,192,64597,1,0,0:0:0:0:
36,192,64657,1,0,0:0:0:0:
109,192,64717,1,2,0:0:0:0:
329,192,64717,1,2,0:0:0:0:
402,192,64717,1,0,0:0:0:0:
182,192,64777,1,0,0:0:0:0:
256,192,64837,1,2,0:0:0:0:
36,192,64837,1,2,0:0:0:0:
475,192,64867,1,0,0:0:0:0:
402,192,64897,1,0,0:0:0:0:
329,192,64927,1,0,0:0:0:0:
256,192,64957,1,2,0:0:0:0:
182,192,64987,1,0,0:0:0:0:
109,192,65017,1,0,0:0:0:0:
36,192,65047,1,0,0:0:0:0:
475,192,65077,1,2,0:0:0:0:
402,192,65107,1,0,0:0:0:0:
329,192,65137,1,0,0:0:0:0:
256,192,65167,1,0,0:0:0:0:
182,192,65197,1,2,0:0:0:0:
109,192,65227,1,0,0:0:0:0:
36,192,65257,1,0,0:0:0:0:
475,192,65317,1,2,0:0:0:0:
329,192,65317,1,2,0:0:0:0:
256,192,65317,1,0,0:0:0:0:
402,192,65317,1,0,0:0:0:0:
182,192,65437,1,2,0:0:0:0:
109,192,65437,1,2,0:0:0:0:
329,192,65437,1,0,0:0:0:0:
36,192,65437,1,0,0:0:0:0:
256,192,65557,1,2,0:0:0:0:
475,192,65557,1,2,0:0:0:0:
402,192,65557,1,0,0:0:0:0:
182,192,65557,1,0,0:0:0:0:
109,192,65677,1,2,0:0:0:0:
402,192,65677,1,2,0:0:0:0:
36,192,65677,1,0,0:0:0:0:
329,192,65677,1,0,0:0:0:0:
36,192,65797,1,2,0:0:0:0:
182,192,65797,1,2,0:0:0:0:
329,192,65797,1,0,0:0:0:0:
256,192,65797,1,0,0:0:0:0:
109,192,65917,1,2,0:0:0:0:
182,192,65917,1,2,0:0:0:0:
475,192,65917,1,0,0:0:0:0:
256,192,65917,1,0,0:0:0:0:
329,192,66037,1,2,0:0:0:0:
402,192,66037,1,2,0:0:0:0:
475,192,66037,1,0,0:0:0:0:
36,192,66037,1,0,0:0:0:0:
329,192,66157,1,2,0:0:0:0:
402,192,66157,1,2,0:0:0:0:
109,192,66157,1,0,0:0:0:0:
256,192,66157,1,0,0:0:0:0:
182,192,66277,1,2,0:0:0:0:
109,192,66277,1,2,0:0:0:0:
475,192,66277,1,0,0:0:0:0:
256,192,66277,1,0,0:0:0:0:
182,192,66397,1,2,0:0:0:0:
402,192,66397,1,2,0:0:0:0:
36,192,66397,1,0,0:0:0:0:
329,192,66397,1,0,0:0:0:0:
256,192,66517,1,2,0:0:0:0:
475,192,66517,1,2,0:0:0:0:
329,192,66517,1,0,0:0:0:0:
109,192,66517,1,0,0:0:0:0:
182,192,66637,1,2,0:0:0:0:
256,192,66637,1,2,0:0:0:0:
402,192,66637,1,0,0:0:0:0:
36,192,66637,1,2,0:0:0:0:
109,192,66757,1,0,0:0:0:0:
475,192,66757,1,10,0:0:0:0:
329,192,66757,1,0,0:0:0:0:
402,192,66757,1,0,0:0:0:0:
36,192,66877,1,8,0:0:0:0:
182,192,66877,1,0,0:0:0:0:
329,192,66877,1,0,0:0:0:0:
475,192,66877,1,0,0:0:0:0:
109,192,66937,1,8,0:0:0:0:
256,192,66937,1,0,0:0:0:0:
402,192,66937,1,0,0:0:0:0:
36,192,66997,1,8,0:0:0:0:
182,192,66997,1,0,0:0:0:0:
329,192,66997,1,0,0:0:0:0:
475,192,66997,1,0,0:0:0:0:
36,192,67117,1,10,0:0:0:0:
182,192,67117,1,2,0:0:0:0:
329,192,67117,1,0,0:0:0:0:
475,192,67117,1,0,0:0:0:0:
109,192,67237,1,2,0:0:0:0:
256,192,67237,1,2,0:0:0:0:
402,192,67237,1,0,0:0:0:0:
182,192,67237,1,0,0:0:0:0:
36,192,67357,1,2,0:0:0:0:
109,192,67357,1,2,0:0:0:0:
475,192,67357,1,0,0:0:0:0:
329,192,67357,1,0,0:0:0:0:
475,192,67477,1,2,0:0:0:0:
402,192,67477,1,2,0:0:0:0:
182,192,67477,1,0,0:0:0:0:
256,192,67477,1,0,0:0:0:0:
36,192,67597,1,2,0:0:0:0:
329,192,67597,1,2,0:0:0:0:
109,192,67597,1,0,0:0:0:0:
182,192,67597,1,0,0:0:0:0:
475,192,67717,1,2,0:0:0:0:
256,192,67717,1,2,0:0:0:0:
109,192,67717,1,0,0:0:0:0:
329,192,67717,1,0,0:0:0:0:
475,192,67837,1,2,0:0:0:0:
402,192,67837,1,2,0:0:0:0:
182,192,67837,1,0,0:0:0:0:
256,192,67837,1,0,0:0:0:0:
109,192,67957,1,2,0:0:0:0:
36,192,67957,1,2,0:0:0:0:
329,192,67957,1,0,0:0:0:0:
182,192,67957,1,0,0:0:0:0:
36,192,68077,1,2,0:0:0:0:
475,192,68077,1,2,0:0:0:0:
402,192,68077,1,0,0:0:0:0:
256,192,68077,1,0,0:0:0:0:
475,192,68197,1,2,0:0:0:0:
329,192,68197,1,2,0:0:0:0:
402,192,68197,1,0,0:0:0:0:
182,192,68197,1,0,0:0:0:0:
109,192,68197,1,0,0:0:0:0:
36,192,68317,1,2,0:0:0:0:
109,192,68317,1,2,0:0:0:0:
256,192,68317,1,0,0:0:0:0:
329,192,68317,1,0,0:0:0:0:
402,192,68317,1,0,0:0:0:0:
36,192,68437,1,2,0:0:0:0:
182,192,68437,1,2,0:0:0:0:
256,192,68437,1,0,0:0:0:0:
329,192,68437,1,0,0:0:0:0:
475,192,68437,1,0,0:0:0:0:
109,192,68557,1,2,0:0:0:0:
182,192,68557,1,2,0:0:0:0:
256,192,68557,1,0,0:0:0:0:
402,192,68557,1,0,0:0:0:0:
475,192,68557,1,0,0:0:0:0:
36,192,68677,1,2,0:0:0:0:
109,192,68677,1,2,0:0:0:0:
182,192,68677,1,0,0:0:0:0:
329,192,68677,1,0,0:0:0:0:
402,192,68677,1,0,0:0:0:0:
36,192,68797,1,2,0:0:0:0:
109,192,68797,1,2,0:0:0:0:
256,192,68797,1,0,0:0:0:0:
329,192,68797,1,0,0:0:0:0:
475,192,68797,1,0,0:0:0:0:
36,192,68917,1,2,0:0:0:0:
182,192,68917,1,2,0:0:0:0:
256,192,68917,1,0,0:0:0:0:
402,192,68917,1,0,0:0:0:0:
475,192,68917,1,0,0:0:0:0:
109,192,69037,1,2,0:0:0:0:
182,192,69037,1,2,0:0:0:0:
329,192,69037,1,0,0:0:0:0:
402,192,69037,1,0,0:0:0:0:
475,192,69037,1,0,0:0:0:0:
36,192,69157,1,2,0:0:0:0:
256,192,69157,1,2,0:0:0:0:
329,192,69157,1,0,0:0:0:0:
109,192,69157,1,0,0:0:0:0:
36,192,69277,1,2,0:0:0:0:
256,192,69277,1,2,0:0:0:0:
182,192,69277,1,0,0:0:0:0:
475,192,69277,1,0,0:0:0:0:
109,192,69397,1,2,0:0:0:0:
329,192,69397,1,2,0:0:0:0:
402,192,69397,1,0,0:0:0:0:
475,192,69397,1,0,0:0:0:0:
36,192,69517,1,2,0:0:0:0:
256,192,69517,1,2,0:0:0:0:
182,192,69517,1,0,0:0:0:0:
402,192,69517,1,0,0:0:0:0:
36,192,69637,1,2,0:0:0:0:
256,192,69637,1,2,0:0:0:0:
475,192,69637,1,0,0:0:0:0:
109,192,69637,1,0,0:0:0:0:
109,192,69757,1,2,0:0:0:0:
329,192,69757,1,2,0:0:0:0:
402,192,69757,1,0,0:0:0:0:
182,192,69757,1,0,0:0:0:0:
36,192,69877,1,2,0:0:0:0:
256,192,69877,1,2,0:0:0:0:
475,192,69877,1,0,0:0:0:0:
402,192,69877,1,0,0:0:0:0:
109,192,69997,1,2,0:0:0:0:
329,192,69997,1,2,0:0:0:0:
182,192,69997,1,0,0:0:0:0:
475,192,69997,1,0,0:0:0:0:
256,192,70117,1,2,0:0:0:0:
402,192,70117,1,2,0:0:0:0:
109,192,70117,1,2,0:0:0:0:
36,192,70237,1,2,0:0:0:0:
182,192,70237,1,2,0:0:0:0:
475,192,70237,1,2,0:0:0:0:
475,192,70357,1,2,0:0:0:0:
329,192,70357,1,2,0:0:0:0:
109,192,70357,1,2,0:0:0:0:
402,192,70477,1,2,0:0:0:0:
36,192,70477,1,2,0:0:0:0:
256,192,70477,1,2,0:0:0:0:
402,192,70597,1,2,0:0:0:0:
329,192,70627,1,0,0:0:0:0:
256,192,70657,1,0,0:0:0:0:
36,192,70687,1,0,0:0:0:0:
109,192,70717,1,2,0:0:0:0:
182,192,70747,1,0,0:0:0:0:
475,192,70777,1,0,0:0:0:0:
402,192,70807,1,0,0:0:0:0:
329,192,70837,1,2,0:0:0:0:
256,192,70867,1,0,0:0:0:0:
182,192,70897,1,0,0:0:0:0:
109,192,70927,1,0,0:0:0:0:
475,192,70957,1,2,0:0:0:0:
402,192,70987,1,0,0:0:0:0:
329,192,71017,1,0,0:0:0:0:
256,192,71047,1,0,0:0:0:0:
182,192,71077,1,2,0:0:0:0:
36,192,71077,1,2,0:0:0:0:
109,192,71077,1,0,0:0:0:0:
475,192,71077,1,0,0:0:0:0:
402,192,71197,1,2,0:0:0:0:
36,192,71197,1,2,0:0:0:0:
329,192,71197,1,0,0:0:0:0:
256,192,71197,1,0,0:0:0:0:
402,192,71317,1,2,0:0:0:0:
109,192,71317,1,2,0:0:0:0:
475,192,71317,1,0,0:0:0:0:
182,192,71317,1,0,0:0:0:0:
182,192,71437,1,2,0:0:0:0:
36,192,71437,1,2,0:0:0:0:
329,192,71437,1,0,0:0:0:0:
256,192,71437,1,0,0:0:0:0:
36,192,71557,1,2,0:0:0:0:
329,192,71557,1,2,0:0:0:0:
475,192,71557,1,0,0:0:0:0:
402,192,71557,1,0,0:0:0:0:
109,192,71677,1,2,0:0:0:0:
256,192,71677,1,2,0:0:0:0:
475,192,71677,1,0,0:0:0:0:
182,192,71677,1,0,0:0:0:0:
36,192,71797,1,2,0:0:0:0:
182,192,71797,1,2,0:0:0:0:
402,192,71797,1,0,0:0:0:0:
329,192,71797,1,0,0:0:0:0:
256,192,71917,1,2,0:0:0:0:
36,192,71917,1,2,0:0:0:0:
109,192,71917,1,0,0:0:0:0:
329,192,71917,1,0,0:0:0:0:
475,192,72037,1,2,0:0:0:0:
182,192,72037,1,2,0:0:0:0:
256,192,72037,1,0,0:0:0:0:
109,192,72037,1,0,0:0:0:0:
402,192,72097,1,0,0:0:0:0:
36,192,72157,1,2,0:0:0:0:
475,192,72157,1,2,0:0:0:0:
329,192,72157,1,0,0:0:0:0:
109,192,72217,1,0,0:0:0:0:
182,192,72277,1,2,0:0:0:0:
402,192,72277,1,2,0:0:0:0:
256,192,72337,1,0,0:0:0:0:
329,192,72397,1,2,0:0:0:0:
36,192,72397,1,2,0:0:0:0:
402,192,72457,1,0,0:0:0:0:
475,192,72517,1,2,0:0:0:0:
256,192,72517,1,2,0:0:0:0:
36,192,72577,1,0,0:0:0:0:
109,192,72637,1,2,0:0:0:0:
182,192,72667,1,0,0:0:0:0:
256,192,72697,1,0,0:0:0:0:
329,192,72727,1,0,0:0:0:0:
402,192,72757,1,2,0:0:0:0:
475,192,72787,1,0,0:0:0:0:
36,192,72817,1,0,0:0:0:0:
109,192,72847,1,0,0:0:0:0:
182,192,72877,1,2,0:0:0:0:
256,192,72907,1,0,0:0:0:0:
329,192,72937,1,0,0:0:0:0:
402,192,72967,1,0,0:0:0:0:
475,192,72997,1,2,0:0:0:0:
36,192,72997,1,2,0:0:0:0:
109,192,72997,1,0,0:0:0:0:
256,192,72997,1,0,0:0:0:0:
36,192,73117,1,2,0:0:0:0:
109,192,73117,1,2,0:0:0:0:
402,192,73117,1,0,0:0:0:0:
182,192,73117,1,0,0:0:0:0:
36,192,73237,1,2,0:0:0:0:
109,192,73237,1,2,0:0:0:0:
475,192,73237,1,0,0:0:0:0:
329,192,73237,1,0,0:0:0:0:
36,192,73357,1,2,0:0:0:0:
109,192,73357,1,2,0:0:0:0:
256,192,73357,1,0,0:0:0:0:
182,192,73357,1,0,0:0:0:0:
475,192,73477,1,2,0:0:0:0:
402,192,73477,1,2,0:0:0:0:
329,192,73477,1,0,0:0:0:0:
182,192,73477,1,0,0:0:0:0:
329,192,73597,1,2,0:0:0:0:
402,192,73597,1,2,0:0:0:0:
475,192,73597,1,0,0:0:0:0:
36,192,73597,1,0,0:0:0:0:
475,192,73717,1,2,0:0:0:0:
402,192,73717,1,2,0:0:0:0:
256,192,73717,1,0,0:0:0:0:
109,192,73717,1,0,0:0:0:0:
329,192,73837,1,2,0:0:0:0:
402,192,73837,1,2,0:0:0:0:
475,192,73837,1,0,0:0:0:0:
182,192,73837,1,0,0:0:0:0:
256,192,73957,1,2,0:0:0:0:
109,192,73957,1,2,0:0:0:0:
36,192,73957,1,0,0:0:0:0:
402,192,73957,1,0,0:0:0:0:
182,192,74077,1,2,0:0:0:0:
329,192,74077,1,2,0:0:0:0:
36,192,74077,1,0,0:0:0:0:
475,192,74077,1,0,0:0:0:0:
475,192,74197,1,2,0:0:0:0:
402,192,74197,1,2,0:0:0:0:
256,192,74197,1,0,0:0:0:0:
109,192,74197,1,0,0:0:0:0:
36,192,74317,1,2,0:0:0:0:
182,192,74317,1,2,0:0:0:0:
329,192,74317,1,0,0:0:0:0:
402,192,74317,1,0,0:0:0:0:
109,192,74437,1,2,0:0:0:0:
36,192,74437,1,10,0:0:0:0:
475,192,74437,1,0,0:0:0:0:
182,192,74437,1,0,0:0:0:0:
329,192,74557,1,8,0:0:0:0:
475,192,74557,1,0,0:0:0:0:
402,192,74557,1,0,0:0:0:0:
256,192,74557,1,0,0:0:0:0:
36,192,74617,1,8,0:0:0:0:
109,192,74617,1,0,0:0:0:0:
182,192,74617,1,0,0:0:0:0:
329,192,74677,1,8,0:0:0:0:
402,192,74677,1,0,0:0:0:0:
475,192,74677,1,0,0:0:0:0:
256,192,74677,1,0,0:0:0:0:
36,192,74797,1,10,0:0:0:0:
109,192,74797,1,2,0:0:0:0:
256,192,74797,1,0,0:0:0:0:
182,192,74797,1,0,0:0:0:0:
109,192,74917,1,2,0:0:0:0:
329,192,74917,1,2,0:0:0:0:
402,192,74917,1,0,0:0:0:0:
475,192,74917,1,0,0:0:0:0:
36,192,75037,1,2,0:0:0:0:
256,192,75037,1,2,0:0:0:0:
475,192,75037,1,0,0:0:0:0:
402,192,75037,1,0,0:0:0:0:
36,192,75157,1,2,0:0:0:0:
182,192,75157,1,2,0:0:0:0:
329,192,75157,1,0,0:0:0:0:
109,192,75157,1,0,0:0:0:0:
402,192,75277,1,2,0:0:0:0:
329,192,75277,1,2,0:0:0:0:
256,192,75277,1,0,0:0:0:0:
109,192,75277,1,0,0:0:0:0:
36,192,75397,1,2,0:0:0:0:
182,192,75397,1,2,0:0:0:0:
256,192,75397,1,0,0:0:0:0:
475,192,75397,1,0,0:0:0:0:
109,192,75517,1,2,0:0:0:0:
475,192,75517,1,2,0:0:0:0:
402,192,75517,1,0,0:0:0:0:
329,192,75517,1,0,0:0:0:0:
36,192,75637,1,2,0:0:0:0:
109,192,75637,1,2,0:0:0:0:
256,192,75637,1,0,0:0:0:0:
402,192,75637,1,0,0:0:0:0:
329,192,75757,1,2,0:0:0:0:
475,192,75757,1,2,0:0:0:0:
182,192,75757,1,0,0:0:0:0:
36,192,75757,1,0,0:0:0:0:
256,192,75877,1,2,0:0:0:0:
182,192,75877,1,2,0:0:0:0:
402,192,75877,1,0,0:0:0:0:
109,192,75877,1,0,0:0:0:0:
36,192,75997,1,2,0:0:0:0:
256,192,75997,1,2,0:0:0:0:
329,192,75997,1,0,0:0:0:0:
475,192,75997,1,0,0:0:0:0:
402,192,76117,1,2,0:0:0:0:
182,192,76117,1,2,0:0:0:0:
109,192,76117,1,0,0:0:0:0:
329,192,76117,1,0,0:0:0:0:
36,192,76237,1,2,0:0:0:0:
256,192,76237,1,2,0:0:0:0:
182,192,76237,1,0,0:0:0:0:
475,192,76237,1,0,0:0:0:0:
36,192,76357,1,2,0:0:0:0:
329,192,76357,1,2,0:0:0:0:
402,192,76357,1,0,0:0:0:0:
109,192,76357,1,0,0:0:0:0:
329,192,76477,1,2,0:0:0:0:
182,192,76477,1,2,0:0:0:0:
256,192,76477,1,0,0:0:0:0:
475,192,76477,1,0,0:0:0:0:
36,192,76597,1,2,0:0:0:0:
182,192,76597,1,2,0:0:0:0:
402,192,76597,1,0,0:0:0:0:
475,192,76597,1,0,0:0:0:0:
109,192,76717,1,2,0:0:0:0:
36,192,76717,1,2,0:0:0:0:
256,192,76717,1,0,0:0:0:0:
402,192,76717,1,0,0:0:0:0:
109,192,76837,1,2,0:0:0:0:
329,192,76837,1,2,0:0:0:0:
475,192,76837,1,0,0:0:0:0:
182,192,76837,1,0,0:0:0:0:
36,192,76957,1,2,0:0:0:0:
256,192,76957,1,2,0:0:0:0:
182,192,76957,1,0,0:0:0:0:
329,192,76957,1,0,0:0:0:0:
475,192,76957,1,0,0:0:0:0:
109,192,77077,1,2,0:0:0:0:
402,192,77077,1,2,0:0:0:0:
256,192,77077,1,0,0:0:0:0:
36,192,77077,1,0,0:0:0:0:
109,192,77197,1,2,0:0:0:0:
182,192,77197,1,2,0:0:0:0:
329,192,77197,1,0,0:0:0:0:
402,192,77197,1,0,0:0:0:0:
475,192,77197,1,0,0:0:0:0:
36,192,77317,1,2,0:0:0:0:
182,192,77317,1,2,0:0:0:0:
256,192,77317,1,0,0:0:0:0:
329,192,77317,1,0,0:0:0:0:
109,192,77437,1,2,0:0:0:0:
475,192,77437,1,2,0:0:0:0:
402,192,77437,1,0,0:0:0:0:
256,192,77437,1,0,0:0:0:0:
36,192,77557,1,2,0:0:0:0:
109,192,77557,1,2,0:0:0:0:
402,192,77557,1,0,0:0:0:0:
329,192,77557,1,0,0:0:0:0:
36,192,77677,1,2,0:0:0:0:
256,192,77677,1,2,0:0:0:0:
475,192,77677,1,0,0:0:0:0:
329,192,77677,1,0,0:0:0:0:
109,192,77797,1,8,0:0:0:0:
182,192,77797,1,0,0:0:0:0:
402,192,77797,1,0,0:0:0:0:
256,192,77857,1,8,0:0:0:0:
36,192,77857,1,0,0:0:0:0:
475,192,77857,1,0,0:0:0:0:
109,192,77917,1,8,0:0:0:0:
329,192,77917,1,0,0:0:0:0:
402,192,77917,1,0,0:0:0:0:
36,192,78037,1,10,0:0:0:0:
182,192,78037,1,2,0:0:0:0:
329,192,78037,1,0,0:0:0:0:
475,192,78037,1,0,0:0:0:0:
109,192,78157,1,8,0:0:0:0:
329,192,78157,1,0,0:0:0:0:
402,192,78157,1,0,0:0:0:0:
36,192,78217,1,8,0:0:0:0:
256,192,78217,1,0,0:0:0:0:
475,192,78217,1,0,0:0:0:0:
402,192,78277,1,8,0:0:0:0:
182,192,78277,1,0,0:0:0:0:
109,192,78277,1,0,0:0:0:0:
36,192,78397,1,10,0:0:0:0:
182,192,78397,1,2,0:0:0:0:
329,192,78397,1,0,0:0:0:0:
475,192,78397,1,0,0:0:0:0:
36,192,78517,1,8,0:0:0:0:
475,192,78517,1,0,0:0:0:0:
402,192,78517,1,0,0:0:0:0:
109,192,78577,1,8,0:0:0:0:
182,192,78577,1,0,0:0:0:0:
329,192,78577,1,0,0:0:0:0:
256,192,78637,1,8,0:0:0:0:
402,192,78637,1,0,0:0:0:0:
475,192,78637,1,0,0:0:0:0:
109,192,78697,1,8,0:0:0:0:
36,192,78697,1,0,0:0:0:0:
329,192,78697,1,0,0:0:0:0:
475,192,78757,1,8,0:0:0:0:
182,192,78757,1,0,0:0:0:0:
402,192,78757,1,0,0:0:0:0:
256,192,78817,1,0,0:0:0:0:
109,192,78877,1,0,0:0:0:0:
475,192,78877,1,0,0:0:0:0:
182,192,78877,1,0,0:0:0:0:
329,192,78937,1,0,0:0:0:0:
402,192,78997,1,0,0:0:0:0:
36,192,78997,1,0,0:0:0:0:
182,192,78997,1,0,0:0:0:0:
256,192,78997,1,0,0:0:0:0:
109,192,79057,1,0,0:0:0:0:
182,192,79117,1,0,0:0:0:0:
475,192,79117,1,0,0:0:0:0:
329,192,79117,1,0,0:0:0:0:
402,192,79117,1,0,0:0:0:0:
256,192,79177,1,0,0:0:0:0:
36,192,79237,1,0,0:0:0:0:
329,192,79237,1,0,0:0:0:0:
109,192,79237,1,0,0:0:0:0:
475,192,79297,1,0,0:0:0:0:
402,192,79357,1,0,0:0:0:0:
36,192,79357,1,0,0:0:0:0:
256,192,79357,1,0,0:0:0:0:
182,192,79417,1,0,0:0:0:0:
329,192,79477,1,0,0:0:0:0:
402,192,79477,1,0,0:0:0:0:
109,192,79477,1,0,0:0:0:0:
256,192,79537,1,0,0:0:0:0:
36,192,79597,1,0,0:0:0:0:
109,192,79597,1,0,0:0:0:0:
475,192,79597,1,0,0:0:0:0:
182,192,79657,1,0,0:0:0:0:
36,192,79717,1,0,0:0:0:0:
475,192,79717,1,0,0:0:0:0:
329,192,79717,1,0,0:0:0:0:
402,192,79717,1,0,0:0:0:0:
256,192,79777,1,0,0:0:0:0:
109,192,79837,1,0,0:0:0:0:
182,192,79837,1,0,0:0:0:0:
402,192,79837,1,0,0:0:0:0:
329,192,79897,1,0,0:0:0:0:
182,192,79957,1,0,0:0:0:0:
36,192,79957,1,0,0:0:0:0:
256,192,79957,1,0,0:0:0:0:
475,192,80017,1,0,0:0:0:0:
329,192,80077,1,0,0:0:0:0:
109,192,80077,1,0,0:0:0:0:
256,192,80077,1,0,0:0:0:0:
402,192,80137,1,0,0:0:0:0:
475,192,80197,1,0,0:0:0:0:
36,192,80197,1,0,0:0:0:0:
109,192,80197,1,0,0:0:0:0:
182,192,80227,1,0,0:0:0:0:
256,192,80257,1,0,0:0:0:0:
329,192,80287,1,0,0:0:0:0:
402,192,80317,1,0,0:0:0:0:
475,192,80347,1,0,0:0:0:0:
182,192,80377,1,0,0:0:0:0:
109,192,80407,1,0,0:0:0:0:
36,192,80437,1,0,0:0:0:0:
329,192,80467,1,0,0:0:0:0:
402,192,80497,1,0,0:0:0:0:
475,192,80527,1,0,0:0:0:0:
36,192,80557,1,0,0:0:0:0:
109,192,80587,1,0,0:0:0:0:
182,192,80617,1,0,0:0:0:0:
256,192,80647,1,0,0:0:0:0:
475,192,80677,1,0,0:0:0:0:
329,192,80677,1,0,0:0:0:0:
402,192,80677,1,0,0:0:0:0:
36,192,80737,1,0,0:0:0:0:
109,192,80797,1,0,0:0:0:0:
402,192,80797,1,0,0:0:0:0:
475,192,80797,1,0,0:0:0:0:
182,192,80857,1,0,0:0:0:0:
36,192,80917,1,0,0:0:0:0:
256,192,80917,1,0,0:0:0:0:
329,192,80917,1,0,0:0:0:0:
402,192,80977,1,0,0:0:0:0:
182,192,81037,1,0,0:0:0:0:
475,192,81037,1,0,0:0:0:0:
109,192,81037,1,0,0:0:0:0:
329,192,81097,1,0,0:0:0:0:
36,192,81157,1,0,0:0:0:0:
256,192,81157,1,0,0:0:0:0:
475,192,81157,1,0,0:0:0:0:
402,192,81217,1,0,0:0:0:0:
36,192,81277,1,0,0:0:0:0:
109,192,81277,1,0,0:0:0:0:
329,192,81277,1,0,0:0:0:0:
182,192,81337,1,0,0:0:0:0:
402,192,81397,1,0,0:0:0:0:
475,192,81397,1,0,0:0:0:0:
329,192,81397,1,0,0:0:0:0:
36,192,81457,1,0,0:0:0:0:
402,192,81517,1,0,0:0:0:0:
475,192,81517,1,0,0:0:0:0:
109,192,81517,1,0,0:0:0:0:
256,192,81577,1,0,0:0:0:0:
182,192,81637,1,0,0:0:0:0:
109,192,81637,1,0,0:0:0:0:
329,192,81637,1,0,0:0:0:0:
402,192,81697,1,0,0:0:0:0:
36,192,81757,1,0,0:0:0:0:
475,192,81757,1,0,0:0:0:0:
329,192,81757,1,0,0:0:0:0:
256,192,81817,1,0,0:0:0:0:
36,192,81877,1,0,0:0:0:0:
109,192,81877,1,0,0:0:0:0:
402,192,81877,1,0,0:0:0:0:
182,192,81937,1,0,0:0:0:0:
256,192,81997,1,0,0:0:0:0:
329,192,81997,1,0,0:0:0:0:
475,192,81997,1,0,0:0:0:0:
109,192,82117,1,2,0:0:0:0:
402,192,82117,1,10,0:0:0:0:
329,192,82117,1,0,0:0:0:0:
36,192,82237,1,8,0:0:0:0:
182,192,82237,1,0,0:0:0:0:
475,192,82237,1,0,0:0:0:0:
109,192,82297,1,8,0:0:0:0:
402,192,82297,1,0,0:0:0:0:
256,192,82297,1,0,0:0:0:0:
475,192,82357,1,8,0:0:0:0:
36,192,82357,1,0,0:0:0:0:
182,192,82357,1,0,0:0:0:0:
109,192,82477,1,2,0:0:0:0:
256,192,82477,1,10,0:0:0:0:
402,192,82477,1,0,0:0:0:0:
36,192,82597,1,2,0:0:0:0:
182,192,82597,1,2,0:0:0:0:
402,192,82597,1,0,0:0:0:0:
329,192,82657,1,0,0:0:0:0:
256,192,82717,1,0,0:0:0:0:
109,192,82717,1,0,0:0:0:0:
475,192,82717,1,0,0:0:0:0:
402,192,82777,1,0,0:0:0:0:
182,192,82837,1,0,0:0:0:0:
329,192,82837,1,0,0:0:0:0:
36,192,82837,1,0,0:0:0:0:
109,192,82837,1,0,0:0:0:0:
256,192,82897,1,0,0:0:0:0:
36,192,82957,1,0,0:0:0:0:
475,192,82957,1,0,0:0:0:0:
402,192,82957,1,0,0:0:0:0:
109,192,83017,1,0,0:0:0:0:
256,192,83077,1,0,0:0:0:0:
182,192,83077,1,0,0:0:0:0:
475,192,83077,1,0,0:0:0:0:
402,192,83137,1,0,0:0:0:0:
109,192,83197,1,0,0:0:0:0:
36,192,83197,1,0,0:0:0:0:
329,192,83197,1,0,0:0:0:0:
256,192,83257,1,0,0:0:0:0:
182,192,83317,1,0,0:0:0:0:
475,192,83317,1,0,0:0:0:0:
329,192,83317,1,0,0:0:0:0:
36,192,83377,1,0,0:0:0:0:
402,192,83437,1,0,0:0:0:0:
109,192,83437,1,0,0:0:0:0:
475,192,83437,1,0,0:0:0:0:
182,192,83497,1,0,0:0:0:0:
475,192,83557,1,0,0:0:0:0:
402,192,83557,1,0,0:0:0:0:
329,192,83557,1,0,0:0:0:0:
36,192,83557,1,0,0:0:0:0:
182,192,83617,1,0,0:0:0:0:
402,192,83677,1,0,0:0:0:0:
329,192,83677,1,0,0:0:0:0:
256,192,83677,1,0,0:0:0:0:
109,192,83677,1,0,0:0:0:0:
475,192,83737,1,0,0:0:0:0:
329,192,83797,1,0,0:0:0:0:
256,192,83797,1,0,0:0:0:0:
182,192,83797,1,0,0:0:0:0:
36,192,83797,1,0,0:0:0:0:
402,192,83857,1,0,0:0:0:0:
256,192,83917,1,0,0:0:0:0:
182,192,83917,1,0,0:0:0:0:
109,192,83917,1,0,0:0:0:0:
475,192,83917,1,0,0:0:0:0:
329,192,83977,1,0,0:0:0:0:
182,192,84037,1,0,0:0:0:0:
109,192,84037,1,0,0:0:0:0:
36,192,84037,1,0,0:0:0:0:
402,192,84037,1,0,0:0:0:0:
256,192,84097,1,0,0:0:0:0:
109,192,84157,1,0,0:0:0:0:
36,192,84157,1,0,0:0:0:0:
475,192,84157,1,0,0:0:0:0:
329,192,84157,1,0,0:0:0:0:
256,192,84217,1,0,0:0:0:0:
36,192,84277,1,0,0:0:0:0:
475,192,84277,1,0,0:0:0:0:
402,192,84277,1,0,0:0:0:0:
182,192,84277,1,0,0:0:0:0:
109,192,84337,1,0,0:0:0:0:
329,192,84397,1,0,0:0:0:0:
402,192,84397,1,0,0:0:0:0:
475,192,84397,1,0,0:0:0:0:
182,192,84397,1,0,0:0:0:0:
36,192,84457,1,0,0:0:0:0:
256,192,84517,1,0,0:0:0:0:
329,192,84517,1,0,0:0:0:0:
402,192,84517,1,0,0:0:0:0:
182,192,84577,1,0,0:0:0:0:
109,192,84637,1,0,0:0:0:0:
256,192,84637,1,0,0:0:0:0:
475,192,84637,1,0,0:0:0:0:
36,192,84697,1,0,0:0:0:0:
475,192,84757,1,0,0:0:0:0:
182,192,84757,1,0,0:0:0:0:
329,192,84757,1,0,0:0:0:0:
109,192,84757,1,0,0:0:0:0:
256,192,84817,1,0,0:0:0:0:
329,192,84877,1,0,0:0:0:0:
36,192,84877,1,0,0:0:0:0:
402,192,84877,1,0,0:0:0:0:
182,192,84937,1,0,0:0:0:0:
109,192,84997,1,0,0:0:0:0:
256,192,84997,1,0,0:0:0:0:
475,192,84997,1,0,0:0:0:0:
402,192,85057,1,0,0:0:0:0:
36,192,85117,1,0,0:0:0:0:
182,192,85117,1,0,0:0:0:0:
329,192,85117,1,0,0:0:0:0:
475,192,85117,1,0,0:0:0:0:
256,192,85177,1,0,0:0:0:0:
182,192,85237,1,0,0:0:0:0:
36,192,85237,1,0,0:0:0:0:
402,192,85237,1,0,0:0:0:0:
329,192,85297,1,0,0:0:0:0:
402,192,85357,1,0,0:0:0:0:
256,192,85357,1,0,0:0:0:0:
109,192,85357,1,0,0:0:0:0:
475,192,85357,1,0,0:0:0:0:
109,192,85477,1,2,0:0:0:0:
329,192,85477,1,2,0:0:0:0:
475,192,85477,1,0,0:0:0:0:
36,192,85597,1,2,0:0:0:0:
402,192,85597,1,2,0:0:0:0:
182,192,85597,1,0,0:0:0:0:
256,192,85657,1,0,0:0:0:0:
475,192,85717,1,2,0:0:0:0:
109,192,85717,1,2,0:0:0:0:
329,192,85717,1,0,0:0:0:0:
109,192,85837,1,2,0:0:0:0:
182,192,85837,1,2,0:0:0:0:
402,192,85837,1,0,0:0:0:0:
256,192,85957,1,2,0:0:0:0:
36,192,85957,1,2,0:0:0:0:
182,192,85957,1,0,0:0:0:0:
329,192,85987,1,0,0:0:0:0:
402,192,86017,1,0,0:0:0:0:
475,192,86047,1,0,0:0:0:0:
36,192,86077,1,2,0:0:0:0:
109,192,86107,1,0,0:0:0:0:
182,192,86137,1,0,0:0:0:0:
256,192,86167,1,0,0:0:0:0:
475,192,86197,1,2,0:0:0:0:
402,192,86227,1,0,0:0:0:0:
329,192,86257,1,8,0:0:0:0:
36,192,86287,1,0,0:0:0:0:
109,192,86317,1,2,0:0:0:0:
182,192,86347,1,0,0:0:0:0:
256,192,86377,1,0,0:0:0:0:
329,192,86407,1,0,0:0:0:0:
402,192,86437,1,0,0:0:0:0:
36,192,86437,1,0,0:0:0:0:
475,192,86437,1,0,0:0:0:0:
109,192,86497,1,0,0:0:0:0:
256,192,86557,1,0,0:0:0:0:
182,192,86557,1,0,0:0:0:0:
475,192,86557,1,0,0:0:0:0:
109,192,86617,1,0,0:0:0:0:
182,192,86677,1,0,0:0:0:0:
475,192,86677,1,0,0:0:0:0:
329,192,86677,1,0,0:0:0:0:
36,192,86677,1,0,0:0:0:0:
402,192,86737,1,0,0:0:0:0:
329,192,86797,1,0,0:0:0:0:
109,192,86797,1,0,0:0:0:0:
256,192,86797,1,0,0:0:0:0:
402,192,86857,1,0,0:0:0:0:
36,192,86917,1,0,0:0:0:0:
475,192,86917,1,0,0:0:0:0:
182,192,86917,1,0,0:0:0:0:
256,192,86977,1,0,0:0:0:0:
329,192,87037,1,0,0:0:0:0:
36,192,87037,1,0,0:0:0:0:
109,192,87037,1,0,0:0:0:0:
402,192,87037,1,0,0:0:0:0:
256,192,87097,1,0,0:0:0:0:
182,192,87157,1,0,0:0:0:0:
402,192,87157,1,0,0:0:0:0:
475,192,87157,1,0,0:0:0:0:
109,192,87217,1,0,0:0:0:0:
329,192,87277,1,0,0:0:0:0:
36,192,87277,1,0,0:0:0:0:
475,192,87277,1,0,0:0:0:0:
402,192,87337,1,0,0:0:0:0:
329,192,87397,1,0,0:0:0:0:
36,192,87397,1,0,0:0:0:0:
256,192,87397,1,0,0:0:0:0:
182,192,87397,1,0,0:0:0:0:
109,192,87457,1,0,0:0:0:0:
402,192,87517,1,0,0:0:0:0:
182,192,87517,1,0,0:0:0:0:
475,192,87517,1,0,0:0:0:0:
329,192,87577,1,0,0:0:0:0:
256,192,87637,1,0,0:0:0:0:
36,192,87637,1,0,0:0:0:0:
109,192,87637,1,0,0:0:0:0:
475,192,87697,1,0,0:0:0:0:
329,192,87757,1,0,0:0:0:0:
402,192,87757,1,0,0:0:0:0:
182,192,87757,1,0,0:0:0:0:
256,192,87757,1,0,0:0:0:0:
109,192,87817,1,0,0:0:0:0:
36,192,87877,1,0,0:0:0:0:
475,192,87877,1,0,0:0:0:0:
182,192,87877,1,0,0:0:0:0:
402,192,87937,1,0,0:0:0:0:
109,192,87997,1,0,0:0:0:0:
256,192,87997,1,0,0:0:0:0:
329,192,87997,1,0,0:0:0:0:
475,192,87997,1,0,0:0:0:0:
182,192,88057,1,0,0:0:0:0:
402,192,88117,1,0,0:0:0:0:
36,192,88117,1,0,0:0:0:0:
109,192,88117,1,0,0:0:0:0:
475,192,88117,1,0,0:0:0:0:
329,192,88177,1,0,0:0:0:0:
256,192,88237,1,0,0:0:0:0:
109,192,88237,1,0,0:0:0:0:
182,192,88237,1,0,0:0:0:0:
402,192,88237,1,0,0:0:0:0:
36,192,88297,1,0,0:0:0:0:
256,192,88357,1,0,0:0:0:0:
182,192,88357,1,0,0:0:0:0:
475,192,88357,1,0,0:0:0:0:
329,192,88357,1,0,0:0:0:0:
402,192,88417,1,0,0:0:0:0:
329,192,88477,1,0,0:0:0:0:
36,192,88477,1,0,0:0:0:0:
109,192,88477,1,0,0:0:0:0:
256,192,88537,1,0,0:0:0:0:
182,192,88597,1,0,0:0:0:0:
475,192,88597,1,0,0:0:0:0:
402,192,88597,1,0,0:0:0:0:
109,192,88597,1,0,0:0:0:0:
256,192,88657,1,0,0:0:0:0:
329,192,88717,1,0,0:0:0:0:
182,192,88717,1,0,0:0:0:0:
36,192,88717,1,0,0:0:0:0:
402,192,88777,1,0,0:0:0:0:
475,192,88837,1,0,0:0:0:0:
109,192,88837,1,0,0:0:0:0:
256,192,88837,1,0,0:0:0:0:
329,192,88897,1,0,0:0:0:0:
36,192,88957,1,0,0:0:0:0:
182,192,88957,1,0,0:0:0:0:
402,192,88957,1,0,0:0:0:0:
475,192,88957,1,0,0:0:0:0:
256,192,89017,1,0,0:0:0:0:
109,192,89077,1,0,0:0:0:0:
329,192,89077,1,0,0:0:0:0:
402,192,89077,1,0,0:0:0:0:
182,192,89137,1,0,0:0:0:0:
36,192,89197,1,0,0:0:0:0:
256,192,89197,1,0,0:0:0:0:
475,192,89197,1,0,0:0:0:0:
109,192,89257,1,0,0:0:0:0:
182,192,89317,1,0,0:0:0:0:
329,192,89317,1,0,0:0:0:0:
256,192,89317,1,0,0:0:0:0:
402,192,89317,1,0,0:0:0:0:
36,192,89377,1,0,0:0:0:0:
182,192,89437,1,0,0:0:0:0:
402,192,89437,1,0,0:0:0:0:
475,192,89437,1,0,0:0:0:0:
109,192,89497,1,0,0:0:0:0:
256,192,89557,1,0,0:0:0:0:
329,192,89557,1,0,0:0:0:0:
475,192,89557,1,0,0:0:0:0:
182,192,89617,1,0,0:0:0:0:
329,192,89677,1,0,0:0:0:0:
36,192,89677,1,0,0:0:0:0:
109,192,89677,1,0,0:0:0:0:
402,192,89677,1,0,0:0:0:0:
256,192,89737,1,0,0:0:0:0:
182,192,89797,1,2,0:0:0:0:
475,192,89797,1,10,0:0:0:0:
109,192,89797,1,0,0:0:0:0:
475,192,89917,1,8,0:0:0:0:
36,192,89917,1,0,0:0:0:0:
402,192,89917,1,0,0:0:0:0:
182,192,89977,1,8,0:0:0:0:
109,192,89977,1,0,0:0:0:0:
329,192,89977,1,0,0:0:0:0:
36,192,90037,1,8,0:0:0:0:
475,192,90037,1,0,0:0:0:0:
402,192,90037,1,0,0:0:0:0:
109,192,90157,1,10,0:0:0:0:
256,192,90157,1,2,0:0:0:0:
402,192,90157,1,0,0:0:0:0:
475,192,90277,1,2,0:0:0:0:
329,192,90277,1,2,0:0:0:0:
109,192,90277,1,0,0:0:0:0:
256,192,90337,1,0,0:0:0:0:
36,192,90397,1,0,0:0:0:0:
402,192,90397,1,0,0:0:0:0:
182,192,90397,1,0,0:0:0:0:
256,192,90457,1,0,0:0:0:0:
109,192,90517,1,0,0:0:0:0:
329,192,90517,1,0,0:0:0:0:
475,192,90517,1,0,0:0:0:0:
402,192,90517,1,0,0:0:0:0:
182,192,90577,1,0,0:0:0:0:
109,192,90637,1,0,0:0:0:0:
256,192,90637,1,0,0:0:0:0:
329,192,90637,1,0,0:0:0:0:
36,192,90637,1,0,0:0:0:0:
402,192,90697,1,0,0:0:0:0:
182,192,90757,1,0,0:0:0:0:
256,192,90757,1,0,0:0:0:0:
475,192,90757,1,0,0:0:0:0:
36,192,90817,1,0,0:0:0:0:
329,192,90877,1,0,0:0:0:0:
475,192,90877,1,0,0:0:0:0:
109,192,90877,1,0,0:0:0:0:
182,192,90877,1,0,0:0:0:0:
402,192,90937,1,0,0:0:0:0:
329,192,90997,1,0,0:0:0:0:
36,192,90997,1,0,0:0:0:0:
109,192,90997,1,0,0:0:0:0:
256,192,91057,1,0,0:0:0:0:
475,192,91117,1,0,0:0:0:0:
402,192,91117,1,0,0:0:0:0:
182,192,91117,1,0,0:0:0:0:
329,192,91177,1,0,0:0:0:0:
109,192,91237,1,0,0:0:0:0:
182,192,91237,1,0,0:0:0:0:
475,192,91237,1,0,0:0:0:0:
36,192,91237,1,0,0:0:0:0:
256,192,91297,1,0,0:0:0:0:
109,192,91357,1,0,0:0:0:0:
329,192,91357,1,0,0:0:0:0:
402,192,91357,1,0,0:0:0:0:
182,192,91417,1,0,0:0:0:0:
256,192,91477,1,0,0:0:0:0:
475,192,91477,1,0,0:0:0:0:
329,192,91477,1,0,0:0:0:0:
402,192,91537,1,0,0:0:0:0:
256,192,91597,1,0,0:0:0:0:
182,192,91597,1,0,0:0:0:0:
475,192,91597,1,0,0:0:0:0:
36,192,91597,1,0,0:0:0:0:
109,192,91657,1,0,0:0:0:0:
36,192,91717,1,0,0:0:0:0:
329,192,91717,1,0,0:0:0:0:
402,192,91717,1,0,0:0:0:0:
256,192,91837,1,0,0:0:0:0:
109,192,91837,1,0,0:0:0:0:
182,192,91837,1,0,0:0:0:0:
475,192,91837,1,0,0:0:0:0:
329,192,91957,1,0,0:0:0:0:
402,192,91957,1,0,0:0:0:0:
182,192,91957,1,0,0:0:0:0:
36,192,91957,1,0,0:0:0:0:
329,192,92077,1,0,0:0:0:0:
109,192,92077,1,0,0:0:0:0:
256,192,92077,1,0,0:0:0:0:
475,192,92077,1,0,0:0:0:0:
475,192,92197,1,0,0:0:0:0:
36,192,92197,1,0,0:0:0:0:
182,192,92197,1,0,0:0:0:0:
402,192,92257,1,0,0:0:0:0:
109,192,92317,1,0,0:0:0:0:
329,192,92317,1,0,0:0:0:0:
36,192,92317,1,0,0:0:0:0:
256,192,92377,1,0,0:0:0:0:
182,192,92437,1,0,0:0:0:0:
475,192,92437,1,0,0:0:0:0:
402,192,92437,1,0,0:0:0:0:
329,192,92437,1,0,0:0:0:0:
109,192,92497,1,0,0:0:0:0:
329,192,92557,1,0,0:0:0:0:
36,192,92557,1,0,0:0:0:0:
182,192,92557,1,0,0:0:0:0:
256,192,92617,1,0,0:0:0:0:
475,192,92677,1,0,0:0:0:0:
109,192,92677,1,0,0:0:0:0:
402,192,92677,1,0,0:0:0:0:
182,192,92737,1,0,0:0:0:0:
256,192,92797,1,0,0:0:0:0:
475,192,92797,1,0,0:0:0:0:
329,192,92797,1,0,0:0:0:0:
36,192,92797,1,0,0:0:0:0:
402,192,92857,1,0,0:0:0:0:
182,192,92917,1,0,0:0:0:0:
109,192,92917,1,0,0:0:0:0:
329,192,92917,1,0,0:0:0:0:
475,192,92977,1,0,0:0:0:0:
36,192,93037,1,2,0:0:0:0:
402,192,93037,1,10,0:0:0:0:
109,192,93037,1,0,0:0:0:0:
329,192,93097,1,0,0:0:0:0:
256,192,93157,1,8,0:0:0:0:
36,192,93157,1,0,0:0:0:0:
475,192,93157,1,0,0:0:0:0:
109,192,93217,1,8,0:0:0:0:
182,192,93217,1,0,0:0:0:0:
402,192,93217,1,0,0:0:0:0:
329,192,93277,1,8,0:0:0:0:
36,192,93277,1,0,0:0:0:0:
475,192,93277,1,0,0:0:0:0:
182,192,93397,1,10,0:0:0:0:
329,192,93397,1,2,0:0:0:0:
402,192,93397,1,0,0:0:0:0:
475,192,93517,1,8,0:0:0:0:
36,192,93517,1,0,0:0:0:0:
256,192,93517,1,0,0:0:0:0:
402,192,93517,1,0,0:0:0:0:
329,192,93577,1,8,0:0:0:0:
182,192,93577,1,0,0:0:0:0:
109,192,93577,1,0,0:0:0:0:
402,192,93637,1,8,0:0:0:0:
36,192,93637,1,0,0:0:0:0:
256,192,93637,1,0,0:0:0:0:
329,192,93757,1,10,0:0:0:0:
36,192,93757,1,2,0:0:0:0:
475,192,93757,1,0,0:0:0:0:
182,192,93757,1,0,0:0:0:0:
109,192,93877,1,8,0:0:0:0:
402,192,93877,1,0,0:0:0:0:
475,192,93877,1,0,0:0:0:0:
182,192,93877,1,0,0:0:0:0:
36,192,93937,1,8,0:0:0:0:
329,192,93937,1,0,0:0:0:0:
256,192,93937,1,0,0:0:0:0:
182,192,93997,1,8,0:0:0:0:
402,192,93997,1,0,0:0:0:0:
475,192,93997,1,0,0:0:0:0:
109,192,94057,1,8,0:0:0:0:
36,192,94057,1,0,0:0:0:0:
329,192,94057,1,0,0:0:0:0:
256,192,94117,1,8,0:0:0:0:
475,192,94117,1,0,0:0:0:0:
402,192,94117,1,0,0:0:0:0:
182,192,94117,1,0,0:0:0:0:
109,192,94177,1,0,0:0:0:0:
329,192,94237,1,2,0:0:0:0:
36,192,94237,1,2,0:0:0:0:
256,192,94237,1,0,0:0:0:0:
109,192,94297,1,0,0:0:0:0:
402,192,94357,1,2,0:0:0:0:
182,192,94357,1,2,0:0:0:0:
256,192,94357,1,0,0:0:0:0:
475,192,94357,1,0,0:0:0:0:
329,192,94417,1,0,0:0:0:0:
182,192,94477,1,2,0:0:0:0:
109,192,94477,1,2,0:0:0:0:
36,192,94477,1,0,0:0:0:0:
256,192,94537,1,0,0:0:0:0:
182,192,94597,1,2,0:0:0:0:
402,192,94597,1,2,0:0:0:0:
475,192,94597,1,0,0:0:0:0:
36,192,94657,1,0,0:0:0:0:
329,192,94717,1,2,0:0:0:0:
109,192,94717,1,2,0:0:0:0:
256,192,94717,1,0,0:0:0:0:
402,192,94777,1,0,0:0:0:0:
475,192,94837,1,2,0:0:0:0:
182,192,94837,1,2,0:0:0:0:
109,192,94837,1,0,0:0:0:0:
329,192,94897,1,0,0:0:0:0:
402,192,94957,1,2,0:0:0:0:
256,192,94957,1,2,0:0:0:0:
36,192,94957,1,0,0:0:0:0:
329,192,95017,1,0,0:0:0:0:
36,192,95077,1,2,0:0:0:0:
475,192,95077,1,2,0:0:0:0:
109,192,95077,1,0,0:0:0:0:
182,192,95077,1,0,0:0:0:0:
256,192,95137,1,0,0:0:0:0:
402,192,95197,1,2,0:0:0:0:
109,192,95197,1,2,0:0:0:0:
329,192,95197,1,0,0:0:0:0:
182,192,95257,1,0,0:0:0:0:
475,192,95317,1,2,0:0:0:0:
402,192,95317,1,2,0:0:0:0:
36,192,95317,1,0,0:0:0:0:
329,192,95377,1,0,0:0:0:0:
182,192,95437,1,2,0:0:0:0:
256,192,95437,1,2,0:0:0:0:
109,192,95437,1,0,0:0:0:0:
329,192,95497,1,0,0:0:0:0:
36,192,95557,1,2,0:0:0:0:
475,192,95557,1,0,0:0:0:0:
402,192,95557,1,0,0:0:0:0:
109,192,95587,1,0,0:0:0:0:
182,192,95617,1,0,0:0:0:0:
256,192,95647,1,0,0:0:0:0:
475,192,95677,1,2,0:0:0:0:
402,192,95707,1,0,0:0:0:0:
329,192,95737,1,0,0:0:0:0:
256,192,95767,1,0,0:0:0:0:
182,192,95797,1,2,0:0:0:0:
109,192,95827,1,0,0:0:0:0:
36,192,95857,1,0,0:0:0:0:
475,192,95887,1,0,0:0:0:0:
402,192,95917,1,2,0:0:0:0:
329,192,95947,1,0,0:0:0:0:
36,192,95977,1,0,0:0:0:0:
109,192,96007,1,0,0:0:0:0:
256,192,96037,1,2,0:0:0:0:
182,192,96037,1,2,0:0:0:0:
475,192,96037,1,0,0:0:0:0:
402,192,96037,1,0,0:0:0:0:
329,192,96097,1,0,0:0:0:0:
256,192,96157,1,2,0:0:0:0:
36,192,96157,1,2,0:0:0:0:
402,192,96157,1,0,0:0:0:0:
475,192,96157,1,0,0:0:0:0:
182,192,96217,1,0,0:0:0:0:
109,192,96277,1,2,0:0:0:0:
329,192,96277,1,2,0:0:0:0:
36,192,96277,1,0,0:0:0:0:
256,192,96337,1,0,0:0:0:0:
109,192,96397,1,2,0:0:0:0:
475,192,96397,1,2,0:0:0:0:
182,192,96397,1,0,0:0:0:0:
329,192,96457,1,0,0:0:0:0:
36,192,96517,1,2,0:0:0:0:
475,192,96517,1,2,0:0:0:0:
256,192,96517,1,0,0:0:0:0:
182,192,96577,1,0,0:0:0:0:
109,192,96637,1,2,0:0:0:0:
402,192,96637,1,2,0:0:0:0:
329,192,96637,1,0,0:0:0:0:
182,192,96697,1,0,0:0:0:0:
36,192,96757,1,2,0:0:0:0:
475,192,96757,1,2,0:0:0:0:
256,192,96757,1,0,0:0:0:0:
109,192,96817,1,0,0:0:0:0:
329,192,96877,1,2,0:0:0:0:
475,192,96877,1,2,0:0:0:0:
182,192,96877,1,0,0:0:0:0:
109,192,96937,1,0,0:0:0:0:
36,192,96997,1,2,0:0:0:0:
402,192,96997,1,2,0:0:0:0:
256,192,96997,1,0,0:0:0:0:
329,192,97057,1,0,0:0:0:0:
182,192,97117,1,2,0:0:0:0:
109,192,97117,1,2,0:0:0:0:
475,192,97117,1,0,0:0:0:0:
402,192,97177,1,0,0:0:0:0:
256,192,97237,1,2,0:0:0:0:
36,192,97237,1,2,0:0:0:0:
329,192,97237,1,0,0:0:0:0:
109,192,97297,1,0,0:0:0:0:
182,192,97357,1,2,0:0:0:0:
475,192,97357,1,2,0:0:0:0:
402,192,97357,1,0,0:0:0:0:
256,192,97417,1,0,0:0:0:0:
329,192,97477,1,2,0:0:0:0:
109,192,97477,1,10,0:0:0:0:
182,192,97477,1,0,0:0:0:0:
36,192,97597,1,8,0:0:0:0:
475,192,97597,1,0,0:0:0:0:
402,192,97597,1,0,0:0:0:0:
109,192,97657,1,8,0:0:0:0:
182,192,97657,1,0,0:0:0:0:
329,192,97657,1,0,0:0:0:0:
36,192,97717,1,8,0:0:0:0:
402,192,97717,1,0,0:0:0:0:
475,192,97717,1,0,0:0:0:0:
256,192,97837,1,10,0:0:0:0:
182,192,97837,1,2,0:0:0:0:
109,192,97837,1,0,0:0:0:0:
36,192,97957,1,2,0:0:0:0:
329,192,97957,1,2,0:0:0:0:
475,192,97957,1,0,0:0:0:0:
109,192,98017,1,0,0:0:0:0:
182,192,98077,1,2,0:0:0:0:
402,192,98077,1,2,0:0:0:0:
256,192,98077,1,0,0:0:0:0:
329,192,98137,1,0,0:0:0:0:
36,192,98197,1,2,0:0:0:0:
109,192,98197,1,2,0:0:0:0:
475,192,98197,1,0,0:0:0:0:
182,192,98197,1,0,0:0:0:0:
402,192,98257,1,0,0:0:0:0:
329,192,98317,1,2,0:0:0:0:
256,192,98317,1,2,0:0:0:0:
36,192,98317,1,0,0:0:0:0:
109,192,98377,1,0,0:0:0:0:
182,192,98437,1,2,0:0:0:0:
475,192,98437,1,2,0:0:0:0:
402,192,98437,1,0,0:0:0:0:
329,192,98497,1,0,0:0:0:0:
36,192,98557,1,2,0:0:0:0:
256,192,98557,1,2,0:0:0:0:
109,192,98557,1,0,0:0:0:0:
475,192,98617,1,0,0:0:0:0:
402,192,98677,1,2,0:0:0:0:
182,192,98677,1,2,0:0:0:0:
329,192,98677,1,0,0:0:0:0:
36,192,98737,1,0,0:0:0:0:
109,192,98797,1,2,0:0:0:0:
402,192,98797,1,2,0:0:0:0:
256,192,98797,1,0,0:0:0:0:
329,192,98857,1,0,0:0:0:0:
36,192,98917,1,2,0:0:0:0:
182,192,98917,1,2,0:0:0:0:
475,192,98917,1,0,0:0:0:0:
109,192,98917,1,0,0:0:0:0:
402,192,98977,1,0,0:0:0:0:
109,192,99037,1,2,0:0:0:0:
182,192,99037,1,2,0:0:0:0:
256,192,99037,1,0,0:0:0:0:
36,192,99037,1,0,0:0:0:0:
475,192,99097,1,0,0:0:0:0:
182,192,99157,1,2,0:0:0:0:
256,192,99157,1,2,0:0:0:0:
329,192,99157,1,0,0:0:0:0:
109,192,99157,1,0,0:0:0:0:
36,192,99217,1,0,0:0:0:0:
329,192,99277,1,2,0:0:0:0:
256,192,99277,1,2,0:0:0:0:
402,192,99277,1,0,0:0:0:0:
182,192,99277,1,0,0:0:0:0:
109,192,99337,1,0,0:0:0:0:
329,192,99397,1,2,0:0:0:0:
402,192,99397,1,2,0:0:0:0:
475,192,99397,1,0,0:0:0:0:
256,192,99397,1,0,0:0:0:0:
182,192,99457,1,0,0:0:0:0:
402,192,99517,1,2,0:0:0:0:
475,192,99517,1,2,0:0:0:0:
329,192,99517,1,0,0:0:0:0:
36,192,99517,1,0,0:0:0:0:
256,192,99577,1,0,0:0:0:0:
109,192,99637,1,2,0:0:0:0:
402,192,99637,1,2,0:0:0:0:
475,192,99637,1,0,0:0:0:0:
36,192,99637,1,0,0:0:0:0:
182,192,99697,1,0,0:0:0:0:
329,192,99757,1,2,0:0:0:0:
256,192,99757,1,2,0:0:0:0:
475,192,99757,1,0,0:0:0:0:
402,192,99817,1,0,0:0:0:0:
182,192,99877,1,2,0:0:0:0:
36,192,99877,1,2,0:0:0:0:
329,192,99877,1,0,0:0:0:0:
256,192,99937,1,0,0:0:0:0:
36,192,99997,1,2,0:0:0:0:
475,192,99997,1,2,0:0:0:0:
402,192,99997,1,0,0:0:0:0:
329,192,100057,1,0,0:0:0:0:
109,192,100117,1,2,0:0:0:0:
256,192,100117,1,2,0:0:0:0:
182,192,100117,1,0,0:0:0:0:
475,192,100177,1,0,0:0:0:0:
36,192,100237,1,2,0:0:0:0:
402,192,100237,1,2,0:0:0:0:
182,192,100237,1,0,0:0:0:0:
256,192,100297,1,0,0:0:0:0:
36,192,100357,1,2,0:0:0:0:
329,192,100357,1,2,0:0:0:0:
475,192,100357,1,0,0:0:0:0:
402,192,100417,1,0,0:0:0:0:
109,192,100477,1,2,0:0:0:0:
182,192,100477,1,2,0:0:0:0:
256,192,100477,1,0,0:0:0:0:
329,192,100537,1,0,0:0:0:0:
36,192,100597,1,2,0:0:0:0:
475,192,100597,1,2,0:0:0:0:
402,192,100597,1,0,0:0:0:0:
256,192,100657,1,0,0:0:0:0:
109,192,100717,1,2,0:0:0:0:
182,192,100717,1,2,0:0:0:0:
329,192,100717,1,0,0:0:0:0:
475,192,100777,1,0,0:0:0:0:
36,192,100837,1,2,0:0:0:0:
402,192,100837,1,2,0:0:0:0:
256,192,100837,1,0,0:0:0:0:
109,192,100957,1,2,0:0:0:0:
329,192,100957,1,2,0:0:0:0:
475,192,100957,1,0,0:0:0:0:
182,192,101077,1,2,0:0:0:0:
402,192,101077,1,2,0:0:0:0:
256,192,101077,1,0,0:0:0:0:
36,192,101197,1,2,0:0:0:0:
329,192,101197,1,2,0:0:0:0:
109,192,101197,1,0,0:0:0:0:
182,192,101317,1,2,0:0:0:0:
475,192,101317,1,2,0:0:0:0:
36,192,101317,1,0,0:0:0:0:
402,192,101347,1,0,0:0:0:0:
329,192,101377,1,0,0:0:0:0:
256,192,101407,1,0,0:0:0:0:
182,192,101437,1,2,0:0:0:0:
109,192,101467,1,0,0:0:0:0:
36,192,101497,1,0,0:0:0:0:
475,192,101527,1,0,0:0:0:0:
402,192,101557,1,2,0:0:0:0:
329,192,101587,1,0,0:0:0:0:
36,192,101617,1,0,0:0:0:0:
109,192,101647,1,0,0:0:0:0:
182,192,101677,1,2,0:0:0:0:
256,192,101707,1,0,0:0:0:0:
329,192,101737,1,0,0:0:0:0:
402,192,101767,1,0,0:0:0:0:
475,192,101797,1,2,0:0:0:0:
36,192,101797,1,2,0:0:0:0:
109,192,101797,1,0,0:0:0:0:
256,192,101797,1,0,0:0:0:0:
182,192,101857,1,0,0:0:0:0:
329,192,101917,1,2,0:0:0:0:
402,192,101917,1,2,0:0:0:0:
109,192,101917,1,0,0:0:0:0:
256,192,101977,1,0,0:0:0:0:
36,192,102037,1,2,0:0:0:0:
182,192,102037,1,2,0:0:0:0:
475,192,102037,1,0,0:0:0:0:
402,192,102097,1,0,0:0:0:0:
109,192,102157,1,2,0:0:0:0:
256,192,102157,1,2,0:0:0:0:
329,192,102157,1,0,0:0:0:0:
182,192,102217,1,0,0:0:0:0:
475,192,102277,1,2,0:0:0:0:
402,192,102277,1,2,0:0:0:0:
256,192,102277,1,0,0:0:0:0:
329,192,102337,1,0,0:0:0:0:
182,192,102397,1,2,0:0:0:0:
36,192,102397,1,2,0:0:0:0:
109,192,102397,1,0,0:0:0:0:
256,192,102457,1,0,0:0:0:0:
329,192,102517,1,2,0:0:0:0:
402,192,102517,1,2,0:0:0:0:
475,192,102517,1,0,0:0:0:0:
182,192,102577,1,0,0:0:0:0:
36,192,102637,1,2,0:0:0:0:
256,192,102637,1,2,0:0:0:0:
475,192,102637,1,0,0:0:0:0:
182,192,102697,1,0,0:0:0:0:
475,192,102757,1,2,0:0:0:0:
109,192,102757,1,2,0:0:0:0:
402,192,102787,1,0,0:0:0:0:
329,192,102817,1,0,0:0:0:0:
256,192,102847,1,0,0:0:0:0:
182,192,102877,1,2,0:0:0:0:
109,192,102907,1,0,0:0:0:0:
36,192,102937,1,0,0:0:0:0:
475,192,102967,1,0,0:0:0:0:
402,192,102997,1,2,0:0:0:0:
329,192,103027,1,0,0:0:0:0:
256,192,103057,1,0,0:0:0:0:
182,192,103087,1,0,0:0:0:0:
109,192,103117,1,2,0:0:0:0:
36,192,103147,1,0,0:0:0:0:
475,192,103177,1,0,0:0:0:0:
402,192,103207,1,0,0:0:0:0:
329,192,103237,1,2,0:0:0:0:
256,192,103267,1,0,0:0:0:0:
36,192,103297,1,0,0:0:0:0:
109,192,103327,1,0,0:0:0:0:
182,192,103357,1,2,0:0:0:0:
256,192,103387,1,0,0:0:0:0:
329,192,103417,1,0,0:0:0:0:
402,192,103447,1,0,0:0:0:0:
475,192,103477,1,2,0:0:0:0:
36,192,103507,1,0,0:0:0:0:
109,192,103537,1,0,0:0:0:0:
182,192,103567,1,0,0:0:0:0:
256,192,103597,1,2,0:0:0:0:
329,192,103627,1,0,0:0:0:0:
402,192,103657,1,0,0:0:0:0:
475,192,103687,1,0,0:0:0:0:
109,192,103717,1,2,0:0:0:0:
182,192,103717,1,2,0:0:0:0:
36,192,103717,1,0,0:0:0:0:
256,192,103777,1,0,0:0:0:0:
329,192,103837,1,2,0:0:0:0:
109,192,103837,1,2,0:0:0:0:
402,192,103837,1,0,0:0:0:0:
182,192,103897,1,0,0:0:0:0:
402,192,103957,1,2,0:0:0:0:
36,192,103957,1,2,0:0:0:0:
475,192,103957,1,0,0:0:0:0:
256,192,104017,1,0,0:0:0:0:
109,192,104077,1,2,0:0:0:0:
329,192,104077,1,2,0:0:0:0:
182,192,104077,1,0,0:0:0:0:
36,192,104137,1,0,0:0:0:0:
475,192,104197,1,2,0:0:0:0:
402,192,104197,1,2,0:0:0:0:
182,192,104197,1,0,0:0:0:0:
329,192,104257,1,0,0:0:0:0:
36,192,104317,1,2,0:0:0:0:
109,192,104317,1,2,0:0:0:0:
475,192,104317,1,0,0:0:0:0:
256,192,104377,1,0,0:0:0:0:
182,192,104437,1,2,0:0:0:0:
402,192,104437,1,2,0:0:0:0:
329,192,104437,1,0,0:0:0:0:
36,192,104497,1,0,0:0:0:0:
109,192,104557,1,2,0:0:0:0:
256,192,104557,1,2,0:0:0:0:
475,192,104557,1,0,0:0:0:0:
402,192,104617,1,0,0:0:0:0:
109,192,104677,1,2,0:0:0:0:
36,192,104677,1,2,0:0:0:0:
182,192,104677,1,0,0:0:0:0:
329,192,104737,1,0,0:0:0:0:
182,192,104797,1,2,0:0:0:0:
256,192,104797,1,2,0:0:0:0:
109,192,104797,1,0,0:0:0:0:
402,192,104857,1,0,0:0:0:0:
256,192,104917,1,2,0:0:0:0:
329,192,104917,1,2,0:0:0:0:
182,192,104917,1,0,0:0:0:0:
475,192,104977,1,0,0:0:0:0:
402,192,105037,1,2,0:0:0:0:
256,192,105037,1,2,0:0:0:0:
329,192,105037,1,0,0:0:0:0:
36,192,105097,1,0,0:0:0:0:
475,192,105157,1,2,0:0:0:0:
329,192,105157,1,10,0:0:0:0:
402,192,105157,1,0,0:0:0:0:
36,192,105277,1,8,0:0:0:0:
402,192,105277,1,0,0:0:0:0:
475,192,105277,1,0,0:0:0:0:
329,192,105337,1,8,0:0:0:0:
256,192,105337,1,0,0:0:0:0:
182,192,105337,1,0,0:0:0:0:
475,192,105397,1,8,0:0:0:0:
36,192,105397,1,0,0:0:0:0:
109,192,105397,1,0,0:0:0:0:
182,192,105517,1,2,0:0:0:0:
402,192,105517,1,10,0:0:0:0:
329,192,105517,1,0,0:0:0:0:
36,192,105637,1,2,0:0:0:0:
182,192,105637,1,2,0:0:0:0:
475,192,105637,1,0,0:0:0:0:
402,192,105697,1,0,0:0:0:0:
329,192,105757,1,2,0:0:0:0:
256,192,105757,1,2,0:0:0:0:
109,192,105757,1,0,0:0:0:0:
182,192,105817,1,0,0:0:0:0:
36,192,105877,1,2,0:0:0:0:
402,192,105877,1,2,0:0:0:0:
329,192,105877,1,0,0:0:0:0:
475,192,105877,1,0,0:0:0:0:
109,192,105937,1,0,0:0:0:0:
475,192,105997,1,2,0:0:0:0:
256,192,105997,1,2,0:0:0:0:
182,192,105997,1,0,0:0:0:0:
402,192,106057,1,0,0:0:0:0:
329,192,106117,1,2,0:0:0:0:
36,192,106117,1,2,0:0:0:0:
109,192,106117,1,0,0:0:0:0:
182,192,106177,1,0,0:0:0:0:
256,192,106237,1,2,0:0:0:0:
475,192,106237,1,2,0:0:0:0:
402,192,106237,1,0,0:0:0:0:
36,192,106297,1,0,0:0:0:0:
182,192,106357,1,2,0:0:0:0:
109,192,106357,1,2,0:0:0:0:
329,192,106357,1,0,0:0:0:0:
475,192,106417,1,0,0:0:0:0:
109,192,106477,1,2,0:0:0:0:
256,192,106477,1,2,0:0:0:0:
329,192,106477,1,0,0:0:0:0:
182,192,106537,1,0,0:0:0:0:
475,192,106597,1,2,0:0:0:0:
36,192,106597,1,2,0:0:0:0:
256,192,106597,1,0,0:0:0:0:
329,192,106657,1,0,0:0:0:0:
109,192,106717,1,2,0:0:0:0:
402,192,106717,1,2,0:0:0:0:
182,192,106717,1,0,0:0:0:0:
475,192,106777,1,0,0:0:0:0:
36,192,106837,1,2,0:0:0:0:
402,192,106837,1,2,0:0:0:0:
256,192,106837,1,0,0:0:0:0:
109,192,106897,1,0,0:0:0:0:
329,192,106957,1,2,0:0:0:0:
182,192,106957,1,2,0:0:0:0:
475,192,106957,1,0,0:0:0:0:
402,192,107017,1,0,0:0:0:0:
109,192,107077,1,2,0:0:0:0:
475,192,107077,1,2,0:0:0:0:
36,192,107077,1,0,0:0:0:0:
329,192,107137,1,0,0:0:0:0:
402,192,107197,1,2,0:0:0:0:
182,192,107197,1,2,0:0:0:0:
109,192,107197,1,0,0:0:0:0:
256,192,107257,1,0,0:0:0:0:
475,192,107317,1,2,0:0:0:0:
402,192,107317,1,2,0:0:0:0:
36,192,107317,1,0,0:0:0:0:
329,192,107377,1,0,0:0:0:0:
36,192,107437,1,2,0:0:0:0:
182,192,107437,1,2,0:0:0:0:
256,192,107437,1,0,0:0:0:0:
109,192,107497,1,0,0:0:0:0:
182,192,107557,1,2,0:0:0:0:
329,192,107557,1,2,0:0:0:0:
475,192,107557,1,0,0:0:0:0:
256,192,107617,1,0,0:0:0:0:
109,192,107677,1,2,0:0:0:0:
475,192,107677,1,2,0:0:0:0:
36,192,107677,1,0,0:0:0:0:
182,192,107737,1,0,0:0:0:0:
329,192,107797,1,2,0:0:0:0:
402,192,107797,1,2,0:0:0:0:
256,192,107797,1,0,0:0:0:0:
36,192,107857,1,0,0:0:0:0:
475,192,107917,1,2,0:0:0:0:
329,192,107917,1,2,0:0:0:0:
109,192,107917,1,0,0:0:0:0:
256,192,107977,1,0,0:0:0:0:
182,192,108037,1,2,0:0:0:0:
475,192,108037,1,2,0:0:0:0:
36,192,108037,1,0,0:0:0:0:
109,192,108097,1,0,0:0:0:0:
402,192,108157,1,2,0:0:0:0:
329,192,108157,1,2,0:0:0:0:
256,192,108157,1,0,0:0:0:0:
182,192,108217,1,0,0:0:0:0:
475,192,108277,1,2,0:0:0:0:
36,192,108277,1,2,0:0:0:0:
109,192,108277,1,0,0:0:0:0:
256,192,108337,1,0,0:0:0:0:
402,192,108397,1,10,0:0:0:0:
182,192,108397,1,2,0:0:0:0:
329,192,108397,1,0,0:0:0:0:
36,192,108457,1,0,0:0:0:0:
109,192,108517,1,8,0:0:0:0:
402,192,108517,1,0,0:0:0:0:
475,192,108517,1,0,0:0:0:0:
182,192,108577,1,8,0:0:0:0:
329,192,108577,1,0,0:0:0:0:
256,192,108577,1,0,0:0:0:0:
36,192,108637,1,8,0:0:0:0:
109,192,108637,1,0,0:0:0:0:
475,192,108637,1,0,0:0:0:0:
256,192,108757,1,10,0:0:0:0:
182,192,108757,1,2,0:0:0:0:
329,192,108757,1,0,0:0:0:0:
36,192,108877,1,8,0:0:0:0:
109,192,108877,1,0,0:0:0:0:
402,192,108877,1,0,0:0:0:0:
182,192,108937,1,8,0:0:0:0:
256,192,108937,1,0,0:0:0:0:
329,192,108937,1,0,0:0:0:0:
36,192,108997,1,8,0:0:0:0:
475,192,108997,1,0,0:0:0:0:
402,192,108997,1,0,0:0:0:0:
329,192,109117,1,10,0:0:0:0:
182,192,109117,1,2,0:0:0:0:
256,192,109117,1,0,0:0:0:0:
36,192,109237,1,8,0:0:0:0:
109,192,109237,1,0,0:0:0:0:
475,192,109237,1,0,0:0:0:0:
182,192,109297,1,8,0:0:0:0:
256,192,109297,1,0,0:0:0:0:
329,192,109357,1,8,0:0:0:0:
402,192,109357,1,0,0:0:0:0:
475,192,109357,1,0,0:0:0:0:
182,192,109417,1,8,0:0:0:0:
109,192,109417,1,0,0:0:0:0:
256,192,109477,1,8,0:0:0:0:
402,192,109477,1,0,0:0:0:0:
475,192,109477,1,0,0:0:0:0:
36,192,109477,1,0,0:0:0:0:
329,192,109537,1,0,0:0:0:0:
182,192,109597,1,0,0:0:0:0:
402,192,109597,1,0,0:0:0:0:
109,192,109597,1,0,0:0:0:0:
256,192,109657,1,0,0:0:0:0:
475,192,109717,1,0,0:0:0:0:
329,192,109717,1,0,0:0:0:0:
36,192,109717,1,0,0:0:0:0:
109,192,109777,1,0,0:0:0:0:
256,192,109837,1,0,0:0:0:0:
182,192,109837,1,0,0:0:0:0:
402,192,109837,1,0,0:0:0:0:
329,192,109897,1,0,0:0:0:0:
36,192,109957,1,0,0:0:0:0:
256,192,109957,1,0,0:0:0:0:
109,192,109957,1,0,0:0:0:0:
182,192,110017,1,0,0:0:0:0:
475,192,110077,1,0,0:0:0:0:
329,192,110077,1,0,0:0:0:0:
402,192,110077,1,0,0:0:0:0:
256,192,110137,1,0,0:0:0:0:
182,192,110197,1,0,0:0:0:0:
36,192,110197,1,0,0:0:0:0:
109,192,110197,1,0,0:0:0:0:
329,192,110257,1,0,0:0:0:0:
475,192,110317,1,0,0:0:0:0:
36,192,110317,1,0,0:0:0:0:
256,192,110317,1,0,0:0:0:0:
329,192,110377,1,0,0:0:0:0:
475,192,110437,1,0,0:0:0:0:
109,192,110437,1,0,0:0:0:0:
402,192,110467,1,0,0:0:0:0:
329,192,110497,1,0,0:0:0:0:
256,192,110527,1,0,0:0:0:0:
182,192,110557,1,0,0:0:0:0:
109,192,110587,1,0,0:0:0:0:
36,192,110617,1,0,0:0:0:0:
475,192,110647,1,0,0:0:0:0:
402,192,110677,1,0,0:0:0:0:
329,192,110707,1,0,0:0:0:0:
256,192,110737,1,0,0:0:0:0:
182,192,110767,1,0,0:0:0:0:
109,192,110797,1,0,0:0:0:0:
36,192,110827,1,0,0:0:0:0:
475,192,110857,1,0,0:0:0:0:
402,192,110887,1,0,0:0:0:0:
329,192,110917,1,0,0:0:0:0:
256,192,110947,1,0,0:0:0:0:
36,192,110977,1,0,0:0:0:0:
109,192,111007,1,0,0:0:0:0:
182,192,111037,1,0,0:0:0:0:
256,192,111067,1,0,0:0:0:0:
329,192,111097,1,0,0:0:0:0:
402,192,111127,1,0,0:0:0:0:
475,192,111157,1,0,0:0:0:0:
36,192,111187,1,0,0:0:0:0:
109,192,111217,1,0,0:0:0:0:
182,192,111247,1,0,0:0:0:0:
256,192,111277,1,0,0:0:0:0:
329,192,111307,1,0,0:0:0:0:
402,192,111337,1,0,0:0:0:0:
475,192,111367,1,0,0:0:0:0:
182,192,111397,1,0,0:0:0:0:
36,192,111397,1,0,0:0:0:0:
109,192,111397,1,0,0:0:0:0:
329,192,111457,1,0,0:0:0:0:
256,192,111517,1,0,0:0:0:0:
402,192,111517,1,0,0:0:0:0:
182,192,111517,1,0,0:0:0:0:
329,192,111577,1,0,0:0:0:0:
36,192,111637,1,0,0:0:0:0:
475,192,111637,1,0,0:0:0:0:
109,192,111637,1,0,0:0:0:0:
256,192,111697,1,0,0:0:0:0:
402,192,111757,1,0,0:0:0:0:
329,192,111757,1,0,0:0:0:0:
182,192,111757,1,0,0:0:0:0:
475,192,111817,1,0,0:0:0:0:
329,192,111877,1,0,0:0:0:0:
36,192,111877,1,0,0:0:0:0:
109,192,111877,1,0,0:0:0:0:
182,192,111937,1,0,0:0:0:0:
475,192,111997,1,0,0:0:0:0:
402,192,111997,1,0,0:0:0:0:
36,192,111997,1,0,0:0:0:0:
256,192,112057,1,0,0:0:0:0:
329,192,112117,1,0,0:0:0:0:
182,192,112117,1,0,0:0:0:0:
109,192,112117,1,0,0:0:0:0:
475,192,112177,1,0,0:0:0:0:
36,192,112237,1,0,0:0:0:0:
402,192,112237,1,0,0:0:0:0:
256,192,112237,1,0,0:0:0:0:
109,192,112297,1,0,0:0:0:0:
475,192,112357,1,0,0:0:0:0:
182,192,112357,1,0,0:0:0:0:
329,192,112357,1,0,0:0:0:0:
402,192,112417,1,0,0:0:0:0:
36,192,112477,1,0,0:0:0:0:
329,192,112477,1,0,0:0:0:0:
256,192,112477,1,0,0:0:0:0:
109,192,112537,1,0,0:0:0:0:
475,192,112597,1,0,0:0:0:0:
182,192,112597,1,0,0:0:0:0:
402,192,112597,1,0,0:0:0:0:
329,192,112657,1,0,0:0:0:0:
109,192,112717,1,0,0:0:0:0:
256,192,112717,1,0,0:0:0:0:
36,192,112717,1,0,0:0:0:0:
182,192,112777,1,0,0:0:0:0:
475,192,112837,1,10,0:0:0:0:
109,192,112837,1,2,0:0:0:0:
329,192,112837,1,0,0:0:0:0:
402,192,112957,1,8,0:0:0:0:
182,192,112957,1,0,0:0:0:0:
256,192,112957,1,0,0:0:0:0:
475,192,113017,1,8,0:0:0:0:
329,192,113017,1,0,0:0:0:0:
36,192,113017,1,0,0:0:0:0:
256,192,113077,1,8,0:0:0:0:
402,192,113077,1,0,0:0:0:0:
182,192,113077,1,0,0:0:0:0:
109,192,113197,1,10,0:0:0:0:
329,192,113197,1,2,0:0:0:0:
36,192,113197,1,0,0:0:0:0:
475,192,113317,1,2,0:0:0:0:
329,192,113317,1,2,0:0:0:0:
36,192,113317,1,0,0:0:0:0:
109,192,113377,1,0,0:0:0:0:
402,192,113437,1,0,0:0:0:0:
256,192,113437,1,0,0:0:0:0:
182,192,113437,1,0,0:0:0:0:
329,192,113497,1,0,0:0:0:0:
182,192,113557,1,0,0:0:0:0:
36,192,113557,1,0,0:0:0:0:
475,192,113557,1,0,0:0:0:0:
109,192,113557,1,0,0:0:0:0:
402,192,113617,1,0,0:0:0:0:
256,192,113677,1,0,0:0:0:0:
36,192,113677,1,0,0:0:0:0:
329,192,113677,1,0,0:0:0:0:
109,192,113737,1,0,0:0:0:0:
402,192,113797,1,0,0:0:0:0:
475,192,113797,1,0,0:0:0:0:
182,192,113797,1,0,0:0:0:0:
329,192,113857,1,0,0:0:0:0:
256,192,113917,1,0,0:0:0:0:
109,192,113917,1,0,0:0:0:0:
36,192,113917,1,0,0:0:0:0:
475,192,113977,1,0,0:0:0:0:
402,192,114037,1,0,0:0:0:0:
182,192,114037,1,0,0:0:0:0:
329,192,114037,1,0,0:0:0:0:
36,192,114097,1,0,0:0:0:0:
402,192,114157,1,0,0:0:0:0:
109,192,114157,1,0,0:0:0:0:
256,192,114157,1,0,0:0:0:0:
329,192,114217,1,0,0:0:0:0:
182,192,114277,1,0,0:0:0:0:
475,192,114277,1,0,0:0:0:0:
36,192,114277,1,0,0:0:0:0:
109,192,114277,1,0,0:0:0:0:
402,192,114337,1,0,0:0:0:0:
109,192,114397,1,0,0:0:0:0:
256,192,114397,1,0,0:0:0:0:
36,192,114397,1,0,0:0:0:0:
182,192,114397,1,0,0:0:0:0:
475,192,114457,1,0,0:0:0:0:
256,192,114517,1,0,0:0:0:0:
182,192,114517,1,0,0:0:0:0:
109,192,114517,1,0,0:0:0:0:
329,192,114517,1,0,0:0:0:0:
36,192,114577,1,0,0:0:0:0:
329,192,114637,1,0,0:0:0:0:
256,192,114637,1,0,0:0:0:0:
182,192,114637,1,0,0:0:0:0:
402,192,114637,1,0,0:0:0:0:
109,192,114697,1,0,0:0:0:0:
475,192,114757,1,0,0:0:0:0:
256,192,114757,1,0,0:0:0:0:
402,192,114757,1,0,0:0:0:0:
329,192,114757,1,0,0:0:0:0:
182,192,114817,1,0,0:0:0:0:
36,192,114877,1,0,0:0:0:0:
475,192,114877,1,0,0:0:0:0:
329,192,114877,1,0,0:0:0:0:
402,192,114877,1,0,0:0:0:0:
256,192,114937,1,0,0:0:0:0:
402,192,114997,1,0,0:0:0:0:
109,192,114997,1,0,0:0:0:0:
36,192,114997,1,0,0:0:0:0:
475,192,114997,1,0,0:0:0:0:
182,192,115057,1,0,0:0:0:0:
475,192,115117,1,0,0:0:0:0:
256,192,115117,1,0,0:0:0:0:
329,192,115117,1,0,0:0:0:0:
402,192,115177,1,0,0:0:0:0:
182,192,115237,1,0,0:0:0:0:
36,192,115237,1,0,0:0:0:0:
329,192,115237,1,0,0:0:0:0:
256,192,115297,1,0,0:0:0:0:
36,192,115357,1,0,0:0:0:0:
402,192,115357,1,0,0:0:0:0:
475,192,115357,1,0,0:0:0:0:
329,192,115417,1,0,0:0:0:0:
109,192,115477,1,0,0:0:0:0:
402,192,115477,1,0,0:0:0:0:
256,192,115477,1,0,0:0:0:0:
182,192,115477,1,0,0:0:0:0:
36,192,115537,1,0,0:0:0:0:
329,192,115597,1,0,0:0:0:0:
182,192,115597,1,0,0:0:0:0:
475,192,115597,1,0,0:0:0:0:
109,192,115657,1,0,0:0:0:0:
329,192,115717,1,0,0:0:0:0:
256,192,115717,1,0,0:0:0:0:
36,192,115717,1,0,0:0:0:0:
402,192,115777,1,0,0:0:0:0:
109,192,115837,1,0,0:0:0:0:
256,192,115837,1,0,0:0:0:0:
182,192,115837,1,0,0:0:0:0:
475,192,115837,1,0,0:0:0:0:
329,192,115897,1,0,0:0:0:0:
475,192,115957,1,0,0:0:0:0:
402,192,115957,1,0,0:0:0:0:
36,192,115957,1,0,0:0:0:0:
109,192,116017,1,0,0:0:0:0:
329,192,116077,1,0,0:0:0:0:
256,192,116077,1,0,0:0:0:0:
182,192,116077,1,0,0:0:0:0:
402,192,116077,1,0,0:0:0:0:
109,192,116137,1,0,0:0:0:0:
256,192,116197,1,2,0:0:0:0:
36,192,116197,1,2,0:0:0:0:
475,192,116197,1,0,0:0:0:0:
109,192,116317,1,2,0:0:0:0:
475,192,116317,1,2,0:0:0:0:
329,192,116317,1,0,0:0:0:0:
402,192,116437,1,2,0:0:0:0:
182,192,116437,1,2,0:0:0:0:
256,192,116437,1,0,0:0:0:0:
36,192,116557,1,2,0:0:0:0:
109,192,116557,1,2,0:0:0:0:
329,192,116557,1,0,0:0:0:0:
475,192,116677,1,2,0:0:0:0:
182,192,116677,1,2,0:0:0:0:
36,192,116677,1,0,0:0:0:0:
402,192,116707,1,0,0:0:0:0:
329,192,116737,1,0,0:0:0:0:
256,192,116767,1,0,0:0:0:0:
182,192,116797,1,2,0:0:0:0:
109,192,116827,1,0,0:0:0:0:
36,192,116857,1,0,0:0:0:0:
475,192,116887,1,0,0:0:0:0:
402,192,116917,1,2,0:0:0:0:
329,192,116947,1,0,0:0:0:0:
36,192,116977,1,8,0:0:0:0:
109,192,117007,1,0,0:0:0:0:
182,192,117037,1,2,0:0:0:0:
256,192,117067,1,0,0:0:0:0:
329,192,117097,1,0,0:0:0:0:
402,192,117127,1,0,0:0:0:0:
475,192,117157,1,2,0:0:0:0:
109,192,117157,1,2,0:0:0:0:
36,192,117157,1,0,0:0:0:0:
182,192,117157,1,0,0:0:0:0:
256,192,117217,1,0,0:0:0:0:
329,192,117277,1,0,0:0:0:0:
109,192,117277,1,0,0:0:0:0:
402,192,117277,1,0,0:0:0:0:
256,192,117337,1,0,0:0:0:0:
36,192,117397,1,0,0:0:0:0:
475,192,117397,1,0,0:0:0:0:
182,192,117397,1,0,0:0:0:0:
109,192,117397,1,0,0:0:0:0:
402,192,117457,1,0,0:0:0:0:
36,192,117517,1,0,0:0:0:0:
256,192,117517,1,0,0:0:0:0:
329,192,117517,1,0,0:0:0:0:
402,192,117577,1,0,0:0:0:0:
475,192,117637,1,0,0:0:0:0:
182,192,117637,1,0,0:0:0:0:
256,192,117637,1,0,0:0:0:0:
329,192,117697,1,0,0:0:0:0:
36,192,117757,1,0,0:0:0:0:
182,192,117757,1,0,0:0:0:0:
109,192,117757,1,0,0:0:0:0:
402,192,117757,1,0,0:0:0:0:
256,192,117817,1,0,0:0:0:0:
329,192,117877,1,0,0:0:0:0:
402,192,117877,1,0,0:0:0:0:
475,192,117877,1,0,0:0:0:0:
182,192,117937,1,0,0:0:0:0:
475,192,117997,1,0,0:0:0:0:
36,192,117997,1,0,0:0:0:0:
256,192,117997,1,0,0:0:0:0:
109,192,118057,1,0,0:0:0:0:
36,192,118117,1,0,0:0:0:0:
402,192,118117,1,0,0:0:0:0:
182,192,118117,1,0,0:0:0:0:
329,192,118117,1,0,0:0:0:0:
475,192,118177,1,0,0:0:0:0:
256,192,118237,1,0,0:0:0:0:
109,192,118237,1,0,0:0:0:0:
402,192,118237,1,0,0:0:0:0:
182,192,118297,1,0,0:0:0:0:
36,192,118357,1,0,0:0:0:0:
256,192,118357,1,0,0:0:0:0:
329,192,118357,1,0,0:0:0:0:
109,192,118417,1,0,0:0:0:0:
475,192,118477,1,0,0:0:0:0:
182,192,118477,1,0,0:0:0:0:
402,192,118477,1,0,0:0:0:0:
329,192,118477,1,0,0:0:0:0:
256,192,118537,1,0,0:0:0:0:
182,192,118597,1,0,0:0:0:0:
109,192,118597,1,0,0:0:0:0:
36,192,118597,1,0,0:0:0:0:
256,192,118657,1,0,0:0:0:0:
329,192,118717,1,0,0:0:0:0:
402,192,118717,1,0,0:0:0:0:
475,192,118717,1,0,0:0:0:0:
36,192,118777,1,0,0:0:0:0:
109,192,118777,1,0,0:0:0:0:
182,192,118777,1,0,0:0:0:0:
329,192,118837,1,0,0:0:0:0:
402,192,118837,1,0,0:0:0:0:
475,192,118837,1,0,0:0:0:0:
256,192,118897,1,0,0:0:0:0:
109,192,118957,1,0,0:0:0:0:
182,192,118957,1,0,0:0:0:0:
36,192,118957,1,0,0:0:0:0:
329,192,119017,1,0,0:0:0:0:
182,192,119077,1,0,0:0:0:0:
36,192,119077,1,0,0:0:0:0:
402,192,119077,1,0,0:0:0:0:
475,192,119137,1,0,0:0:0:0:
329,192,119197,1,0,0:0:0:0:
256,192,119197,1,0,0:0:0:0:
109,192,119197,1,0,0:0:0:0:
182,192,119257,1,0,0:0:0:0:
475,192,119317,1,0,0:0:0:0:
402,192,119317,1,0,0:0:0:0:
36,192,119317,1,0,0:0:0:0:
256,192,119317,1,0,0:0:0:0:
329,192,119377,1,0,0:0:0:0:
182,192,119437,1,0,0:0:0:0:
109,192,119437,1,0,0:0:0:0:
402,192,119437,1,0,0:0:0:0:
36,192,119497,1,0,0:0:0:0:
182,192,119557,1,0,0:0:0:0:
475,192,119557,1,0,0:0:0:0:
256,192,119557,1,0,0:0:0:0:
329,192,119617,1,0,0:0:0:0:
36,192,119677,1,0,0:0:0:0:
109,192,119677,1,0,0:0:0:0:
475,192,119677,1,0,0:0:0:0:
402,192,119677,1,0,0:0:0:0:
256,192,119737,1,0,0:0:0:0:
329,192,119797,1,0,0:0:0:0:
182,192,119797,1,0,0:0:0:0:
402,192,119797,1,0,0:0:0:0:
36,192,119857,1,0,0:0:0:0:
256,192,119917,1,0,0:0:0:0:
475,192,119917,1,0,0:0:0:0:
109,192,119917,1,0,0:0:0:0:
402,192,119977,1,0,0:0:0:0:
329,192,120037,1,0,0:0:0:0:
182,192,120037,1,0,0:0:0:0:
36,192,120037,1,0,0:0:0:0:
475,192,120037,1,0,0:0:0:0:
109,192,120097,1,0,0:0:0:0:
475,192,120157,1,0,0:0:0:0:
256,192,120157,1,0,0:0:0:0:
182,192,120157,1,0,0:0:0:0:
402,192,120217,1,0,0:0:0:0:
36,192,120277,1,0,0:0:0:0:
109,192,120277,1,0,0:0:0:0:
329,192,120277,1,0,0:0:0:0:
182,192,120337,1,0,0:0:0:0:
256,192,120397,1,0,0:0:0:0:
475,192,120397,1,0,0:0:0:0:
402,192,120397,1,0,0:0:0:0:
109,192,120397,1,0,0:0:0:0:
329,192,120457,1,0,0:0:0:0:
402,192,120517,1,10,0:0:0:0:
182,192,120517,1,2,0:0:0:0:
36,192,120517,1,0,0:0:0:0:
329,192,120637,1,8,0:0:0:0:
109,192,120637,1,0,0:0:0:0:
256,192,120637,1,0,0:0:0:0:
475,192,120697,1,8,0:0:0:0:
36,192,120697,1,0,0:0:0:0:
182,192,120697,1,0,0:0:0:0:
109,192,120757,1,8,0:0:0:0:
329,192,120757,1,0,0:0:0:0:
256,192,120757,1,0,0:0:0:0:
475,192,120877,1,10,0:0:0:0:
182,192,120877,1,2,0:0:0:0:
402,192,120877,1,0,0:0:0:0:
475,192,120997,1,10,0:0:0:0:
36,192,120997,1,10,0:0:0:0:
182,192,120997,1,0,0:0:0:0:
256,192,120997,1,0,0:0:0:0:
402,192,121057,1,0,0:0:0:0:
329,192,121117,1,0,0:0:0:0:
109,192,121117,1,0,0:0:0:0:
256,192,121117,1,0,0:0:0:0:
182,192,121177,1,0,0:0:0:0:
475,192,121237,1,10,0:0:0:0:
402,192,121237,1,10,0:0:0:0:
329,192,121237,1,0,0:0:0:0:
36,192,121237,1,0,0:0:0:0:
109,192,121237,1,0,0:0:0:0:
256,192,121297,1,0,0:0:0:0:
182,192,121357,1,0,0:0:0:0:
329,192,121357,1,0,0:0:0:0:
475,192,121357,1,0,0:0:0:0:
402,192,121417,1,0,0:0:0:0:
109,192,121477,1,10,0:0:0:0:
36,192,121477,1,10,0:0:0:0:
256,192,121477,1,0,0:0:0:0:
475,192,121477,1,0,0:0:0:0:
182,192,121537,1,0,0:0:0:0:
256,192,121597,1,0,0:0:0:0:
402,192,121597,1,0,0:0:0:0:
329,192,121597,1,0,0:0:0:0:
36,192,121657,1,0,0:0:0:0:
329,192,121717,1,10,0:0:0:0:
182,192,121717,1,10,0:0:0:0:
109,192,121717,1,0,0:0:0:0:
402,192,121717,1,0,0:0:0:0:
475,192,121777,1,0,0:0:0:0:
109,192,121837,1,0,0:0:0:0:
256,192,121837,1,0,0:0:0:0:
402,192,121837,1,0,0:0:0:0:
182,192,121897,1,0,0:0:0:0:
36,192,121957,1,10,0:0:0:0:
475,192,121957,1,10,0:0:0:0:
256,192,121957,1,0,0:0:0:0:
329,192,121957,1,0,0:0:0:0:
182,192,122017,1,0,0:0:0:0:
402,192,122077,1,0,0:0:0:0:
109,192,122077,1,0,0:0:0:0:
329,192,122077,1,0,0:0:0:0:
475,192,122137,1,0,0:0:0:0:
402,192,122197,1,10,0:0:0:0:
256,192,122197,1,10,0:0:0:0:
36,192,122197,1,0,0:0:0:0:
182,192,122197,1,0,0:0:0:0:
109,192,122257,1,0,0:0:0:0:
475,192,122317,1,0,0:0:0:0:
329,192,122317,1,0,0:0:0:0:
182,192,122317,1,0,0:0:0:0:
402,192,122377,1,0,0:0:0:0:
475,192,122437,1,10,0:0:0:0:
36,192,122437,1,10,0:0:0:0:
109,192,122437,1,0,0:0:0:0:
256,192,122437,1,0,0:0:0:0:
329,192,122497,1,0,0:0:0:0:
475,192,122557,1,0,0:0:0:0:
109,192,122557,1,0,0:0:0:0:
182,192,122557,1,0,0:0:0:0:
256,192,122617,1,0,0:0:0:0:
402,192,122677,1,10,0:0:0:0:
329,192,122677,1,10,0:0:0:0:
36,192,122677,1,0,0:0:0:0:
182,192,122677,1,0,0:0:0:0:
475,192,122737,1,0,0:0:0:0:
256,192,122797,1,0,0:0:0:0:
109,192,122797,1,0,0:0:0:0:
402,192,122797,1,0,0:0:0:0:
329,192,122857,1,0,0:0:0:0:
182,192,122917,1,10,0:0:0:0:
109,192,122917,1,10,0:0:0:0:
475,192,122917,1,0,0:0:0:0:
256,192,122917,1,0,0:0:0:0:
36,192,123037,1,8,0:0:0:0:
182,192,123037,1,10,0:0:0:0:
329,192,123037,1,0,0:0:0:0:
402,192,123037,1,0,0:0:0:0:
109,192,123157,1,10,0:0:0:0:
256,192,123157,1,10,0:0:0:0:
329,192,123157,1,0,0:0:0:0:
475,192,123157,1,0,0:0:0:0:
36,192,123277,1,10,0:0:0:0:
182,192,123277,1,0,0:0:0:0:
109,192,123277,1,0,0:0:0:0:
402,192,123277,1,0,0:0:0:0:
329,192,123397,1,10,0:0:0:0:
402,192,123397,1,10,0:0:0:0:
182,192,123397,1,0,0:0:0:0:
475,192,123397,1,0,0:0:0:0:
36,192,123517,1,10,0:0:0:0:
256,192,123517,1,0,0:0:0:0:
329,192,123517,1,0,0:0:0:0:
109,192,123517,1,0,0:0:0:0:
475,192,123637,1,10,0:0:0:0:
402,192,123637,1,10,0:0:0:0:
109,192,123637,1,0,0:0:0:0:
182,192,123637,1,0,0:0:0:0:
36,192,123757,1,10,0:0:0:0:
402,192,123757,1,0,0:0:0:0:
256,192,123757,1,0,0:0:0:0:
329,192,123757,1,0,0:0:0:0:
109,192,123877,1,8,0:0:0:0:
182,192,123877,1,0,0:0:0:0:
475,192,123877,1,0,0:0:0:0:
36,192,123937,1,8,0:0:0:0:
329,192,123937,1,0,0:0:0:0:
402,192,123937,1,0,0:0:0:0:
109,192,123997,1,8,0:0:0:0:
182,192,123997,1,0,0:0:0:0:
475,192,123997,1,0,0:0:0:0:
256,192,124117,1,10,0:0:0:0:
36,192,124117,1,2,0:0:0:0:
329,192,124117,1,0,0:0:0:0:
402,192,124117,1,0,0:0:0:0:
36,192,124237,1,8,0:0:0:0:
109,192,124237,1,0,0:0:0:0:
182,192,124237,1,0,0:0:0:0:
329,192,124297,1,8,0:0:0:0:
402,192,124297,1,0,0:0:0:0:
475,192,124297,1,0,0:0:0:0:
36,192,124357,1,8,0:0:0:0:
109,192,124357,1,0,0:0:0:0:
182,192,124357,1,0,0:0:0:0:
256,192,124477,1,10,0:0:0:0:
402,192,124477,1,2,0:0:0:0:
475,192,124477,1,0,0:0:0:0:
109,192,124477,1,0,0:0:0:0:
36,192,124597,1,8,0:0:0:0:
182,192,124597,1,0,0:0:0:0:
329,192,124597,1,0,0:0:0:0:
109,192,124657,1,8,0:0:0:0:
256,192,124657,1,0,0:0:0:0:
402,192,124657,1,0,0:0:0:0:
182,192,124717,1,8,0:0:0:0:
329,192,124717,1,0,0:0:0:0:
475,192,124717,1,0,0:0:0:0:
256,192,124777,1,8,0:0:0:0:
402,192,124777,1,0,0:0:0:0:
36,192,124777,1,0,0:0:0:0:
109,192,124837,1,2,0:0:0:0:
182,192,124837,1,10,0:0:0:0:
329,192,124837,1,0,0:0:0:0:
475,192,124837,1,0,0:0:0:0:
36,192,124837,1,0,0:0:0:0:
256,192,127837,128,0,128677:0:0:0:0:
402,192,128677,1,0,0:0:0:0:
475,192,128677,1,0,0:0:0:0:
182,192,128677,1,0,0:0:0:0:
402,192,128977,1,0,0:0:0:0:
182,192,129637,1,0,0:0:0:0:
402,192,129637,1,0,0:0:0:0:
475,192,129637,1,0,0:0:0:0:
402,192,129937,1,0,0:0:0:0:
109,192,130597,1,0,0:0:0:0:
329,192,130597,1,0,0:0:0:0:
402,192,130597,1,0,0:0:0:0:
329,192,130897,1,0,0:0:0:0:
36,192,131557,1,0,0:0:0:0:
329,192,131557,1,0,0:0:0:0:
256,192,131557,1,0,0:0:0:0:
256,192,131857,1,0,0:0:0:0:
109,192,132517,1,0,0:0:0:0:
256,192,132517,1,0,0:0:0:0:
329,192,132517,1,0,0:0:0:0:
329,192,132817,1,0,0:0:0:0:
109,192,136357,1,0,0:0:0:0:
256,192,136357,1,0,0:0:0:0:
329,192,136357,1,0,0:0:0:0:
36,192,136357,1,0,0:0:0:0:
256,192,136657,1,0,0:0:0:0:
109,192,137317,1,0,0:0:0:0:
256,192,137317,1,0,0:0:0:0:
329,192,137317,1,0,0:0:0:0:
36,192,137317,1,0,0:0:0:0:
256,192,137617,1,0,0:0:0:0:
36,192,138277,1,0,0:0:0:0:
109,192,138277,1,0,0:0:0:0:
329,192,138277,1,0,0:0:0:0:
256,192,138277,1,0,0:0:0:0:
109,192,138577,1,0,0:0:0:0:
36,192,139237,1,0,0:0:0:0:
109,192,139237,1,0,0:0:0:0:
256,192,139237,1,0,0:0:0:0:
329,192,139237,1,0,0:0:0:0:
36,192,139537,1,0,0:0:0:0:
36,192,140197,1,0,0:0:0:0:
182,192,140197,1,0,0:0:0:0:
402,192,140197,1,0,0:0:0:0:
329,192,140197,1,0,0:0:0:0:
182,192,140497,1,0,0:0:0:0:
402,192,144037,1,0,0:0:0:0:
475,192,144037,1,0,0:0:0:0:
182,192,144037,1,0,0:0:0:0:
475,192,144337,1,0,0:0:0:0:
402,192,144997,1,0,0:0:0:0:
182,192,144997,1,0,0:0:0:0:
475,192,144997,1,0,0:0:0:0:
475,192,145297,1,0,0:0:0:0:
402,192,145957,1,0,0:0:0:0:
109,192,145957,1,0,0:0:0:0:
329,192,145957,1,0,0:0:0:0:
402,192,146257,1,0,0:0:0:0:
329,192,146917,1,0,0:0:0:0:
256,192,146917,1,0,0:0:0:0:
109,192,146917,1,0,0:0:0:0:
256,192,147217,1,0,0:0:0:0:
256,192,147877,1,0,0:0:0:0:
36,192,147877,1,0,0:0:0:0:
402,192,147877,1,0,0:0:0:0:
329,192,148177,1,0,0:0:0:0:
109,192,151717,1,0,0:0:0:0:
256,192,151717,1,0,0:0:0:0:
329,192,151717,1,0,0:0:0:0:
402,192,151717,1,0,0:0:0:0:
256,192,152017,1,0,0:0:0:0:
109,192,152677,1,0,0:0:0:0:
329,192,152677,1,0,0:0:0:0:
256,192,152677,1,0,0:0:0:0:
402,192,152677,1,0,0:0:0:0:
256,192,152977,1,0,0:0:0:0:
402,192,153637,1,0,0:0:0:0:
256,192,153637,1,0,0:0:0:0:
36,192,153637,1,0,0:0:0:0:
182,192,153637,1,0,0:0:0:0:
182,192,153937,1,0,0:0:0:0:
36,192,154597,1,0,0:0:0:0:
109,192,154597,1,0,0:0:0:0:
256,192,154597,1,0,0:0:0:0:
402,192,154597,1,0,0:0:0:0:
109,192,154897,1,0,0:0:0:0:
182,192,155557,1,0,0:0:0:0:
109,192,155557,1,0,0:0:0:0:
36,192,155557,1,0,0:0:0:0:
256,192,155557,1,0,0:0:0:0:
36,192,155857,1,0,0:0:0:0:
256,192,158437,128,0,159397:0:0:0:0:
36,192,159397,1,6,0:0:0:0:
109,192,159397,1,6,0:0:0:0:
475,192,159397,128,6,169717:0:0:0:0:
329,192,159397,128,0,162997:0:0:0:0:
256,192,161317,128,0,162037:0:0:0:0:
402,192,161317,128,0,176437:0:0:0:0:
256,192,162277,128,0,166837:0:0:0:0:
109,192,162277,128,0,168757:0:0:0:0:
329,192,163237,128,0,174517:0:0:0:0:
182,192,163237,128,0,166837:0:0:0:0:
182,192,167077,128,0,168757:0:0:0:0:
256,192,167077,128,0,176437:0:0:0:0:
109,192,168997,128,0,169717:0:0:0:0:
182,192,168997,128,0,170677:0:0:0:0:
36,192,169957,128,0,170677:0:0:0:0:
109,192,169957,128,0,177397:0:0:0:0:
36,192,170917,128,0,174517:0:0:0:0:
182,192,170917,128,0,178357:0:0:0:0:
475,192,174757,128,0,182197:0:0:0:0:
329,192,174757,128,0,178357:0:0:0:0:
402,192,176677,128,0,184117:0:0:0:0:
256,192,176677,128,0,177397:0:0:0:0:
256,192,177637,128,0,182197:0:0:0:0:
109,192,177637,128,0,184117:0:0:0:0:
182,192,178597,128,0,182197:0:0:0:0:
329,192,178597,128,0,185077:0:0:0:0:
182,192,182437,128,0,184117:0:0:0:0:
256,192,182437,128,0,185317:0:0:0:0:
109,192,184357,128,0,185077:0:0:0:0:
182,192,184357,128,0,186037:0:0:0:0:
36,192,185317,128,0,186037:0:0:0:0:
109,192,185317,128,0,186277:0:0:0:0:
36,192,186277,128,0,190117:0:0:0:0:
182,192,186277,128,0,190117:0:0:0:0:
329,192,189157,128,0,190117:0:0:0:0:
256,192,190117,1,6,0:0:0:0:
402,192,190117,1,6,0:0:0:0:
109,192,190117,1,0,0:0:0:0:
475,192,190177,1,0,0:0:0:0:
182,192,190237,1,2,0:0:0:0:
36,192,190237,1,2,0:0:0:0:
402,192,190237,1,0,0:0:0:0:
329,192,190297,1,0,0:0:0:0:
256,192,190357,1,2,0:0:0:0:
36,192,190357,1,2,0:0:0:0:
109,192,190357,1,0,0:0:0:0:
475,192,190357,1,0,0:0:0:0:
182,192,190417,1,0,0:0:0:0:
402,192,190477,1,2,0:0:0:0:
475,192,190477,1,2,0:0:0:0:
329,192,190477,1,0,0:0:0:0:
182,192,190537,1,0,0:0:0:0:
329,192,190597,1,2,0:0:0:0:
36,192,190597,1,2,0:0:0:0:
256,192,190597,1,0,0:0:0:0:
475,192,190657,1,0,0:0:0:0:
36,192,190717,1,2,0:0:0:0:
256,192,190717,1,2,0:0:0:0:
402,192,190717,1,0,0:0:0:0:
109,192,190777,1,0,0:0:0:0:
475,192,190837,1,2,0:0:0:0:
329,192,190837,1,2,0:0:0:0:
182,192,190837,1,0,0:0:0:0:
256,192,190897,1,0,0:0:0:0:
109,192,190957,1,2,0:0:0:0:
329,192,190957,1,2,0:0:0:0:
36,192,190957,1,0,0:0:0:0:
182,192,191017,1,0,0:0:0:0:
256,192,191077,1,2,0:0:0:0:
475,192,191077,1,2,0:0:0:0:
36,192,191077,1,0,0:0:0:0:
402,192,191137,1,0,0:0:0:0:
182,192,191197,1,2,0:0:0:0:
109,192,191197,1,2,0:0:0:0:
329,192,191197,1,0,0:0:0:0:
36,192,191197,1,0,0:0:0:0:
402,192,191257,1,0,0:0:0:0:
475,192,191317,1,2,0:0:0:0:
109,192,191317,1,2,0:0:0:0:
256,192,191317,1,0,0:0:0:0:
329,192,191377,1,0,0:0:0:0:
256,192,191437,1,2,0:0:0:0:
182,192,191437,1,2,0:0:0:0:
402,192,191437,1,0,0:0:0:0:
109,192,191497,1,0,0:0:0:0:
402,192,191557,1,2,0:0:0:0:
36,192,191557,1,2,0:0:0:0:
475,192,191557,1,0,0:0:0:0:
329,192,191617,1,0,0:0:0:0:
36,192,191677,1,2,0:0:0:0:
182,192,191677,1,0,0:0:0:0:
109,192,191677,1,0,0:0:0:0:
256,192,191737,1,0,0:0:0:0:
475,192,191797,1,2,0:0:0:0:
329,192,191797,1,0,0:0:0:0:
182,192,191797,1,0,0:0:0:0:
36,192,191857,1,0,0:0:0:0:
329,192,191917,1,2,0:0:0:0:
402,192,191917,1,0,0:0:0:0:
109,192,191917,1,0,0:0:0:0:
182,192,191977,1,0,0:0:0:0:
36,192,192037,1,2,0:0:0:0:
475,192,192037,1,2,0:0:0:0:
256,192,192037,1,0,0:0:0:0:
329,192,192037,1,0,0:0:0:0:
402,192,192037,1,0,0:0:0:0:
109,192,192097,1,0,0:0:0:0:
402,192,192157,1,2,0:0:0:0:
182,192,192157,1,2,0:0:0:0:
475,192,192157,1,0,0:0:0:0:
36,192,192157,1,0,0:0:0:0:
256,192,192217,1,0,0:0:0:0:
329,192,192277,1,2,0:0:0:0:
36,192,192277,1,2,0:0:0:0:
182,192,192277,1,0,0:0:0:0:
402,192,192337,1,0,0:0:0:0:
36,192,192397,1,2,0:0:0:0:
475,192,192397,1,2,0:0:0:0:
256,192,192397,1,0,0:0:0:0:
109,192,192397,1,0,0:0:0:0:
329,192,192457,1,0,0:0:0:0:
475,192,192517,1,2,0:0:0:0:
402,192,192517,1,2,0:0:0:0:
182,192,192517,1,0,0:0:0:0:
109,192,192517,1,0,0:0:0:0:
329,192,192577,1,0,0:0:0:0:
36,192,192637,1,2,0:0:0:0:
402,192,192637,1,2,0:0:0:0:
256,192,192637,1,0,0:0:0:0:
109,192,192637,1,0,0:0:0:0:
182,192,192697,1,0,0:0:0:0:
329,192,192757,1,2,0:0:0:0:
475,192,192757,1,2,0:0:0:0:
402,192,192757,1,0,0:0:0:0:
109,192,192757,1,0,0:0:0:0:
36,192,192817,1,0,0:0:0:0:
329,192,192877,1,2,0:0:0:0:
109,192,192877,1,2,0:0:0:0:
475,192,192877,1,0,0:0:0:0:
256,192,192877,1,0,0:0:0:0:
182,192,192937,1,0,0:0:0:0:
475,192,192997,1,2,0:0:0:0:
256,192,192997,1,2,0:0:0:0:
36,192,192997,1,0,0:0:0:0:
402,192,192997,1,0,0:0:0:0:
109,192,192997,1,0,0:0:0:0:
329,192,193057,1,0,0:0:0:0:
182,192,193117,1,2,0:0:0:0:
475,192,193117,1,2,0:0:0:0:
256,192,193117,1,0,0:0:0:0:
402,192,193177,1,0,0:0:0:0:
109,192,193237,1,2,0:0:0:0:
329,192,193237,1,2,0:0:0:0:
36,192,193237,1,0,0:0:0:0:
256,192,193297,1,0,0:0:0:0:
109,192,193357,1,2,0:0:0:0:
402,192,193357,1,2,0:0:0:0:
36,192,193357,1,0,0:0:0:0:
182,192,193477,1,10,0:0:0:0:
329,192,193477,1,2,0:0:0:0:
475,192,193477,1,0,0:0:0:0:
402,192,193597,1,8,0:0:0:0:
36,192,193597,1,0,0:0:0:0:
182,192,193597,1,0,0:0:0:0:
475,192,193657,1,8,0:0:0:0:
256,192,193657,1,0,0:0:0:0:
109,192,193657,1,0,0:0:0:0:
36,192,193717,1,8,0:0:0:0:
182,192,193717,1,0,0:0:0:0:
402,192,193717,1,0,0:0:0:0:
329,192,193837,1,10,0:0:0:0:
109,192,193837,1,2,0:0:0:0:
256,192,193837,1,0,0:0:0:0:
182,192,193957,1,2,0:0:0:0:
402,192,193957,1,2,0:0:0:0:
36,192,193957,1,0,0:0:0:0:
475,192,193957,1,0,0:0:0:0:
256,192,193957,1,0,0:0:0:0:
329,192,194017,1,0,0:0:0:0:
256,192,194077,1,2,0:0:0:0:
475,192,194077,1,2,0:0:0:0:
109,192,194077,1,0,0:0:0:0:
402,192,194137,1,0,0:0:0:0:
329,192,194197,1,2,0:0:0:0:
182,192,194197,1,2,0:0:0:0:
475,192,194197,1,0,0:0:0:0:
36,192,194197,1,0,0:0:0:0:
109,192,194257,1,0,0:0:0:0:
402,192,194317,1,2,0:0:0:0:
329,192,194317,1,2,0:0:0:0:
256,192,194317,1,0,0:0:0:0:
182,192,194377,1,0,0:0:0:0:
36,192,194437,1,2,0:0:0:0:
109,192,194437,1,2,0:0:0:0:
475,192,194437,1,0,0:0:0:0:
402,192,194497,1,0,0:0:0:0:
182,192,194557,1,2,0:0:0:0:
329,192,194557,1,2,0:0:0:0:
256,192,194557,1,0,0:0:0:0:
109,192,194617,1,0,0:0:0:0:
36,192,194677,1,2,0:0:0:0:
329,192,194677,1,2,0:0:0:0:
402,192,194677,1,0,0:0:0:0:
256,192,194737,1,0,0:0:0:0:
109,192,194797,1,2,0:0:0:0:
182,192,194797,1,2,0:0:0:0:
475,192,194797,1,0,0:0:0:0:
256,192,194857,1,0,0:0:0:0:
36,192,194917,1,2,0:0:0:0:
402,192,194917,1,2,0:0:0:0:
475,192,194917,1,0,0:0:0:0:
329,192,194917,1,0,0:0:0:0:
182,192,194977,1,0,0:0:0:0:
109,192,195037,1,2,0:0:0:0:
329,192,195037,1,2,0:0:0:0:
402,192,195037,1,0,0:0:0:0:
256,192,195037,1,0,0:0:0:0:
475,192,195097,1,0,0:0:0:0:
36,192,195157,1,2,0:0:0:0:
256,192,195157,1,2,0:0:0:0:
329,192,195157,1,0,0:0:0:0:
182,192,195157,1,0,0:0:0:0:
402,192,195217,1,0,0:0:0:0:
182,192,195277,1,2,0:0:0:0:
475,192,195277,1,2,0:0:0:0:
256,192,195277,1,0,0:0:0:0:
109,192,195277,1,0,0:0:0:0:
329,192,195337,1,0,0:0:0:0:
402,192,195397,1,2,0:0:0:0:
36,192,195397,1,2,0:0:0:0:
182,192,195397,1,0,0:0:0:0:
109,192,195397,1,0,0:0:0:0:
256,192,195457,1,0,0:0:0:0:
109,192,195517,1,2,0:0:0:0:
475,192,195517,1,2,0:0:0:0:
36,192,195517,1,0,0:0:0:0:
329,192,195517,1,0,0:0:0:0:
182,192,195577,1,0,0:0:0:0:
475,192,195637,1,2,0:0:0:0:
256,192,195637,1,2,0:0:0:0:
36,192,195637,1,0,0:0:0:0:
402,192,195637,1,0,0:0:0:0:
109,192,195697,1,0,0:0:0:0:
329,192,195757,1,2,0:0:0:0:
182,192,195757,1,2,0:0:0:0:
402,192,195757,1,0,0:0:0:0:
256,192,195757,1,0,0:0:0:0:
109,192,195817,1,0,0:0:0:0:
329,192,195877,1,2,0:0:0:0:
475,192,195877,1,2,0:0:0:0:
36,192,195877,1,0,0:0:0:0:
402,192,195877,1,0,0:0:0:0:
256,192,195937,1,0,0:0:0:0:
475,192,195997,1,2,0:0:0:0:
36,192,195997,1,2,0:0:0:0:
182,192,195997,1,0,0:0:0:0:
402,192,195997,1,0,0:0:0:0:
256,192,196057,1,0,0:0:0:0:
109,192,196117,1,2,0:0:0:0:
182,192,196117,1,2,0:0:0:0:
329,192,196117,1,0,0:0:0:0:
36,192,196117,1,0,0:0:0:0:
402,192,196177,1,0,0:0:0:0:
475,192,196237,1,2,0:0:0:0:
109,192,196237,1,2,0:0:0:0:
329,192,196237,1,0,0:0:0:0:
182,192,196297,1,0,0:0:0:0:
256,192,196357,1,2,0:0:0:0:
36,192,196357,1,2,0:0:0:0:
475,192,196357,1,0,0:0:0:0:
402,192,196357,1,0,0:0:0:0:
329,192,196417,1,0,0:0:0:0:
402,192,196477,1,2,0:0:0:0:
109,192,196477,1,2,0:0:0:0:
182,192,196477,1,0,0:0:0:0:
329,192,196537,1,0,0:0:0:0:
36,192,196597,1,2,0:0:0:0:
256,192,196597,1,2,0:0:0:0:
182,192,196597,1,0,0:0:0:0:
475,192,196657,1,0,0:0:0:0:
329,192,196717,1,2,0:0:0:0:
256,192,196717,1,2,0:0:0:0:
109,192,196717,1,0,0:0:0:0:
402,192,196717,1,0,0:0:0:0:
329,192,196837,1,2,0:0:0:0:
109,192,196837,1,2,0:0:0:0:
475,192,196837,1,0,0:0:0:0:
36,192,196957,1,2,0:0:0:0:
182,192,196957,1,2,0:0:0:0:
402,192,196957,1,0,0:0:0:0:
256,192,197017,1,0,0:0:0:0:
329,192,197077,1,2,0:0:0:0:
109,192,197077,1,2,0:0:0:0:
475,192,197077,1,0,0:0:0:0:
402,192,197197,1,2,0:0:0:0:
109,192,197197,1,2,0:0:0:0:
475,192,197197,1,0,0:0:0:0:
182,192,197317,1,2,0:0:0:0:
36,192,197317,1,2,0:0:0:0:
256,192,197317,1,0,0:0:0:0:
329,192,197347,1,0,0:0:0:0:
402,192,197377,1,0,0:0:0:0:
475,192,197407,1,0,0:0:0:0:
36,192,197437,1,2,0:0:0:0:
109,192,197467,1,0,0:0:0:0:
182,192,197497,1,0,0:0:0:0:
256,192,197527,1,0,0:0:0:0:
475,192,197557,1,2,0:0:0:0:
402,192,197587,1,0,0:0:0:0:
329,192,197617,1,8,0:0:0:0:
256,192,197647,1,0,0:0:0:0:
182,192,197677,1,2,0:0:0:0:
109,192,197707,1,0,0:0:0:0:
36,192,197737,1,0,0:0:0:0:
475,192,197767,1,0,0:0:0:0:
256,192,197797,1,2,0:0:0:0:
402,192,197797,1,2,0:0:0:0:
182,192,197797,1,0,0:0:0:0:
329,192,197797,1,0,0:0:0:0:
109,192,197797,1,0,0:0:0:0:
36,192,197857,1,0,0:0:0:0:
402,192,197917,1,2,0:0:0:0:
475,192,197917,1,2,0:0:0:0:
329,192,197917,1,0,0:0:0:0:
256,192,197977,1,0,0:0:0:0:
182,192,198037,1,2,0:0:0:0:
402,192,198037,1,2,0:0:0:0:
475,192,198037,1,0,0:0:0:0:
36,192,198037,1,0,0:0:0:0:
329,192,198097,1,0,0:0:0:0:
109,192,198157,1,2,0:0:0:0:
36,192,198157,1,2,0:0:0:0:
256,192,198157,1,0,0:0:0:0:
329,192,198217,1,0,0:0:0:0:
475,192,198277,1,2,0:0:0:0:
182,192,198277,1,2,0:0:0:0:
402,192,198277,1,0,0:0:0:0:
256,192,198337,1,0,0:0:0:0:
36,192,198397,1,2,0:0:0:0:
329,192,198397,1,2,0:0:0:0:
475,192,198397,1,0,0:0:0:0:
182,192,198397,1,0,0:0:0:0:
109,192,198457,1,0,0:0:0:0:
256,192,198517,1,2,0:0:0:0:
36,192,198517,1,2,0:0:0:0:
402,192,198517,1,0,0:0:0:0:
109,192,198577,1,0,0:0:0:0:
475,192,198637,1,2,0:0:0:0:
329,192,198637,1,2,0:0:0:0:
182,192,198637,1,0,0:0:0:0:
256,192,198637,1,0,0:0:0:0:
402,192,198697,1,0,0:0:0:0:
329,192,198757,1,2,0:0:0:0:
256,192,198757,1,2,0:0:0:0:
36,192,198757,1,0,0:0:0:0:
182,192,198757,1,0,0:0:0:0:
109,192,198817,1,0,0:0:0:0:
182,192,198877,1,2,0:0:0:0:
402,192,198877,1,2,0:0:0:0:
475,192,198877,1,0,0:0:0:0:
329,192,198937,1,0,0:0:0:0:
256,192,198997,1,2,0:0:0:0:
36,192,198997,1,2,0:0:0:0:
109,192,198997,1,0,0:0:0:0:
475,192,199057,1,0,0:0:0:0:
402,192,199117,1,2,0:0:0:0:
256,192,199117,1,2,0:0:0:0:
182,192,199117,1,0,0:0:0:0:
109,192,199177,1,0,0:0:0:0:
329,192,199237,1,2,0:0:0:0:
36,192,199237,1,2,0:0:0:0:
182,192,199237,1,0,0:0:0:0:
402,192,199297,1,0,0:0:0:0:
475,192,199357,1,2,0:0:0:0:
109,192,199357,1,2,0:0:0:0:
256,192,199357,1,0,0:0:0:0:
329,192,199417,1,0,0:0:0:0:
402,192,199477,1,2,0:0:0:0:
36,192,199477,1,2,0:0:0:0:
475,192,199477,1,0,0:0:0:0:
109,192,199507,1,0,0:0:0:0:
182,192,199537,1,0,0:0:0:0:
256,192,199567,1,0,0:0:0:0:
475,192,199597,1,2,0:0:0:0:
402,192,199627,1,0,0:0:0:0:
329,192,199657,1,0,0:0:0:0:
256,192,199687,1,0,0:0:0:0:
36,192,199717,1,2,0:0:0:0:
475,192,199717,1,2,0:0:0:0:
182,192,199717,1,0,0:0:0:0:
109,192,199717,1,0,0:0:0:0:
402,192,199717,1,0,0:0:0:0:
329,192,199777,1,0,0:0:0:0:
109,192,199837,1,2,0:0:0:0:
36,192,199837,1,2,0:0:0:0:
256,192,199837,1,0,0:0:0:0:
329,192,199897,1,0,0:0:0:0:
402,192,199957,1,2,0:0:0:0:
182,192,199957,1,2,0:0:0:0:
475,192,199957,1,0,0:0:0:0:
256,192,200017,1,0,0:0:0:0:
329,192,200077,1,2,0:0:0:0:
109,192,200077,1,2,0:0:0:0:
36,192,200077,1,0,0:0:0:0:
402,192,200137,1,0,0:0:0:0:
475,192,200197,1,2,0:0:0:0:
256,192,200197,1,2,0:0:0:0:
182,192,200197,1,0,0:0:0:0:
36,192,200197,1,0,0:0:0:0:
329,192,200257,1,0,0:0:0:0:
475,192,200317,1,2,0:0:0:0:
402,192,200317,1,2,0:0:0:0:
36,192,200317,1,0,0:0:0:0:
109,192,200317,1,0,0:0:0:0:
256,192,200377,1,0,0:0:0:0:
402,192,200437,1,2,0:0:0:0:
109,192,200437,1,2,0:0:0:0:
329,192,200437,1,0,0:0:0:0:
182,192,200437,1,0,0:0:0:0:
475,192,200497,1,0,0:0:0:0:
36,192,200557,1,2,0:0:0:0:
256,192,200557,1,2,0:0:0:0:
402,192,200557,1,0,0:0:0:0:
329,192,200557,1,0,0:0:0:0:
109,192,200617,1,0,0:0:0:0:
256,192,200677,1,2,0:0:0:0:
182,192,200677,1,2,0:0:0:0:
329,192,200677,1,0,0:0:0:0:
475,192,200677,1,0,0:0:0:0:
36,192,200677,1,0,0:0:0:0:
109,192,200737,1,0,0:0:0:0:
182,192,200797,1,2,0:0:0:0:
402,192,200797,1,2,0:0:0:0:
475,192,200797,1,0,0:0:0:0:
256,192,200857,1,0,0:0:0:0:
329,192,200917,1,2,0:0:0:0:
36,192,200917,1,2,0:0:0:0:
475,192,200917,1,0,0:0:0:0:
256,192,200977,1,0,0:0:0:0:
329,192,201037,1,2,0:0:0:0:
402,192,201037,1,2,0:0:0:0:
182,192,201037,1,0,0:0:0:0:
36,192,201037,1,0,0:0:0:0:
109,192,201097,1,0,0:0:0:0:
475,192,201157,1,2,0:0:0:0:
182,192,201157,1,2,0:0:0:0:
402,192,201157,1,0,0:0:0:0:
109,192,201277,1,2,0:0:0:0:
36,192,201277,1,2,0:0:0:0:
329,192,201277,1,0,0:0:0:0:
182,192,201337,1,8,0:0:0:0:
402,192,201337,1,0,0:0:0:0:
475,192,201337,1,0,0:0:0:0:
109,192,201397,1,2,0:0:0:0:
329,192,201397,1,2,0:0:0:0:
36,192,201397,1,0,0:0:0:0:
256,192,201517,1,2,0:0:0:0:
402,192,201517,1,2,0:0:0:0:
182,192,201517,1,0,0:0:0:0:
329,192,201637,1,2,0:0:0:0:
109,192,201637,1,2,0:0:0:0:
475,192,201637,1,0,0:0:0:0:
36,192,201637,1,0,0:0:0:0:
402,192,201637,1,0,0:0:0:0:
256,192,201697,1,0,0:0:0:0:
475,192,201757,1,2,0:0:0:0:
36,192,201757,1,2,0:0:0:0:
182,192,201757,1,0,0:0:0:0:
402,192,201817,1,0,0:0:0:0:
256,192,201877,1,2,0:0:0:0:
475,192,201877,1,2,0:0:0:0:
329,192,201877,1,0,0:0:0:0:
182,192,201937,1,0,0:0:0:0:
109,192,201997,1,2,0:0:0:0:
36,192,201997,1,2,0:0:0:0:
329,192,201997,1,0,0:0:0:0:
402,192,201997,1,0,0:0:0:0:
256,192,202057,1,0,0:0:0:0:
475,192,202117,1,2,0:0:0:0:
182,192,202117,1,2,0:0:0:0:
402,192,202117,1,0,0:0:0:0:
36,192,202177,1,0,0:0:0:0:
256,192,202237,1,2,0:0:0:0:
182,192,202237,1,2,0:0:0:0:
109,192,202237,1,0,0:0:0:0:
475,192,202237,1,0,0:0:0:0:
329,192,202297,1,0,0:0:0:0:
36,192,202357,1,2,0:0:0:0:
109,192,202357,1,2,0:0:0:0:
402,192,202357,1,0,0:0:0:0:
256,192,202417,1,0,0:0:0:0:
475,192,202477,1,2,0:0:0:0:
182,192,202477,1,2,0:0:0:0:
402,192,202477,1,0,0:0:0:0:
329,192,202537,1,0,0:0:0:0:
109,192,202597,1,2,0:0:0:0:
475,192,202597,1,2,0:0:0:0:
182,192,202597,1,0,0:0:0:0:
36,192,202597,1,0,0:0:0:0:
256,192,202657,1,0,0:0:0:0:
329,192,202717,1,2,0:0:0:0:
402,192,202717,1,2,0:0:0:0:
109,192,202717,1,0,0:0:0:0:
182,192,202777,1,0,0:0:0:0:
475,192,202837,1,2,0:0:0:0:
329,192,202837,1,2,0:0:0:0:
256,192,202837,1,0,0:0:0:0:
36,192,202897,1,0,0:0:0:0:
182,192,202957,1,2,0:0:0:0:
256,192,202957,1,2,0:0:0:0:
402,192,202957,1,0,0:0:0:0:
109,192,203017,1,0,0:0:0:0:
329,192,203077,1,2,0:0:0:0:
475,192,203077,1,2,0:0:0:0:
36,192,203077,1,0,0:0:0:0:
256,192,203197,1,2,0:0:0:0:
109,192,203197,1,2,0:0:0:0:
475,192,203197,1,0,0:0:0:0:
182,192,203197,1,0,0:0:0:0:
329,192,203317,1,2,0:0:0:0:
36,192,203317,1,2,0:0:0:0:
402,192,203317,1,0,0:0:0:0:
182,192,203317,1,0,0:0:0:0:
256,192,203437,1,2,0:0:0:0:
329,192,203437,1,2,0:0:0:0:
475,192,203437,1,0,0:0:0:0:
109,192,203437,1,0,0:0:0:0:
475,192,203557,1,2,0:0:0:0:
36,192,203557,1,2,0:0:0:0:
182,192,203557,1,0,0:0:0:0:
402,192,203617,1,0,0:0:0:0:
109,192,203677,1,2,0:0:0:0:
36,192,203677,1,2,0:0:0:0:
329,192,203677,1,0,0:0:0:0:
256,192,203737,1,0,0:0:0:0:
182,192,203797,1,2,0:0:0:0:
402,192,203797,1,2,0:0:0:0:
329,192,203797,1,0,0:0:0:0:
475,192,203797,1,0,0:0:0:0:
109,192,203857,1,0,0:0:0:0:
36,192,203917,1,2,0:0:0:0:
329,192,203917,1,2,0:0:0:0:
182,192,203917,1,0,0:0:0:0:
256,192,203977,1,0,0:0:0:0:
109,192,204037,1,2,0:0:0:0:
402,192,204037,1,2,0:0:0:0:
475,192,204037,1,0,0:0:0:0:
182,192,204097,1,0,0:0:0:0:
329,192,204157,1,2,0:0:0:0:
36,192,204157,1,2,0:0:0:0:
475,192,204157,1,0,0:0:0:0:
256,192,204157,1,0,0:0:0:0:
402,192,204217,1,0,0:0:0:0:
182,192,204277,1,2,0:0:0:0:
109,192,204277,1,2,0:0:0:0:
329,192,204277,1,0,0:0:0:0:
475,192,204337,1,0,0:0:0:0:
36,192,204397,1,2,0:0:0:0:
402,192,204397,1,10,0:0:0:0:
109,192,204397,1,0,0:0:0:0:
256,192,204457,1,0,0:0:0:0:
475,192,204517,1,8,0:0:0:0:
329,192,204517,1,0,0:0:0:0:
182,192,204517,1,0,0:0:0:0:
402,192,204577,1,8,0:0:0:0:
109,192,204577,1,0,0:0:0:0:
256,192,204577,1,0,0:0:0:0:
36,192,204637,1,8,0:0:0:0:
182,192,204637,1,0,0:0:0:0:
475,192,204637,1,0,0:0:0:0:
402,192,204757,1,10,0:0:0:0:
182,192,204757,1,2,0:0:0:0:
329,192,204757,1,0,0:0:0:0:
256,192,204877,1,8,0:0:0:0:
475,192,204877,1,0,0:0:0:0:
36,192,204877,1,0,0:0:0:0:
182,192,204937,1,8,0:0:0:0:
109,192,204937,1,0,0:0:0:0:
329,192,204937,1,0,0:0:0:0:
256,192,204997,1,8,0:0:0:0:
402,192,204997,1,0,0:0:0:0:
36,192,204997,1,0,0:0:0:0:
36,192,205117,1,10,0:0:0:0:
329,192,205117,1,2,0:0:0:0:
475,192,205117,1,0,0:0:0:0:
182,192,205117,1,0,0:0:0:0:
329,192,205237,1,8,0:0:0:0:
36,192,205237,1,0,0:0:0:0:
109,192,205237,1,0,0:0:0:0:
475,192,205237,1,0,0:0:0:0:
182,192,205297,1,8,0:0:0:0:
402,192,205297,1,0,0:0:0:0:
256,192,205297,1,0,0:0:0:0:
329,192,205357,1,8,0:0:0:0:
109,192,205357,1,0,0:0:0:0:
36,192,205357,1,0,0:0:0:0:
182,192,205417,1,8,0:0:0:0:
475,192,205417,1,0,0:0:0:0:
402,192,205417,1,0,0:0:0:0:
256,192,205477,1,8,0:0:0:0:
36,192,205477,1,0,0:0:0:0:
109,192,205477,1,0,0:0:0:0:
329,192,205477,1,0,0:0:0:0:
475,192,205537,1,0,0:0:0:0:
182,192,205597,1,2,0:0:0:0:
402,192,205597,1,2,0:0:0:0:
109,192,205597,1,0,0:0:0:0:
329,192,205657,1,0,0:0:0:0:
182,192,205717,1,2,0:0:0:0:
256,192,205717,1,2,0:0:0:0:
475,192,205717,1,0,0:0:0:0:
36,192,205717,1,0,0:0:0:0:
402,192,205777,1,0,0:0:0:0:
329,192,205837,1,2,0:0:0:0:
36,192,205837,1,2,0:0:0:0:
109,192,205837,1,0,0:0:0:0:
256,192,205897,1,0,0:0:0:0:
475,192,205957,1,2,0:0:0:0:
182,192,205957,1,2,0:0:0:0:
402,192,205957,1,0,0:0:0:0:
36,192,206017,1,0,0:0:0:0:
109,192,206077,1,2,0:0:0:0:
329,192,206077,1,2,0:0:0:0:
256,192,206077,1,0,0:0:0:0:
402,192,206137,1,0,0:0:0:0:
475,192,206197,1,2,0:0:0:0:
109,192,206197,1,2,0:0:0:0:
182,192,206257,1,0,0:0:0:0:
256,192,206317,1,2,0:0:0:0:
402,192,206317,1,2,0:0:0:0:
36,192,206317,1,0,0:0:0:0:
329,192,206377,1,0,0:0:0:0:
475,192,206437,1,2,0:0:0:0:
182,192,206437,1,2,0:0:0:0:
36,192,206437,1,0,0:0:0:0:
109,192,206437,1,0,0:0:0:0:
256,192,206497,1,0,0:0:0:0:
402,192,206557,1,2,0:0:0:0:
109,192,206557,1,2,0:0:0:0:
329,192,206557,1,0,0:0:0:0:
182,192,206617,1,0,0:0:0:0:
329,192,206677,1,2,0:0:0:0:
36,192,206677,1,2,0:0:0:0:
475,192,206677,1,0,0:0:0:0:
256,192,206737,1,0,0:0:0:0:
182,192,206797,1,2,0:0:0:0:
402,192,206797,1,2,0:0:0:0:
329,192,206857,1,0,0:0:0:0:
36,192,206917,1,2,0:0:0:0:
109,192,206947,1,0,0:0:0:0:
182,192,206977,1,0,0:0:0:0:
329,192,207007,1,0,0:0:0:0:
475,192,207037,1,2,0:0:0:0:
109,192,207067,1,0,0:0:0:0:
182,192,207097,1,0,0:0:0:0:
256,192,207127,1,0,0:0:0:0:
402,192,207157,1,2,0:0:0:0:
36,192,207187,1,0,0:0:0:0:
109,192,207217,1,0,0:0:0:0:
182,192,207247,1,0,0:0:0:0:
475,192,207277,1,2,0:0:0:0:
402,192,207307,1,0,0:0:0:0:
256,192,207337,1,0,0:0:0:0:
182,192,207367,1,0,0:0:0:0:
109,192,207397,1,2,0:0:0:0:
475,192,207397,1,2,0:0:0:0:
329,192,207397,1,0,0:0:0:0:
402,192,207397,1,0,0:0:0:0:
36,192,207397,1,0,0:0:0:0:
256,192,207457,1,0,0:0:0:0:
109,192,207517,1,2,0:0:0:0:
475,192,207517,1,2,0:0:0:0:
182,192,207517,1,0,0:0:0:0:
402,192,207577,1,0,0:0:0:0:
329,192,207637,1,2,0:0:0:0:
36,192,207637,1,2,0:0:0:0:
256,192,207637,1,0,0:0:0:0:
182,192,207697,1,0,0:0:0:0:
475,192,207757,1,2,0:0:0:0:
36,192,207757,1,2,0:0:0:0:
109,192,207757,1,0,0:0:0:0:
329,192,207817,1,0,0:0:0:0:
475,192,207877,1,2,0:0:0:0:
109,192,207877,1,2,0:0:0:0:
256,192,207877,1,0,0:0:0:0:
182,192,207937,1,0,0:0:0:0:
36,192,207997,1,2,0:0:0:0:
329,192,207997,1,2,0:0:0:0:
402,192,207997,1,0,0:0:0:0:
182,192,208057,1,0,0:0:0:0:
36,192,208117,1,2,0:0:0:0:
475,192,208117,1,2,0:0:0:0:
256,192,208117,1,0,0:0:0:0:
109,192,208177,1,0,0:0:0:0:
402,192,208237,1,2,0:0:0:0:
182,192,208237,1,2,0:0:0:0:
256,192,208237,1,0,0:0:0:0:
109,192,208297,1,0,0:0:0:0:
402,192,208357,1,2,0:0:0:0:
329,192,208357,1,2,0:0:0:0:
36,192,208357,1,0,0:0:0:0:
182,192,208357,1,0,0:0:0:0:
475,192,208357,1,0,0:0:0:0:
256,192,208417,1,0,0:0:0:0:
475,192,208477,1,2,0:0:0:0:
109,192,208477,1,2,0:0:0:0:
329,192,208477,1,0,0:0:0:0:
402,192,208537,1,0,0:0:0:0:
36,192,208597,1,2,0:0:0:0:
329,192,208597,1,2,0:0:0:0:
256,192,208597,1,0,0:0:0:0:
109,192,208657,1,0,0:0:0:0:
182,192,208717,1,2,0:0:0:0:
402,192,208717,1,2,0:0:0:0:
475,192,208717,1,0,0:0:0:0:
329,192,208777,1,0,0:0:0:0:
109,192,208837,1,10,0:0:0:0:
182,192,208837,1,2,0:0:0:0:
256,192,208837,1,0,0:0:0:0:
36,192,208957,1,8,0:0:0:0:
402,192,208957,1,0,0:0:0:0:
475,192,208957,1,0,0:0:0:0:
182,192,209017,1,8,0:0:0:0:
109,192,209017,1,0,0:0:0:0:
329,192,209017,1,0,0:0:0:0:
475,192,209077,1,8,0:0:0:0:
36,192,209077,1,0,0:0:0:0:
402,192,209077,1,0,0:0:0:0:
256,192,209197,1,10,0:0:0:0:
182,192,209197,1,2,0:0:0:0:
109,192,209197,1,0,0:0:0:0:
36,192,209317,1,2,0:0:0:0:
475,192,209317,1,2,0:0:0:0:
329,192,209317,1,0,0:0:0:0:
256,192,209317,1,0,0:0:0:0:
402,192,209317,1,0,0:0:0:0:
109,192,209377,1,0,0:0:0:0:
402,192,209437,1,2,0:0:0:0:
182,192,209437,1,2,0:0:0:0:
256,192,209437,1,0,0:0:0:0:
329,192,209497,1,0,0:0:0:0:
109,192,209557,1,2,0:0:0:0:
36,192,209557,1,2,0:0:0:0:
475,192,209557,1,0,0:0:0:0:
402,192,209617,1,0,0:0:0:0:
36,192,209677,1,2,0:0:0:0:
256,192,209677,1,2,0:0:0:0:
329,192,209677,1,0,0:0:0:0:
109,192,209737,1,0,0:0:0:0:
182,192,209797,1,2,0:0:0:0:
475,192,209797,1,2,0:0:0:0:
402,192,209797,1,0,0:0:0:0:
329,192,209857,1,0,0:0:0:0:
109,192,209917,1,2,0:0:0:0:
256,192,209917,1,2,0:0:0:0:
36,192,209917,1,0,0:0:0:0:
475,192,209977,1,0,0:0:0:0:
182,192,210037,1,2,0:0:0:0:
329,192,210037,1,2,0:0:0:0:
402,192,210037,1,0,0:0:0:0:
36,192,210097,1,0,0:0:0:0:
109,192,210157,1,2,0:0:0:0:
402,192,210157,1,2,0:0:0:0:
256,192,210157,1,0,0:0:0:0:
329,192,210217,1,0,0:0:0:0:
36,192,210277,1,2,0:0:0:0:
182,192,210277,1,2,0:0:0:0:
109,192,210277,1,0,0:0:0:0:
475,192,210277,1,0,0:0:0:0:
402,192,210337,1,0,0:0:0:0:
256,192,210397,1,2,0:0:0:0:
36,192,210397,1,2,0:0:0:0:
109,192,210397,1,0,0:0:0:0:
182,192,210397,1,0,0:0:0:0:
475,192,210457,1,0,0:0:0:0:
256,192,210517,1,2,0:0:0:0:
109,192,210517,1,2,0:0:0:0:
182,192,210517,1,0,0:0:0:0:
329,192,210517,1,0,0:0:0:0:
36,192,210577,1,0,0:0:0:0:
182,192,210637,1,2,0:0:0:0:
256,192,210637,1,2,0:0:0:0:
329,192,210637,1,0,0:0:0:0:
402,192,210637,1,0,0:0:0:0:
109,192,210697,1,0,0:0:0:0:
256,192,210757,1,2,0:0:0:0:
329,192,210757,1,2,0:0:0:0:
475,192,210757,1,0,0:0:0:0:
402,192,210757,1,0,0:0:0:0:
182,192,210817,1,0,0:0:0:0:
475,192,210877,1,2,0:0:0:0:
402,192,210877,1,2,0:0:0:0:
36,192,210877,1,0,0:0:0:0:
329,192,210877,1,0,0:0:0:0:
256,192,210937,1,0,0:0:0:0:
182,192,210997,1,2,0:0:0:0:
402,192,210997,1,2,0:0:0:0:
36,192,210997,1,0,0:0:0:0:
475,192,210997,1,0,0:0:0:0:
329,192,211057,1,0,0:0:0:0:
182,192,211117,1,2,0:0:0:0:
475,192,211117,1,2,0:0:0:0:
36,192,211117,1,0,0:0:0:0:
109,192,211117,1,0,0:0:0:0:
402,192,211177,1,0,0:0:0:0:
256,192,211237,1,2,0:0:0:0:
109,192,211237,1,2,0:0:0:0:
329,192,211237,1,0,0:0:0:0:
182,192,211297,1,0,0:0:0:0:
36,192,211357,1,2,0:0:0:0:
256,192,211357,1,2,0:0:0:0:
475,192,211357,1,0,0:0:0:0:
329,192,211417,1,0,0:0:0:0:
402,192,211477,1,2,0:0:0:0:
109,192,211477,1,2,0:0:0:0:
182,192,211477,1,0,0:0:0:0:
475,192,211537,1,0,0:0:0:0:
36,192,211597,1,2,0:0:0:0:
182,192,211597,1,2,0:0:0:0:
402,192,211597,1,0,0:0:0:0:
329,192,211657,1,0,0:0:0:0:
475,192,211717,1,2,0:0:0:0:
36,192,211717,1,2,0:0:0:0:
256,192,211717,1,0,0:0:0:0:
402,192,211777,1,0,0:0:0:0:
109,192,211837,1,2,0:0:0:0:
182,192,211837,1,2,0:0:0:0:
256,192,211837,1,0,0:0:0:0:
475,192,211837,1,0,0:0:0:0:
329,192,211897,1,0,0:0:0:0:
36,192,211957,1,2,0:0:0:0:
475,192,211957,1,2,0:0:0:0:
402,192,211957,1,0,0:0:0:0:
256,192,212017,1,0,0:0:0:0:
182,192,212077,1,2,0:0:0:0:
329,192,212077,1,2,0:0:0:0:
109,192,212077,1,0,0:0:0:0:
36,192,212077,1,0,0:0:0:0:
402,192,212137,1,0,0:0:0:0:
475,192,212197,1,2,0:0:0:0:
109,192,212197,1,2,0:0:0:0:
256,192,212197,1,0,0:0:0:0:
182,192,212317,1,2,0:0:0:0:
402,192,212317,1,2,0:0:0:0:
36,192,212317,1,0,0:0:0:0:
329,192,212437,1,2,0:0:0:0:
475,192,212437,1,2,0:0:0:0:
109,192,212437,1,0,0:0:0:0:
256,192,212557,1,2,0:0:0:0:
36,192,212557,1,2,0:0:0:0:
402,192,212557,1,0,0:0:0:0:
475,192,212677,1,2,0:0:0:0:
182,192,212677,1,2,0:0:0:0:
36,192,212677,1,0,0:0:0:0:
402,192,212707,1,0,0:0:0:0:
329,192,212737,1,0,0:0:0:0:
256,192,212767,1,0,0:0:0:0:
182,192,212797,1,2,0:0:0:0:
109,192,212827,1,0,0:0:0:0:
36,192,212857,1,0,0:0:0:0:
475,192,212887,1,0,0:0:0:0:
402,192,212917,1,2,0:0:0:0:
329,192,212947,1,0,0:0:0:0:
36,192,212977,1,8,0:0:0:0:
109,192,213007,1,0,0:0:0:0:
182,192,213037,1,2,0:0:0:0:
256,192,213067,1,0,0:0:0:0:
329,192,213097,1,0,0:0:0:0:
402,192,213127,1,0,0:0:0:0:
109,192,213157,1,2,0:0:0:0:
36,192,213157,1,2,0:0:0:0:
475,192,213157,1,0,0:0:0:0:
182,192,213157,1,0,0:0:0:0:
256,192,213157,1,0,0:0:0:0:
329,192,213217,1,0,0:0:0:0:
109,192,213277,1,2,0:0:0:0:
182,192,213277,1,2,0:0:0:0:
402,192,213277,1,0,0:0:0:0:
475,192,213337,1,0,0:0:0:0:
256,192,213397,1,2,0:0:0:0:
109,192,213397,1,2,0:0:0:0:
36,192,213397,1,0,0:0:0:0:
402,192,213397,1,0,0:0:0:0:
329,192,213457,1,0,0:0:0:0:
182,192,213517,1,2,0:0:0:0:
36,192,213517,1,2,0:0:0:0:
475,192,213517,1,0,0:0:0:0:
109,192,213577,1,0,0:0:0:0:
402,192,213637,1,2,0:0:0:0:
475,192,213637,1,2,0:0:0:0:
256,192,213637,1,0,0:0:0:0:
329,192,213697,1,0,0:0:0:0:
182,192,213757,1,2,0:0:0:0:
109,192,213757,1,2,0:0:0:0:
36,192,213757,1,0,0:0:0:0:
402,192,213757,1,0,0:0:0:0:
256,192,213817,1,0,0:0:0:0:
329,192,213877,1,2,0:0:0:0:
475,192,213877,1,2,0:0:0:0:
402,192,213877,1,0,0:0:0:0:
182,192,213937,1,0,0:0:0:0:
36,192,213997,1,2,0:0:0:0:
256,192,213997,1,2,0:0:0:0:
475,192,213997,1,0,0:0:0:0:
329,192,214057,1,0,0:0:0:0:
36,192,214117,1,2,0:0:0:0:
402,192,214117,1,2,0:0:0:0:
109,192,214147,1,0,0:0:0:0:
182,192,214177,1,0,0:0:0:0:
256,192,214207,1,0,0:0:0:0:
329,192,214237,1,2,0:0:0:0:
402,192,214267,1,0,0:0:0:0:
475,192,214297,1,0,0:0:0:0:
36,192,214327,1,0,0:0:0:0:
109,192,214357,1,2,0:0:0:0:
182,192,214387,1,0,0:0:0:0:
256,192,214417,1,0,0:0:0:0:
329,192,214447,1,0,0:0:0:0:
402,192,214477,1,2,0:0:0:0:
475,192,214507,1,0,0:0:0:0:
36,192,214537,1,0,0:0:0:0:
109,192,214567,1,0,0:0:0:0:
182,192,214597,1,2,0:0:0:0:
256,192,214627,1,0,0:0:0:0:
475,192,214657,1,0,0:0:0:0:
402,192,214687,1,0,0:0:0:0:
329,192,214717,1,2,0:0:0:0:
256,192,214747,1,0,0:0:0:0:
182,192,214777,1,0,0:0:0:0:
109,192,214807,1,0,0:0:0:0:
36,192,214837,1,2,0:0:0:0:
475,192,214867,1,0,0:0:0:0:
402,192,214897,1,0,0:0:0:0:
329,192,214927,1,0,0:0:0:0:
256,192,214957,1,2,0:0:0:0:
182,192,214987,1,0,0:0:0:0:
109,192,215017,1,0,0:0:0:0:
36,192,215047,1,0,0:0:0:0:
475,192,215077,1,2,0:0:0:0:
329,192,215077,1,2,0:0:0:0:
402,192,215077,1,0,0:0:0:0:
182,192,215077,1,0,0:0:0:0:
256,192,215137,1,0,0:0:0:0:
109,192,215197,1,2,0:0:0:0:
182,192,215197,1,2,0:0:0:0:
36,192,215197,1,0,0:0:0:0:
256,192,215257,1,0,0:0:0:0:
402,192,215317,1,2,0:0:0:0:
475,192,215317,1,2,0:0:0:0:
36,192,215317,1,0,0:0:0:0:
329,192,215317,1,0,0:0:0:0:
109,192,215377,1,0,0:0:0:0:
182,192,215437,1,2,0:0:0:0:
256,192,215437,1,2,0:0:0:0:
329,192,215437,1,0,0:0:0:0:
36,192,215497,1,0,0:0:0:0:
182,192,215557,1,2,0:0:0:0:
402,192,215557,1,2,0:0:0:0:
475,192,215557,1,0,0:0:0:0:
329,192,215617,1,0,0:0:0:0:
36,192,215677,1,2,0:0:0:0:
109,192,215677,1,2,0:0:0:0:
475,192,215677,1,0,0:0:0:0:
256,192,215677,1,0,0:0:0:0:
182,192,215737,1,0,0:0:0:0:
329,192,215797,1,2,0:0:0:0:
402,192,215797,1,2,0:0:0:0:
256,192,215797,1,0,0:0:0:0:
36,192,215857,1,0,0:0:0:0:
109,192,215917,1,0,0:0:0:0:
182,192,215917,1,0,0:0:0:0:
475,192,215917,1,0,0:0:0:0:
402,192,215977,1,0,0:0:0:0:
329,192,216037,1,2,0:0:0:0:
36,192,216037,1,2,0:0:0:0:
256,192,216037,1,0,0:0:0:0:
475,192,216037,1,0,0:0:0:0:
182,192,216037,1,0,0:0:0:0:
109,192,216097,1,0,0:0:0:0:
475,192,216157,1,2,0:0:0:0:
182,192,216157,1,2,0:0:0:0:
256,192,216157,1,0,0:0:0:0:
402,192,216217,1,0,0:0:0:0:
36,192,216277,1,2,0:0:0:0:
329,192,216277,1,2,0:0:0:0:
109,192,216277,1,0,0:0:0:0:
182,192,216337,1,0,0:0:0:0:
475,192,216397,1,2,0:0:0:0:
256,192,216397,1,2,0:0:0:0:
402,192,216397,1,0,0:0:0:0:
109,192,216397,1,0,0:0:0:0:
329,192,216457,1,0,0:0:0:0:
182,192,216517,1,2,0:0:0:0:
36,192,216517,1,10,0:0:0:0:
402,192,216517,1,0,0:0:0:0:
329,192,216637,1,8,0:0:0:0:
256,192,216637,1,0,0:0:0:0:
109,192,216637,1,0,0:0:0:0:
475,192,216697,1,8,0:0:0:0:
182,192,216697,1,0,0:0:0:0:
36,192,216697,1,0,0:0:0:0:
256,192,216757,1,8,0:0:0:0:
329,192,216757,1,0,0:0:0:0:
109,192,216757,1,0,0:0:0:0:
475,192,216877,1,2,0:0:0:0:
182,192,216877,1,10,0:0:0:0:
402,192,216877,1,0,0:0:0:0:
475,192,216997,1,2,0:0:0:0:
182,192,216997,1,2,0:0:0:0:
36,192,216997,1,0,0:0:0:0:
329,192,216997,1,0,0:0:0:0:
256,192,216997,1,0,0:0:0:0:
402,192,217057,1,0,0:0:0:0:
329,192,217117,1,2,0:0:0:0:
109,192,217117,1,2,0:0:0:0:
256,192,217117,1,0,0:0:0:0:
182,192,217177,1,0,0:0:0:0:
402,192,217237,1,2,0:0:0:0:
329,192,217237,1,2,0:0:0:0:
475,192,217237,1,0,0:0:0:0:
36,192,217237,1,0,0:0:0:0:
109,192,217297,1,0,0:0:0:0:
256,192,217357,1,2,0:0:0:0:
182,192,217357,1,2,0:0:0:0:
475,192,217357,1,0,0:0:0:0:
402,192,217417,1,0,0:0:0:0:
109,192,217477,1,2,0:0:0:0:
36,192,217477,1,2,0:0:0:0:
329,192,217477,1,0,0:0:0:0:
182,192,217537,1,0,0:0:0:0:
475,192,217597,1,2,0:0:0:0:
256,192,217597,1,2,0:0:0:0:
402,192,217597,1,0,0:0:0:0:
329,192,217597,1,0,0:0:0:0:
36,192,217657,1,0,0:0:0:0:
109,192,217717,1,2,0:0:0:0:
182,192,217717,1,2,0:0:0:0:
256,192,217717,1,0,0:0:0:0:
475,192,217777,1,0,0:0:0:0:
109,192,217837,1,2,0:0:0:0:
329,192,217837,1,2,0:0:0:0:
402,192,217837,1,0,0:0:0:0:
36,192,217837,1,0,0:0:0:0:
182,192,217897,1,0,0:0:0:0:
36,192,217957,1,2,0:0:0:0:
256,192,217957,1,2,0:0:0:0:
475,192,217957,1,0,0:0:0:0:
329,192,218017,1,0,0:0:0:0:
109,192,218077,1,2,0:0:0:0:
402,192,218077,1,2,0:0:0:0:
182,192,218077,1,0,0:0:0:0:
475,192,218137,1,0,0:0:0:0:
402,192,218197,1,2,0:0:0:0:
256,192,218197,1,2,0:0:0:0:
36,192,218197,1,0,0:0:0:0:
109,192,218257,1,0,0:0:0:0:
182,192,218317,1,2,0:0:0:0:
475,192,218317,1,2,0:0:0:0:
329,192,218317,1,0,0:0:0:0:
256,192,218317,1,0,0:0:0:0:
402,192,218377,1,0,0:0:0:0:
36,192,218437,1,2,0:0:0:0:
475,192,218437,1,2,0:0:0:0:
109,192,218437,1,0,0:0:0:0:
182,192,218437,1,0,0:0:0:0:
329,192,218497,1,0,0:0:0:0:
475,192,218557,1,2,0:0:0:0:
109,192,218557,1,2,0:0:0:0:
256,192,218557,1,0,0:0:0:0:
182,192,218617,1,0,0:0:0:0:
402,192,218677,1,2,0:0:0:0:
36,192,218677,1,2,0:0:0:0:
475,192,218677,1,0,0:0:0:0:
329,192,218737,1,0,0:0:0:0:
182,192,218797,1,2,0:0:0:0:
36,192,218797,1,2,0:0:0:0:
256,192,218797,1,0,0:0:0:0:
109,192,218857,1,0,0:0:0:0:
402,192,218917,1,2,0:0:0:0:
329,192,218917,1,2,0:0:0:0:
182,192,218917,1,0,0:0:0:0:
256,192,218977,1,0,0:0:0:0:
36,192,219037,1,2,0:0:0:0:
109,192,219037,1,2,0:0:0:0:
475,192,219037,1,0,0:0:0:0:
182,192,219097,1,0,0:0:0:0:
109,192,219157,1,2,0:0:0:0:
402,192,219157,1,2,0:0:0:0:
256,192,219157,1,0,0:0:0:0:
36,192,219217,1,0,0:0:0:0:
475,192,219277,1,2,0:0:0:0:
109,192,219277,1,2,0:0:0:0:
329,192,219277,1,0,0:0:0:0:
256,192,219337,1,0,0:0:0:0:
36,192,219397,1,2,0:0:0:0:
182,192,219397,1,2,0:0:0:0:
475,192,219397,1,0,0:0:0:0:
109,192,219457,1,0,0:0:0:0:
402,192,219517,1,2,0:0:0:0:
256,192,219517,1,2,0:0:0:0:
329,192,219517,1,0,0:0:0:0:
182,192,219577,1,0,0:0:0:0:
475,192,219637,1,2,0:0:0:0:
109,192,219637,1,2,0:0:0:0:
36,192,219637,1,0,0:0:0:0:
256,192,219697,1,0,0:0:0:0:
329,192,219757,1,10,0:0:0:0:
402,192,219757,1,2,0:0:0:0:
182,192,219757,1,0,0:0:0:0:
36,192,219817,1,0,0:0:0:0:
109,192,219877,1,8,0:0:0:0:
256,192,219877,1,0,0:0:0:0:
475,192,219877,1,0,0:0:0:0:
402,192,219937,1,8,0:0:0:0:
329,192,219937,1,0,0:0:0:0:
182,192,219937,1,0,0:0:0:0:
256,192,219997,1,8,0:0:0:0:
109,192,219997,1,0,0:0:0:0:
475,192,219997,1,0,0:0:0:0:
402,192,220117,1,10,0:0:0:0:
329,192,220117,1,2,0:0:0:0:
36,192,220117,1,0,0:0:0:0:
256,192,220117,128,0,220837:0:0:0:0:
475,192,220237,1,8,0:0:0:0:
109,192,220237,1,0,0:0:0:0:
182,192,220237,1,0,0:0:0:0:
36,192,220297,1,8,0:0:0:0:
329,192,220297,1,0,0:0:0:0:
402,192,220297,1,0,0:0:0:0:
182,192,220357,1,8,0:0:0:0:
475,192,220357,1,0,0:0:0:0:
109,192,220357,1,0,0:0:0:0:
109,192,220477,1,2,0:0:0:0:
475,192,220477,1,10,0:0:0:0:
329,192,220477,1,0,0:0:0:0:
36,192,220597,1,8,0:0:0:0:
402,192,220597,1,0,0:0:0:0:
475,192,220657,1,8,0:0:0:0:
182,192,220657,1,0,0:0:0:0:
36,192,220717,1,8,0:0:0:0:
402,192,220717,1,0,0:0:0:0:
329,192,220777,1,8,0:0:0:0:
109,192,220777,1,0,0:0:0:0:
182,192,220837,1,8,0:0:0:0:
402,192,220837,1,0,0:0:0:0:
475,192,220837,1,0,0:0:0:0:
36,192,220837,1,0,0:0:0:0:
329,192,220897,1,0,0:0:0:0:
109,192,220957,1,2,0:0:0:0:
182,192,220957,1,2,0:0:0:0:
402,192,220957,1,0,0:0:0:0:
256,192,221017,1,0,0:0:0:0:
36,192,221077,1,2,0:0:0:0:
475,192,221077,1,2,0:0:0:0:
329,192,221077,1,0,0:0:0:0:
182,192,221077,1,0,0:0:0:0:
109,192,221137,1,0,0:0:0:0:
256,192,221197,1,2,0:0:0:0:
402,192,221197,1,2,0:0:0:0:
182,192,221197,1,0,0:0:0:0:
329,192,221257,1,0,0:0:0:0:
36,192,221317,1,2,0:0:0:0:
256,192,221317,1,2,0:0:0:0:
109,192,221317,1,0,0:0:0:0:
182,192,221377,1,0,0:0:0:0:
475,192,221437,1,2,0:0:0:0:
329,192,221437,1,2,0:0:0:0:
402,192,221437,1,0,0:0:0:0:
256,192,221497,1,0,0:0:0:0:
182,192,221557,1,2,0:0:0:0:
36,192,221557,1,2,0:0:0:0:
109,192,221557,1,0,0:0:0:0:
402,192,221617,1,0,0:0:0:0:
256,192,221677,1,2,0:0:0:0:
475,192,221677,1,2,0:0:0:0:
36,192,221677,1,0,0:0:0:0:
109,192,221737,1,0,0:0:0:0:
475,192,221797,1,2,0:0:0:0:
182,192,221797,1,2,0:0:0:0:
402,192,221827,1,0,0:0:0:0:
329,192,221857,1,0,0:0:0:0:
256,192,221887,1,0,0:0:0:0:
182,192,221917,1,2,0:0:0:0:
109,192,221947,1,0,0:0:0:0:
36,192,221977,1,0,0:0:0:0:
475,192,222007,1,0,0:0:0:0:
402,192,222037,1,2,0:0:0:0:
329,192,222067,1,0,0:0:0:0:
256,192,222097,1,0,0:0:0:0:
182,192,222127,1,0,0:0:0:0:
109,192,222157,1,2,0:0:0:0:
36,192,222187,1,0,0:0:0:0:
475,192,222217,1,0,0:0:0:0:
402,192,222247,1,0,0:0:0:0:
329,192,222277,1,2,0:0:0:0:
256,192,222307,1,0,0:0:0:0:
36,192,222337,1,0,0:0:0:0:
109,192,222367,1,0,0:0:0:0:
182,192,222397,1,2,0:0:0:0:
256,192,222427,1,0,0:0:0:0:
329,192,222457,1,0,0:0:0:0:
402,192,222487,1,0,0:0:0:0:
475,192,222517,1,2,0:0:0:0:
36,192,222547,1,0,0:0:0:0:
109,192,222577,1,0,0:0:0:0:
182,192,222607,1,0,0:0:0:0:
256,192,222637,1,2,0:0:0:0:
329,192,222667,1,0,0:0:0:0:
402,192,222697,1,0,0:0:0:0:
475,192,222727,1,0,0:0:0:0:
329,192,222757,1,2,0:0:0:0:
36,192,222757,1,2,0:0:0:0:
182,192,222757,1,0,0:0:0:0:
109,192,222757,1,0,0:0:0:0:
256,192,222757,1,0,0:0:0:0:
402,192,222817,1,0,0:0:0:0:
182,192,222877,1,2,0:0:0:0:
36,192,222877,1,2,0:0:0:0:
475,192,222877,1,0,0:0:0:0:
329,192,222937,1,0,0:0:0:0:
109,192,222997,1,2,0:0:0:0:
36,192,222997,1,2,0:0:0:0:
475,192,222997,1,0,0:0:0:0:
256,192,223057,1,0,0:0:0:0:
182,192,223117,1,2,0:0:0:0:
329,192,223117,1,2,0:0:0:0:
402,192,223117,1,0,0:0:0:0:
475,192,223177,1,0,0:0:0:0:
329,192,223237,1,2,0:0:0:0:
36,192,223237,1,2,0:0:0:0:
109,192,223237,1,0,0:0:0:0:
182,192,223297,1,0,0:0:0:0:
402,192,223357,1,2,0:0:0:0:
475,192,223357,1,2,0:0:0:0:
36,192,223357,1,0,0:0:0:0:
256,192,223417,1,0,0:0:0:0:
109,192,223477,1,2,0:0:0:0:
329,192,223477,1,2,0:0:0:0:
182,192,223477,1,0,0:0:0:0:
475,192,223537,1,0,0:0:0:0:
402,192,223597,1,2,0:0:0:0:
256,192,223597,1,2,0:0:0:0:
36,192,223597,1,0,0:0:0:0:
109,192,223657,1,0,0:0:0:0:
329,192,223717,1,2,0:0:0:0:
182,192,223717,1,2,0:0:0:0:
475,192,223717,1,0,0:0:0:0:
402,192,223777,1,0,0:0:0:0:
329,192,223837,1,2,0:0:0:0:
256,192,223837,1,2,0:0:0:0:
36,192,223837,1,0,0:0:0:0:
475,192,223837,1,0,0:0:0:0:
182,192,223837,1,0,0:0:0:0:
109,192,223897,1,0,0:0:0:0:
402,192,223957,1,2,0:0:0:0:
182,192,223957,1,2,0:0:0:0:
475,192,223957,1,0,0:0:0:0:
329,192,224017,1,0,0:0:0:0:
256,192,224077,1,2,0:0:0:0:
36,192,224077,1,2,0:0:0:0:
109,192,224077,1,0,0:0:0:0:
182,192,224137,1,0,0:0:0:0:
109,192,224197,1,2,0:0:0:0:
475,192,224197,1,10,0:0:0:0:
329,192,224197,1,0,0:0:0:0:
256,192,224317,1,8,0:0:0:0:
402,192,224317,1,0,0:0:0:0:
182,192,224317,1,0,0:0:0:0:
475,192,224377,1,8,0:0:0:0:
329,192,224377,1,0,0:0:0:0:
36,192,224377,1,0,0:0:0:0:
402,192,224437,1,8,0:0:0:0:
182,192,224437,1,0,0:0:0:0:
256,192,224437,1,0,0:0:0:0:
36,192,224557,1,10,0:0:0:0:
329,192,224557,1,2,0:0:0:0:
109,192,224557,1,0,0:0:0:0:
475,192,224677,1,2,0:0:0:0:
329,192,224677,1,2,0:0:0:0:
36,192,224677,1,0,0:0:0:0:
256,192,224677,1,0,0:0:0:0:
182,192,224677,1,0,0:0:0:0:
109,192,224737,1,0,0:0:0:0:
182,192,224797,1,2,0:0:0:0:
256,192,224797,1,2,0:0:0:0:
402,192,224797,1,0,0:0:0:0:
329,192,224857,1,0,0:0:0:0:
475,192,224917,1,2,0:0:0:0:
182,192,224917,1,2,0:0:0:0:
36,192,224917,1,0,0:0:0:0:
109,192,224917,1,0,0:0:0:0:
402,192,224977,1,0,0:0:0:0:
256,192,225037,1,2,0:0:0:0:
329,192,225037,1,2,0:0:0:0:
36,192,225037,1,0,0:0:0:0:
109,192,225097,1,0,0:0:0:0:
402,192,225157,1,2,0:0:0:0:
182,192,225157,1,2,0:0:0:0:
475,192,225157,1,0,0:0:0:0:
329,192,225217,1,0,0:0:0:0:
36,192,225277,1,2,0:0:0:0:
256,192,225277,1,2,0:0:0:0:
109,192,225277,1,0,0:0:0:0:
475,192,225337,1,0,0:0:0:0:
402,192,225397,1,2,0:0:0:0:
329,192,225397,1,2,0:0:0:0:
182,192,225397,1,0,0:0:0:0:
36,192,225457,1,0,0:0:0:0:
256,192,225517,1,2,0:0:0:0:
402,192,225517,1,2,0:0:0:0:
182,192,225517,1,0,0:0:0:0:
329,192,225577,1,0,0:0:0:0:
36,192,225637,1,2,0:0:0:0:
182,192,225637,1,2,0:0:0:0:
475,192,225637,1,0,0:0:0:0:
109,192,225637,1,0,0:0:0:0:
402,192,225697,1,0,0:0:0:0:
256,192,225757,1,2,0:0:0:0:
36,192,225757,1,2,0:0:0:0:
109,192,225757,1,0,0:0:0:0:
182,192,225757,1,0,0:0:0:0:
475,192,225817,1,0,0:0:0:0:
109,192,225877,1,2,0:0:0:0:
256,192,225877,1,2,0:0:0:0:
182,192,225877,1,0,0:0:0:0:
329,192,225877,1,0,0:0:0:0:
36,192,225937,1,0,0:0:0:0:
329,192,225997,1,2,0:0:0:0:
182,192,225997,1,2,0:0:0:0:
256,192,225997,1,0,0:0:0:0:
402,192,225997,1,0,0:0:0:0:
109,192,226057,1,0,0:0:0:0:
329,192,226117,1,2,0:0:0:0:
256,192,226117,1,2,0:0:0:0:
402,192,226117,1,0,0:0:0:0:
475,192,226117,1,0,0:0:0:0:
182,192,226177,1,0,0:0:0:0:
402,192,226237,1,2,0:0:0:0:
475,192,226237,1,2,0:0:0:0:
329,192,226237,1,0,0:0:0:0:
36,192,226237,1,0,0:0:0:0:
256,192,226297,1,0,0:0:0:0:
402,192,226357,1,2,0:0:0:0:
475,192,226357,1,2,0:0:0:0:
109,192,226357,1,0,0:0:0:0:
36,192,226357,1,0,0:0:0:0:
182,192,226417,1,0,0:0:0:0:
475,192,226477,1,2,0:0:0:0:
329,192,226477,1,2,0:0:0:0:
256,192,226477,1,0,0:0:0:0:
109,192,226477,1,0,0:0:0:0:
402,192,226537,1,0,0:0:0:0:
182,192,226597,1,2,0:0:0:0:
36,192,226597,1,2,0:0:0:0:
329,192,226597,1,0,0:0:0:0:
256,192,226657,1,0,0:0:0:0:
36,192,226717,1,2,0:0:0:0:
475,192,226717,1,2,0:0:0:0:
402,192,226717,1,0,0:0:0:0:
329,192,226777,1,0,0:0:0:0:
109,192,226837,1,2,0:0:0:0:
256,192,226837,1,2,0:0:0:0:
182,192,226837,1,0,0:0:0:0:
402,192,226837,1,0,0:0:0:0:
475,192,226897,1,0,0:0:0:0:
109,192,226957,1,2,0:0:0:0:
329,192,226957,1,2,0:0:0:0:
402,192,226957,1,0,0:0:0:0:
256,192,227017,1,0,0:0:0:0:
36,192,227077,1,2,0:0:0:0:
182,192,227077,1,2,0:0:0:0:
475,192,227077,1,0,0:0:0:0:
109,192,227137,1,0,0:0:0:0:
256,192,227197,1,2,0:0:0:0:
402,192,227197,1,2,0:0:0:0:
329,192,227197,1,0,0:0:0:0:
36,192,227197,1,0,0:0:0:0:
182,192,227257,1,0,0:0:0:0:
109,192,227317,1,2,0:0:0:0:
475,192,227317,1,2,0:0:0:0:
36,192,227317,1,0,0:0:0:0:
256,192,227377,1,0,0:0:0:0:
109,192,227437,1,2,0:0:0:0:
182,192,227437,1,2,0:0:0:0:
402,192,227437,1,0,0:0:0:0:
329,192,227437,1,0,0:0:0:0:
475,192,227497,1,0,0:0:0:0:
256,192,227557,1,2,0:0:0:0:
402,192,227557,1,2,0:0:0:0:
36,192,227557,1,0,0:0:0:0:
475,192,227677,1,2,0:0:0:0:
329,192,227677,1,2,0:0:0:0:
109,192,227677,1,0,0:0:0:0:
256,192,227797,1,2,0:0:0:0:
182,192,227797,1,2,0:0:0:0:
402,192,227797,1,0,0:0:0:0:
329,192,227917,1,2,0:0:0:0:
36,192,227917,1,2,0:0:0:0:
109,192,227917,1,0,0:0:0:0:
475,192,228037,1,2,0:0:0:0:
36,192,228037,1,2,0:0:0:0:
182,192,228037,1,0,0:0:0:0:
402,192,228067,1,0,0:0:0:0:
329,192,228097,1,0,0:0:0:0:
256,192,228127,1,0,0:0:0:0:
182,192,228157,1,2,0:0:0:0:
109,192,228187,1,0,0:0:0:0:
36,192,228217,1,0,0:0:0:0:
475,192,228247,1,0,0:0:0:0:
402,192,228277,1,2,0:0:0:0:
329,192,228307,1,0,0:0:0:0:
36,192,228337,1,8,0:0:0:0:
109,192,228367,1,0,0:0:0:0:
182,192,228397,1,2,0:0:0:0:
256,192,228427,1,0,0:0:0:0:
329,192,228457,1,0,0:0:0:0:
402,192,228487,1,0,0:0:0:0:
109,192,228517,1,2,0:0:0:0:
36,192,228517,1,2,0:0:0:0:
475,192,228517,1,0,0:0:0:0:
182,192,228517,1,0,0:0:0:0:
256,192,228577,1,0,0:0:0:0:
475,192,228637,1,2,0:0:0:0:
402,192,228637,1,2,0:0:0:0:
329,192,228637,1,0,0:0:0:0:
256,192,228697,1,0,0:0:0:0:
109,192,228757,1,2,0:0:0:0:
182,192,228757,1,2,0:0:0:0:
36,192,228757,1,0,0:0:0:0:
475,192,228757,1,0,0:0:0:0:
402,192,228817,1,0,0:0:0:0:
109,192,228877,1,2,0:0:0:0:
256,192,228877,1,2,0:0:0:0:
329,192,228877,1,0,0:0:0:0:
182,192,228937,1,0,0:0:0:0:
256,192,228997,1,2,0:0:0:0:
475,192,228997,1,2,0:0:0:0:
402,192,228997,1,0,0:0:0:0:
329,192,229057,1,0,0:0:0:0:
182,192,229117,1,2,0:0:0:0:
402,192,229117,1,2,0:0:0:0:
36,192,229117,1,0,0:0:0:0:
109,192,229117,1,0,0:0:0:0:
256,192,229177,1,0,0:0:0:0:
402,192,229237,1,2,0:0:0:0:
475,192,229237,1,2,0:0:0:0:
329,192,229237,1,0,0:0:0:0:
182,192,229297,1,0,0:0:0:0:
256,192,229357,1,2,0:0:0:0:
475,192,229357,1,2,0:0:0:0:
36,192,229357,1,0,0:0:0:0:
109,192,229417,1,0,0:0:0:0:
182,192,229477,1,2,0:0:0:0:
36,192,229477,1,2,0:0:0:0:
402,192,229477,1,0,0:0:0:0:
329,192,229477,1,0,0:0:0:0:
475,192,229537,1,0,0:0:0:0:
256,192,229597,1,2,0:0:0:0:
109,192,229597,1,2,0:0:0:0:
402,192,229597,1,0,0:0:0:0:
182,192,229657,1,0,0:0:0:0:
36,192,229717,1,2,0:0:0:0:
256,192,229717,1,2,0:0:0:0:
329,192,229717,1,0,0:0:0:0:
109,192,229777,1,0,0:0:0:0:
182,192,229837,1,2,0:0:0:0:
36,192,229837,1,2,0:0:0:0:
475,192,229837,1,0,0:0:0:0:
402,192,229837,1,0,0:0:0:0:
256,192,229897,1,0,0:0:0:0:
475,192,229957,1,2,0:0:0:0:
36,192,229957,1,2,0:0:0:0:
329,192,229957,1,0,0:0:0:0:
182,192,230017,1,0,0:0:0:0:
109,192,230047,1,0,0:0:0:0:
36,192,230077,1,2,0:0:0:0:
329,192,230107,1,0,0:0:0:0:
402,192,230137,1,0,0:0:0:0:
475,192,230167,1,0,0:0:0:0:
36,192,230197,1,2,0:0:0:0:
109,192,230227,1,0,0:0:0:0:
182,192,230257,1,0,0:0:0:0:
402,192,230287,1,0,0:0:0:0:
329,192,230317,1,2,0:0:0:0:
256,192,230347,1,0,0:0:0:0:
182,192,230377,1,0,0:0:0:0:
109,192,230407,1,0,0:0:0:0:
475,192,230437,1,2,0:0:0:0:
402,192,230437,1,0,0:0:0:0:
36,192,230437,1,0,0:0:0:0:
329,192,230437,1,2,0:0:0:0:
256,192,230497,1,0,0:0:0:0:
109,192,230557,1,2,0:0:0:0:
182,192,230557,1,2,0:0:0:0:
402,192,230557,1,0,0:0:0:0:
256,192,230617,1,0,0:0:0:0:
109,192,230677,1,2,0:0:0:0:
329,192,230677,1,2,0:0:0:0:
475,192,230677,1,0,0:0:0:0:
36,192,230677,1,0,0:0:0:0:
402,192,230737,1,0,0:0:0:0:
329,192,230797,1,2,0:0:0:0:
109,192,230797,1,2,0:0:0:0:
182,192,230797,1,0,0:0:0:0:
256,192,230857,1,0,0:0:0:0:
182,192,230917,1,2,0:0:0:0:
36,192,230917,1,2,0:0:0:0:
402,192,230917,1,0,0:0:0:0:
329,192,230977,1,0,0:0:0:0:
109,192,231037,1,2,0:0:0:0:
475,192,231037,1,2,0:0:0:0:
36,192,231037,1,0,0:0:0:0:
402,192,231037,1,0,0:0:0:0:
256,192,231097,1,0,0:0:0:0:
329,192,231157,1,2,0:0:0:0:
402,192,231157,1,2,0:0:0:0:
182,192,231157,1,0,0:0:0:0:
36,192,231217,1,0,0:0:0:0:
256,192,231277,1,2,0:0:0:0:
475,192,231277,1,2,0:0:0:0:
109,192,231277,1,0,0:0:0:0:
402,192,231337,1,0,0:0:0:0:
329,192,231397,1,2,0:0:0:0:
182,192,231397,1,2,0:0:0:0:
36,192,231397,1,0,0:0:0:0:
475,192,231397,1,0,0:0:0:0:
256,192,231397,1,0,0:0:0:0:
109,192,231457,1,0,0:0:0:0:
256,192,231517,1,2,0:0:0:0:
475,192,231517,1,2,0:0:0:0:
182,192,231517,1,0,0:0:0:0:
402,192,231577,1,0,0:0:0:0:
329,192,231637,1,2,0:0:0:0:
109,192,231637,1,2,0:0:0:0:
36,192,231637,1,0,0:0:0:0:
182,192,231697,1,0,0:0:0:0:
475,192,231757,1,2,0:0:0:0:
402,192,231757,1,2,0:0:0:0:
256,192,231757,1,0,0:0:0:0:
109,192,231757,1,0,0:0:0:0:
329,192,231817,1,0,0:0:0:0:
402,192,231877,1,2,0:0:0:0:
36,192,231877,1,10,0:0:0:0:
182,192,231877,1,0,0:0:0:0:
329,192,231997,1,8,0:0:0:0:
109,192,231997,1,0,0:0:0:0:
256,192,231997,1,0,0:0:0:0:
475,192,232057,1,8,0:0:0:0:
36,192,232057,1,0,0:0:0:0:
182,192,232057,1,0,0:0:0:0:
256,192,232117,1,8,0:0:0:0:
329,192,232117,1,0,0:0:0:0:
109,192,232117,1,0,0:0:0:0:
182,192,232237,1,2,0:0:0:0:
402,192,232237,1,10,0:0:0:0:
475,192,232237,1,0,0:0:0:0:
329,192,232357,1,2,0:0:0:0:
256,192,232357,1,2,0:0:0:0:
36,192,232357,1,0,0:0:0:0:
475,192,232357,1,0,0:0:0:0:
109,192,232357,1,0,0:0:0:0:
402,192,232417,1,0,0:0:0:0:
182,192,232477,1,2,0:0:0:0:
36,192,232477,1,2,0:0:0:0:
256,192,232477,1,0,0:0:0:0:
109,192,232537,1,0,0:0:0:0:
475,192,232597,1,2,0:0:0:0:
36,192,232597,1,2,0:0:0:0:
402,192,232597,1,0,0:0:0:0:
182,192,232597,1,0,0:0:0:0:
329,192,232597,1,0,0:0:0:0:
256,192,232657,1,0,0:0:0:0:
109,192,232717,1,2,0:0:0:0:
329,192,232717,1,2,0:0:0:0:
475,192,232717,1,0,0:0:0:0:
402,192,232777,1,0,0:0:0:0:
256,192,232837,1,2,0:0:0:0:
109,192,232837,1,2,0:0:0:0:
475,192,232837,1,0,0:0:0:0:
36,192,232837,1,0,0:0:0:0:
182,192,232897,1,0,0:0:0:0:
402,192,232957,1,2,0:0:0:0:
256,192,232957,1,2,0:0:0:0:
329,192,232957,1,0,0:0:0:0:
36,192,233017,1,0,0:0:0:0:
182,192,233077,1,2,0:0:0:0:
329,192,233077,1,2,0:0:0:0:
109,192,233077,1,0,0:0:0:0:
402,192,233077,1,0,0:0:0:0:
475,192,233137,1,0,0:0:0:0:
109,192,233197,1,2,0:0:0:0:
402,192,233197,1,2,0:0:0:0:
256,192,233197,1,0,0:0:0:0:
182,192,233257,1,0,0:0:0:0:
36,192,233317,1,2,0:0:0:0:
256,192,233317,1,2,0:0:0:0:
329,192,233317,1,0,0:0:0:0:
475,192,233317,1,0,0:0:0:0:
182,192,233377,1,0,0:0:0:0:
256,192,233437,1,2,0:0:0:0:
402,192,233437,1,2,0:0:0:0:
109,192,233437,1,0,0:0:0:0:
475,192,233497,1,0,0:0:0:0:
182,192,233557,1,2,0:0:0:0:
256,192,233557,1,2,0:0:0:0:
36,192,233557,1,0,0:0:0:0:
402,192,233557,1,0,0:0:0:0:
109,192,233617,1,0,0:0:0:0:
329,192,233677,1,2,0:0:0:0:
475,192,233677,1,2,0:0:0:0:
182,192,233677,1,0,0:0:0:0:
402,192,233737,1,0,0:0:0:0:
475,192,233797,1,2,0:0:0:0:
256,192,233797,1,2,0:0:0:0:
36,192,233797,1,0,0:0:0:0:
109,192,233797,1,0,0:0:0:0:
329,192,233857,1,0,0:0:0:0:
182,192,233917,1,2,0:0:0:0:
109,192,233917,1,2,0:0:0:0:
475,192,233917,1,0,0:0:0:0:
256,192,233977,1,0,0:0:0:0:
36,192,234037,1,2,0:0:0:0:
182,192,234037,1,2,0:0:0:0:
329,192,234037,1,0,0:0:0:0:
402,192,234037,1,0,0:0:0:0:
475,192,234097,1,0,0:0:0:0:
109,192,234157,1,2,0:0:0:0:
402,192,234157,1,2,0:0:0:0:
256,192,234157,1,0,0:0:0:0:
329,192,234217,1,0,0:0:0:0:
256,192,234277,1,2,0:0:0:0:
475,192,234277,1,2,0:0:0:0:
36,192,234277,1,0,0:0:0:0:
329,192,234337,1,0,0:0:0:0:
182,192,234397,1,2,0:0:0:0:
402,192,234397,1,2,0:0:0:0:
109,192,234397,1,0,0:0:0:0:
256,192,234457,1,0,0:0:0:0:
475,192,234517,1,2,0:0:0:0:
329,192,234517,1,2,0:0:0:0:
36,192,234517,1,0,0:0:0:0:
109,192,234577,1,0,0:0:0:0:
402,192,234637,1,2,0:0:0:0:
256,192,234637,1,2,0:0:0:0:
36,192,234637,1,0,0:0:0:0:
329,192,234697,1,0,0:0:0:0:
475,192,234757,1,2,0:0:0:0:
182,192,234757,1,2,0:0:0:0:
109,192,234757,1,0,0:0:0:0:
256,192,234817,1,0,0:0:0:0:
402,192,234877,1,2,0:0:0:0:
36,192,234877,1,2,0:0:0:0:
329,192,234877,1,0,0:0:0:0:
109,192,234937,1,0,0:0:0:0:
182,192,234997,1,2,0:0:0:0:
475,192,234997,1,2,0:0:0:0:
256,192,234997,1,0,0:0:0:0:
402,192,235057,1,0,0:0:0:0:
36,192,235117,1,2,0:0:0:0:
109,192,235117,1,10,0:0:0:0:
329,192,235117,1,0,0:0:0:0:
182,192,235177,1,0,0:0:0:0:
256,192,235237,1,8,0:0:0:0:
475,192,235237,1,0,0:0:0:0:
402,192,235237,1,0,0:0:0:0:
36,192,235297,1,8,0:0:0:0:
109,192,235297,1,0,0:0:0:0:
182,192,235297,1,0,0:0:0:0:
256,192,235357,1,8,0:0:0:0:
402,192,235357,1,0,0:0:0:0:
475,192,235357,1,0,0:0:0:0:
36,192,235477,1,2,0:0:0:0:
182,192,235477,1,10,0:0:0:0:
329,192,235477,1,0,0:0:0:0:
402,192,235597,1,8,0:0:0:0:
109,192,235597,1,0,0:0:0:0:
256,192,235597,1,0,0:0:0:0:
182,192,235657,1,8,0:0:0:0:
329,192,235657,1,0,0:0:0:0:
475,192,235657,1,0,0:0:0:0:
402,192,235717,1,8,0:0:0:0:
256,192,235717,1,0,0:0:0:0:
109,192,235717,1,0,0:0:0:0:
182,192,235837,1,2,0:0:0:0:
256,192,235837,1,10,0:0:0:0:
329,192,235837,1,0,0:0:0:0:
36,192,235957,1,8,0:0:0:0:
182,192,235957,1,0,0:0:0:0:
329,192,235957,1,0,0:0:0:0:
109,192,236017,1,8,0:0:0:0:
256,192,236017,1,0,0:0:0:0:
402,192,236017,1,0,0:0:0:0:
182,192,236077,1,8,0:0:0:0:
329,192,236077,1,0,0:0:0:0:
475,192,236077,1,0,0:0:0:0:
402,192,236137,1,8,0:0:0:0:
256,192,236137,1,0,0:0:0:0:
109,192,236137,1,0,0:0:0:0:
36,192,236197,1,8,0:0:0:0:
182,192,236197,1,0,0:0:0:0:
329,192,236197,1,0,0:0:0:0:
475,192,236197,1,0,0:0:0:0:
109,192,236257,1,0,0:0:0:0:
36,192,236317,1,2,0:0:0:0:
256,192,236317,1,2,0:0:0:0:
475,192,236317,1,0,0:0:0:0:
402,192,236377,1,0,0:0:0:0:
256,192,236437,1,2,0:0:0:0:
329,192,236437,1,2,0:0:0:0:
36,192,236437,1,0,0:0:0:0:
182,192,236437,1,0,0:0:0:0:
109,192,236497,1,0,0:0:0:0:
475,192,236557,1,2,0:0:0:0:
402,192,236557,1,2,0:0:0:0:
329,192,236557,1,0,0:0:0:0:
182,192,236557,1,0,0:0:0:0:
256,192,236617,1,0,0:0:0:0:
109,192,236677,1,2,0:0:0:0:
329,192,236677,1,2,0:0:0:0:
36,192,236677,1,0,0:0:0:0:
475,192,236737,1,0,0:0:0:0:
36,192,236797,1,2,0:0:0:0:
402,192,236797,1,2,0:0:0:0:
256,192,236797,1,0,0:0:0:0:
182,192,236857,1,0,0:0:0:0:
329,192,236917,1,2,0:0:0:0:
475,192,236917,1,2,0:0:0:0:
109,192,236917,1,0,0:0:0:0:
256,192,236977,1,0,0:0:0:0:
109,192,237037,1,2,0:0:0:0:
36,192,237037,1,2,0:0:0:0:
329,192,237037,1,0,0:0:0:0:
182,192,237097,1,0,0:0:0:0:
475,192,237157,1,2,0:0:0:0:
402,192,237157,1,2,0:0:0:0:
329,192,237157,1,0,0:0:0:0:
36,192,237157,1,0,0:0:0:0:
256,192,237217,1,0,0:0:0:0:
402,192,237277,1,2,0:0:0:0:
182,192,237277,1,2,0:0:0:0:
109,192,237277,1,0,0:0:0:0:
329,192,237337,1,0,0:0:0:0:
182,192,237397,1,2,0:0:0:0:
256,192,237397,1,2,0:0:0:0:
36,192,237397,1,0,0:0:0:0:
475,192,237457,1,0,0:0:0:0:
329,192,237517,1,2,0:0:0:0:
256,192,237517,1,2,0:0:0:0:
109,192,237517,1,0,0:0:0:0:
182,192,237577,1,0,0:0:0:0:
402,192,237637,1,2,0:0:0:0:
36,192,237637,1,2,0:0:0:0:
475,192,237637,1,0,0:0:0:0:
329,192,237667,1,0,0:0:0:0:
256,192,237697,1,0,0:0:0:0:
182,192,237727,1,0,0:0:0:0:
36,192,237757,1,2,0:0:0:0:
109,192,237787,1,0,0:0:0:0:
182,192,237817,1,0,0:0:0:0:
256,192,237847,1,0,0:0:0:0:
475,192,237877,1,2,0:0:0:0:
402,192,237907,1,0,0:0:0:0:
329,192,237937,1,0,0:0:0:0:
256,192,237967,1,0,0:0:0:0:
182,192,237997,1,2,0:0:0:0:
36,192,238027,1,0,0:0:0:0:
329,192,238057,1,0,0:0:0:0:
402,192,238087,1,0,0:0:0:0:
475,192,238117,1,2,0:0:0:0:
109,192,238117,1,2,0:0:0:0:
36,192,238117,1,0,0:0:0:0:
182,192,238117,1,0,0:0:0:0:
256,192,238177,1,0,0:0:0:0:
475,192,238237,1,2,0:0:0:0:
182,192,238237,1,2,0:0:0:0:
402,192,238237,1,0,0:0:0:0:
256,192,238297,1,0,0:0:0:0:
109,192,238357,1,2,0:0:0:0:
329,192,238357,1,2,0:0:0:0:
36,192,238357,1,0,0:0:0:0:
402,192,238417,1,0,0:0:0:0:
36,192,238477,1,2,0:0:0:0:
182,192,238477,1,2,0:0:0:0:
329,192,238477,1,0,0:0:0:0:
256,192,238537,1,0,0:0:0:0:
402,192,238597,1,2,0:0:0:0:
475,192,238597,1,2,0:0:0:0:
109,192,238597,1,0,0:0:0:0:
329,192,238657,1,0,0:0:0:0:
256,192,238717,1,2,0:0:0:0:
109,192,238717,1,2,0:0:0:0:
36,192,238717,1,0,0:0:0:0:
182,192,238777,1,0,0:0:0:0:
402,192,238837,1,2,0:0:0:0:
329,192,238837,1,2,0:0:0:0:
475,192,238837,1,0,0:0:0:0:
36,192,238897,1,0,0:0:0:0:
402,192,238957,1,2,0:0:0:0:
475,192,238957,1,0,0:0:0:0:
182,192,238957,1,0,0:0:0:0:
256,192,239017,1,0,0:0:0:0:
329,192,239077,1,2,0:0:0:0:
36,192,239077,1,2,0:0:0:0:
182,192,239077,1,0,0:0:0:0:
475,192,239077,1,0,0:0:0:0:
109,192,239077,1,0,0:0:0:0:
402,192,239137,1,0,0:0:0:0:
109,192,239197,1,2,0:0:0:0:
256,192,239197,1,2,0:0:0:0:
475,192,239197,1,0,0:0:0:0:
182,192,239257,1,0,0:0:0:0:
109,192,239317,1,2,0:0:0:0:
329,192,239317,1,2,0:0:0:0:
36,192,239317,1,0,0:0:0:0:
402,192,239377,1,0,0:0:0:0:
36,192,239437,1,2,0:0:0:0:
475,192,239437,1,2,0:0:0:0:
256,192,239437,1,0,0:0:0:0:
329,192,239557,1,10,0:0:0:0:
402,192,239557,1,2,0:0:0:0:
109,192,239557,1,0,0:0:0:0:
475,192,239677,1,8,0:0:0:0:
36,192,239677,1,0,0:0:0:0:
182,192,239677,1,0,0:0:0:0:
402,192,239737,1,8,0:0:0:0:
109,192,239737,1,0,0:0:0:0:
256,192,239737,1,0,0:0:0:0:
36,192,239797,1,8,0:0:0:0:
182,192,239797,1,0,0:0:0:0:
475,192,239797,1,0,0:0:0:0:
329,192,239917,1,2,0:0:0:0:
109,192,239917,1,10,0:0:0:0:
256,192,239917,1,0,0:0:0:0:
402,192,240037,1,2,0:0:0:0:
182,192,240037,1,2,0:0:0:0:
36,192,240037,1,0,0:0:0:0:
475,192,240037,1,0,0:0:0:0:
256,192,240037,1,0,0:0:0:0:
329,192,240097,1,0,0:0:0:0:
109,192,240157,1,2,0:0:0:0:
256,192,240157,1,2,0:0:0:0:
475,192,240157,1,0,0:0:0:0:
402,192,240217,1,0,0:0:0:0:
36,192,240277,1,2,0:0:0:0:
475,192,240277,1,2,0:0:0:0:
329,192,240277,1,0,0:0:0:0:
182,192,240277,1,0,0:0:0:0:
109,192,240337,1,0,0:0:0:0:
402,192,240397,1,2,0:0:0:0:
475,192,240397,1,2,0:0:0:0:
182,192,240397,1,0,0:0:0:0:
256,192,240457,1,0,0:0:0:0:
329,192,240517,1,2,0:0:0:0:
36,192,240517,1,2,0:0:0:0:
109,192,240517,1,0,0:0:0:0:
475,192,240577,1,0,0:0:0:0:
402,192,240637,1,2,0:0:0:0:
182,192,240637,1,2,0:0:0:0:
256,192,240637,1,0,0:0:0:0:
109,192,240697,1,0,0:0:0:0:
329,192,240757,1,2,0:0:0:0:
36,192,240757,1,2,0:0:0:0:
182,192,240817,1,0,0:0:0:0:
256,192,240877,1,2,0:0:0:0:
109,192,240877,1,2,0:0:0:0:
475,192,240877,1,0,0:0:0:0:
182,192,240937,1,0,0:0:0:0:
329,192,240997,1,2,0:0:0:0:
475,192,240997,1,2,0:0:0:0:
36,192,240997,1,0,0:0:0:0:
402,192,240997,1,0,0:0:0:0:
182,192,241057,1,0,0:0:0:0:
329,192,241117,1,2,0:0:0:0:
109,192,241117,1,2,0:0:0:0:
256,192,241117,1,0,0:0:0:0:
402,192,241117,1,0,0:0:0:0:
475,192,241177,1,0,0:0:0:0:
329,192,241237,1,2,0:0:0:0:
182,192,241237,1,2,0:0:0:0:
36,192,241237,1,0,0:0:0:0:
256,192,241237,1,0,0:0:0:0:
402,192,241297,1,0,0:0:0:0:
475,192,241357,1,2,0:0:0:0:
182,192,241357,1,2,0:0:0:0:
109,192,241357,1,0,0:0:0:0:
256,192,241357,1,0,0:0:0:0:
329,192,241417,1,0,0:0:0:0:
109,192,241477,1,2,0:0:0:0:
402,192,241477,1,2,0:0:0:0:
182,192,241477,1,0,0:0:0:0:
36,192,241477,1,0,0:0:0:0:
256,192,241537,1,0,0:0:0:0:
109,192,241597,1,2,0:0:0:0:
475,192,241597,1,2,0:0:0:0:
36,192,241597,1,0,0:0:0:0:
329,192,241597,1,0,0:0:0:0:
256,192,241657,1,0,0:0:0:0:
475,192,241717,1,2,0:0:0:0:
182,192,241717,1,2,0:0:0:0:
36,192,241717,1,0,0:0:0:0:
402,192,241717,1,0,0:0:0:0:
109,192,241777,1,0,0:0:0:0:
182,192,241837,1,2,0:0:0:0:
402,192,241837,1,2,0:0:0:0:
475,192,241837,1,0,0:0:0:0:
329,192,241837,1,0,0:0:0:0:
36,192,241897,1,0,0:0:0:0:
329,192,241957,1,2,0:0:0:0:
475,192,241957,1,2,0:0:0:0:
182,192,241957,1,0,0:0:0:0:
256,192,242017,1,0,0:0:0:0:
475,192,242077,1,2,0:0:0:0:
36,192,242077,1,2,0:0:0:0:
109,192,242077,1,0,0:0:0:0:
182,192,242137,1,0,0:0:0:0:
109,192,242197,1,2,0:0:0:0:
402,192,242197,1,2,0:0:0:0:
329,192,242197,1,0,0:0:0:0:
256,192,242197,1,0,0:0:0:0:
36,192,242257,1,0,0:0:0:0:
329,192,242317,1,2,0:0:0:0:
475,192,242317,1,2,0:0:0:0:
109,192,242317,1,0,0:0:0:0:
256,192,242377,1,0,0:0:0:0:
475,192,242437,1,2,0:0:0:0:
36,192,242437,1,2,0:0:0:0:
182,192,242437,1,0,0:0:0:0:
109,192,242497,1,0,0:0:0:0:
36,192,242557,1,2,0:0:0:0:
256,192,242557,1,2,0:0:0:0:
402,192,242557,1,0,0:0:0:0:
329,192,242557,1,0,0:0:0:0:
182,192,242617,1,0,0:0:0:0:
36,192,242677,1,2,0:0:0:0:
475,192,242677,1,2,0:0:0:0:
109,192,242677,1,0,0:0:0:0:
256,192,242737,1,0,0:0:0:0:
109,192,242797,1,2,0:0:0:0:
329,192,242797,1,2,0:0:0:0:
402,192,242797,1,0,0:0:0:0:
182,192,242797,1,0,0:0:0:0:
36,192,242857,1,0,0:0:0:0:
475,192,242917,1,2,0:0:0:0:
256,192,242917,1,2,0:0:0:0:
109,192,242917,1,0,0:0:0:0:
402,192,243037,1,2,0:0:0:0:
182,192,243037,1,2,0:0:0:0:
36,192,243037,1,0,0:0:0:0:
329,192,243157,1,2,0:0:0:0:
256,192,243157,1,2,0:0:0:0:
109,192,243157,1,0,0:0:0:0:
402,192,243277,1,2,0:0:0:0:
475,192,243277,1,2,0:0:0:0:
182,192,243277,1,0,0:0:0:0:
329,192,243397,1,2,0:0:0:0:
36,192,243397,1,2,0:0:0:0:
475,192,243397,1,0,0:0:0:0:
109,192,243427,1,0,0:0:0:0:
182,192,243457,1,0,0:0:0:0:
256,192,243487,1,0,0:0:0:0:
329,192,243517,1,2,0:0:0:0:
402,192,243547,1,0,0:0:0:0:
475,192,243577,1,0,0:0:0:0:
36,192,243607,1,0,0:0:0:0:
109,192,243637,1,2,0:0:0:0:
182,192,243667,1,0,0:0:0:0:
475,192,243697,1,8,0:0:0:0:
402,192,243727,1,0,0:0:0:0:
329,192,243757,1,2,0:0:0:0:
256,192,243787,1,0,0:0:0:0:
182,192,243817,1,0,0:0:0:0:
109,192,243847,1,0,0:0:0:0:
36,192,243877,1,2,0:0:0:0:
475,192,243877,1,2,0:0:0:0:
256,192,243877,1,0,0:0:0:0:
402,192,243877,1,0,0:0:0:0:
329,192,243937,1,0,0:0:0:0:
109,192,243997,1,2,0:0:0:0:
402,192,243997,1,2,0:0:0:0:
182,192,243997,1,0,0:0:0:0:
256,192,244057,1,0,0:0:0:0:
36,192,244117,1,2,0:0:0:0:
329,192,244117,1,2,0:0:0:0:
475,192,244117,1,0,0:0:0:0:
182,192,244117,1,0,0:0:0:0:
109,192,244177,1,0,0:0:0:0:
402,192,244237,1,2,0:0:0:0:
256,192,244237,1,2,0:0:0:0:
182,192,244237,1,0,0:0:0:0:
329,192,244297,1,0,0:0:0:0:
256,192,244357,1,2,0:0:0:0:
36,192,244357,1,2,0:0:0:0:
109,192,244357,1,0,0:0:0:0:
182,192,244417,1,0,0:0:0:0:
109,192,244477,1,2,0:0:0:0:
329,192,244477,1,2,0:0:0:0:
402,192,244477,1,0,0:0:0:0:
475,192,244477,1,0,0:0:0:0:
256,192,244537,1,0,0:0:0:0:
109,192,244597,1,2,0:0:0:0:
36,192,244597,1,2,0:0:0:0:
182,192,244597,1,0,0:0:0:0:
329,192,244657,1,0,0:0:0:0:
36,192,244717,1,2,0:0:0:0:
256,192,244717,1,2,0:0:0:0:
475,192,244717,1,0,0:0:0:0:
402,192,244777,1,0,0:0:0:0:
475,192,244837,1,2,0:0:0:0:
329,192,244837,1,2,0:0:0:0:
182,192,244837,1,0,0:0:0:0:
109,192,244837,1,0,0:0:0:0:
36,192,244897,1,0,0:0:0:0:
256,192,244957,1,2,0:0:0:0:
109,192,244957,1,2,0:0:0:0:
402,192,244957,1,0,0:0:0:0:
329,192,245017,1,0,0:0:0:0:
475,192,245077,1,2,0:0:0:0:
182,192,245077,1,2,0:0:0:0:
256,192,245077,1,0,0:0:0:0:
402,192,245137,1,0,0:0:0:0:
475,192,245197,1,2,0:0:0:0:
109,192,245197,1,2,0:0:0:0:
36,192,245197,1,0,0:0:0:0:
329,192,245197,1,0,0:0:0:0:
256,192,245257,1,0,0:0:0:0:
182,192,245317,1,2,0:0:0:0:
402,192,245317,1,2,0:0:0:0:
109,192,245317,1,0,0:0:0:0:
329,192,245377,1,0,0:0:0:0:
36,192,245407,1,0,0:0:0:0:
109,192,245437,1,2,0:0:0:0:
182,192,245467,1,0,0:0:0:0:
256,192,245497,1,0,0:0:0:0:
329,192,245527,1,0,0:0:0:0:
402,192,245557,1,2,0:0:0:0:
475,192,245587,1,0,0:0:0:0:
36,192,245617,1,0,0:0:0:0:
109,192,245647,1,0,0:0:0:0:
182,192,245677,1,2,0:0:0:0:
256,192,245707,1,0,0:0:0:0:
329,192,245737,1,0,0:0:0:0:
402,192,245767,1,0,0:0:0:0:
36,192,245797,1,2,0:0:0:0:
182,192,245797,1,2,0:0:0:0:
475,192,245797,1,0,0:0:0:0:
256,192,245797,1,0,0:0:0:0:
109,192,245857,1,0,0:0:0:0:
182,192,245917,1,2,0:0:0:0:
329,192,245917,1,0,0:0:0:0:
402,192,245917,1,0,0:0:0:0:
256,192,245977,1,0,0:0:0:0:
36,192,246037,1,2,0:0:0:0:
109,192,246037,1,2,0:0:0:0:
475,192,246037,1,0,0:0:0:0:
402,192,246037,1,0,0:0:0:0:
182,192,246097,1,0,0:0:0:0:
109,192,246157,1,2,0:0:0:0:
402,192,246157,1,2,0:0:0:0:
329,192,246157,1,0,0:0:0:0:
475,192,246217,1,0,0:0:0:0:
36,192,246277,1,2,0:0:0:0:
329,192,246277,1,2,0:0:0:0:
256,192,246277,1,0,0:0:0:0:
182,192,246337,1,0,0:0:0:0:
109,192,246397,1,2,0:0:0:0:
36,192,246397,1,2,0:0:0:0:
402,192,246397,1,0,0:0:0:0:
475,192,246397,1,0,0:0:0:0:
256,192,246457,1,0,0:0:0:0:
182,192,246517,1,2,0:0:0:0:
109,192,246517,1,2,0:0:0:0:
329,192,246517,1,0,0:0:0:0:
475,192,246577,1,0,0:0:0:0:
36,192,246637,1,2,0:0:0:0:
402,192,246637,1,2,0:0:0:0:
256,192,246637,1,0,0:0:0:0:
109,192,246697,1,0,0:0:0:0:
329,192,246757,1,2,0:0:0:0:
36,192,246757,1,2,0:0:0:0:
475,192,246757,1,0,0:0:0:0:
182,192,246757,1,0,0:0:0:0:
402,192,246817,1,0,0:0:0:0:
36,192,246877,1,2,0:0:0:0:
329,192,246877,1,2,0:0:0:0:
256,192,246877,1,0,0:0:0:0:
109,192,246937,1,0,0:0:0:0:
402,192,246997,1,2,0:0:0:0:
182,192,246997,1,2,0:0:0:0:
475,192,246997,1,0,0:0:0:0:
329,192,247057,1,0,0:0:0:0:
402,192,247117,1,2,0:0:0:0:
256,192,247117,1,2,0:0:0:0:
109,192,247117,1,0,0:0:0:0:
36,192,247117,1,0,0:0:0:0:
182,192,247177,1,0,0:0:0:0:
329,192,247237,1,2,0:0:0:0:
109,192,247237,1,10,0:0:0:0:
475,192,247237,1,0,0:0:0:0:
182,192,247357,1,8,0:0:0:0:
402,192,247357,1,0,0:0:0:0:
256,192,247357,1,0,0:0:0:0:
36,192,247417,1,8,0:0:0:0:
475,192,247417,1,0,0:0:0:0:
329,192,247417,1,0,0:0:0:0:
182,192,247477,1,8,0:0:0:0:
256,192,247477,1,0,0:0:0:0:
402,192,247477,1,0,0:0:0:0:
109,192,247597,1,8,0:0:0:0:
329,192,247597,1,0,0:0:0:0:
36,192,247597,1,0,0:0:0:0:
329,192,247717,1,10,0:0:0:0:
256,192,247717,1,10,0:0:0:0:
475,192,247717,1,0,0:0:0:0:
36,192,247717,1,0,0:0:0:0:
109,192,247777,1,0,0:0:0:0:
256,192,247837,1,0,0:0:0:0:
182,192,247837,1,0,0:0:0:0:
402,192,247837,1,0,0:0:0:0:
329,192,247897,1,0,0:0:0:0:
36,192,247957,1,10,0:0:0:0:
109,192,247957,1,10,0:0:0:0:
182,192,247957,1,0,0:0:0:0:
402,192,247957,1,0,0:0:0:0:
475,192,247957,1,0,0:0:0:0:
256,192,248017,1,0,0:0:0:0:
36,192,248077,1,0,0:0:0:0:
329,192,248077,1,0,0:0:0:0:
182,192,248077,1,0,0:0:0:0:
109,192,248137,1,0,0:0:0:0:
256,192,248197,1,10,0:0:0:0:
36,192,248197,1,10,0:0:0:0:
402,192,248197,1,0,0:0:0:0:
475,192,248197,1,0,0:0:0:0:
329,192,248257,1,0,0:0:0:0:
182,192,248317,1,0,0:0:0:0:
256,192,248317,1,0,0:0:0:0:
109,192,248317,1,0,0:0:0:0:
475,192,248377,1,0,0:0:0:0:
402,192,248437,1,10,0:0:0:0:
182,192,248437,1,10,0:0:0:0:
329,192,248437,1,0,0:0:0:0:
109,192,248437,1,0,0:0:0:0:
36,192,248497,1,0,0:0:0:0:
402,192,248557,1,0,0:0:0:0:
109,192,248557,1,0,0:0:0:0:
256,192,248557,1,0,0:0:0:0:
329,192,248617,1,0,0:0:0:0:
475,192,248677,1,10,0:0:0:0:
256,192,248677,1,10,0:0:0:0:
36,192,248677,1,0,0:0:0:0:
182,192,248677,1,0,0:0:0:0:
329,192,248737,1,0,0:0:0:0:
402,192,248797,1,0,0:0:0:0:
256,192,248797,1,0,0:0:0:0:
109,192,248797,1,0,0:0:0:0:
36,192,248857,1,0,0:0:0:0:
329,192,248917,1,10,0:0:0:0:
256,192,248917,1,10,0:0:0:0:
475,192,248917,1,0,0:0:0:0:
109,192,248917,1,0,0:0:0:0:
402,192,248977,1,0,0:0:0:0:
182,192,249037,1,0,0:0:0:0:
36,192,249037,1,0,0:0:0:0:
329,192,249037,1,0,0:0:0:0:
109,192,249097,1,0,0:0:0:0:
36,192,249157,1,10,0:0:0:0:
475,192,249157,1,10,0:0:0:0:
256,192,249157,1,0,0:0:0:0:
402,192,249157,1,0,0:0:0:0:
182,192,249217,1,0,0:0:0:0:
36,192,249277,1,0,0:0:0:0:
329,192,249277,1,0,0:0:0:0:
402,192,249277,1,0,0:0:0:0:
256,192,249337,1,0,0:0:0:0:
182,192,249397,1,10,0:0:0:0:
109,192,249397,1,10,0:0:0:0:
329,192,249397,1,0,0:0:0:0:
475,192,249397,1,0,0:0:0:0:
36,192,249457,1,0,0:0:0:0:
109,192,249517,1,0,0:0:0:0:
256,192,249517,1,0,0:0:0:0:
402,192,249517,1,0,0:0:0:0:
182,192,249577,1,0,0:0:0:0:
329,192,249637,1,10,0:0:0:0:
36,192,249637,1,10,0:0:0:0:
402,192,249637,1,0,0:0:0:0:
256,192,249637,1,0,0:0:0:0:
329,192,249757,1,10,0:0:0:0:
109,192,249757,1,10,0:0:0:0:
475,192,249757,1,0,0:0:0:0:
182,192,249757,1,0,0:0:0:0:
182,192,249877,1,10,0:0:0:0:
36,192,249877,1,10,0:0:0:0:
402,192,249877,1,0,0:0:0:0:
256,192,249877,1,0,0:0:0:0:
402,192,249997,1,10,0:0:0:0:
475,192,249997,1,10,0:0:0:0:
109,192,249997,1,0,0:0:0:0:
329,192,249997,1,0,0:0:0:0:
109,192,250117,1,10,0:0:0:0:
329,192,250117,1,10,0:0:0:0:
182,192,250117,1,0,0:0:0:0:
36,192,250117,1,0,0:0:0:0:
182,192,250237,1,10,0:0:0:0:
256,192,250237,1,10,0:0:0:0:
402,192,250237,1,0,0:0:0:0:
475,192,250237,1,0,0:0:0:0:
109,192,250357,1,10,0:0:0:0:
36,192,250357,1,10,0:0:0:0:
402,192,250357,1,0,0:0:0:0:
329,192,250357,1,0,0:0:0:0:
182,192,250477,1,10,0:0:0:0:
475,192,250477,1,10,0:0:0:0:
256,192,250477,1,0,0:0:0:0:
109,192,250477,1,0,0:0:0:0:
402,192,250597,1,8,0:0:0:0:
329,192,250597,1,8,0:0:0:0:
36,192,250597,1,0,0:0:0:0:
109,192,250657,1,8,0:0:0:0:
182,192,250657,1,8,0:0:0:0:
475,192,250657,1,0,0:0:0:0:
329,192,250717,1,8,0:0:0:0:
402,192,250717,1,8,0:0:0:0:
36,192,250717,1,0,0:0:0:0:
109,192,250837,1,2,0:0:0:0:
475,192,250837,1,2,0:0:0:0:
256,192,250837,1,0,0:0:0:0:
182,192,250837,1,0,0:0:0:0:
329,192,250957,1,8,0:0:0:0:
402,192,250957,1,8,0:0:0:0:
475,192,250957,1,0,0:0:0:0:
109,192,251017,1,8,0:0:0:0:
36,192,251017,1,8,0:0:0:0:
182,192,251017,1,0,0:0:0:0:
329,192,251077,1,8,0:0:0:0:
402,192,251077,1,8,0:0:0:0:
475,192,251077,1,0,0:0:0:0:
402,192,251197,1,2,0:0:0:0:
36,192,251197,1,2,0:0:0:0:
256,192,251197,1,0,0:0:0:0:
109,192,251197,1,0,0:0:0:0:
329,192,251317,1,8,0:0:0:0:
182,192,251317,1,8,0:0:0:0:
36,192,251317,1,0,0:0:0:0:
402,192,251377,1,8,0:0:0:0:
256,192,251377,1,8,0:0:0:0:
109,192,251377,1,0,0:0:0:0:
475,192,251437,1,8,0:0:0:0:
329,192,251437,1,0,0:0:0:0:
182,192,251437,1,8,0:0:0:0:
109,192,251497,1,8,0:0:0:0:
36,192,251497,1,8,0:0:0:0:
402,192,251497,1,0,0:0:0:0:
182,192,251557,1,14,0:0:0:0:
36,192,251557,1,14,0:0:0:0:
329,192,251557,128,0,253477:0:0:0:0:
475,192,251557,128,0,253477:0:0:0:0:
256,192,251557,128,0,253237:0:0:0:0:
256,192,253477,128,0,254437:0:0:0:0:
402,192,253477,128,0,254197:0:0:0:0:
109,192,253477,128,0,254437:0:0:0:0:
329,192,254437,128,0,255157:0:0:0:0:
402,192,254437,128,0,255397:0:0:0:0:
475,192,254437,128,0,255397:0:0:0:0:
182,192,255397,128,0,257317:0:0:0:0:
329,192,255397,128,0,257317:0:0:0:0:
256,192,255397,128,0,257077:0:0:0:0:
109,192,257317,128,0,258277:0:0:0:0:
256,192,257317,128,0,258277:0:0:0:0:
402,192,257317,128,0,258037:0:0:0:0:
329,192,258277,128,0,258997:0:0:0:0:
402,192,258277,128,0,259237:0:0:0:0:
475,192,258277,128,0,259237:0:0:0:0:
36,192,259237,128,0,261157:0:0:0:0:
182,192,259237,128,0,260917:0:0:0:0:
329,192,259237,128,0,261157:0:0:0:0:
109,192,261157,128,0,262117:0:0:0:0:
182,192,261157,128,0,262117:0:0:0:0:
256,192,261157,128,0,261877:0:0:0:0:
256,192,262117,128,0,263077:0:0:0:0:
402,192,262117,128,0,262837:0:0:0:0:
475,192,262117,128,0,263077:0:0:0:0:
402,192,263077,128,0,264997:0:0:0:0:
182,192,263077,128,0,264997:0:0:0:0:
109,192,263077,128,0,264757:0:0:0:0:
36,192,264997,128,0,265957:0:0:0:0:
109,192,264997,128,0,265957:0:0:0:0:
329,192,264997,128,0,265717:0:0:0:0:
329,192,265957,128,0,266917:0:0:0:0:
402,192,265957,128,0,266917:0:0:0:0:
475,192,265957,128,0,266917:0:0:0:0:
256,192,266197,128,0,266917:0:0:0:0:
36,192,266917,1,6,0:0:0:0:
109,192,266917,1,6,0:0:0:0:
182,192,266917,1,0,0:0:0:0:
256,192,267037,1,2,0:0:0:0:
475,192,267037,1,2,0:0:0:0:
402,192,267037,1,0,0:0:0:0:
109,192,267037,1,0,0:0:0:0:
36,192,267157,1,2,0:0:0:0:
182,192,267157,1,2,0:0:0:0:
329,192,267157,1,0,0:0:0:0:
475,192,267157,1,0,0:0:0:0:
109,192,267277,1,2,0:0:0:0:
256,192,267277,1,2,0:0:0:0:
36,192,267277,1,0,0:0:0:0:
402,192,267277,1,0,0:0:0:0:
329,192,267397,1,2,0:0:0:0:
182,192,267397,1,2,0:0:0:0:
109,192,267397,1,0,0:0:0:0:
402,192,267397,1,0,0:0:0:0:
36,192,267517,1,2,0:0:0:0:
256,192,267517,1,2,0:0:0:0:
475,192,267517,1,0,0:0:0:0:
329,192,267517,1,0,0:0:0:0:
402,192,267637,1,2,0:0:0:0:
109,192,267637,1,2,0:0:0:0:
36,192,267637,1,0,0:0:0:0:
182,192,267637,1,0,0:0:0:0:
329,192,267757,1,2,0:0:0:0:
475,192,267757,1,2,0:0:0:0:
182,192,267757,1,0,0:0:0:0:
256,192,267757,1,0,0:0:0:0:
36,192,267877,1,2,0:0:0:0:
402,192,267877,1,2,0:0:0:0:
329,192,267877,1,0,0:0:0:0:
109,192,267877,1,0,0:0:0:0:
36,192,267997,1,2,0:0:0:0:
182,192,267997,1,2,0:0:0:0:
475,192,267997,1,0,0:0:0:0:
256,192,267997,1,0,0:0:0:0:
402,192,268117,1,2,0:0:0:0:
109,192,268117,1,2,0:0:0:0:
329,192,268117,1,0,0:0:0:0:
256,192,268117,1,0,0:0:0:0:
36,192,268237,1,2,0:0:0:0:
182,192,268237,1,2,0:0:0:0:
475,192,268237,1,0,0:0:0:0:
329,192,268237,1,0,0:0:0:0:
109,192,268357,1,2,0:0:0:0:
256,192,268357,1,2,0:0:0:0:
475,192,268357,1,0,0:0:0:0:
402,192,268357,1,0,0:0:0:0:
182,192,268477,1,2,0:0:0:0:
329,192,268477,1,2,0:0:0:0:
402,192,268477,1,0,0:0:0:0:
256,192,268477,1,0,0:0:0:0:
36,192,268597,1,2,0:0:0:0:
109,192,268597,1,2,0:0:0:0:
475,192,268597,1,0,0:0:0:0:
182,192,268597,1,0,0:0:0:0:
475,192,268717,1,2,0:0:0:0:
329,192,268717,1,2,0:0:0:0:
256,192,268717,1,0,0:0:0:0:
109,192,268717,1,0,0:0:0:0:
36,192,268837,1,2,0:0:0:0:
182,192,268837,1,2,0:0:0:0:
402,192,268837,1,0,0:0:0:0:
329,192,268837,1,0,0:0:0:0:
256,192,268837,1,0,0:0:0:0:
475,192,268957,1,2,0:0:0:0:
109,192,268957,1,2,0:0:0:0:
36,192,268957,1,0,0:0:0:0:
182,192,268957,1,0,0:0:0:0:
329,192,269077,1,2,0:0:0:0:
109,192,269077,1,2,0:0:0:0:
402,192,269077,1,0,0:0:0:0:
256,192,269077,1,0,0:0:0:0:
36,192,269197,1,2,0:0:0:0:
475,192,269197,1,2,0:0:0:0:
402,192,269197,1,0,0:0:0:0:
182,192,269197,1,0,0:0:0:0:
182,192,269317,1,2,0:0:0:0:
256,192,269317,1,2,0:0:0:0:
329,192,269317,1,0,0:0:0:0:
109,192,269317,1,0,0:0:0:0:
36,192,269437,1,2,0:0:0:0:
109,192,269437,1,2,0:0:0:0:
402,192,269437,1,0,0:0:0:0:
329,192,269437,1,0,0:0:0:0:
475,192,269557,1,2,0:0:0:0:
402,192,269557,1,2,0:0:0:0:
36,192,269557,1,0,0:0:0:0:
182,192,269557,1,0,0:0:0:0:
256,192,269677,1,2,0:0:0:0:
109,192,269677,1,2,0:0:0:0:
329,192,269677,1,0,0:0:0:0:
475,192,269677,1,0,0:0:0:0:
36,192,269797,1,2,0:0:0:0:
256,192,269797,1,2,0:0:0:0:
109,192,269797,1,0,0:0:0:0:
402,192,269797,1,0,0:0:0:0:
182,192,269797,1,0,0:0:0:0:
36,192,269917,1,2,0:0:0:0:
182,192,269917,1,2,0:0:0:0:
475,192,269917,1,0,0:0:0:0:
329,192,269917,1,0,0:0:0:0:
402,192,270037,1,2,0:0:0:0:
256,192,270037,1,2,0:0:0:0:
109,192,270037,1,0,0:0:0:0:
475,192,270037,1,0,0:0:0:0:
109,192,270157,1,2,0:0:0:0:
182,192,270157,1,2,0:0:0:0:
402,192,270157,1,0,0:0:0:0:
329,192,270157,1,0,0:0:0:0:
36,192,270277,1,2,0:0:0:0:
475,192,270277,1,10,0:0:0:0:
256,192,270277,1,0,0:0:0:0:
182,192,270277,1,0,0:0:0:0:
475,192,270397,1,8,0:0:0:0:
402,192,270397,1,0,0:0:0:0:
329,192,270397,1,0,0:0:0:0:
109,192,270397,1,0,0:0:0:0:
182,192,270517,1,8,0:0:0:0:
329,192,270517,1,0,0:0:0:0:
256,192,270517,1,0,0:0:0:0:
402,192,270517,1,0,0:0:0:0:
36,192,270637,1,2,0:0:0:0:
182,192,270637,1,10,0:0:0:0:
109,192,270637,1,0,0:0:0:0:
475,192,270637,1,0,0:0:0:0:
329,192,270757,1,2,0:0:0:0:
36,192,270757,1,2,0:0:0:0:
475,192,270757,1,0,0:0:0:0:
256,192,270757,1,0,0:0:0:0:
402,192,270757,1,0,0:0:0:0:
402,192,270877,1,2,0:0:0:0:
182,192,270877,1,2,0:0:0:0:
256,192,270877,1,0,0:0:0:0:
109,192,270877,1,0,0:0:0:0:
329,192,270997,1,2,0:0:0:0:
36,192,270997,1,2,0:0:0:0:
475,192,270997,1,0,0:0:0:0:
182,192,270997,1,0,0:0:0:0:
109,192,271117,1,2,0:0:0:0:
256,192,271117,1,2,0:0:0:0:
36,192,271117,1,0,0:0:0:0:
402,192,271117,1,0,0:0:0:0:
182,192,271237,1,2,0:0:0:0:
109,192,271237,1,2,0:0:0:0:
329,192,271237,1,0,0:0:0:0:
256,192,271237,1,0,0:0:0:0:
475,192,271357,1,2,0:0:0:0:
329,192,271357,1,2,0:0:0:0:
402,192,271357,1,0,0:0:0:0:
36,192,271357,1,0,0:0:0:0:
256,192,271477,1,2,0:0:0:0:
182,192,271477,1,2,0:0:0:0:
402,192,271477,1,0,0:0:0:0:
36,192,271477,1,0,0:0:0:0:
182,192,271597,1,2,0:0:0:0:
475,192,271597,1,2,0:0:0:0:
109,192,271597,1,0,0:0:0:0:
329,192,271597,1,0,0:0:0:0:
256,192,271717,1,2,0:0:0:0:
475,192,271717,1,2,0:0:0:0:
402,192,271717,1,0,0:0:0:0:
36,192,271717,1,0,0:0:0:0:
329,192,271837,1,2,0:0:0:0:
402,192,271837,1,2,0:0:0:0:
182,192,271837,1,0,0:0:0:0:
109,192,271837,1,0,0:0:0:0:
475,192,271957,1,2,0:0:0:0:
36,192,271957,1,2,0:0:0:0:
256,192,271957,1,0,0:0:0:0:
109,192,271957,1,0,0:0:0:0:
402,192,272077,1,2,0:0:0:0:
256,192,272077,1,2,0:0:0:0:
329,192,272077,1,0,0:0:0:0:
182,192,272077,1,0,0:0:0:0:
182,192,272197,1,2,0:0:0:0:
402,192,272197,1,2,0:0:0:0:
109,192,272197,1,0,0:0:0:0:
475,192,272197,1,0,0:0:0:0:
109,192,272317,1,2,0:0:0:0:
329,192,272317,1,2,0:0:0:0:
475,192,272317,1,0,0:0:0:0:
36,192,272317,1,0,0:0:0:0:
182,192,272437,1,2,0:0:0:0:
256,192,272437,1,2,0:0:0:0:
36,192,272437,1,0,0:0:0:0:
402,192,272437,1,0,0:0:0:0:
402,192,272557,1,2,0:0:0:0:
109,192,272557,1,2,0:0:0:0:
475,192,272557,1,0,0:0:0:0:
256,192,272557,1,0,0:0:0:0:
36,192,272677,1,2,0:0:0:0:
182,192,272677,1,2,0:0:0:0:
475,192,272677,1,0,0:0:0:0:
329,192,272677,1,0,0:0:0:0:
109,192,272677,1,0,0:0:0:0:
402,192,272797,1,2,0:0:0:0:
36,192,272797,1,2,0:0:0:0:
256,192,272797,1,0,0:0:0:0:
182,192,272797,1,0,0:0:0:0:
109,192,272917,1,2,0:0:0:0:
402,192,272917,1,2,0:0:0:0:
329,192,272917,1,0,0:0:0:0:
256,192,272917,1,0,0:0:0:0:
329,192,273037,1,2,0:0:0:0:
475,192,273037,1,2,0:0:0:0:
36,192,273037,1,0,0:0:0:0:
182,192,273037,1,0,0:0:0:0:
109,192,273157,1,2,0:0:0:0:
402,192,273157,1,2,0:0:0:0:
36,192,273157,1,0,0:0:0:0:
256,192,273157,1,0,0:0:0:0:
182,192,273277,1,2,0:0:0:0:
256,192,273277,1,2,0:0:0:0:
329,192,273277,1,0,0:0:0:0:
475,192,273277,1,0,0:0:0:0:
402,192,273397,1,2,0:0:0:0:
36,192,273397,1,2,0:0:0:0:
109,192,273397,1,0,0:0:0:0:
329,192,273397,1,0,0:0:0:0:
256,192,273517,1,2,0:0:0:0:
182,192,273517,1,2,0:0:0:0:
475,192,273517,1,0,0:0:0:0:
109,192,273517,1,0,0:0:0:0:
256,192,273637,1,2,0:0:0:0:
402,192,273637,1,2,0:0:0:0:
329,192,273637,1,0,0:0:0:0:
36,192,273637,1,0,0:0:0:0:
182,192,273637,1,0,0:0:0:0:
36,192,273757,1,2,0:0:0:0:
329,192,273757,1,2,0:0:0:0:
475,192,273757,1,0,0:0:0:0:
109,192,273757,1,0,0:0:0:0:
475,192,273877,1,2,0:0:0:0:
109,192,273877,1,2,0:0:0:0:
402,192,273877,1,0,0:0:0:0:
256,192,273877,1,0,0:0:0:0:
182,192,273997,1,2,0:0:0:0:
256,192,273997,1,2,0:0:0:0:
329,192,273997,1,0,0:0:0:0:
402,192,273997,1,0,0:0:0:0:
109,192,274117,1,2,0:0:0:0:
475,192,274117,1,2,0:0:0:0:
36,192,274117,1,0,0:0:0:0:
182,192,274117,1,0,0:0:0:0:
109,192,274237,1,2,0:0:0:0:
475,192,274237,1,2,0:0:0:0:
256,192,274237,1,0,0:0:0:0:
329,192,274237,1,0,0:0:0:0:
402,192,274357,1,2,0:0:0:0:
182,192,274357,1,2,0:0:0:0:
329,192,274357,1,0,0:0:0:0:
36,192,274357,1,0,0:0:0:0:
109,192,274477,1,2,0:0:0:0:
475,192,274477,1,2,0:0:0:0:
256,192,274477,1,0,0:0:0:0:
36,192,274477,1,0,0:0:0:0:
329,192,274597,1,2,0:0:0:0:
402,192,274597,1,2,0:0:0:0:
182,192,274597,1,0,0:0:0:0:
109,192,274597,1,0,0:0:0:0:
256,192,274597,1,0,0:0:0:0:
402,192,274717,1,2,0:0:0:0:
36,192,274717,1,2,0:0:0:0:
475,192,274717,1,0,0:0:0:0:
182,192,274717,1,0,0:0:0:0:
329,192,274837,1,2,0:0:0:0:
109,192,274837,1,2,0:0:0:0:
256,192,274837,1,0,0:0:0:0:
475,192,274837,1,0,0:0:0:0:
36,192,274957,1,2,0:0:0:0:
402,192,274957,1,2,0:0:0:0:
182,192,274957,1,0,0:0:0:0:
256,192,274957,1,0,0:0:0:0:
475,192,275077,1,2,0:0:0:0:
36,192,275077,1,2,0:0:0:0:
109,192,275077,1,0,0:0:0:0:
329,192,275077,1,0,0:0:0:0:
109,192,275197,1,2,0:0:0:0:
475,192,275197,1,2,0:0:0:0:
182,192,275197,1,0,0:0:0:0:
402,192,275197,1,0,0:0:0:0:
329,192,275317,1,2,0:0:0:0:
256,192,275317,1,2,0:0:0:0:
402,192,275317,1,0,0:0:0:0:
36,192,275317,1,0,0:0:0:0:
475,192,275437,1,2,0:0:0:0:
329,192,275437,1,2,0:0:0:0:
109,192,275437,1,0,0:0:0:0:
182,192,275437,1,0,0:0:0:0:
475,192,275557,1,2,0:0:0:0:
256,192,275557,1,2,0:0:0:0:
402,192,275557,1,0,0:0:0:0:
36,192,275557,1,0,0:0:0:0:
402,192,275677,1,2,0:0:0:0:
329,192,275677,1,2,0:0:0:0:
109,192,275677,1,0,0:0:0:0:
182,192,275677,1,0,0:0:0:0:
475,192,275797,1,2,0:0:0:0:
36,192,275797,1,2,0:0:0:0:
256,192,275797,1,0,0:0:0:0:
329,192,275797,1,0,0:0:0:0:
402,192,275917,1,2,0:0:0:0:
36,192,275917,1,2,0:0:0:0:
109,192,275917,1,0,0:0:0:0:
182,192,275917,1,0,0:0:0:0:
329,192,276037,1,2,0:0:0:0:
475,192,276037,1,2,0:0:0:0:
182,192,276037,1,0,0:0:0:0:
256,192,276037,1,0,0:0:0:0:
109,192,276157,1,2,0:0:0:0:
329,192,276157,1,2,0:0:0:0:
402,192,276157,1,0,0:0:0:0:
36,192,276157,1,0,0:0:0:0:
182,192,276277,1,2,0:0:0:0:
475,192,276277,1,2,0:0:0:0:
36,192,276277,1,0,0:0:0:0:
256,192,276277,1,0,0:0:0:0:
109,192,276397,1,2,0:0:0:0:
329,192,276397,1,2,0:0:0:0:
256,192,276397,1,0,0:0:0:0:
402,192,276397,1,0,0:0:0:0:
182,192,276517,1,2,0:0:0:0:
475,192,276517,1,2,0:0:0:0:
36,192,276517,1,0,0:0:0:0:
329,192,276517,1,0,0:0:0:0:
109,192,276517,1,0,0:0:0:0:
402,192,276637,1,2,0:0:0:0:
256,192,276637,1,2,0:0:0:0:
475,192,276637,1,0,0:0:0:0:
36,192,276637,1,0,0:0:0:0:
329,192,276757,1,2,0:0:0:0:
402,192,276757,1,2,0:0:0:0:
182,192,276757,1,0,0:0:0:0:
256,192,276757,1,0,0:0:0:0:
36,192,276877,1,2,0:0:0:0:
182,192,276877,1,2,0:0:0:0:
109,192,276877,1,0,0:0:0:0:
475,192,276877,1,0,0:0:0:0:
256,192,276997,1,2,0:0:0:0:
329,192,276997,1,2,0:0:0:0:
109,192,276997,1,0,0:0:0:0:
475,192,276997,1,0,0:0:0:0:
329,192,277117,1,2,0:0:0:0:
36,192,277117,1,2,0:0:0:0:
402,192,277117,1,0,0:0:0:0:
182,192,277117,1,0,0:0:0:0:
256,192,277237,1,2,0:0:0:0:
36,192,277237,1,2,0:0:0:0:
109,192,277237,1,0,0:0:0:0:
475,192,277237,1,0,0:0:0:0:
182,192,277357,1,2,0:0:0:0:
109,192,277357,1,2,0:0:0:0:
329,192,277357,1,0,0:0:0:0:
402,192,277357,1,0,0:0:0:0:
36,192,277477,1,2,0:0:0:0:
475,192,277477,1,2,0:0:0:0:
256,192,277477,1,0,0:0:0:0:
402,192,277477,1,0,0:0:0:0:
182,192,277477,1,0,0:0:0:0:
256,192,277597,1,2,0:0:0:0:
329,192,277597,1,2,0:0:0:0:
475,192,277597,1,0,0:0:0:0:
36,192,277597,1,0,0:0:0:0:
329,192,277717,1,2,0:0:0:0:
109,192,277717,1,2,0:0:0:0:
402,192,277717,1,0,0:0:0:0:
182,192,277717,1,0,0:0:0:0:
402,192,277837,1,2,0:0:0:0:
182,192,277837,1,2,0:0:0:0:
36,192,277837,1,0,0:0:0:0:
475,192,277837,1,0,0:0:0:0:
329,192,277957,1,2,0:0:0:0:
256,192,277957,1,10,0:0:0:0:
475,192,277957,1,0,0:0:0:0:
109,192,277957,1,0,0:0:0:0:
182,192,278077,1,8,0:0:0:0:
256,192,278077,1,0,0:0:0:0:
36,192,278077,1,0,0:0:0:0:
402,192,278077,1,0,0:0:0:0:
109,192,278197,1,8,0:0:0:0:
329,192,278197,1,0,0:0:0:0:
475,192,278197,1,0,0:0:0:0:
36,192,278197,1,0,0:0:0:0:
182,192,278317,1,10,0:0:0:0:
402,192,278317,1,2,0:0:0:0:
109,192,278317,1,0,0:0:0:0:
475,192,278317,1,0,0:0:0:0:
402,192,278437,1,2,0:0:0:0:
256,192,278437,1,2,0:0:0:0:
329,192,278437,1,0,0:0:0:0:
182,192,278437,1,0,0:0:0:0:
36,192,278437,1,0,0:0:0:0:
475,192,278557,1,2,0:0:0:0:
36,192,278557,1,2,0:0:0:0:
256,192,278557,1,0,0:0:0:0:
109,192,278557,1,0,0:0:0:0:
329,192,278677,1,2,0:0:0:0:
402,192,278677,1,2,0:0:0:0:
182,192,278677,1,0,0:0:0:0:
109,192,278677,1,0,0:0:0:0:
256,192,278797,1,2,0:0:0:0:
475,192,278797,1,2,0:0:0:0:
402,192,278797,1,0,0:0:0:0:
36,192,278797,1,0,0:0:0:0:
182,192,278917,1,2,0:0:0:0:
475,192,278917,1,2,0:0:0:0:
109,192,278917,1,0,0:0:0:0:
329,192,278917,1,0,0:0:0:0:
256,192,279037,1,2,0:0:0:0:
182,192,279037,1,2,0:0:0:0:
402,192,279037,1,0,0:0:0:0:
36,192,279037,1,0,0:0:0:0:
475,192,279157,1,2,0:0:0:0:
329,192,279157,1,2,0:0:0:0:
402,192,279157,1,0,0:0:0:0:
36,192,279157,1,0,0:0:0:0:
182,192,279277,1,2,0:0:0:0:
109,192,279277,1,2,0:0:0:0:
329,192,279277,1,0,0:0:0:0:
256,192,279277,1,0,0:0:0:0:
109,192,279397,1,2,0:0:0:0:
256,192,279397,1,2,0:0:0:0:
36,192,279397,1,0,0:0:0:0:
402,192,279397,1,0,0:0:0:0:
329,192,279517,1,2,0:0:0:0:
36,192,279517,1,2,0:0:0:0:
475,192,279517,1,0,0:0:0:0:
182,192,279517,1,0,0:0:0:0:
402,192,279637,1,2,0:0:0:0:
182,192,279637,1,2,0:0:0:0:
256,192,279637,1,0,0:0:0:0:
109,192,279637,1,0,0:0:0:0:
329,192,279757,1,2,0:0:0:0:
36,192,279757,1,2,0:0:0:0:
475,192,279757,1,0,0:0:0:0:
256,192,279757,1,0,0:0:0:0:
402,192,279877,1,2,0:0:0:0:
182,192,279877,1,2,0:0:0:0:
109,192,279877,1,0,0:0:0:0:
475,192,279877,1,0,0:0:0:0:
182,192,279997,1,2,0:0:0:0:
36,192,279997,1,2,0:0:0:0:
329,192,279997,1,0,0:0:0:0:
256,192,279997,1,0,0:0:0:0:
109,192,280117,1,2,0:0:0:0:
475,192,280117,1,2,0:0:0:0:
402,192,280117,1,0,0:0:0:0:
329,192,280117,1,0,0:0:0:0:
36,192,280237,1,2,0:0:0:0:
475,192,280237,1,2,0:0:0:0:
256,192,280237,1,0,0:0:0:0:
182,192,280237,1,0,0:0:0:0:
109,192,280357,1,2,0:0:0:0:
182,192,280357,1,2,0:0:0:0:
402,192,280357,1,0,0:0:0:0:
329,192,280357,1,0,0:0:0:0:
36,192,280357,1,0,0:0:0:0:
402,192,280477,1,2,0:0:0:0:
256,192,280477,1,2,0:0:0:0:
109,192,280477,1,0,0:0:0:0:
475,192,280477,1,0,0:0:0:0:
36,192,280597,1,2,0:0:0:0:
182,192,280597,1,2,0:0:0:0:
475,192,280597,1,0,0:0:0:0:
329,192,280597,1,0,0:0:0:0:
36,192,280717,1,2,0:0:0:0:
256,192,280717,1,2,0:0:0:0:
109,192,280717,1,0,0:0:0:0:
402,192,280717,1,0,0:0:0:0:
402,192,280837,1,2,0:0:0:0:
475,192,280837,1,2,0:0:0:0:
182,192,280837,1,0,0:0:0:0:
109,192,280837,1,0,0:0:0:0:
36,192,280957,1,2,0:0:0:0:
256,192,280957,1,2,0:0:0:0:
329,192,280957,1,0,0:0:0:0:
475,192,280957,1,0,0:0:0:0:
109,192,281077,1,2,0:0:0:0:
256,192,281077,1,2,0:0:0:0:
182,192,281077,1,0,0:0:0:0:
402,192,281077,1,0,0:0:0:0:
36,192,281197,1,2,0:0:0:0:
475,192,281197,1,2,0:0:0:0:
109,192,281197,1,0,0:0:0:0:
182,192,281197,1,0,0:0:0:0:
402,192,281317,1,2,0:0:0:0:
329,192,281317,1,2,0:0:0:0:
256,192,281317,1,0,0:0:0:0:
475,192,281317,1,0,0:0:0:0:
36,192,281317,1,0,0:0:0:0:
36,192,281437,1,2,0:0:0:0:
182,192,281437,1,2,0:0:0:0:
329,192,281437,1,0,0:0:0:0:
402,192,281437,1,0,0:0:0:0:
109,192,281557,1,2,0:0:0:0:
182,192,281557,1,2,0:0:0:0:
475,192,281557,1,0,0:0:0:0:
256,192,281557,128,0,282277:0:0:0:0:
36,192,281677,1,2,0:0:0:0:
329,192,281677,1,2,0:0:0:0:
475,192,281677,1,0,0:0:0:0:
402,192,281797,1,2,0:0:0:0:
182,192,281797,1,2,0:0:0:0:
36,192,281797,1,0,0:0:0:0:
475,192,281917,1,2,0:0:0:0:
109,192,281917,1,2,0:0:0:0:
402,192,281917,1,0,0:0:0:0:
36,192,282037,1,2,0:0:0:0:
329,192,282037,1,2,0:0:0:0:
109,192,282037,1,0,0:0:0:0:
475,192,282157,1,2,0:0:0:0:
182,192,282157,1,2,0:0:0:0:
329,192,282157,1,0,0:0:0:0:
36,192,282277,1,10,0:0:0:0:
402,192,282277,1,6,0:0:0:0:
475,192,282277,1,0,0:0:0:0:
182,192,282277,1,0,0:0:0:0:
329,192,282337,1,8,0:0:0:0:
109,192,282337,1,0,0:0:0:0:
182,192,282397,1,8,0:0:0:0:
402,192,282397,1,0,0:0:0:0:
475,192,282457,1,8,0:0:0:0:
256,192,282457,1,0,0:0:0:0:
36,192,282517,1,8,0:0:0:0:
329,192,282517,1,0,0:0:0:0:
402,192,282577,1,8,0:0:0:0:
109,192,282577,1,0,0:0:0:0:
329,192,282637,1,8,0:0:0:0:
182,192,282637,1,0,0:0:0:0:
256,192,282697,1,8,0:0:0:0:
402,192,282697,1,0,0:0:0:0:
182,192,282757,1,8,0:0:0:0:
475,192,282757,1,0,0:0:0:0:
109,192,282817,1,8,0:0:0:0:
329,192,282817,1,0,0:0:0:0:
36,192,282877,1,8,0:0:0:0:
402,192,282877,1,0,0:0:0:0:
475,192,282937,1,8,0:0:0:0:
256,192,282937,1,0,0:0:0:0:
402,192,282997,1,8,0:0:0:0:
182,192,282997,1,0,0:0:0:0:
329,192,283057,1,8,0:0:0:0:
109,192,283057,1,0,0:0:0:0:
256,192,283117,1,8,0:0:0:0:
36,192,283117,1,0,0:0:0:0:
109,192,283177,1,8,0:0:0:0:
475,192,283177,1,0,0:0:0:0:
182,192,283237,1,8,0:0:0:0:
402,192,283237,1,0,0:0:0:0:
256,192,283297,1,8,0:0:0:0:
329,192,283297,1,0,0:0:0:0:
36,192,283357,1,8,0:0:0:0:
402,192,283357,1,0,0:0:0:0:
109,192,283417,1,8,0:0:0:0:
475,192,283417,1,0,0:0:0:0:
182,192,283477,1,8,0:0:0:0:
402,192,283477,1,0,0:0:0:0:
329,192,283537,1,8,0:0:0:0:
36,192,283537,1,0,0:0:0:0:
256,192,283597,1,8,0:0:0:0:
109,192,283597,1,0,0:0:0:0:
182,192,283657,1,8,0:0:0:0:
475,192,283657,1,0,0:0:0:0:
402,192,283717,1,8,0:0:0:0:
109,192,283717,1,0,0:0:0:0:
329,192,283777,1,8,0:0:0:0:
36,192,283777,1,0,0:0:0:0:
109,192,283837,1,8,0:0:0:0:
402,192,283837,1,0,0:0:0:0:
182,192,283897,1,8,0:0:0:0:
475,192,283897,1,0,0:0:0:0:
256,192,283957,1,8,0:0:0:0:
402,192,283957,1,0,0:0:0:0:
329,192,284017,1,8,0:0:0:0:
36,192,284017,1,0,0:0:0:0:
109,192,284077,1,8,0:0:0:0:
475,192,284077,1,0,0:0:0:0:
182,192,284137,1,8,0:0:0:0:
402,192,284137,1,0,0:0:0:0:
329,192,284197,1,8,0:0:0:0:
36,192,284197,1,0,0:0:0:0:
256,192,284197,1,0,0:0:0:0:
109,192,284197,1,0,0:0:0:0:
475,192,284257,1,8,0:0:0:0:
182,192,284257,1,0,0:0:0:0:
402,192,284317,1,8,0:0:0:0:
256,192,284317,1,0,0:0:0:0:
182,192,284377,1,8,0:0:0:0:
329,192,284377,1,0,0:0:0:0:
402,192,284437,1,8,0:0:0:0:
109,192,284437,1,0,0:0:0:0:
36,192,284497,1,8,0:0:0:0:
475,192,284497,1,0,0:0:0:0:
182,192,284557,1,8,0:0:0:0:
402,192,284557,1,0,0:0:0:0:
109,192,284617,1,8,0:0:0:0:
329,192,284617,1,0,0:0:0:0:
256,192,284677,1,8,0:0:0:0:
36,192,284677,1,0,0:0:0:0:
109,192,284737,1,8,0:0:0:0:
402,192,284737,1,0,0:0:0:0:
182,192,284797,1,8,0:0:0:0:
475,192,284797,1,0,0:0:0:0:
329,192,284857,1,8,0:0:0:0:
256,192,284857,1,0,0:0:0:0:
402,192,284917,1,8,0:0:0:0:
36,192,284917,1,0,0:0:0:0:
475,192,284977,1,8,0:0:0:0:
109,192,284977,1,0,0:0:0:0:
402,192,285037,1,8,0:0:0:0:
182,192,285037,1,0,0:0:0:0:
256,192,285097,1,8,0:0:0:0:
329,192,285097,1,0,0:0:0:0:
182,192,285157,1,8,0:0:0:0:
475,192,285157,1,0,0:0:0:0:
36,192,285157,1,0,0:0:0:0:
109,192,285157,1,0,0:0:0:0:
256,192,285217,1,8,0:0:0:0:
402,192,285217,1,0,0:0:0:0:
109,192,285277,1,8,0:0:0:0:
329,192,285277,1,0,0:0:0:0:
182,192,285337,1,8,0:0:0:0:
475,192,285337,1,0,0:0:0:0:
256,192,285397,1,8,0:0:0:0:
402,192,285397,1,0,0:0:0:0:
329,192,285457,1,8,0:0:0:0:
182,192,285457,1,0,0:0:0:0:
402,192,285517,1,8,0:0:0:0:
109,192,285517,1,0,0:0:0:0:
475,192,285577,1,8,0:0:0:0:
36,192,285577,1,0,0:0:0:0:
329,192,285637,1,8,0:0:0:0:
182,192,285637,1,0,0:0:0:0:
402,192,285697,1,8,0:0:0:0:
109,192,285697,1,0,0:0:0:0:
256,192,285757,1,8,0:0:0:0:
36,192,285757,1,0,0:0:0:0:
329,192,285817,1,8,0:0:0:0:
182,192,285817,1,0,0:0:0:0:
109,192,285877,1,8,0:0:0:0:
475,192,285877,1,0,0:0:0:0:
182,192,285937,1,8,0:0:0:0:
402,192,285937,1,0,0:0:0:0:
256,192,285997,1,8,0:0:0:0:
475,192,285997,1,0,0:0:0:0:
329,192,286057,1,8,0:0:0:0:
36,192,286057,1,0,0:0:0:0:
402,192,286117,1,8,0:0:0:0:
182,192,286117,1,0,0:0:0:0:
256,192,286117,1,0,0:0:0:0:
109,192,286117,1,0,0:0:0:0:
475,192,286177,1,8,0:0:0:0:
329,192,286177,1,0,0:0:0:0:
36,192,286237,1,8,0:0:0:0:
182,192,286237,1,0,0:0:0:0:
109,192,286297,1,8,0:0:0:0:
402,192,286297,1,0,0:0:0:0:
182,192,286357,1,8,0:0:0:0:
329,192,286357,1,0,0:0:0:0:
402,192,286417,1,8,0:0:0:0:
36,192,286417,1,0,0:0:0:0:
329,192,286477,1,8,0:0:0:0:
109,192,286477,1,0,0:0:0:0:
256,192,286537,1,8,0:0:0:0:
182,192,286537,1,0,0:0:0:0:
475,192,286597,1,8,0:0:0:0:
109,192,286597,1,0,0:0:0:0:
402,192,286657,1,8,0:0:0:0:
36,192,286657,1,0,0:0:0:0:
329,192,286717,1,8,0:0:0:0:
182,192,286717,1,0,0:0:0:0:
475,192,286777,1,8,0:0:0:0:
109,192,286777,1,0,0:0:0:0:
402,192,286837,1,8,0:0:0:0:
182,192,286837,1,0,0:0:0:0:
256,192,286897,1,8,0:0:0:0:
36,192,286897,1,0,0:0:0:0:
329,192,286957,1,8,0:0:0:0:
109,192,286957,1,0,0:0:0:0:
402,192,287017,1,8,0:0:0:0:
182,192,287017,1,0,0:0:0:0:
475,192,287077,1,8,0:0:0:0:
256,192,287077,1,0,0:0:0:0:
182,192,287137,1,8,0:0:0:0:
402,192,287137,1,0,0:0:0:0:
36,192,287197,1,8,0:0:0:0:
329,192,287197,1,0,0:0:0:0:
109,192,287257,1,8,0:0:0:0:
256,192,287257,1,0,0:0:0:0:
182,192,287317,1,8,0:0:0:0:
475,192,287317,1,0,0:0:0:0:
402,192,287377,1,8,0:0:0:0:
256,192,287377,1,0,0:0:0:0:
36,192,287437,1,8,0:0:0:0:
329,192,287437,1,0,0:0:0:0:
109,192,287497,1,8,0:0:0:0:
402,192,287497,1,0,0:0:0:0:
182,192,287557,1,8,0:0:0:0:
475,192,287557,1,0,0:0:0:0:
329,192,287617,1,8,0:0:0:0:
109,192,287617,1,0,0:0:0:0:
402,192,287677,1,8,0:0:0:0:
36,192,287677,1,0,0:0:0:0:
475,192,287737,1,8,0:0:0:0:
256,192,287737,1,0,0:0:0:0:
182,192,287797,1,8,0:0:0:0:
402,192,287797,1,0,0:0:0:0:
109,192,287857,1,8,0:0:0:0:
329,192,287857,1,0,0:0:0:0:
36,192,287917,1,8,0:0:0:0:
256,192,287917,1,0,0:0:0:0:
182,192,287977,1,8,0:0:0:0:
402,192,287977,1,0,0:0:0:0:
109,192,288037,1,8,0:0:0:0:
475,192,288037,1,0,0:0:0:0:
36,192,288037,1,0,0:0:0:0:
329,192,288037,1,0,0:0:0:0:
182,192,288097,1,8,0:0:0:0:
256,192,288097,1,0,0:0:0:0:
109,192,288157,1,8,0:0:0:0:
402,192,288157,1,0,0:0:0:0:
36,192,288217,1,8,0:0:0:0:
109,192,288277,1,8,0:0:0:0:
256,192,288277,1,0,0:0:0:0:
182,192,288337,1,8,0:0:0:0:
329,192,288337,1,0,0:0:0:0:
402,192,288397,1,8,0:0:0:0:
109,192,288397,1,0,0:0:0:0:
475,192,288457,1,8,0:0:0:0:
36,192,288457,1,0,0:0:0:0:
182,192,288517,1,8,0:0:0:0:
329,192,288517,1,0,0:0:0:0:
109,192,288577,1,8,0:0:0:0:
402,192,288577,1,0,0:0:0:0:
36,192,288637,1,8,0:0:0:0:
256,192,288637,1,0,0:0:0:0:
329,192,288697,1,8,0:0:0:0:
109,192,288697,1,0,0:0:0:0:
402,192,288757,1,8,0:0:0:0:
182,192,288757,1,0,0:0:0:0:
475,192,288817,1,8,0:0:0:0:
256,192,288817,1,0,0:0:0:0:
36,192,288877,1,8,0:0:0:0:
402,192,288877,1,0,0:0:0:0:
182,192,288937,1,8,0:0:0:0:
329,192,288937,1,0,0:0:0:0:
109,192,288997,1,8,0:0:0:0:
475,192,288997,1,0,0:0:0:0:
256,192,288997,1,0,0:0:0:0:
402,192,288997,1,0,0:0:0:0:
36,192,289057,1,8,0:0:0:0:
182,192,289057,1,0,0:0:0:0:
329,192,289117,1,8,0:0:0:0:
256,192,289117,1,0,0:0:0:0:
402,192,289177,1,8,0:0:0:0:
109,192,289177,1,0,0:0:0:0:
475,192,289237,1,8,0:0:0:0:
182,192,289237,1,0,0:0:0:0:
256,192,289297,1,8,0:0:0:0:
402,192,289297,1,0,0:0:0:0:
36,192,289357,1,8,0:0:0:0:
329,192,289357,1,0,0:0:0:0:
109,192,289417,1,8,0:0:0:0:
256,192,289417,1,0,0:0:0:0:
182,192,289477,1,8,0:0:0:0:
402,192,289477,1,0,0:0:0:0:
475,192,289537,1,8,0:0:0:0:
36,192,289537,1,0,0:0:0:0:
329,192,289597,1,8,0:0:0:0:
109,192,289597,1,0,0:0:0:0:
402,192,289657,1,8,0:0:0:0:
256,192,289657,1,0,0:0:0:0:
182,192,289717,1,8,0:0:0:0:
329,192,289717,1,0,0:0:0:0:
109,192,289777,1,8,0:0:0:0:
475,192,289777,1,0,0:0:0:0:
36,192,289837,1,8,0:0:0:0:
402,192,289837,1,0,0:0:0:0:
329,192,289897,1,8,0:0:0:0:
182,192,289897,1,0,0:0:0:0:
109,192,289957,1,8,0:0:0:0:
402,192,289957,1,0,0:0:0:0:
256,192,289957,1,0,0:0:0:0:
475,192,289957,1,0,0:0:0:0:
329,192,290017,1,8,0:0:0:0:
36,192,290017,1,0,0:0:0:0:
256,192,290077,1,8,0:0:0:0:
109,192,290077,1,0,0:0:0:0:
402,192,290137,1,8,0:0:0:0:
182,192,290137,1,0,0:0:0:0:
329,192,290197,1,8,0:0:0:0:
256,192,290197,1,0,0:0:0:0:
475,192,290257,1,8,0:0:0:0:
109,192,290257,1,0,0:0:0:0:
36,192,290317,1,8,0:0:0:0:
402,192,290317,1,0,0:0:0:0:
182,192,290377,1,8,0:0:0:0:
329,192,290377,1,0,0:0:0:0:
256,192,290437,1,8,0:0:0:0:
475,192,290437,1,0,0:0:0:0:
402,192,290497,1,8,0:0:0:0:
36,192,290497,1,0,0:0:0:0:
329,192,290557,1,8,0:0:0:0:
109,192,290557,1,0,0:0:0:0:
256,192,290617,1,8,0:0:0:0:
182,192,290617,1,0,0:0:0:0:
36,192,290677,1,8,0:0:0:0:
402,192,290677,1,0,0:0:0:0:
182,192,290737,1,8,0:0:0:0:
475,192,290737,1,0,0:0:0:0:
109,192,290797,1,8,0:0:0:0:
329,192,290797,1,0,0:0:0:0:
36,192,290857,1,8,0:0:0:0:
256,192,290857,1,0,0:0:0:0:
402,192,290917,1,8,0:0:0:0:
182,192,290917,1,0,0:0:0:0:
109,192,290977,1,8,0:0:0:0:
329,192,290977,1,0,0:0:0:0:
402,192,291037,1,8,0:0:0:0:
36,192,291037,1,0,0:0:0:0:
475,192,291097,1,8,0:0:0:0:
182,192,291097,1,0,0:0:0:0:
256,192,291157,1,8,0:0:0:0:
402,192,291157,1,0,0:0:0:0:
109,192,291217,1,8,0:0:0:0:
329,192,291217,1,0,0:0:0:0:
36,192,291277,1,8,0:0:0:0:
475,192,291277,1,0,0:0:0:0:
109,192,291337,1,8,0:0:0:0:
402,192,291337,1,0,0:0:0:0:
182,192,291397,1,8,0:0:0:0:
329,192,291397,1,0,0:0:0:0:
402,192,291457,1,8,0:0:0:0:
256,192,291457,1,0,0:0:0:0:
475,192,291517,1,8,0:0:0:0:
109,192,291517,1,0,0:0:0:0:
36,192,291577,1,8,0:0:0:0:
329,192,291577,1,0,0:0:0:0:
182,192,291637,1,8,0:0:0:0:
475,192,291637,1,0,0:0:0:0:
256,192,291697,1,8,0:0:0:0:
402,192,291697,1,0,0:0:0:0:
109,192,291757,1,8,0:0:0:0:
329,192,291757,1,0,0:0:0:0:
182,192,291817,1,8,0:0:0:0:
475,192,291817,1,0,0:0:0:0:
256,192,291877,1,8,0:0:0:0:
329,192,291877,1,0,0:0:0:0:
36,192,291877,1,0,0:0:0:0:
109,192,291877,1,0,0:0:0:0:
182,192,291937,1,8,0:0:0:0:
402,192,291937,1,0,0:0:0:0:
256,192,291997,1,8,0:0:0:0:
475,192,291997,1,0,0:0:0:0:
109,192,292057,1,8,0:0:0:0:
329,192,292057,1,0,0:0:0:0:
182,192,292117,1,8,0:0:0:0:
36,192,292117,1,0,0:0:0:0:
329,192,292177,1,8,0:0:0:0:
256,192,292177,1,0,0:0:0:0:
402,192,292237,1,8,0:0:0:0:
109,192,292237,1,0,0:0:0:0:
475,192,292297,1,8,0:0:0:0:
182,192,292297,1,0,0:0:0:0:
256,192,292357,1,8,0:0:0:0:
402,192,292357,1,0,0:0:0:0:
36,192,292417,1,8,0:0:0:0:
329,192,292417,1,0,0:0:0:0:
109,192,292477,1,8,0:0:0:0:
475,192,292477,1,0,0:0:0:0:
182,192,292537,1,8,0:0:0:0:
402,192,292537,1,0,0:0:0:0:
256,192,292597,1,8,0:0:0:0:
329,192,292597,1,0,0:0:0:0:
109,192,292657,1,8,0:0:0:0:
402,192,292657,1,0,0:0:0:0:
36,192,292717,1,8,0:0:0:0:
475,192,292717,1,0,0:0:0:0:
109,192,292777,1,8,0:0:0:0:
256,192,292777,1,0,0:0:0:0:
182,192,292837,1,8,0:0:0:0:
329,192,292837,1,0,0:0:0:0:
402,192,292837,1,0,0:0:0:0:
36,192,292837,1,0,0:0:0:0:
475,192,292897,1,8,0:0:0:0:
109,192,292897,1,0,0:0:0:0:
402,192,292957,1,8,0:0:0:0:
256,192,292957,1,0,0:0:0:0:
182,192,293017,1,8,0:0:0:0:
329,192,293017,1,0,0:0:0:0:
109,192,293077,1,8,0:0:0:0:
402,192,293077,1,0,0:0:0:0:
36,192,293137,1,8,0:0:0:0:
475,192,293137,1,0,0:0:0:0:
256,192,293197,1,8,0:0:0:0:
109,192,293197,1,0,0:0:0:0:
329,192,293257,1,8,0:0:0:0:
182,192,293257,1,0,0:0:0:0:
402,192,293317,1,8,0:0:0:0:
36,192,293317,1,0,0:0:0:0:
109,192,293377,1,8,0:0:0:0:
475,192,293377,1,0,0:0:0:0:
256,192,293437,1,8,0:0:0:0:
329,192,293437,1,0,0:0:0:0:
182,192,293497,1,8,0:0:0:0:
402,192,293497,1,0,0:0:0:0:
109,192,293557,1,8,0:0:0:0:
256,192,293557,1,0,0:0:0:0:
36,192,293617,1,8,0:0:0:0:
475,192,293617,1,0,0:0:0:0:
402,192,293677,1,8,0:0:0:0:
182,192,293677,1,0,0:0:0:0:
329,192,293737,1,8,0:0:0:0:
109,192,293737,1,0,0:0:0:0:
256,192,293797,1,8,0:0:0:0:
36,192,293797,1,0,0:0:0:0:
475,192,293797,1,0,0:0:0:0:
402,192,293797,1,0,0:0:0:0:
329,192,293857,1,8,0:0:0:0:
109,192,293857,1,0,0:0:0:0:
256,192,293917,1,8,0:0:0:0:
182,192,293917,1,0,0:0:0:0:
475,192,293977,1,8,0:0:0:0:
36,192,293977,1,0,0:0:0:0:
402,192,294037,1,8,0:0:0:0:
109,192,294037,1,0,0:0:0:0:
256,192,294097,1,8,0:0:0:0:
182,192,294097,1,0,0:0:0:0:
329,192,294157,1,8,0:0:0:0:
109,192,294157,1,0,0:0:0:0:
36,192,294217,1,8,0:0:0:0:
475,192,294217,1,0,0:0:0:0:
402,192,294277,1,8,0:0:0:0:
182,192,294277,1,0,0:0:0:0:
329,192,294337,1,8,0:0:0:0:
109,192,294337,1,0,0:0:0:0:
256,192,294397,1,8,0:0:0:0:
182,192,294397,1,0,0:0:0:0:
36,192,294457,1,8,0:0:0:0:
475,192,294457,1,0,0:0:0:0:
109,192,294517,1,8,0:0:0:0:
329,192,294517,1,0,0:0:0:0:
182,192,294577,1,8,0:0:0:0:
402,192,294577,1,0,0:0:0:0:
475,192,294637,1,8,0:0:0:0:
256,192,294637,1,0,0:0:0:0:
36,192,294697,1,8,0:0:0:0:
329,192,294697,1,0,0:0:0:0:
182,192,294757,1,8,0:0:0:0:
402,192,294757,1,0,0:0:0:0:
109,192,294817,1,8,0:0:0:0:
475,192,294817,1,0,0:0:0:0:
36,192,294877,1,8,0:0:0:0:
256,192,294877,1,0,0:0:0:0:
402,192,294937,1,8,0:0:0:0:
109,192,294937,1,0,0:0:0:0:
329,192,294997,1,8,0:0:0:0:
182,192,294997,1,0,0:0:0:0:
256,192,295057,1,8,0:0:0:0:
475,192,295057,1,0,0:0:0:0:
402,192,295117,1,8,0:0:0:0:
36,192,295117,1,0,0:0:0:0:
329,192,295177,1,8,0:0:0:0:
182,192,295177,1,0,0:0:0:0:
109,192,295237,1,8,0:0:0:0:
402,192,295237,1,0,0:0:0:0:
36,192,295297,1,8,0:0:0:0:
256,192,295297,1,0,0:0:0:0:
329,192,295357,1,8,0:0:0:0:
182,192,295357,1,0,0:0:0:0:
402,192,295417,1,8,0:0:0:0:
109,192,295417,1,0,0:0:0:0:
475,192,295477,1,8,0:0:0:0:
36,192,295477,1,0,0:0:0:0:
182,192,295537,1,8,0:0:0:0:
402,192,295537,1,0,0:0:0:0:
256,192,295597,1,8,0:0:0:0:
36,192,295597,1,0,0:0:0:0:
329,192,295657,1,8,0:0:0:0:
109,192,295657,1,0,0:0:0:0:
402,192,295717,1,8,0:0:0:0:
182,192,295717,1,0,0:0:0:0:
256,192,295717,1,0,0:0:0:0:
475,192,295717,1,0,0:0:0:0:
329,192,295777,1,8,0:0:0:0:
36,192,295777,1,0,0:0:0:0:
109,192,295837,1,8,0:0:0:0:
402,192,295837,1,0,0:0:0:0:
36,192,295897,1,8,0:0:0:0:
256,192,295897,1,0,0:0:0:0:
182,192,295957,1,8,0:0:0:0:
475,192,295957,1,0,0:0:0:0:
256,192,296017,1,8,0:0:0:0:
402,192,296017,1,0,0:0:0:0:
36,192,296077,1,8,0:0:0:0:
329,192,296077,1,0,0:0:0:0:
182,192,296137,1,8,0:0:0:0:
402,192,296137,1,0,0:0:0:0:
109,192,296197,1,8,0:0:0:0:
256,192,296197,1,0,0:0:0:0:
36,192,296257,1,8,0:0:0:0:
329,192,296257,1,0,0:0:0:0:
402,192,296317,1,8,0:0:0:0:
182,192,296317,1,0,0:0:0:0:
475,192,296377,1,8,0:0:0:0:
36,192,296377,1,0,0:0:0:0:
109,192,296437,1,8,0:0:0:0:
329,192,296437,1,0,0:0:0:0:
182,192,296497,1,8,0:0:0:0:
256,192,296497,1,0,0:0:0:0:
402,192,296557,1,8,0:0:0:0:
36,192,296557,1,0,0:0:0:0:
475,192,296617,1,8,0:0:0:0:
109,192,296617,1,0,0:0:0:0:
329,192,296677,1,8,0:0:0:0:
256,192,296677,1,0,0:0:0:0:
182,192,296737,1,8,0:0:0:0:
475,192,296737,1,0,0:0:0:0:
109,192,296797,1,8,0:0:0:0:
402,192,296797,1,0,0:0:0:0:
36,192,296857,1,8,0:0:0:0:
329,192,296857,1,0,0:0:0:0:
182,192,296917,1,8,0:0:0:0:
256,192,296917,128,0,297637:0:0:0:0:
475,192,296917,1,0,0:0:0:0:
402,192,296977,1,8,0:0:0:0:
36,192,296977,1,0,0:0:0:0:
109,192,297037,1,8,0:0:0:0:
475,192,297037,1,0,0:0:0:0:
329,192,297097,1,8,0:0:0:0:
182,192,297097,1,0,0:0:0:0:
402,192,297157,1,8,0:0:0:0:
109,192,297157,1,0,0:0:0:0:
329,192,297217,1,8,0:0:0:0:
36,192,297217,1,0,0:0:0:0:
109,192,297277,1,8,0:0:0:0:
402,192,297277,1,0,0:0:0:0:
182,192,297337,1,8,0:0:0:0:
475,192,297337,1,0,0:0:0:0:
329,192,297397,1,8,0:0:0:0:
109,192,297397,1,0,0:0:0:0:
402,192,297457,1,8,0:0:0:0:
182,192,297457,1,0,0:0:0:0:
475,192,297517,1,8,0:0:0:0:
36,192,297517,1,0,0:0:0:0:
109,192,297577,1,8,0:0:0:0:
329,192,297577,1,0,0:0:0:0:
182,192,297637,1,8,0:0:0:0:
36,192,297637,1,0,0:0:0:0:
475,192,297637,1,0,0:0:0:0:
256,192,297667,1,0,0:0:0:0:
329,192,297697,1,0,0:0:0:0:
402,192,297727,1,0,0:0:0:0:
109,192,297757,1,0,0:0:0:0:
36,192,297757,1,0,0:0:0:0:
182,192,297787,1,0,0:0:0:0:
256,192,297817,1,0,0:0:0:0:
402,192,297847,1,0,0:0:0:0:
475,192,297877,1,0,0:0:0:0:
36,192,297877,1,0,0:0:0:0:
109,192,297907,1,0,0:0:0:0:
256,192,297937,1,0,0:0:0:0:
329,192,297967,1,0,0:0:0:0:
182,192,297997,1,0,0:0:0:0:
36,192,297997,1,0,0:0:0:0:
402,192,298027,1,0,0:0:0:0:
475,192,298057,1,0,0:0:0:0:
109,192,298087,1,0,0:0:0:0:
256,192,298117,1,0,0:0:0:0:
182,192,298117,1,0,0:0:0:0:
329,192,298147,1,0,0:0:0:0:
36,192,298177,1,0,0:0:0:0:
402,192,298207,1,0,0:0:0:0:
109,192,298237,1,0,0:0:0:0:
475,192,298237,1,0,0:0:0:0:
256,192,298267,1,0,0:0:0:0:
182,192,298297,1,0,0:0:0:0:
329,192,298327,1,0,0:0:0:0:
36,192,298357,1,0,0:0:0:0:
402,192,298357,1,0,0:0:0:0:
109,192,298387,1,0,0:0:0:0:
256,192,298417,1,0,0:0:0:0:
329,192,298447,1,0,0:0:0:0:
36,192,298477,1,0,0:0:0:0:
475,192,298477,1,0,0:0:0:0:
182,192,298507,1,0,0:0:0:0:
256,192,298537,1,0,0:0:0:0:
402,192,298567,1,0,0:0:0:0:
475,192,298597,1,0,0:0:0:0:
36,192,298597,1,0,0:0:0:0:
109,192,298627,1,0,0:0:0:0:
182,192,298657,1,0,0:0:0:0:
329,192,298687,1,0,0:0:0:0:
402,192,298717,1,0,0:0:0:0:
36,192,298717,1,0,0:0:0:0:
109,192,298747,1,0,0:0:0:0:
256,192,298777,1,0,0:0:0:0:
329,192,298807,1,0,0:0:0:0:
475,192,298837,1,0,0:0:0:0:
36,192,298837,1,0,0:0:0:0:
182,192,298867,1,0,0:0:0:0:
256,192,298897,1,0,0:0:0:0:
329,192,298927,1,0,0:0:0:0:
402,192,298957,1,0,0:0:0:0:
109,192,298957,1,0,0:0:0:0:
182,192,298987,1,0,0:0:0:0:
256,192,299017,1,0,0:0:0:0:
329,192,299047,1,0,0:0:0:0:
475,192,299077,1,0,0:0:0:0:
36,192,299077,1,0,0:0:0:0:
109,192,299107,1,0,0:0:0:0:
256,192,299137,1,0,0:0:0:0:
402,192,299167,1,0,0:0:0:0:
475,192,299197,1,0,0:0:0:0:
36,192,299197,1,0,0:0:0:0:
182,192,299227,1,0,0:0:0:0:
256,192,299257,1,0,0:0:0:0:
329,192,299287,1,0,0:0:0:0:
475,192,299317,1,0,0:0:0:0:
109,192,299317,1,0,0:0:0:0:
182,192,299347,1,0,0:0:0:0:
256,192,299377,1,0,0:0:0:0:
36,192,299407,1,0,0:0:0:0:
109,192,299437,1,0,0:0:0:0:
402,192,299437,1,0,0:0:0:0:
475,192,299467,1,0,0:0:0:0:
182,192,299497,1,0,0:0:0:0:
256,192,299527,1,0,0:0:0:0:
36,192,299557,1,0,0:0:0:0:
329,192,299557,1,0,0:0:0:0:
109,192,299587,1,0,0:0:0:0:
402,192,299617,1,0,0:0:0:0:
182,192,299647,1,0,0:0:0:0:
36,192,299677,1,0,0:0:0:0:
475,192,299677,1,0,0:0:0:0:
256,192,299707,1,0,0:0:0:0:
329,192,299737,1,0,0:0:0:0:
402,192,299767,1,0,0:0:0:0:
475,192,299797,1,0,0:0:0:0:
109,192,299797,1,0,0:0:0:0:
182,192,299827,1,0,0:0:0:0:
329,192,299857,1,0,0:0:0:0:
402,192,299887,1,0,0:0:0:0:
256,192,299917,1,0,0:0:0:0:
36,192,299917,1,0,0:0:0:0:
109,192,299947,1,0,0:0:0:0:
182,192,299977,1,0,0:0:0:0:
329,192,300007,1,0,0:0:0:0:
475,192,300037,1,0,0:0:0:0:
36,192,300037,1,0,0:0:0:0:
109,192,300067,1,0,0:0:0:0:
256,192,300097,1,0,0:0:0:0:
402,192,300127,1,0,0:0:0:0:
36,192,300157,1,0,0:0:0:0:
182,192,300157,1,0,0:0:0:0:
329,192,300187,1,0,0:0:0:0:
475,192,300217,1,0,0:0:0:0:
109,192,300247,1,0,0:0:0:0:
182,192,300277,1,0,0:0:0:0:
402,192,300277,1,0,0:0:0:0:
256,192,300307,1,0,0:0:0:0:
36,192,300337,1,0,0:0:0:0:
109,192,300367,1,0,0:0:0:0:
182,192,300397,1,0,0:0:0:0:
329,192,300397,1,0,0:0:0:0:
402,192,300427,1,0,0:0:0:0:
36,192,300457,1,0,0:0:0:0:
109,192,300487,1,0,0:0:0:0:
256,192,300517,1,0,0:0:0:0:
475,192,300517,1,0,0:0:0:0:
329,192,300547,1,0,0:0:0:0:
36,192,300577,1,0,0:0:0:0:
182,192,300607,1,0,0:0:0:0:
402,192,300637,1,0,0:0:0:0:
256,192,300637,1,0,0:0:0:0:
109,192,300667,1,0,0:0:0:0:
329,192,300697,1,0,0:0:0:0:
475,192,300727,1,0,0:0:0:0:
182,192,300757,1,0,0:0:0:0:
36,192,300757,1,0,0:0:0:0:
256,192,300787,1,0,0:0:0:0:
329,192,300817,1,0,0:0:0:0:
109,192,300847,1,0,0:0:0:0:
182,192,300877,1,0,0:0:0:0:
402,192,300877,1,0,0:0:0:0:
475,192,300907,1,0,0:0:0:0:
36,192,300937,1,0,0:0:0:0:
109,192,300967,1,0,0:0:0:0:
256,192,300997,1,0,0:0:0:0:
329,192,300997,1,0,0:0:0:0:
402,192,301027,1,0,0:0:0:0:
182,192,301057,1,0,0:0:0:0:
475,192,301087,1,0,0:0:0:0:
36,192,301117,1,0,0:0:0:0:
109,192,301117,1,0,0:0:0:0:
256,192,301147,1,0,0:0:0:0:
329,192,301177,1,0,0:0:0:0:
402,192,301207,1,0,0:0:0:0:
182,192,301237,1,0,0:0:0:0:
475,192,301237,1,0,0:0:0:0:
36,192,301267,1,0,0:0:0:0:
109,192,301297,1,0,0:0:0:0:
256,192,301327,1,0,0:0:0:0:
329,192,301357,1,0,0:0:0:0:
475,192,301357,1,0,0:0:0:0:
36,192,301387,1,0,0:0:0:0:
182,192,301417,1,0,0:0:0:0:
402,192,301447,1,0,0:0:0:0:
256,192,301477,1,0,0:0:0:0:
109,192,301477,1,0,0:0:0:0:
329,192,301507,1,0,0:0:0:0:
182,192,301537,1,0,0:0:0:0:
475,192,301567,1,0,0:0:0:0:
402,192,301597,1,0,0:0:0:0:
36,192,301597,1,0,0:0:0:0:
329,192,301627,1,0,0:0:0:0:
182,192,301657,1,0,0:0:0:0:
109,192,301687,1,0,0:0:0:0:
36,192,301717,1,0,0:0:0:0:
475,192,301717,1,0,0:0:0:0:
402,192,301747,1,0,0:0:0:0:
256,192,301777,1,0,0:0:0:0:
109,192,301807,1,0,0:0:0:0:
36,192,301837,1,0,0:0:0:0:
475,192,301837,1,0,0:0:0:0:
402,192,301867,1,0,0:0:0:0:
329,192,301897,1,0,0:0:0:0:
182,192,301927,1,0,0:0:0:0:
109,192,301957,1,0,0:0:0:0:
475,192,301957,1,0,0:0:0:0:
402,192,301987,1,0,0:0:0:0:
256,192,302017,1,0,0:0:0:0:
182,192,302047,1,0,0:0:0:0:
36,192,302077,1,0,0:0:0:0:
475,192,302077,1,0,0:0:0:0:
329,192,302107,1,0,0:0:0:0:
256,192,302137,1,0,0:0:0:0:
109,192,302167,1,0,0:0:0:0:
36,192,302197,1,0,0:0:0:0:
402,192,302197,1,0,0:0:0:0:
329,192,302227,1,0,0:0:0:0:
182,192,302257,1,0,0:0:0:0:
109,192,302287,1,0,0:0:0:0:
256,192,302317,1,0,0:0:0:0:
475,192,302317,1,0,0:0:0:0:
402,192,302347,1,0,0:0:0:0:
329,192,302377,1,0,0:0:0:0:
182,192,302407,1,0,0:0:0:0:
109,192,302437,1,0,0:0:0:0:
36,192,302437,1,0,0:0:0:0:
402,192,302467,1,0,0:0:0:0:
329,192,302497,1,0,0:0:0:0:
182,192,302527,1,0,0:0:0:0:
36,192,302557,1,0,0:0:0:0:
475,192,302557,1,0,0:0:0:0:
402,192,302587,1,0,0:0:0:0:
256,192,302617,1,0,0:0:0:0:
109,192,302647,1,0,0:0:0:0:
36,192,302677,1,0,0:0:0:0:
475,192,302677,1,0,0:0:0:0:
329,192,302707,1,0,0:0:0:0:
182,192,302737,1,0,0:0:0:0:
109,192,302767,1,0,0:0:0:0:
402,192,302797,1,0,0:0:0:0:
36,192,302797,1,0,0:0:0:0:
329,192,302827,1,0,0:0:0:0:
256,192,302857,1,0,0:0:0:0:
182,192,302887,1,0,0:0:0:0:
109,192,302917,1,0,0:0:0:0:
475,192,302917,1,0,0:0:0:0:
402,192,302947,1,0,0:0:0:0:
329,192,302977,1,0,0:0:0:0:
182,192,303007,1,0,0:0:0:0:
36,192,303037,1,0,0:0:0:0:
475,192,303037,1,0,0:0:0:0:
402,192,303067,1,0,0:0:0:0:
256,192,303097,1,0,0:0:0:0:
109,192,303127,1,0,0:0:0:0:
36,192,303157,1,0,0:0:0:0:
475,192,303157,1,0,0:0:0:0:
329,192,303187,1,0,0:0:0:0:
182,192,303217,1,0,0:0:0:0:
109,192,303247,1,0,0:0:0:0:
36,192,303277,1,0,0:0:0:0:
475,192,303277,1,0,0:0:0:0:
402,192,303307,1,0,0:0:0:0:
329,192,303337,1,0,0:0:0:0:
182,192,303367,1,0,0:0:0:0:
109,192,303397,1,0,0:0:0:0:
36,192,303397,1,0,0:0:0:0:
475,192,303427,1,0,0:0:0:0:
402,192,303457,1,0,0:0:0:0:
329,192,303487,1,0,0:0:0:0:
182,192,303517,1,0,0:0:0:0:
256,192,303517,1,0,0:0:0:0:
109,192,303547,1,0,0:0:0:0:
36,192,303577,1,0,0:0:0:0:
475,192,303607,1,0,0:0:0:0:
256,192,303637,1,0,0:0:0:0:
402,192,303637,1,0,0:0:0:0:
182,192,303667,1,0,0:0:0:0:
109,192,303697,1,0,0:0:0:0:
329,192,303727,1,0,0:0:0:0:
36,192,303757,1,0,0:0:0:0:
256,192,303757,1,0,0:0:0:0:
182,192,303787,1,0,0:0:0:0:
402,192,303817,1,0,0:0:0:0:
329,192,303847,1,0,0:0:0:0:
256,192,303877,1,0,0:0:0:0:
109,192,303877,1,0,0:0:0:0:
475,192,303907,1,0,0:0:0:0:
402,192,303937,1,0,0:0:0:0:
329,192,303967,1,0,0:0:0:0:
182,192,303997,1,0,0:0:0:0:
256,192,304027,1,0,0:0:0:0:
475,192,304057,1,0,0:0:0:0:
109,192,304087,1,0,0:0:0:0:
182,192,304117,1,0,0:0:0:0:
402,192,304117,1,0,0:0:0:0:
329,192,304147,1,0,0:0:0:0:
36,192,304177,1,0,0:0:0:0:
109,192,304207,1,0,0:0:0:0:
256,192,304237,1,0,0:0:0:0:
475,192,304237,1,0,0:0:0:0:
402,192,304267,1,0,0:0:0:0:
329,192,304297,1,0,0:0:0:0:
182,192,304327,1,0,0:0:0:0:
475,192,304357,1,0,0:0:0:0:
36,192,304357,1,0,0:0:0:0:
402,192,304387,1,0,0:0:0:0:
329,192,304417,1,0,0:0:0:0:
109,192,304447,1,0,0:0:0:0:
182,192,304477,1,0,0:0:0:0:
475,192,304477,1,0,0:0:0:0:
402,192,304507,1,0,0:0:0:0:
36,192,304537,1,0,0:0:0:0:
256,192,304567,1,0,0:0:0:0:
109,192,304597,1,0,0:0:0:0:
475,192,304597,1,0,0:0:0:0:
402,192,304627,1,0,0:0:0:0:
329,192,304657,1,0,0:0:0:0:
182,192,304687,1,0,0:0:0:0:
36,192,304717,1,0,0:0:0:0:
475,192,304717,1,0,0:0:0:0:
402,192,304747,1,0,0:0:0:0:
256,192,304777,1,0,0:0:0:0:
109,192,304807,1,0,0:0:0:0:
36,192,304837,1,0,0:0:0:0:
475,192,304837,1,0,0:0:0:0:
329,192,304867,1,0,0:0:0:0:
182,192,304897,1,0,0:0:0:0:
109,192,304927,1,0,0:0:0:0:
36,192,304957,1,0,0:0:0:0:
402,192,304957,1,0,0:0:0:0:
256,192,304987,1,0,0:0:0:0:
182,192,305017,1,0,0:0:0:0:
109,192,305047,1,0,0:0:0:0:
475,192,305077,1,0,0:0:0:0:
329,192,305077,1,0,0:0:0:0:
256,192,305107,1,0,0:0:0:0:
182,192,305137,1,0,0:0:0:0:
36,192,305167,1,0,0:0:0:0:
109,192,305197,1,0,0:0:0:0:
402,192,305197,1,0,0:0:0:0:
182,192,305227,1,0,0:0:0:0:
256,192,305257,1,0,0:0:0:0:
329,192,305287,1,0,0:0:0:0:
475,192,305317,1,0,0:0:0:0:
36,192,305317,1,0,0:0:0:0:
109,192,305347,1,0,0:0:0:0:
182,192,305377,1,0,0:0:0:0:
256,192,305407,1,0,0:0:0:0:
402,192,305437,1,0,0:0:0:0:
36,192,305437,1,0,0:0:0:0:
109,192,305467,1,0,0:0:0:0:
182,192,305497,1,0,0:0:0:0:
329,192,305527,1,0,0:0:0:0:
475,192,305557,1,0,0:0:0:0:
36,192,305557,1,0,0:0:0:0:
109,192,305587,1,0,0:0:0:0:
256,192,305617,1,0,0:0:0:0:
402,192,305647,1,0,0:0:0:0:
475,192,305677,1,0,0:0:0:0:
36,192,305677,1,0,0:0:0:0:
182,192,305707,1,0,0:0:0:0:
329,192,305737,1,0,0:0:0:0:
402,192,305767,1,0,0:0:0:0:
475,192,305797,1,0,0:0:0:0:
109,192,305797,1,0,0:0:0:0:
256,192,305827,1,0,0:0:0:0:
329,192,305857,1,0,0:0:0:0:
402,192,305887,1,0,0:0:0:0:
36,192,305887,1,0,0:0:0:0:
475,192,305917,1,0,0:0:0:0:
182,192,305917,1,0,0:0:0:0:
256,192,305947,1,0,0:0:0:0:
329,192,305977,1,0,0:0:0:0:
402,192,306007,1,0,0:0:0:0:
475,192,306037,1,0,0:0:0:0:
182,192,306037,1,0,0:0:0:0:
109,192,306067,1,0,0:0:0:0:
36,192,306097,1,0,0:0:0:0:
402,192,306127,1,0,0:0:0:0:
329,192,306157,1,0,0:0:0:0:
182,192,306157,1,0,0:0:0:0:
109,192,306187,1,0,0:0:0:0:
475,192,306217,1,0,0:0:0:0:
402,192,306247,1,0,0:0:0:0:
329,192,306277,1,0,0:0:0:0:
36,192,306277,1,0,0:0:0:0:
109,192,306307,1,0,0:0:0:0:
182,192,306337,1,0,0:0:0:0:
256,192,306367,1,0,0:0:0:0:
36,192,306397,1,0,0:0:0:0:
475,192,306397,1,0,0:0:0:0:
109,192,306427,1,0,0:0:0:0:
182,192,306457,1,0,0:0:0:0:
329,192,306487,1,0,0:0:0:0:
36,192,306517,1,0,0:0:0:0:
402,192,306517,1,0,0:0:0:0:
109,192,306547,1,0,0:0:0:0:
256,192,306577,1,0,0:0:0:0:
329,192,306607,1,0,0:0:0:0:
36,192,306637,1,0,0:0:0:0:
402,192,306637,1,0,0:0:0:0:
182,192,306667,1,0,0:0:0:0:
256,192,306697,1,0,0:0:0:0:
329,192,306727,1,0,0:0:0:0:
475,192,306757,1,0,0:0:0:0:
109,192,306757,1,0,0:0:0:0:
182,192,306787,1,0,0:0:0:0:
256,192,306817,1,0,0:0:0:0:
36,192,306847,1,0,0:0:0:0:
109,192,306877,1,0,0:0:0:0:
329,192,306877,1,0,0:0:0:0:
402,192,306907,1,0,0:0:0:0:
475,192,306937,1,0,0:0:0:0:
256,192,306967,1,0,0:0:0:0:
329,192,306997,1,0,0:0:0:0:
36,192,306997,1,0,0:0:0:0:
402,192,307027,1,0,0:0:0:0:
182,192,307057,1,0,0:0:0:0:
256,192,307087,1,0,0:0:0:0:
329,192,307117,1,0,0:0:0:0:
475,192,307117,1,0,0:0:0:0:
109,192,307147,1,0,0:0:0:0:
182,192,307177,1,0,0:0:0:0:
256,192,307207,1,0,0:0:0:0:
36,192,307237,1,0,0:0:0:0:
402,192,307237,1,0,0:0:0:0:
109,192,307267,1,0,0:0:0:0:
182,192,307297,1,0,0:0:0:0:
329,192,307327,1,0,0:0:0:0:
256,192,307357,1,0,0:0:0:0:
36,192,307357,1,0,0:0:0:0:
402,192,307387,1,0,0:0:0:0:
109,192,307417,1,0,0:0:0:0:
475,192,307447,1,0,0:0:0:0:
182,192,307477,1,0,0:0:0:0:
36,192,307477,1,0,0:0:0:0:
256,192,307507,1,0,0:0:0:0:
329,192,307537,1,0,0:0:0:0:
402,192,307567,1,0,0:0:0:0:
109,192,307597,1,0,0:0:0:0:
182,192,307627,1,0,0:0:0:0:
256,192,307657,1,0,0:0:0:0:
329,192,307687,1,0,0:0:0:0:
475,192,307717,1,0,0:0:0:0:
36,192,307717,1,0,0:0:0:0:
109,192,307747,1,0,0:0:0:0:
182,192,307777,1,0,0:0:0:0:
256,192,307807,1,0,0:0:0:0:
329,192,307837,1,0,0:0:0:0:
475,192,307837,1,0,0:0:0:0:
36,192,307867,1,0,0:0:0:0:
109,192,307897,1,0,0:0:0:0:
182,192,307927,1,0,0:0:0:0:
402,192,307957,1,0,0:0:0:0:
256,192,307957,1,0,0:0:0:0:
475,192,307987,1,0,0:0:0:0:
36,192,308017,1,0,0:0:0:0:
109,192,308047,1,0,0:0:0:0:
329,192,308077,1,0,0:0:0:0:
182,192,308077,1,0,0:0:0:0:
402,192,308107,1,0,0:0:0:0:
475,192,308137,1,0,0:0:0:0:
36,192,308167,1,0,0:0:0:0:
109,192,308197,1,0,0:0:0:0:
256,192,308197,1,0,0:0:0:0:
329,192,308227,1,0,0:0:0:0:
402,192,308257,1,0,0:0:0:0:
475,192,308287,1,0,0:0:0:0:
36,192,308317,1,0,0:0:0:0:
182,192,308317,1,0,0:0:0:0:
256,192,308347,1,0,0:0:0:0:
329,192,308377,1,0,0:0:0:0:
402,192,308407,1,0,0:0:0:0:
475,192,308437,1,0,0:0:0:0:
109,192,308437,1,0,0:0:0:0:
182,192,308467,1,0,0:0:0:0:
256,192,308497,1,0,0:0:0:0:
329,192,308527,1,0,0:0:0:0:
36,192,308557,1,0,0:0:0:0:
402,192,308557,1,0,0:0:0:0:
109,192,308587,1,0,0:0:0:0:
256,192,308617,1,0,0:0:0:0:
329,192,308647,1,0,0:0:0:0:
475,192,308677,1,0,0:0:0:0:
36,192,308677,1,0,0:0:0:0:
182,192,308707,1,0,0:0:0:0:
256,192,308737,1,0,0:0:0:0:
402,192,308767,1,0,0:0:0:0:
475,192,308797,1,0,0:0:0:0:
109,192,308797,1,0,0:0:0:0:
182,192,308827,1,0,0:0:0:0:
329,192,308857,1,0,0:0:0:0:
402,192,308887,1,0,0:0:0:0:
475,192,308917,1,0,0:0:0:0:
36,192,308917,1,0,0:0:0:0:
109,192,308947,1,0,0:0:0:0:
256,192,308977,1,0,0:0:0:0:
329,192,309007,1,0,0:0:0:0:
36,192,309037,5,0,0:0:0:0:
475,192,309037,1,0,0:0:0:0:
182,192,309067,1,0,0:0:0:0:
256,192,309097,1,0,0:0:0:0:
402,192,309127,1,0,0:0:0:0:
475,192,309157,1,0,0:0:0:0:
109,192,309157,1,0,0:0:0:0:
329,192,309187,1,0,0:0:0:0:
256,192,309217,1,0,0:0:0:0:
182,192,309247,1,0,0:0:0:0:
36,192,309277,1,0,0:0:0:0:
402,192,309277,1,0,0:0:0:0:
329,192,309307,1,0,0:0:0:0:
256,192,309337,1,0,0:0:0:0:
109,192,309367,1,0,0:0:0:0:
36,192,309397,1,0,0:0:0:0:
475,192,309397,1,0,0:0:0:0:
329,192,309427,1,0,0:0:0:0:
182,192,309457,1,0,0:0:0:0:
109,192,309487,1,0,0:0:0:0:
36,192,309517,1,0,0:0:0:0:
402,192,309517,1,0,0:0:0:0:
256,192,309547,1,0,0:0:0:0:
182,192,309577,1,0,0:0:0:0:
109,192,309607,1,0,0:0:0:0:
36,192,309637,1,0,0:0:0:0:
475,192,309637,1,0,0:0:0:0:
329,192,309667,1,0,0:0:0:0:
256,192,309697,1,0,0:0:0:0:
182,192,309727,1,0,0:0:0:0:
109,192,309757,1,0,0:0:0:0:
475,192,309757,1,0,0:0:0:0:
402,192,309787,1,0,0:0:0:0:
329,192,309817,1,0,0:0:0:0:
256,192,309847,1,0,0:0:0:0:
182,192,309877,1,0,0:0:0:0:
36,192,309877,1,0,0:0:0:0:
475,192,309907,1,0,0:0:0:0:
402,192,309937,1,0,0:0:0:0:
329,192,309967,1,0,0:0:0:0:
256,192,309997,1,0,0:0:0:0:
109,192,309997,1,0,0:0:0:0:
36,192,310027,1,0,0:0:0:0:
475,192,310057,1,0,0:0:0:0:
402,192,310087,1,0,0:0:0:0:
329,192,310117,1,0,0:0:0:0:
182,192,310117,1,0,0:0:0:0:
109,192,310147,1,0,0:0:0:0:
36,192,310177,1,0,0:0:0:0:
475,192,310207,1,0,0:0:0:0:
402,192,310237,1,0,0:0:0:0:
256,192,310237,1,0,0:0:0:0:
182,192,310267,1,0,0:0:0:0:
109,192,310297,1,0,0:0:0:0:
36,192,310327,1,0,0:0:0:0:
475,192,310357,1,0,0:0:0:0:
329,192,310357,1,0,0:0:0:0:
256,192,310387,1,0,0:0:0:0:
182,192,310417,1,0,0:0:0:0:
109,192,310447,1,0,0:0:0:0:
36,192,310477,1,0,0:0:0:0:
475,192,310477,1,0,0:0:0:0:
329,192,310507,1,0,0:0:0:0:
182,192,310537,1,0,0:0:0:0:
109,192,310567,1,0,0:0:0:0:
36,192,310597,1,0,0:0:0:0:
475,192,310597,1,0,0:0:0:0:
402,192,310627,1,0,0:0:0:0:
256,192,310657,1,0,0:0:0:0:
109,192,310687,1,0,0:0:0:0:
36,192,310717,1,0,0:0:0:0:
475,192,310717,1,0,0:0:0:0:
402,192,310747,1,0,0:0:0:0:
329,192,310777,1,0,0:0:0:0:
182,192,310807,1,0,0:0:0:0:
36,192,310837,1,0,0:0:0:0:
109,192,310867,1,0,0:0:0:0:
256,192,310897,1,0,0:0:0:0:
475,192,310927,1,0,0:0:0:0:
402,192,310957,1,0,0:0:0:0:
182,192,310957,1,0,0:0:0:0:
329,192,310987,1,0,0:0:0:0:
109,192,311017,1,0,0:0:0:0:
256,192,311047,1,0,0:0:0:0:
475,192,311077,1,0,0:0:0:0:
36,192,311077,1,0,0:0:0:0:
402,192,311107,1,0,0:0:0:0:
329,192,311137,1,0,0:0:0:0:
182,192,311167,1,0,0:0:0:0:
36,192,311197,1,0,0:0:0:0:
475,192,311197,1,0,0:0:0:0:
402,192,311227,1,0,0:0:0:0:
256,192,311257,1,0,0:0:0:0:
109,192,311287,1,0,0:0:0:0:
36,192,311317,1,0,0:0:0:0:
475,192,311317,1,0,0:0:0:0:
329,192,311347,1,0,0:0:0:0:
182,192,311377,1,0,0:0:0:0:
109,192,311407,1,0,0:0:0:0:
36,192,311437,1,0,0:0:0:0:
402,192,311437,1,0,0:0:0:0:
329,192,311467,1,0,0:0:0:0:
256,192,311497,1,0,0:0:0:0:
182,192,311527,1,0,0:0:0:0:
475,192,311557,1,0,0:0:0:0:
109,192,311557,1,0,0:0:0:0:
402,192,311587,1,0,0:0:0:0:
329,192,311617,1,0,0:0:0:0:
182,192,311647,1,0,0:0:0:0:
36,192,311677,1,0,0:0:0:0:
475,192,311677,1,0,0:0:0:0:
402,192,311707,1,0,0:0:0:0:
256,192,311737,1,0,0:0:0:0:
109,192,311767,1,0,0:0:0:0:
36,192,311797,1,0,0:0:0:0:
475,192,311797,1,0,0:0:0:0:
402,192,311827,1,0,0:0:0:0:
329,192,311857,1,0,0:0:0:0:
182,192,311887,1,0,0:0:0:0:
36,192,311917,1,0,0:0:0:0:
475,192,311917,1,0,0:0:0:0:
109,192,311947,1,0,0:0:0:0:
402,192,311977,1,0,0:0:0:0:
329,192,312007,1,0,0:0:0:0:
475,192,312037,1,0,0:0:0:0:
36,192,312037,1,0,0:0:0:0:
256,192,312037,1,0,0:0:0:0:
182,192,312067,1,0,0:0:0:0:
109,192,312097,1,0,0:0:0:0:
402,192,312097,1,0,0:0:0:0:
329,192,312127,1,0,0:0:0:0:
256,192,312157,1,0,0:0:0:0:
475,192,312157,1,0,0:0:0:0:
182,192,312187,1,0,0:0:0:0:
109,192,312217,1,0,0:0:0:0:
402,192,312217,1,0,0:0:0:0:
329,192,312247,1,0,0:0:0:0:
256,192,312277,1,0,0:0:0:0:
36,192,312277,1,0,0:0:0:0:
109,192,312307,1,0,0:0:0:0:
182,192,312337,1,0,0:0:0:0:
402,192,312337,1,0,0:0:0:0:
329,192,312367,1,0,0:0:0:0:
256,192,312397,1,0,0:0:0:0:
36,192,312397,1,0,0:0:0:0:
109,192,312427,1,0,0:0:0:0:
182,192,312457,1,0,0:0:0:0:
329,192,312457,1,0,0:0:0:0:
402,192,312487,1,0,0:0:0:0:
475,192,312517,1,0,0:0:0:0:
256,192,312517,1,0,0:0:0:0:
36,192,312547,1,0,0:0:0:0:
109,192,312577,1,0,0:0:0:0:
329,192,312577,1,0,0:0:0:0:
402,192,312607,1,0,0:0:0:0:
475,192,312637,1,0,0:0:0:0:
182,192,312637,1,0,0:0:0:0:
256,192,312667,1,0,0:0:0:0:
329,192,312697,1,0,0:0:0:0:
36,192,312697,1,0,0:0:0:0:
109,192,312727,1,0,0:0:0:0:
182,192,312757,1,0,0:0:0:0:
475,192,312757,1,0,0:0:0:0:
402,192,312787,1,0,0:0:0:0:
329,192,312817,1,0,0:0:0:0:
36,192,312817,1,0,0:0:0:0:
109,192,312847,1,0,0:0:0:0:
182,192,312877,1,0,0:0:0:0:
475,192,312877,1,0,0:0:0:0:
402,192,312907,1,0,0:0:0:0:
329,192,312937,1,0,0:0:0:0:
36,192,312937,1,0,0:0:0:0:
109,192,312967,1,0,0:0:0:0:
182,192,312997,1,0,0:0:0:0:
475,192,312997,1,0,0:0:0:0:
402,192,312997,1,0,0:0:0:0:
256,192,312997,1,0,0:0:0:0:
