osu file format v14

[General]
AudioFilename: air raid.mp3
AudioLeadIn: 2
PreviewTime: 100000
Countdown: 0
SampleSet: Soft
StackLeniency: 0.7
Mode: 3
LetterboxInBreaks: 0
SpecialStyle: 0
WidescreenStoryboard: 0

[Editor]
DistanceSpacing: 0.8
BeatDivisor: 4
GridSize: 8
TimelineZoom: 1

[Metadata]
Title:Air Raid
TitleUnicode:Air Raid
Artist:Yakou
ArtistUnicode:Yakou
Creator:-[C R A Z Y]-
Version:Challenge
Source:
Tags:Stepmania
BeatmapID:960816
BeatmapSetID:446092

[Difficulty]
HPDrainRate:8
CircleSize:4
OverallDifficulty:8
ApproachRate:10
SliderMultiplier:1.4
SliderTickRate:1

[Events]
//Background and Video events
0,0,"449372.jpg",0,0
//Break Periods
//Storyboard Layer 0 (Background)
//Storyboard Layer 1 (Fail)
//Storyboard Layer 2 (Pass)
//Storyboard Layer 3 (Foreground)
//Storyboard Layer 4 (Overlay)
//Storyboard Sound Samples

[TimingPoints]
78,240,4,2,0,15,1,0

[HitObjects]
64,192,30798,5,0,0:0:0:0:
448,192,30798,1,0,0:0:0:0:
320,192,30918,1,0,0:0:0:0:
192,192,31038,1,0,0:0:0:0:
64,192,31158,1,0,0:0:0:0:
448,192,31278,1,0,0:0:0:0:
320,192,31398,1,0,0:0:0:0:
192,192,31518,1,0,0:0:0:0:
64,192,31638,1,0,0:0:0:0:
192,192,31758,1,0,0:0:0:0:
320,192,31878,1,0,0:0:0:0:
448,192,31998,1,0,0:0:0:0:
64,192,32118,1,0,0:0:0:0:
192,192,32238,1,0,0:0:0:0:
64,192,32358,1,0,0:0:0:0:
448,192,32478,1,0,0:0:0:0:
320,192,32598,1,0,0:0:0:0:
448,192,32718,1,0,0:0:0:0:
64,192,32838,1,0,0:0:0:0:
448,192,32958,1,0,0:0:0:0:
64,192,33078,1,0,0:0:0:0:
320,192,33198,1,0,0:0:0:0:
192,192,33318,1,0,0:0:0:0:
448,192,33438,1,0,0:0:0:0:
192,192,33558,1,0,0:0:0:0:
320,192,33678,1,0,0:0:0:0:
448,192,33798,1,0,0:0:0:0:
64,192,33918,1,0,0:0:0:0:
192,192,34038,1,0,0:0:0:0:
320,192,34158,1,0,0:0:0:0:
448,192,34278,1,0,0:0:0:0:
64,192,34398,1,0,0:0:0:0:
192,192,34518,1,0,0:0:0:0:
64,192,34638,1,0,0:0:0:0:
448,192,34638,1,0,0:0:0:0:
192,192,34758,1,0,0:0:0:0:
320,192,34878,1,0,0:0:0:0:
448,192,34998,1,0,0:0:0:0:
64,192,35118,1,0,0:0:0:0:
448,192,35238,1,0,0:0:0:0:
64,192,35358,1,0,0:0:0:0:
320,192,35478,1,0,0:0:0:0:
192,192,35598,1,0,0:0:0:0:
448,192,35718,1,0,0:0:0:0:
320,192,35838,1,0,0:0:0:0:
192,192,35958,1,0,0:0:0:0:
64,192,36078,1,0,0:0:0:0:
192,192,36198,1,0,0:0:0:0:
320,192,36318,1,0,0:0:0:0:
448,192,36438,1,0,0:0:0:0:
64,192,36558,1,0,0:0:0:0:
320,192,36678,1,0,0:0:0:0:
64,192,36798,1,0,0:0:0:0:
448,192,36918,1,0,0:0:0:0:
192,192,37038,1,0,0:0:0:0:
448,192,37158,1,0,0:0:0:0:
64,192,37278,1,0,0:0:0:0:
192,192,37398,1,0,0:0:0:0:
320,192,37518,1,0,0:0:0:0:
448,192,37638,1,0,0:0:0:0:
64,192,37758,1,0,0:0:0:0:
448,192,37878,1,0,0:0:0:0:
192,192,37998,1,0,0:0:0:0:
448,192,38118,1,0,0:0:0:0:
64,192,38238,1,0,0:0:0:0:
320,192,38358,1,0,0:0:0:0:
64,192,38478,1,0,0:0:0:0:
192,192,38478,1,0,0:0:0:0:
448,192,38598,1,0,0:0:0:0:
320,192,38718,1,0,0:0:0:0:
192,192,38838,1,0,0:0:0:0:
64,192,38958,1,0,0:0:0:0:
448,192,39078,1,0,0:0:0:0:
320,192,39198,1,0,0:0:0:0:
192,192,39318,1,0,0:0:0:0:
64,192,39438,1,0,0:0:0:0:
320,192,39558,1,0,0:0:0:0:
192,192,39678,1,0,0:0:0:0:
448,192,39798,1,0,0:0:0:0:
192,192,39918,1,0,0:0:0:0:
64,192,40038,1,0,0:0:0:0:
192,192,40158,1,0,0:0:0:0:
320,192,40278,1,0,0:0:0:0:
448,192,40398,1,0,0:0:0:0:
64,192,40518,1,0,0:0:0:0:
320,192,40638,1,0,0:0:0:0:
64,192,40758,1,0,0:0:0:0:
448,192,40878,1,0,0:0:0:0:
320,192,40998,1,0,0:0:0:0:
192,192,41118,1,0,0:0:0:0:
64,192,41238,1,0,0:0:0:0:
448,192,41358,1,0,0:0:0:0:
192,192,41478,1,0,0:0:0:0:
320,192,41598,1,0,0:0:0:0:
64,192,41718,1,0,0:0:0:0:
192,192,41838,1,0,0:0:0:0:
320,192,41958,1,0,0:0:0:0:
448,192,42078,1,0,0:0:0:0:
64,192,42198,1,0,0:0:0:0:
192,192,42318,1,0,0:0:0:0:
448,192,42318,1,0,0:0:0:0:
320,192,42438,1,0,0:0:0:0:
64,192,42558,1,0,0:0:0:0:
448,192,42678,1,0,0:0:0:0:
320,192,42798,1,0,0:0:0:0:
192,192,42918,1,0,0:0:0:0:
64,192,43038,1,0,0:0:0:0:
320,192,43158,1,0,0:0:0:0:
64,192,43278,1,0,0:0:0:0:
448,192,43398,1,0,0:0:0:0:
192,192,43518,1,0,0:0:0:0:
448,192,43638,1,0,0:0:0:0:
64,192,43758,1,0,0:0:0:0:
192,192,43878,1,0,0:0:0:0:
320,192,43998,1,0,0:0:0:0:
448,192,44118,1,0,0:0:0:0:
64,192,44238,1,0,0:0:0:0:
320,192,44358,1,0,0:0:0:0:
64,192,44478,1,0,0:0:0:0:
448,192,44598,1,0,0:0:0:0:
320,192,44718,1,0,0:0:0:0:
192,192,44838,1,0,0:0:0:0:
320,192,44958,1,0,0:0:0:0:
448,192,45078,1,0,0:0:0:0:
64,192,45198,1,0,0:0:0:0:
320,192,45318,1,0,0:0:0:0:
64,192,45438,1,0,0:0:0:0:
448,192,45558,1,0,0:0:0:0:
192,192,45678,1,0,0:0:0:0:
320,192,45798,1,0,0:0:0:0:
64,192,45918,1,0,0:0:0:0:
448,192,46038,1,0,0:0:0:0:
64,192,46158,1,0,0:0:0:0:
320,192,46158,1,0,0:0:0:0:
320,192,47118,1,0,0:0:0:0:
448,192,47118,1,0,0:0:0:0:
64,192,48078,1,0,0:0:0:0:
448,192,48078,1,0,0:0:0:0:
64,192,49038,1,0,0:0:0:0:
320,192,49038,1,0,0:0:0:0:
64,192,49998,1,0,0:0:0:0:
448,192,49998,1,0,0:0:0:0:
192,192,50958,1,0,0:0:0:0:
448,192,50958,1,0,0:0:0:0:
64,192,51918,1,0,0:0:0:0:
320,192,51918,1,0,0:0:0:0:
64,192,52878,1,0,0:0:0:0:
448,192,52878,1,0,0:0:0:0:
64,192,53838,1,0,0:0:0:0:
192,192,53838,1,0,0:0:0:0:
64,192,54318,1,0,0:0:0:0:
448,192,54318,1,0,0:0:0:0:
192,192,54798,1,0,0:0:0:0:
448,192,54798,1,0,0:0:0:0:
64,192,55278,1,0,0:0:0:0:
320,192,55278,1,0,0:0:0:0:
64,192,55758,1,0,0:0:0:0:
448,192,55758,1,0,0:0:0:0:
320,192,56238,1,0,0:0:0:0:
448,192,56238,1,0,0:0:0:0:
64,192,56718,1,0,0:0:0:0:
448,192,56718,1,0,0:0:0:0:
64,192,57198,1,0,0:0:0:0:
192,192,57198,1,0,0:0:0:0:
64,192,57678,1,0,0:0:0:0:
448,192,57678,1,0,0:0:0:0:
320,192,57918,1,0,0:0:0:0:
448,192,57918,1,0,0:0:0:0:
192,192,58158,1,0,0:0:0:0:
320,192,58158,1,0,0:0:0:0:
64,192,58398,1,0,0:0:0:0:
192,192,58398,1,0,0:0:0:0:
64,192,58638,1,0,0:0:0:0:
448,192,58638,1,0,0:0:0:0:
320,192,58878,1,0,0:0:0:0:
448,192,58878,1,0,0:0:0:0:
64,192,59118,1,0,0:0:0:0:
448,192,59118,1,0,0:0:0:0:
64,192,59358,1,0,0:0:0:0:
192,192,59358,1,0,0:0:0:0:
320,192,59598,1,0,0:0:0:0:
448,192,59598,1,0,0:0:0:0:
64,192,59718,1,0,0:0:0:0:
192,192,59718,1,0,0:0:0:0:
64,192,59838,1,0,0:0:0:0:
448,192,59838,1,0,0:0:0:0:
320,192,59958,1,0,0:0:0:0:
448,192,59958,1,0,0:0:0:0:
64,192,60078,1,0,0:0:0:0:
192,192,60078,1,0,0:0:0:0:
320,192,60198,1,0,0:0:0:0:
448,192,60198,1,0,0:0:0:0:
64,192,60318,1,0,0:0:0:0:
320,192,60318,1,0,0:0:0:0:
64,192,60438,1,0,0:0:0:0:
448,192,60438,1,0,0:0:0:0:
320,192,60558,1,0,0:0:0:0:
448,192,60558,1,0,0:0:0:0:
64,192,60618,1,0,0:0:0:0:
192,192,60618,1,0,0:0:0:0:
320,192,60678,1,0,0:0:0:0:
448,192,60678,1,0,0:0:0:0:
64,192,60738,1,0,0:0:0:0:
192,192,60738,1,0,0:0:0:0:
320,192,60798,1,0,0:0:0:0:
448,192,60798,1,0,0:0:0:0:
64,192,60858,1,0,0:0:0:0:
192,192,60858,1,0,0:0:0:0:
320,192,60918,1,0,0:0:0:0:
448,192,60918,1,0,0:0:0:0:
64,192,60978,1,0,0:0:0:0:
192,192,60978,1,0,0:0:0:0:
320,192,61038,1,0,0:0:0:0:
448,192,61038,1,0,0:0:0:0:
64,192,61098,1,0,0:0:0:0:
192,192,61098,1,0,0:0:0:0:
320,192,61158,1,0,0:0:0:0:
448,192,61158,1,0,0:0:0:0:
64,192,61218,1,0,0:0:0:0:
192,192,61218,1,0,0:0:0:0:
320,192,61278,1,0,0:0:0:0:
448,192,61278,1,0,0:0:0:0:
64,192,61338,1,0,0:0:0:0:
192,192,61338,1,0,0:0:0:0:
320,192,61398,1,0,0:0:0:0:
448,192,61398,1,0,0:0:0:0:
64,192,61458,1,0,0:0:0:0:
192,192,61458,1,0,0:0:0:0:
320,192,61518,1,0,0:0:0:0:
448,0,61518,128,0,63438:1:0:0:0:
64,192,63438,1,0,0:0:0:0:
320,192,63438,1,0,0:0:0:0:
192,192,63498,1,0,0:0:0:0:
64,192,63558,1,0,0:0:0:0:
448,192,63558,1,0,0:0:0:0:
320,192,63618,1,0,0:0:0:0:
192,192,63678,1,0,0:0:0:0:
448,192,63678,1,0,0:0:0:0:
64,192,63738,1,0,0:0:0:0:
192,192,63798,1,0,0:0:0:0:
320,192,63798,1,0,0:0:0:0:
448,192,63858,1,0,0:0:0:0:
64,192,63918,1,0,0:0:0:0:
320,192,63918,1,0,0:0:0:0:
192,192,63978,1,0,0:0:0:0:
64,192,64038,1,0,0:0:0:0:
448,192,64038,1,0,0:0:0:0:
320,192,64098,1,0,0:0:0:0:
64,192,64158,1,0,0:0:0:0:
448,192,64158,1,0,0:0:0:0:
192,192,64218,1,0,0:0:0:0:
64,192,64278,1,0,0:0:0:0:
320,192,64278,1,0,0:0:0:0:
448,192,64338,1,0,0:0:0:0:
192,192,64398,1,0,0:0:0:0:
320,192,64398,1,0,0:0:0:0:
64,192,64458,1,0,0:0:0:0:
192,192,64518,1,0,0:0:0:0:
448,192,64518,1,0,0:0:0:0:
320,192,64578,1,0,0:0:0:0:
64,192,64638,1,0,0:0:0:0:
192,192,64638,1,0,0:0:0:0:
448,192,64698,1,0,0:0:0:0:
192,192,64758,1,0,0:0:0:0:
320,192,64758,1,0,0:0:0:0:
64,192,64818,1,0,0:0:0:0:
320,192,64878,1,0,0:0:0:0:
448,192,64878,1,0,0:0:0:0:
192,192,64938,1,0,0:0:0:0:
320,192,64998,1,0,0:0:0:0:
448,192,64998,1,0,0:0:0:0:
64,192,65058,1,0,0:0:0:0:
192,192,65118,1,0,0:0:0:0:
448,192,65118,1,0,0:0:0:0:
320,192,65178,1,0,0:0:0:0:
64,192,65238,1,0,0:0:0:0:
448,192,65238,1,0,0:0:0:0:
192,192,65298,1,0,0:0:0:0:
64,192,65358,1,0,0:0:0:0:
448,192,65358,1,0,0:0:0:0:
320,192,65418,1,0,0:0:0:0:
64,192,65478,1,0,0:0:0:0:
192,192,65478,1,0,0:0:0:0:
448,192,65538,1,0,0:0:0:0:
64,192,65598,1,0,0:0:0:0:
320,192,65598,1,0,0:0:0:0:
448,192,65658,1,0,0:0:0:0:
192,192,65718,1,0,0:0:0:0:
320,192,65718,1,0,0:0:0:0:
64,192,65778,1,0,0:0:0:0:
192,192,65838,1,0,0:0:0:0:
448,192,65838,1,0,0:0:0:0:
320,192,65898,1,0,0:0:0:0:
64,192,65958,1,0,0:0:0:0:
448,192,65958,1,0,0:0:0:0:
192,192,66018,1,0,0:0:0:0:
320,192,66078,1,0,0:0:0:0:
448,192,66078,1,0,0:0:0:0:
64,192,66138,1,0,0:0:0:0:
192,192,66198,1,0,0:0:0:0:
448,192,66198,1,0,0:0:0:0:
320,192,66258,1,0,0:0:0:0:
64,192,66318,1,0,0:0:0:0:
192,192,66318,1,0,0:0:0:0:
448,192,66378,1,0,0:0:0:0:
64,192,66438,1,0,0:0:0:0:
320,192,66438,1,0,0:0:0:0:
192,192,66498,1,0,0:0:0:0:
320,192,66558,1,0,0:0:0:0:
448,192,66558,1,0,0:0:0:0:
64,192,66618,1,0,0:0:0:0:
192,192,66678,1,0,0:0:0:0:
320,192,66678,1,0,0:0:0:0:
448,192,66738,1,0,0:0:0:0:
64,192,66798,1,0,0:0:0:0:
320,192,66798,1,0,0:0:0:0:
192,192,66858,1,0,0:0:0:0:
64,192,66918,1,0,0:0:0:0:
448,192,66918,1,0,0:0:0:0:
320,192,66958,1,0,0:0:0:0:
192,192,66998,1,0,0:0:0:0:
64,192,67038,1,0,0:0:0:0:
448,192,67038,1,0,0:0:0:0:
320,192,67098,1,0,0:0:0:0:
64,192,67158,1,0,0:0:0:0:
192,192,67158,1,0,0:0:0:0:
448,192,67158,1,0,0:0:0:0:
320,192,67218,1,0,0:0:0:0:
64,192,67278,1,0,0:0:0:0:
192,192,67278,1,0,0:0:0:0:
448,192,67278,1,0,0:0:0:0:
320,192,67338,1,0,0:0:0:0:
64,192,67398,1,0,0:0:0:0:
448,192,67398,1,0,0:0:0:0:
192,192,67458,1,0,0:0:0:0:
320,192,67518,1,0,0:0:0:0:
448,192,67518,1,0,0:0:0:0:
64,192,67578,1,0,0:0:0:0:
192,192,67638,1,0,0:0:0:0:
448,192,67638,1,0,0:0:0:0:
320,192,67698,1,0,0:0:0:0:
64,192,67758,1,0,0:0:0:0:
448,192,67758,1,0,0:0:0:0:
192,192,67818,1,0,0:0:0:0:
64,192,67878,1,0,0:0:0:0:
448,192,67878,1,0,0:0:0:0:
320,192,67938,1,0,0:0:0:0:
64,192,67998,1,0,0:0:0:0:
192,192,67998,1,0,0:0:0:0:
448,192,68058,1,0,0:0:0:0:
64,192,68118,1,0,0:0:0:0:
320,192,68118,1,0,0:0:0:0:
192,192,68178,1,0,0:0:0:0:
64,192,68238,1,0,0:0:0:0:
448,192,68238,1,0,0:0:0:0:
320,192,68298,1,0,0:0:0:0:
64,192,68358,1,0,0:0:0:0:
192,192,68358,1,0,0:0:0:0:
448,192,68418,1,0,0:0:0:0:
192,192,68478,1,0,0:0:0:0:
320,192,68478,1,0,0:0:0:0:
64,192,68538,1,0,0:0:0:0:
192,192,68598,1,0,0:0:0:0:
448,192,68598,1,0,0:0:0:0:
320,192,68658,1,0,0:0:0:0:
64,192,68718,1,0,0:0:0:0:
448,192,68718,1,0,0:0:0:0:
192,192,68778,1,0,0:0:0:0:
64,192,68838,1,0,0:0:0:0:
320,192,68838,1,0,0:0:0:0:
448,192,68898,1,0,0:0:0:0:
192,192,68958,1,0,0:0:0:0:
320,192,68958,1,0,0:0:0:0:
64,192,69018,1,0,0:0:0:0:
192,192,69078,1,0,0:0:0:0:
448,192,69078,1,0,0:0:0:0:
320,192,69138,1,0,0:0:0:0:
64,192,69198,1,0,0:0:0:0:
192,192,69198,1,0,0:0:0:0:
448,192,69258,1,0,0:0:0:0:
192,192,69318,1,0,0:0:0:0:
320,192,69318,1,0,0:0:0:0:
64,192,69378,1,0,0:0:0:0:
192,192,69438,1,0,0:0:0:0:
448,192,69438,1,0,0:0:0:0:
320,192,69498,1,0,0:0:0:0:
64,192,69558,1,0,0:0:0:0:
448,192,69558,1,0,0:0:0:0:
192,192,69618,1,0,0:0:0:0:
64,192,69678,1,0,0:0:0:0:
320,192,69678,1,0,0:0:0:0:
448,192,69738,1,0,0:0:0:0:
64,192,69798,1,0,0:0:0:0:
192,192,69798,1,0,0:0:0:0:
320,192,69858,1,0,0:0:0:0:
64,192,69918,1,0,0:0:0:0:
448,192,69918,1,0,0:0:0:0:
320,192,69978,1,0,0:0:0:0:
64,192,70038,1,0,0:0:0:0:
448,192,70038,1,0,0:0:0:0:
192,192,70098,1,0,0:0:0:0:
64,192,70158,1,0,0:0:0:0:
320,192,70158,1,0,0:0:0:0:
448,192,70158,1,0,0:0:0:0:
192,192,70218,1,0,0:0:0:0:
64,192,70278,1,0,0:0:0:0:
320,192,70278,1,0,0:0:0:0:
448,192,70278,1,0,0:0:0:0:
192,192,70338,1,0,0:0:0:0:
64,192,70398,1,0,0:0:0:0:
320,192,70398,1,0,0:0:0:0:
448,192,70398,1,0,0:0:0:0:
192,192,70458,1,0,0:0:0:0:
64,192,70518,1,0,0:0:0:0:
320,192,70518,1,0,0:0:0:0:
448,192,70578,1,0,0:0:0:0:
64,192,70638,1,0,0:0:0:0:
192,192,70638,1,0,0:0:0:0:
320,192,70638,1,0,0:0:0:0:
448,192,70698,1,0,0:0:0:0:
64,192,70758,1,0,0:0:0:0:
192,192,70758,1,0,0:0:0:0:
320,192,70758,1,0,0:0:0:0:
448,192,70818,1,0,0:0:0:0:
64,192,70878,1,0,0:0:0:0:
192,192,70878,1,0,0:0:0:0:
320,192,70878,1,0,0:0:0:0:
448,192,70938,1,0,0:0:0:0:
64,192,70998,1,0,0:0:0:0:
192,192,70998,1,0,0:0:0:0:
320,192,70998,1,0,0:0:0:0:
448,192,71058,1,0,0:0:0:0:
64,192,71118,1,0,0:0:0:0:
192,192,71118,1,0,0:0:0:0:
320,192,71118,1,0,0:0:0:0:
448,192,71178,1,0,0:0:0:0:
64,192,71238,1,0,0:0:0:0:
320,192,71238,1,0,0:0:0:0:
192,192,71298,1,0,0:0:0:0:
320,192,71358,1,0,0:0:0:0:
448,192,71358,1,0,0:0:0:0:
64,192,71418,1,0,0:0:0:0:
192,192,71478,1,0,0:0:0:0:
320,192,71478,1,0,0:0:0:0:
448,192,71538,1,0,0:0:0:0:
64,192,71598,1,0,0:0:0:0:
320,192,71598,1,0,0:0:0:0:
192,192,71658,1,0,0:0:0:0:
64,192,71718,1,0,0:0:0:0:
448,192,71718,1,0,0:0:0:0:
320,192,71778,1,0,0:0:0:0:
192,192,71838,1,0,0:0:0:0:
448,192,71838,1,0,0:0:0:0:
64,192,71898,1,0,0:0:0:0:
192,192,71958,1,0,0:0:0:0:
320,192,71958,1,0,0:0:0:0:
448,192,72018,1,0,0:0:0:0:
64,192,72078,1,0,0:0:0:0:
320,192,72078,1,0,0:0:0:0:
192,192,72138,1,0,0:0:0:0:
64,192,72198,1,0,0:0:0:0:
448,192,72198,1,0,0:0:0:0:
320,192,72258,1,0,0:0:0:0:
64,192,72318,1,0,0:0:0:0:
192,192,72318,1,0,0:0:0:0:
448,192,72378,1,0,0:0:0:0:
64,192,72438,1,0,0:0:0:0:
320,192,72438,1,0,0:0:0:0:
192,192,72498,1,0,0:0:0:0:
320,192,72558,1,0,0:0:0:0:
448,192,72558,1,0,0:0:0:0:
64,192,72618,1,0,0:0:0:0:
192,192,72678,1,0,0:0:0:0:
320,192,72678,1,0,0:0:0:0:
448,192,72738,1,0,0:0:0:0:
64,192,72798,1,0,0:0:0:0:
320,192,72798,1,0,0:0:0:0:
192,192,72858,1,0,0:0:0:0:
64,192,72918,1,0,0:0:0:0:
320,192,72918,1,0,0:0:0:0:
448,192,72978,1,0,0:0:0:0:
192,192,73038,1,0,0:0:0:0:
320,192,73038,1,0,0:0:0:0:
64,192,73098,1,0,0:0:0:0:
192,192,73158,1,0,0:0:0:0:
448,192,73158,1,0,0:0:0:0:
320,192,73218,1,0,0:0:0:0:
64,192,73278,1,0,0:0:0:0:
448,192,73278,1,0,0:0:0:0:
192,192,73338,1,0,0:0:0:0:
320,192,73398,1,0,0:0:0:0:
448,192,73398,1,0,0:0:0:0:
192,192,73458,1,0,0:0:0:0:
64,192,73518,1,0,0:0:0:0:
320,192,73518,1,0,0:0:0:0:
448,192,73578,1,0,0:0:0:0:
192,192,73638,1,0,0:0:0:0:
320,192,73638,1,0,0:0:0:0:
64,192,73698,1,0,0:0:0:0:
192,192,73758,1,0,0:0:0:0:
448,192,73758,1,0,0:0:0:0:
320,192,73818,1,0,0:0:0:0:
64,192,73878,1,0,0:0:0:0:
448,192,73878,1,0,0:0:0:0:
192,192,73938,1,0,0:0:0:0:
64,192,73998,1,0,0:0:0:0:
320,192,73998,1,0,0:0:0:0:
448,192,74058,1,0,0:0:0:0:
64,192,74118,1,0,0:0:0:0:
320,192,74118,1,0,0:0:0:0:
192,192,74178,1,0,0:0:0:0:
320,192,74238,1,0,0:0:0:0:
448,192,74238,1,0,0:0:0:0:
64,192,74298,1,0,0:0:0:0:
192,192,74358,1,0,0:0:0:0:
448,192,74358,1,0,0:0:0:0:
320,192,74418,1,0,0:0:0:0:
64,192,74478,1,0,0:0:0:0:
448,192,74478,1,0,0:0:0:0:
192,192,74538,1,0,0:0:0:0:
64,192,74598,1,0,0:0:0:0:
448,192,74598,1,0,0:0:0:0:
192,192,74638,1,0,0:0:0:0:
320,192,74678,1,0,0:0:0:0:
64,192,74718,1,0,0:0:0:0:
448,192,74718,1,0,0:0:0:0:
320,192,74778,1,0,0:0:0:0:
64,192,74838,1,0,0:0:0:0:
192,192,74838,1,0,0:0:0:0:
448,192,74838,1,0,0:0:0:0:
320,192,74898,1,0,0:0:0:0:
64,192,74958,1,0,0:0:0:0:
192,192,74958,1,0,0:0:0:0:
448,192,74958,1,0,0:0:0:0:
320,192,75018,1,0,0:0:0:0:
192,192,75078,1,0,0:0:0:0:
448,192,75078,1,0,0:0:0:0:
64,192,75138,1,0,0:0:0:0:
192,192,75198,1,0,0:0:0:0:
448,192,75198,1,0,0:0:0:0:
320,192,75258,1,0,0:0:0:0:
64,192,75318,1,0,0:0:0:0:
192,192,75318,1,0,0:0:0:0:
448,192,75378,1,0,0:0:0:0:
64,192,75438,1,0,0:0:0:0:
320,192,75438,1,0,0:0:0:0:
192,192,75498,1,0,0:0:0:0:
320,192,75558,1,0,0:0:0:0:
448,192,75558,1,0,0:0:0:0:
64,192,75618,1,0,0:0:0:0:
192,192,75678,1,0,0:0:0:0:
320,192,75678,1,0,0:0:0:0:
448,192,75738,1,0,0:0:0:0:
64,192,75798,1,0,0:0:0:0:
320,192,75798,1,0,0:0:0:0:
192,192,75858,1,0,0:0:0:0:
64,192,75918,1,0,0:0:0:0:
448,192,75918,1,0,0:0:0:0:
320,192,75978,1,0,0:0:0:0:
64,192,76038,1,0,0:0:0:0:
192,192,76038,1,0,0:0:0:0:
448,192,76098,1,0,0:0:0:0:
64,192,76158,1,0,0:0:0:0:
320,192,76158,1,0,0:0:0:0:
192,192,76218,1,0,0:0:0:0:
64,192,76278,1,0,0:0:0:0:
320,192,76278,1,0,0:0:0:0:
448,192,76338,1,0,0:0:0:0:
192,192,76398,1,0,0:0:0:0:
320,192,76398,1,0,0:0:0:0:
64,192,76458,1,0,0:0:0:0:
192,192,76518,1,0,0:0:0:0:
448,192,76518,1,0,0:0:0:0:
320,192,76578,1,0,0:0:0:0:
64,192,76638,1,0,0:0:0:0:
448,192,76638,1,0,0:0:0:0:
192,192,76698,1,0,0:0:0:0:
64,192,76758,1,0,0:0:0:0:
320,192,76758,1,0,0:0:0:0:
448,192,76818,1,0,0:0:0:0:
192,192,76878,1,0,0:0:0:0:
320,192,76878,1,0,0:0:0:0:
64,192,76938,1,0,0:0:0:0:
192,192,76998,1,0,0:0:0:0:
448,192,76998,1,0,0:0:0:0:
320,192,77058,1,0,0:0:0:0:
64,192,77118,1,0,0:0:0:0:
448,192,77118,1,0,0:0:0:0:
192,192,77178,1,0,0:0:0:0:
320,192,77238,1,0,0:0:0:0:
448,192,77238,1,0,0:0:0:0:
64,192,77298,1,0,0:0:0:0:
192,192,77358,1,0,0:0:0:0:
320,192,77358,1,0,0:0:0:0:
448,192,77418,1,0,0:0:0:0:
64,192,77478,1,0,0:0:0:0:
320,192,77478,1,0,0:0:0:0:
192,192,77538,1,0,0:0:0:0:
320,192,77598,1,0,0:0:0:0:
448,192,77598,1,0,0:0:0:0:
64,192,77658,1,0,0:0:0:0:
192,192,77718,1,0,0:0:0:0:
448,192,77718,1,0,0:0:0:0:
320,192,77778,1,0,0:0:0:0:
64,192,77838,1,0,0:0:0:0:
448,192,77838,1,0,0:0:0:0:
192,192,77878,1,0,0:0:0:0:
320,192,77918,1,0,0:0:0:0:
64,192,77958,1,0,0:0:0:0:
448,192,77958,1,0,0:0:0:0:
192,192,78018,1,0,0:0:0:0:
320,192,78078,1,0,0:0:0:0:
448,192,78078,1,0,0:0:0:0:
64,192,78138,1,0,0:0:0:0:
320,192,78198,1,0,0:0:0:0:
448,192,78198,1,0,0:0:0:0:
192,192,78238,1,0,0:0:0:0:
64,192,78278,1,0,0:0:0:0:
192,192,78318,1,0,0:0:0:0:
448,192,78318,1,0,0:0:0:0:
320,192,78378,1,0,0:0:0:0:
64,192,78438,1,0,0:0:0:0:
448,192,78438,1,0,0:0:0:0:
192,192,78498,1,0,0:0:0:0:
320,192,78558,1,0,0:0:0:0:
448,192,78558,1,0,0:0:0:0:
192,192,78598,1,0,0:0:0:0:
64,192,78638,1,0,0:0:0:0:
448,192,78678,1,0,0:0:0:0:
320,192,78718,1,0,0:0:0:0:
192,192,78758,1,0,0:0:0:0:
64,192,78798,1,0,0:0:0:0:
448,192,78798,1,0,0:0:0:0:
320,192,78858,1,0,0:0:0:0:
192,192,78918,1,0,0:0:0:0:
448,192,78918,1,0,0:0:0:0:
64,192,78978,1,0,0:0:0:0:
320,192,79038,1,0,0:0:0:0:
448,192,79038,1,0,0:0:0:0:
192,192,79098,1,0,0:0:0:0:
64,192,79158,1,0,0:0:0:0:
320,192,79158,1,0,0:0:0:0:
448,192,79218,1,0,0:0:0:0:
64,192,79278,1,0,0:0:0:0:
320,192,79278,1,0,0:0:0:0:
192,192,79338,1,0,0:0:0:0:
64,192,79398,1,0,0:0:0:0:
448,192,79398,1,0,0:0:0:0:
320,192,79458,1,0,0:0:0:0:
64,192,79518,1,0,0:0:0:0:
448,192,79518,1,0,0:0:0:0:
192,192,79578,1,0,0:0:0:0:
64,192,79638,1,0,0:0:0:0:
320,192,79638,1,0,0:0:0:0:
448,192,79698,1,0,0:0:0:0:
192,192,79758,1,0,0:0:0:0:
320,192,79758,1,0,0:0:0:0:
64,192,79818,1,0,0:0:0:0:
320,192,79878,1,0,0:0:0:0:
448,192,79878,1,0,0:0:0:0:
192,192,79938,1,0,0:0:0:0:
64,192,79998,1,0,0:0:0:0:
320,192,79998,1,0,0:0:0:0:
448,192,80058,1,0,0:0:0:0:
64,192,80118,1,0,0:0:0:0:
192,192,80118,1,0,0:0:0:0:
320,192,80178,1,0,0:0:0:0:
192,192,80238,1,0,0:0:0:0:
448,192,80238,1,0,0:0:0:0:
64,192,80298,1,0,0:0:0:0:
320,192,80358,1,0,0:0:0:0:
448,192,80358,1,0,0:0:0:0:
192,192,80418,1,0,0:0:0:0:
64,192,80478,1,0,0:0:0:0:
320,192,80478,1,0,0:0:0:0:
448,192,80538,1,0,0:0:0:0:
64,192,80598,1,0,0:0:0:0:
320,192,80598,1,0,0:0:0:0:
192,192,80658,1,0,0:0:0:0:
64,192,80718,1,0,0:0:0:0:
448,192,80718,1,0,0:0:0:0:
320,192,80778,1,0,0:0:0:0:
64,192,80838,1,0,0:0:0:0:
192,192,80838,1,0,0:0:0:0:
448,192,80898,1,0,0:0:0:0:
192,192,80958,1,0,0:0:0:0:
320,192,80958,1,0,0:0:0:0:
64,192,81018,1,0,0:0:0:0:
192,192,81078,1,0,0:0:0:0:
448,192,81078,1,0,0:0:0:0:
320,192,81138,1,0,0:0:0:0:
64,192,81198,1,0,0:0:0:0:
448,192,81198,1,0,0:0:0:0:
192,192,81258,1,0,0:0:0:0:
320,192,81318,1,0,0:0:0:0:
448,192,81318,1,0,0:0:0:0:
64,192,81378,1,0,0:0:0:0:
192,192,81438,1,0,0:0:0:0:
320,192,81438,1,0,0:0:0:0:
448,192,81498,1,0,0:0:0:0:
64,192,81558,1,0,0:0:0:0:
320,192,81558,1,0,0:0:0:0:
192,192,81618,1,0,0:0:0:0:
64,192,81678,1,0,0:0:0:0:
448,192,81678,1,0,0:0:0:0:
320,192,81738,1,0,0:0:0:0:
64,192,81798,1,0,0:0:0:0:
192,192,81798,1,0,0:0:0:0:
448,192,81858,1,0,0:0:0:0:
64,192,81918,1,0,0:0:0:0:
320,192,81918,1,0,0:0:0:0:
192,192,81978,1,0,0:0:0:0:
64,192,82038,1,0,0:0:0:0:
448,192,82038,1,0,0:0:0:0:
320,192,82098,1,0,0:0:0:0:
64,192,82158,1,0,0:0:0:0:
192,192,82158,1,0,0:0:0:0:
448,192,82158,1,0,0:0:0:0:
320,192,82218,1,0,0:0:0:0:
64,192,82278,1,0,0:0:0:0:
448,192,82278,1,0,0:0:0:0:
320,192,82318,1,0,0:0:0:0:
192,192,82358,1,0,0:0:0:0:
64,192,82398,1,0,0:0:0:0:
448,192,82398,1,0,0:0:0:0:
320,192,82458,1,0,0:0:0:0:
64,192,82518,1,0,0:0:0:0:
192,192,82518,1,0,0:0:0:0:
448,192,82518,1,0,0:0:0:0:
320,192,82578,1,0,0:0:0:0:
64,192,82638,1,0,0:0:0:0:
192,192,82638,1,0,0:0:0:0:
448,192,82638,1,0,0:0:0:0:
320,192,82698,1,0,0:0:0:0:
192,192,82758,1,0,0:0:0:0:
448,192,82758,1,0,0:0:0:0:
64,192,82818,1,0,0:0:0:0:
320,192,82878,1,0,0:0:0:0:
448,192,82878,1,0,0:0:0:0:
192,192,82938,1,0,0:0:0:0:
64,192,82998,1,0,0:0:0:0:
320,192,82998,1,0,0:0:0:0:
448,192,83058,1,0,0:0:0:0:
192,192,83118,1,0,0:0:0:0:
320,192,83118,1,0,0:0:0:0:
64,192,83178,1,0,0:0:0:0:
192,192,83238,1,0,0:0:0:0:
448,192,83238,1,0,0:0:0:0:
320,192,83298,1,0,0:0:0:0:
64,192,83358,1,0,0:0:0:0:
192,192,83358,1,0,0:0:0:0:
448,192,83418,1,0,0:0:0:0:
64,192,83478,1,0,0:0:0:0:
320,192,83478,1,0,0:0:0:0:
192,192,83538,1,0,0:0:0:0:
64,192,83598,1,0,0:0:0:0:
448,192,83598,1,0,0:0:0:0:
320,192,83658,1,0,0:0:0:0:
64,192,83718,1,0,0:0:0:0:
192,192,83718,1,0,0:0:0:0:
448,192,83778,1,0,0:0:0:0:
192,192,83838,1,0,0:0:0:0:
320,192,83838,1,0,0:0:0:0:
64,192,83898,1,0,0:0:0:0:
192,192,83958,1,0,0:0:0:0:
448,192,83958,1,0,0:0:0:0:
320,192,84018,1,0,0:0:0:0:
64,192,84078,1,0,0:0:0:0:
448,192,84078,1,0,0:0:0:0:
192,192,84138,1,0,0:0:0:0:
64,192,84198,1,0,0:0:0:0:
320,192,84198,1,0,0:0:0:0:
448,192,84258,1,0,0:0:0:0:
64,192,84318,1,0,0:0:0:0:
192,192,84318,1,0,0:0:0:0:
448,192,84378,1,0,0:0:0:0:
192,192,84438,1,0,0:0:0:0:
320,192,84438,1,0,0:0:0:0:
64,192,84498,1,0,0:0:0:0:
192,192,84558,1,0,0:0:0:0:
448,192,84558,1,0,0:0:0:0:
320,192,84618,1,0,0:0:0:0:
64,192,84678,1,0,0:0:0:0:
192,192,84678,1,0,0:0:0:0:
448,192,84738,1,0,0:0:0:0:
64,192,84798,1,0,0:0:0:0:
320,192,84798,1,0,0:0:0:0:
192,192,84858,1,0,0:0:0:0:
64,192,84918,1,0,0:0:0:0:
448,192,84918,1,0,0:0:0:0:
320,192,84978,1,0,0:0:0:0:
64,192,85038,1,0,0:0:0:0:
192,192,85038,1,0,0:0:0:0:
448,192,85098,1,0,0:0:0:0:
192,192,85158,1,0,0:0:0:0:
320,192,85158,1,0,0:0:0:0:
64,192,85218,1,0,0:0:0:0:
320,192,85278,1,0,0:0:0:0:
448,192,85278,1,0,0:0:0:0:
192,192,85338,1,0,0:0:0:0:
64,192,85398,1,0,0:0:0:0:
448,192,85398,1,0,0:0:0:0:
192,192,85458,1,0,0:0:0:0:
64,192,85518,1,0,0:0:0:0:
320,192,85518,1,0,0:0:0:0:
448,192,85518,1,0,0:0:0:0:
192,192,85578,1,0,0:0:0:0:
64,192,85638,1,0,0:0:0:0:
320,192,85638,1,0,0:0:0:0:
448,192,85638,1,0,0:0:0:0:
192,192,85698,1,0,0:0:0:0:
64,192,85758,1,0,0:0:0:0:
320,192,85758,1,0,0:0:0:0:
448,192,85758,1,0,0:0:0:0:
192,192,85818,1,0,0:0:0:0:
64,192,85878,1,0,0:0:0:0:
448,192,85878,1,0,0:0:0:0:
320,192,85918,1,0,0:0:0:0:
192,192,85958,1,0,0:0:0:0:
64,192,85998,1,0,0:0:0:0:
448,192,85998,1,0,0:0:0:0:
320,192,86058,1,0,0:0:0:0:
64,192,86118,1,0,0:0:0:0:
192,192,86118,1,0,0:0:0:0:
448,192,86118,1,0,0:0:0:0:
320,192,86178,1,0,0:0:0:0:
64,192,86238,1,0,0:0:0:0:
448,192,86238,1,0,0:0:0:0:
320,192,86278,1,0,0:0:0:0:
192,192,86318,1,0,0:0:0:0:
64,192,86358,1,0,0:0:0:0:
320,192,86398,1,0,0:0:0:0:
192,192,86438,1,0,0:0:0:0:
64,192,86478,1,0,0:0:0:0:
448,192,86478,1,0,0:0:0:0:
320,192,86538,1,0,0:0:0:0:
64,192,86598,1,0,0:0:0:0:
192,192,86598,1,0,0:0:0:0:
448,192,86658,1,0,0:0:0:0:
64,192,86718,1,0,0:0:0:0:
320,192,86718,1,0,0:0:0:0:
192,192,86778,1,0,0:0:0:0:
64,192,86838,1,0,0:0:0:0:
448,192,86838,1,0,0:0:0:0:
320,192,86898,1,0,0:0:0:0:
192,192,86958,1,0,0:0:0:0:
448,192,86958,1,0,0:0:0:0:
64,192,87018,1,0,0:0:0:0:
320,192,87078,1,0,0:0:0:0:
448,192,87078,1,0,0:0:0:0:
192,192,87138,1,0,0:0:0:0:
64,192,87198,1,0,0:0:0:0:
448,192,87198,1,0,0:0:0:0:
320,192,87258,1,0,0:0:0:0:
64,192,87318,1,0,0:0:0:0:
192,192,87318,1,0,0:0:0:0:
448,192,87378,1,0,0:0:0:0:
192,192,87438,1,0,0:0:0:0:
320,192,87438,1,0,0:0:0:0:
64,192,87498,1,0,0:0:0:0:
192,192,87558,1,0,0:0:0:0:
448,192,87558,1,0,0:0:0:0:
320,192,87618,1,0,0:0:0:0:
64,192,87678,1,0,0:0:0:0:
448,192,87678,1,0,0:0:0:0:
192,192,87738,1,0,0:0:0:0:
320,192,87798,1,0,0:0:0:0:
448,192,87798,1,0,0:0:0:0:
64,192,87858,1,0,0:0:0:0:
192,192,87918,1,0,0:0:0:0:
320,192,87918,1,0,0:0:0:0:
448,192,87978,1,0,0:0:0:0:
64,192,88038,1,0,0:0:0:0:
320,192,88038,1,0,0:0:0:0:
192,192,88098,1,0,0:0:0:0:
64,192,88158,1,0,0:0:0:0:
448,192,88158,1,0,0:0:0:0:
320,192,88218,1,0,0:0:0:0:
64,192,88278,1,0,0:0:0:0:
192,192,88278,1,0,0:0:0:0:
448,192,88338,1,0,0:0:0:0:
64,192,88398,1,0,0:0:0:0:
320,192,88398,1,0,0:0:0:0:
192,192,88458,1,0,0:0:0:0:
320,192,88518,1,0,0:0:0:0:
448,192,88518,1,0,0:0:0:0:
64,192,88578,1,0,0:0:0:0:
192,192,88638,1,0,0:0:0:0:
448,192,88638,1,0,0:0:0:0:
320,192,88698,1,0,0:0:0:0:
64,192,88758,1,0,0:0:0:0:
192,192,88758,1,0,0:0:0:0:
448,192,88818,1,0,0:0:0:0:
192,192,88878,1,0,0:0:0:0:
320,192,88878,1,0,0:0:0:0:
64,192,88938,1,0,0:0:0:0:
192,192,88998,1,0,0:0:0:0:
448,192,88998,1,0,0:0:0:0:
320,192,89058,1,0,0:0:0:0:
64,192,89118,1,0,0:0:0:0:
448,192,89118,1,0,0:0:0:0:
192,192,89178,1,0,0:0:0:0:
320,192,89238,1,0,0:0:0:0:
448,192,89238,1,0,0:0:0:0:
64,192,89298,1,0,0:0:0:0:
192,192,89358,1,0,0:0:0:0:
448,192,89358,1,0,0:0:0:0:
320,192,89418,1,0,0:0:0:0:
64,192,89478,1,0,0:0:0:0:
192,192,89478,1,0,0:0:0:0:
448,192,89538,1,0,0:0:0:0:
64,192,89598,1,0,0:0:0:0:
320,192,89598,1,0,0:0:0:0:
192,192,89658,1,0,0:0:0:0:
64,192,89718,1,0,0:0:0:0:
448,192,89718,1,0,0:0:0:0:
320,192,89778,1,0,0:0:0:0:
64,192,89838,1,0,0:0:0:0:
192,192,89838,1,0,0:0:0:0:
448,192,89838,1,0,0:0:0:0:
320,192,89898,1,0,0:0:0:0:
64,192,89958,1,0,0:0:0:0:
448,192,89958,1,0,0:0:0:0:
320,192,89998,1,0,0:0:0:0:
192,192,90038,1,0,0:0:0:0:
64,192,90078,1,0,0:0:0:0:
448,192,90078,1,0,0:0:0:0:
320,192,90138,1,0,0:0:0:0:
64,192,90198,1,0,0:0:0:0:
192,192,90198,1,0,0:0:0:0:
448,192,90198,1,0,0:0:0:0:
320,192,90258,1,0,0:0:0:0:
64,192,90318,1,0,0:0:0:0:
192,192,90318,1,0,0:0:0:0:
448,192,90318,1,0,0:0:0:0:
320,192,90378,1,0,0:0:0:0:
192,192,90438,1,0,0:0:0:0:
448,192,90438,1,0,0:0:0:0:
64,192,90498,1,0,0:0:0:0:
192,192,90558,1,0,0:0:0:0:
320,192,90558,1,0,0:0:0:0:
448,192,90618,1,0,0:0:0:0:
64,192,90678,1,0,0:0:0:0:
320,192,90678,1,0,0:0:0:0:
192,192,90738,1,0,0:0:0:0:
64,192,90798,1,0,0:0:0:0:
448,192,90798,1,0,0:0:0:0:
320,192,90858,1,0,0:0:0:0:
64,192,90918,1,0,0:0:0:0:
192,192,90918,1,0,0:0:0:0:
448,192,90978,1,0,0:0:0:0:
192,192,91038,1,0,0:0:0:0:
320,192,91038,1,0,0:0:0:0:
64,192,91098,1,0,0:0:0:0:
192,192,91158,1,0,0:0:0:0:
448,192,91158,1,0,0:0:0:0:
320,192,91218,1,0,0:0:0:0:
64,192,91278,1,0,0:0:0:0:
448,192,91278,1,0,0:0:0:0:
192,192,91338,1,0,0:0:0:0:
320,192,91398,1,0,0:0:0:0:
448,192,91398,1,0,0:0:0:0:
64,192,91458,1,0,0:0:0:0:
192,192,91518,1,0,0:0:0:0:
320,192,91518,1,0,0:0:0:0:
448,192,91578,1,0,0:0:0:0:
64,192,91638,1,0,0:0:0:0:
320,192,91638,1,0,0:0:0:0:
192,192,91698,1,0,0:0:0:0:
64,192,91758,1,0,0:0:0:0:
448,192,91758,1,0,0:0:0:0:
320,192,91818,1,0,0:0:0:0:
64,192,91878,1,0,0:0:0:0:
192,192,91878,1,0,0:0:0:0:
448,192,91938,1,0,0:0:0:0:
64,192,91998,1,0,0:0:0:0:
320,192,91998,1,0,0:0:0:0:
192,192,92058,1,0,0:0:0:0:
64,192,92118,1,0,0:0:0:0:
448,192,92118,1,0,0:0:0:0:
320,192,92178,1,0,0:0:0:0:
64,192,92238,1,0,0:0:0:0:
192,192,92238,1,0,0:0:0:0:
448,192,92298,1,0,0:0:0:0:
64,192,92358,1,0,0:0:0:0:
320,192,92358,1,0,0:0:0:0:
192,192,92418,1,0,0:0:0:0:
64,192,92478,1,0,0:0:0:0:
448,192,92478,1,0,0:0:0:0:
320,192,92538,1,0,0:0:0:0:
192,192,92598,1,0,0:0:0:0:
448,192,92598,1,0,0:0:0:0:
64,192,92658,1,0,0:0:0:0:
192,192,92718,1,0,0:0:0:0:
320,192,92718,1,0,0:0:0:0:
448,192,92778,1,0,0:0:0:0:
192,192,92838,1,0,0:0:0:0:
320,192,92838,1,0,0:0:0:0:
64,192,92898,1,0,0:0:0:0:
320,192,92958,1,0,0:0:0:0:
448,192,92958,1,0,0:0:0:0:
192,192,93018,1,0,0:0:0:0:
64,192,93078,1,0,0:0:0:0:
448,192,93078,1,0,0:0:0:0:
320,192,93138,1,0,0:0:0:0:
64,192,93198,1,0,0:0:0:0:
448,192,93198,1,0,0:0:0:0:
192,192,93238,1,0,0:0:0:0:
320,192,93278,1,0,0:0:0:0:
64,192,93318,1,0,0:0:0:0:
448,192,93318,1,0,0:0:0:0:
192,192,93378,1,0,0:0:0:0:
320,192,93438,1,0,0:0:0:0:
448,192,93438,1,0,0:0:0:0:
192,192,93498,1,0,0:0:0:0:
64,192,93558,1,0,0:0:0:0:
448,192,93558,1,0,0:0:0:0:
320,192,93598,1,0,0:0:0:0:
192,192,93638,1,0,0:0:0:0:
64,192,93678,1,0,0:0:0:0:
448,192,93678,1,0,0:0:0:0:
320,192,93738,1,0,0:0:0:0:
64,192,93798,1,0,0:0:0:0:
448,192,93798,1,0,0:0:0:0:
192,192,93858,1,0,0:0:0:0:
64,192,93918,1,0,0:0:0:0:
448,192,93918,1,0,0:0:0:0:
192,192,93958,1,0,0:0:0:0:
320,192,93998,1,0,0:0:0:0:
448,192,94038,1,0,0:0:0:0:
64,192,94078,1,0,0:0:0:0:
192,192,94118,1,0,0:0:0:0:
320,192,94158,1,0,0:0:0:0:
448,192,94158,1,0,0:0:0:0:
64,192,94218,1,0,0:0:0:0:
192,192,94278,1,0,0:0:0:0:
448,192,94278,1,0,0:0:0:0:
320,192,94338,1,0,0:0:0:0:
64,192,94398,1,0,0:0:0:0:
192,192,94398,1,0,0:0:0:0:
448,192,94458,1,0,0:0:0:0:
64,192,94518,1,0,0:0:0:0:
320,192,94518,1,0,0:0:0:0:
192,192,94578,1,0,0:0:0:0:
64,192,94638,1,0,0:0:0:0:
448,192,94638,1,0,0:0:0:0:
320,192,94698,1,0,0:0:0:0:
64,192,94758,1,0,0:0:0:0:
192,192,94758,1,0,0:0:0:0:
448,192,94818,1,0,0:0:0:0:
64,192,94878,1,0,0:0:0:0:
320,192,94878,1,0,0:0:0:0:
192,192,94938,1,0,0:0:0:0:
64,192,94998,1,0,0:0:0:0:
448,192,94998,1,0,0:0:0:0:
320,192,95058,1,0,0:0:0:0:
192,192,95118,1,0,0:0:0:0:
448,192,95118,1,0,0:0:0:0:
64,192,95178,1,0,0:0:0:0:
320,192,95238,1,0,0:0:0:0:
448,192,95238,1,0,0:0:0:0:
192,192,95298,1,0,0:0:0:0:
64,192,95358,1,0,0:0:0:0:
320,192,95358,1,0,0:0:0:0:
448,192,95418,1,0,0:0:0:0:
64,192,95478,1,0,0:0:0:0:
320,192,95478,1,0,0:0:0:0:
192,192,95538,1,0,0:0:0:0:
64,192,95598,1,0,0:0:0:0:
448,192,95598,1,0,0:0:0:0:
320,192,95658,1,0,0:0:0:0:
64,192,95718,1,0,0:0:0:0:
192,192,95718,1,0,0:0:0:0:
448,192,95778,1,0,0:0:0:0:
192,192,95838,1,0,0:0:0:0:
320,192,95838,1,0,0:0:0:0:
64,192,95898,1,0,0:0:0:0:
192,192,95958,1,0,0:0:0:0:
448,192,95958,1,0,0:0:0:0:
320,192,96018,1,0,0:0:0:0:
192,192,96078,1,0,0:0:0:0:
448,192,96078,1,0,0:0:0:0:
64,192,96138,1,0,0:0:0:0:
320,192,96198,1,0,0:0:0:0:
448,192,96198,1,0,0:0:0:0:
192,192,96258,1,0,0:0:0:0:
64,192,96318,1,0,0:0:0:0:
320,192,96318,1,0,0:0:0:0:
448,192,96378,1,0,0:0:0:0:
192,192,96438,1,0,0:0:0:0:
320,192,96438,1,0,0:0:0:0:
64,192,96498,1,0,0:0:0:0:
192,192,96558,1,0,0:0:0:0:
448,192,96558,1,0,0:0:0:0:
320,192,96618,1,0,0:0:0:0:
64,192,96678,1,0,0:0:0:0:
448,192,96678,1,0,0:0:0:0:
192,192,96738,1,0,0:0:0:0:
64,192,96798,1,0,0:0:0:0:
320,192,96798,1,0,0:0:0:0:
448,192,96858,1,0,0:0:0:0:
192,192,96918,1,0,0:0:0:0:
320,192,96918,1,0,0:0:0:0:
64,192,96978,1,0,0:0:0:0:
320,192,97038,1,0,0:0:0:0:
448,192,97038,1,0,0:0:0:0:
192,192,97098,1,0,0:0:0:0:
64,192,97158,1,0,0:0:0:0:
448,192,97158,1,0,0:0:0:0:
320,192,97218,1,0,0:0:0:0:
64,192,97278,1,0,0:0:0:0:
192,192,97278,1,0,0:0:0:0:
448,192,97338,1,0,0:0:0:0:
64,192,97398,1,0,0:0:0:0:
320,192,97398,1,0,0:0:0:0:
192,192,97458,1,0,0:0:0:0:
64,192,97518,1,0,0:0:0:0:
320,192,97518,1,0,0:0:0:0:
448,192,97518,1,0,0:0:0:0:
192,192,97578,1,0,0:0:0:0:
64,192,97638,1,0,0:0:0:0:
448,192,97638,1,0,0:0:0:0:
320,192,97678,1,0,0:0:0:0:
192,192,97718,1,0,0:0:0:0:
64,192,97758,1,0,0:0:0:0:
448,192,97758,1,0,0:0:0:0:
320,192,97818,1,0,0:0:0:0:
64,192,97878,1,0,0:0:0:0:
192,192,97878,1,0,0:0:0:0:
448,192,97938,1,0,0:0:0:0:
64,192,97998,1,0,0:0:0:0:
320,192,97998,1,0,0:0:0:0:
192,192,98058,1,0,0:0:0:0:
64,192,98118,1,0,0:0:0:0:
448,192,98118,1,0,0:0:0:0:
320,192,98178,1,0,0:0:0:0:
64,192,98238,1,0,0:0:0:0:
192,192,98238,1,0,0:0:0:0:
448,192,98298,1,0,0:0:0:0:
192,192,98358,1,0,0:0:0:0:
320,192,98358,1,0,0:0:0:0:
64,192,98418,1,0,0:0:0:0:
192,192,98478,1,0,0:0:0:0:
448,192,98478,1,0,0:0:0:0:
320,192,98538,1,0,0:0:0:0:
64,192,98598,1,0,0:0:0:0:
192,192,98598,1,0,0:0:0:0:
448,192,98658,1,0,0:0:0:0:
64,192,98718,1,0,0:0:0:0:
320,192,98718,1,0,0:0:0:0:
192,192,98778,1,0,0:0:0:0:
64,192,98838,1,0,0:0:0:0:
448,192,98838,1,0,0:0:0:0:
320,192,98898,1,0,0:0:0:0:
64,192,98958,1,0,0:0:0:0:
192,192,98958,1,0,0:0:0:0:
448,192,99018,1,0,0:0:0:0:
64,192,99078,1,0,0:0:0:0:
320,192,99078,1,0,0:0:0:0:
192,192,99138,1,0,0:0:0:0:
64,192,99198,1,0,0:0:0:0:
448,192,99198,1,0,0:0:0:0:
320,192,99258,1,0,0:0:0:0:
64,192,99318,1,0,0:0:0:0:
192,192,99318,1,0,0:0:0:0:
448,192,99378,1,0,0:0:0:0:
192,192,99438,1,0,0:0:0:0:
320,192,99438,1,0,0:0:0:0:
64,192,99498,1,0,0:0:0:0:
192,192,99558,1,0,0:0:0:0:
448,192,99558,1,0,0:0:0:0:
320,192,99618,1,0,0:0:0:0:
64,192,99678,1,0,0:0:0:0:
448,192,99678,1,0,0:0:0:0:
192,192,99738,1,0,0:0:0:0:
64,192,99798,1,0,0:0:0:0:
320,192,99798,1,0,0:0:0:0:
448,192,99858,1,0,0:0:0:0:
64,192,99918,1,0,0:0:0:0:
192,192,99918,1,0,0:0:0:0:
320,192,99978,1,0,0:0:0:0:
64,192,100038,1,0,0:0:0:0:
448,192,100038,1,0,0:0:0:0:
192,192,100098,1,0,0:0:0:0:
320,192,100158,1,0,0:0:0:0:
448,192,100158,1,0,0:0:0:0:
64,192,100218,1,0,0:0:0:0:
192,192,100278,1,0,0:0:0:0:
320,192,100278,1,0,0:0:0:0:
448,192,100338,1,0,0:0:0:0:
64,192,100398,1,0,0:0:0:0:
320,192,100398,1,0,0:0:0:0:
192,192,100458,1,0,0:0:0:0:
64,192,100518,1,0,0:0:0:0:
448,192,100518,1,0,0:0:0:0:
320,192,100578,1,0,0:0:0:0:
64,192,100638,1,0,0:0:0:0:
192,192,100638,1,0,0:0:0:0:
448,192,100698,1,0,0:0:0:0:
192,192,100758,1,0,0:0:0:0:
320,192,100758,1,0,0:0:0:0:
64,192,100818,1,0,0:0:0:0:
192,192,100878,1,0,0:0:0:0:
320,192,100878,1,0,0:0:0:0:
448,192,100878,1,0,0:0:0:0:
64,192,100938,1,0,0:0:0:0:
192,192,100998,1,0,0:0:0:0:
320,192,100998,1,0,0:0:0:0:
448,192,100998,1,0,0:0:0:0:
64,192,101058,1,0,0:0:0:0:
320,192,101118,1,0,0:0:0:0:
448,192,101118,1,0,0:0:0:0:
192,192,101158,1,0,0:0:0:0:
64,192,101198,1,0,0:0:0:0:
320,192,101238,1,0,0:0:0:0:
448,192,101238,1,0,0:0:0:0:
192,192,101298,1,0,0:0:0:0:
64,192,101358,1,0,0:0:0:0:
320,192,101358,1,0,0:0:0:0:
448,192,101358,1,0,0:0:0:0:
192,192,101418,1,0,0:0:0:0:
64,192,101478,1,0,0:0:0:0:
320,192,101478,1,0,0:0:0:0:
448,192,101478,1,0,0:0:0:0:
192,192,101538,1,0,0:0:0:0:
64,192,101598,1,0,0:0:0:0:
448,192,101598,1,0,0:0:0:0:
192,192,101638,1,0,0:0:0:0:
320,192,101678,1,0,0:0:0:0:
448,192,101718,1,0,0:0:0:0:
64,192,101758,1,0,0:0:0:0:
192,192,101798,1,0,0:0:0:0:
320,192,101838,1,0,0:0:0:0:
448,192,101838,1,0,0:0:0:0:
64,192,101898,1,0,0:0:0:0:
192,192,101958,1,0,0:0:0:0:
448,192,101958,1,0,0:0:0:0:
320,192,102018,1,0,0:0:0:0:
64,192,102078,1,0,0:0:0:0:
192,192,102078,1,0,0:0:0:0:
448,192,102138,1,0,0:0:0:0:
192,192,102198,1,0,0:0:0:0:
320,192,102198,1,0,0:0:0:0:
64,192,102258,1,0,0:0:0:0:
192,192,102318,1,0,0:0:0:0:
448,192,102318,1,0,0:0:0:0:
320,192,102378,1,0,0:0:0:0:
64,192,102438,1,0,0:0:0:0:
192,192,102438,1,0,0:0:0:0:
448,192,102498,1,0,0:0:0:0:
192,192,102558,1,0,0:0:0:0:
320,192,102558,1,0,0:0:0:0:
64,192,102618,1,0,0:0:0:0:
192,192,102678,1,0,0:0:0:0:
448,192,102678,1,0,0:0:0:0:
320,192,102738,1,0,0:0:0:0:
64,192,102798,1,0,0:0:0:0:
192,192,102798,1,0,0:0:0:0:
448,192,102858,1,0,0:0:0:0:
64,192,102918,1,0,0:0:0:0:
320,192,102918,1,0,0:0:0:0:
192,192,102978,1,0,0:0:0:0:
64,192,103038,1,0,0:0:0:0:
448,192,103038,1,0,0:0:0:0:
320,192,103098,1,0,0:0:0:0:
192,192,103158,1,0,0:0:0:0:
448,192,103158,1,0,0:0:0:0:
64,192,103218,1,0,0:0:0:0:
192,192,103278,1,0,0:0:0:0:
320,192,103278,1,0,0:0:0:0:
448,192,103338,1,0,0:0:0:0:
64,192,103398,1,0,0:0:0:0:
320,192,103398,1,0,0:0:0:0:
192,192,103458,1,0,0:0:0:0:
64,192,103518,1,0,0:0:0:0:
448,192,103518,1,0,0:0:0:0:
320,192,103578,1,0,0:0:0:0:
64,192,103638,1,0,0:0:0:0:
448,192,103638,1,0,0:0:0:0:
192,192,103698,1,0,0:0:0:0:
64,192,103758,1,0,0:0:0:0:
320,192,103758,1,0,0:0:0:0:
448,192,103818,1,0,0:0:0:0:
64,192,103878,1,0,0:0:0:0:
192,192,103878,1,0,0:0:0:0:
320,192,103938,1,0,0:0:0:0:
64,192,103998,1,0,0:0:0:0:
448,192,103998,1,0,0:0:0:0:
192,192,104058,1,0,0:0:0:0:
64,192,104118,1,0,0:0:0:0:
320,192,104118,1,0,0:0:0:0:
448,192,104178,1,0,0:0:0:0:
64,192,104238,1,0,0:0:0:0:
192,192,104238,1,0,0:0:0:0:
320,192,104298,1,0,0:0:0:0:
64,192,104358,1,0,0:0:0:0:
448,192,104358,1,0,0:0:0:0:
192,192,104418,1,0,0:0:0:0:
64,192,104478,1,0,0:0:0:0:
448,192,104478,1,0,0:0:0:0:
320,192,104538,1,0,0:0:0:0:
192,192,104598,1,0,0:0:0:0:
448,192,104598,1,0,0:0:0:0:
64,192,104658,1,0,0:0:0:0:
320,192,104718,1,0,0:0:0:0:
448,192,104718,1,0,0:0:0:0:
192,192,104778,1,0,0:0:0:0:
64,192,104838,1,0,0:0:0:0:
320,192,104838,1,0,0:0:0:0:
448,192,104898,1,0,0:0:0:0:
64,192,104958,1,0,0:0:0:0:
192,192,104958,1,0,0:0:0:0:
320,192,105018,1,0,0:0:0:0:
64,192,105078,1,0,0:0:0:0:
448,192,105078,1,0,0:0:0:0:
192,192,105138,1,0,0:0:0:0:
320,192,105198,1,0,0:0:0:0:
448,192,105198,1,0,0:0:0:0:
64,192,105258,1,0,0:0:0:0:
192,192,105318,1,0,0:0:0:0:
320,192,105318,1,0,0:0:0:0:
448,192,105358,1,0,0:0:0:0:
64,192,105398,1,0,0:0:0:0:
192,192,105438,1,0,0:0:0:0:
320,192,105438,1,0,0:0:0:0:
448,192,105498,1,0,0:0:0:0:
64,192,105558,1,0,0:0:0:0:
192,192,105558,1,0,0:0:0:0:
320,192,105558,1,0,0:0:0:0:
448,192,105618,1,0,0:0:0:0:
64,192,105678,1,0,0:0:0:0:
192,192,105678,1,0,0:0:0:0:
320,192,105678,1,0,0:0:0:0:
448,192,105738,1,0,0:0:0:0:
64,192,105798,1,0,0:0:0:0:
320,192,105798,1,0,0:0:0:0:
192,192,105858,1,0,0:0:0:0:
64,192,105918,1,0,0:0:0:0:
448,192,105918,1,0,0:0:0:0:
320,192,105978,1,0,0:0:0:0:
192,192,106038,1,0,0:0:0:0:
448,192,106038,1,0,0:0:0:0:
64,192,106098,1,0,0:0:0:0:
320,192,106158,1,0,0:0:0:0:
448,192,106158,1,0,0:0:0:0:
192,192,106218,1,0,0:0:0:0:
64,192,106278,1,0,0:0:0:0:
320,192,106278,1,0,0:0:0:0:
448,192,106338,1,0,0:0:0:0:
64,192,106398,1,0,0:0:0:0:
192,192,106398,1,0,0:0:0:0:
320,192,106458,1,0,0:0:0:0:
64,192,106518,1,0,0:0:0:0:
448,192,106518,1,0,0:0:0:0:
192,192,106578,1,0,0:0:0:0:
320,192,106638,1,0,0:0:0:0:
448,192,106638,1,0,0:0:0:0:
64,192,106698,1,0,0:0:0:0:
192,192,106758,1,0,0:0:0:0:
448,192,106758,1,0,0:0:0:0:
320,192,106818,1,0,0:0:0:0:
64,192,106878,1,0,0:0:0:0:
192,192,106878,1,0,0:0:0:0:
448,192,106938,1,0,0:0:0:0:
64,192,106998,1,0,0:0:0:0:
320,192,106998,1,0,0:0:0:0:
192,192,107058,1,0,0:0:0:0:
320,192,107118,1,0,0:0:0:0:
448,192,107118,1,0,0:0:0:0:
64,192,107178,1,0,0:0:0:0:
192,192,107238,1,0,0:0:0:0:
320,192,107238,1,0,0:0:0:0:
448,192,107298,1,0,0:0:0:0:
64,192,107358,1,0,0:0:0:0:
320,192,107358,1,0,0:0:0:0:
192,192,107418,1,0,0:0:0:0:
320,192,107478,1,0,0:0:0:0:
448,192,107478,1,0,0:0:0:0:
64,192,107538,1,0,0:0:0:0:
192,192,107598,1,0,0:0:0:0:
320,192,107598,1,0,0:0:0:0:
448,192,107658,1,0,0:0:0:0:
64,192,107718,1,0,0:0:0:0:
320,192,107718,1,0,0:0:0:0:
192,192,107778,1,0,0:0:0:0:
64,192,107838,1,0,0:0:0:0:
448,192,107838,1,0,0:0:0:0:
320,192,107898,1,0,0:0:0:0:
64,192,107958,1,0,0:0:0:0:
192,192,107958,1,0,0:0:0:0:
448,192,108018,1,0,0:0:0:0:
192,192,108078,1,0,0:0:0:0:
320,192,108078,1,0,0:0:0:0:
64,192,108138,1,0,0:0:0:0:
192,192,108198,1,0,0:0:0:0:
448,192,108198,1,0,0:0:0:0:
320,192,108258,1,0,0:0:0:0:
64,192,108318,1,0,0:0:0:0:
448,192,108318,1,0,0:0:0:0:
192,192,108378,1,0,0:0:0:0:
64,192,108438,1,0,0:0:0:0:
448,192,108438,1,0,0:0:0:0:
320,192,108498,1,0,0:0:0:0:
64,192,108558,1,0,0:0:0:0:
192,192,108558,1,0,0:0:0:0:
448,192,108558,1,0,0:0:0:0:
320,192,108618,1,0,0:0:0:0:
64,192,108678,1,0,0:0:0:0:
448,192,108678,1,0,0:0:0:0:
192,192,108718,1,0,0:0:0:0:
320,192,108758,1,0,0:0:0:0:
64,192,108798,1,0,0:0:0:0:
448,192,108798,1,0,0:0:0:0:
320,192,108858,1,0,0:0:0:0:
192,192,108918,1,0,0:0:0:0:
448,192,108918,1,0,0:0:0:0:
64,192,108958,1,0,0:0:0:0:
320,192,108998,1,0,0:0:0:0:
192,192,109038,1,0,0:0:0:0:
448,192,109038,1,0,0:0:0:0:
64,192,109098,1,0,0:0:0:0:
320,192,109158,1,0,0:0:0:0:
448,192,109158,1,0,0:0:0:0:
192,192,109218,1,0,0:0:0:0:
64,192,109278,1,0,0:0:0:0:
448,192,109278,1,0,0:0:0:0:
320,192,109318,1,0,0:0:0:0:
192,192,109358,1,0,0:0:0:0:
64,192,109398,1,0,0:0:0:0:
448,192,109438,1,0,0:0:0:0:
320,192,109478,1,0,0:0:0:0:
64,192,109518,1,0,0:0:0:0:
192,192,109518,1,0,0:0:0:0:
448,192,109578,1,0,0:0:0:0:
64,192,109638,1,0,0:0:0:0:
320,192,109638,1,0,0:0:0:0:
192,192,109698,1,0,0:0:0:0:
64,192,109758,1,0,0:0:0:0:
448,192,109758,1,0,0:0:0:0:
320,192,109818,1,0,0:0:0:0:
64,192,109878,1,0,0:0:0:0:
192,192,109878,1,0,0:0:0:0:
448,192,109938,1,0,0:0:0:0:
64,192,109998,1,0,0:0:0:0:
320,192,109998,1,0,0:0:0:0:
192,192,110058,1,0,0:0:0:0:
64,192,110118,1,0,0:0:0:0:
448,192,110118,1,0,0:0:0:0:
320,192,110178,1,0,0:0:0:0:
64,192,110238,1,0,0:0:0:0:
192,192,110238,1,0,0:0:0:0:
448,192,110298,1,0,0:0:0:0:
64,192,110358,1,0,0:0:0:0:
320,192,110358,1,0,0:0:0:0:
192,192,110418,1,0,0:0:0:0:
320,192,110478,1,0,0:0:0:0:
448,192,110478,1,0,0:0:0:0:
64,192,110538,1,0,0:0:0:0:
192,192,110598,1,0,0:0:0:0:
448,192,110598,1,0,0:0:0:0:
64,192,110658,1,0,0:0:0:0:
320,192,110718,1,0,0:0:0:0:
448,192,110718,1,0,0:0:0:0:
192,192,110778,1,0,0:0:0:0:
64,192,110838,1,0,0:0:0:0:
320,192,110838,1,0,0:0:0:0:
448,192,110898,1,0,0:0:0:0:
64,192,110958,1,0,0:0:0:0:
320,192,110958,1,0,0:0:0:0:
192,192,111018,1,0,0:0:0:0:
64,192,111078,1,0,0:0:0:0:
448,192,111078,1,0,0:0:0:0:
320,192,111138,1,0,0:0:0:0:
64,192,111198,1,0,0:0:0:0:
192,192,111198,1,0,0:0:0:0:
448,192,111258,1,0,0:0:0:0:
192,192,111318,1,0,0:0:0:0:
320,192,111318,1,0,0:0:0:0:
64,192,111378,1,0,0:0:0:0:
192,192,111438,1,0,0:0:0:0:
448,192,111438,1,0,0:0:0:0:
320,192,111498,1,0,0:0:0:0:
64,192,111558,1,0,0:0:0:0:
448,192,111558,1,0,0:0:0:0:
192,192,111618,1,0,0:0:0:0:
64,192,111678,1,0,0:0:0:0:
320,192,111678,1,0,0:0:0:0:
448,192,111738,1,0,0:0:0:0:
192,192,111798,1,0,0:0:0:0:
320,192,111798,1,0,0:0:0:0:
64,192,111858,1,0,0:0:0:0:
192,192,111918,1,0,0:0:0:0:
448,192,111918,1,0,0:0:0:0:
320,192,111978,1,0,0:0:0:0:
64,192,112038,1,0,0:0:0:0:
448,192,112038,1,0,0:0:0:0:
192,192,112098,1,0,0:0:0:0:
64,192,112158,1,0,0:0:0:0:
320,192,112158,1,0,0:0:0:0:
448,192,112218,1,0,0:0:0:0:
192,192,112278,1,0,0:0:0:0:
320,192,112278,1,0,0:0:0:0:
64,192,112338,1,0,0:0:0:0:
320,192,112398,1,0,0:0:0:0:
448,192,112398,1,0,0:0:0:0:
192,192,112458,1,0,0:0:0:0:
64,192,112518,1,0,0:0:0:0:
320,192,112518,1,0,0:0:0:0:
448,192,112578,1,0,0:0:0:0:
192,192,112638,1,0,0:0:0:0:
320,192,112638,1,0,0:0:0:0:
64,192,112698,1,0,0:0:0:0:
192,192,112758,1,0,0:0:0:0:
448,192,112758,1,0,0:0:0:0:
320,192,112818,1,0,0:0:0:0:
64,192,112878,1,0,0:0:0:0:
192,192,112878,1,0,0:0:0:0:
448,192,112878,1,0,0:0:0:0:
320,192,112938,1,0,0:0:0:0:
64,192,112998,1,0,0:0:0:0:
448,192,112998,1,0,0:0:0:0:
192,192,113038,1,0,0:0:0:0:
320,192,113078,1,0,0:0:0:0:
64,192,113118,1,0,0:0:0:0:
448,192,113118,1,0,0:0:0:0:
192,192,113178,1,0,0:0:0:0:
64,192,113238,1,0,0:0:0:0:
320,192,113238,1,0,0:0:0:0:
448,192,113238,1,0,0:0:0:0:
192,192,113298,1,0,0:0:0:0:
64,192,113358,1,0,0:0:0:0:
320,192,113358,1,0,0:0:0:0:
448,192,113358,1,0,0:0:0:0:
192,192,113418,1,0,0:0:0:0:
320,192,113478,1,0,0:0:0:0:
448,192,113478,1,0,0:0:0:0:
64,192,113538,1,0,0:0:0:0:
192,192,113598,1,0,0:0:0:0:
448,192,113598,1,0,0:0:0:0:
320,192,113658,1,0,0:0:0:0:
64,192,113718,1,0,0:0:0:0:
192,192,113718,1,0,0:0:0:0:
448,192,113778,1,0,0:0:0:0:
192,192,113838,1,0,0:0:0:0:
320,192,113838,1,0,0:0:0:0:
64,192,113898,1,0,0:0:0:0:
192,192,113958,1,0,0:0:0:0:
320,192,113958,1,0,0:0:0:0:
448,192,114018,1,0,0:0:0:0:
64,192,114078,1,0,0:0:0:0:
320,192,114078,1,0,0:0:0:0:
192,192,114138,1,0,0:0:0:0:
64,192,114198,1,0,0:0:0:0:
448,192,114198,1,0,0:0:0:0:
320,192,114258,1,0,0:0:0:0:
64,192,114318,1,0,0:0:0:0:
192,192,114318,1,0,0:0:0:0:
448,192,114378,1,0,0:0:0:0:
64,192,114438,1,0,0:0:0:0:
320,192,114438,1,0,0:0:0:0:
192,192,114498,1,0,0:0:0:0:
64,192,114558,1,0,0:0:0:0:
448,192,114558,1,0,0:0:0:0:
320,192,114618,1,0,0:0:0:0:
64,192,114678,1,0,0:0:0:0:
192,192,114678,1,0,0:0:0:0:
448,192,114738,1,0,0:0:0:0:
192,192,114798,1,0,0:0:0:0:
320,192,114798,1,0,0:0:0:0:
64,192,114858,1,0,0:0:0:0:
192,192,114918,1,0,0:0:0:0:
448,192,114918,1,0,0:0:0:0:
320,192,114978,1,0,0:0:0:0:
64,192,115038,1,0,0:0:0:0:
448,192,115038,1,0,0:0:0:0:
192,192,115098,1,0,0:0:0:0:
320,192,115158,1,0,0:0:0:0:
448,192,115158,1,0,0:0:0:0:
64,192,115218,1,0,0:0:0:0:
192,192,115278,1,0,0:0:0:0:
320,192,115278,1,0,0:0:0:0:
448,192,115338,1,0,0:0:0:0:
64,192,115398,1,0,0:0:0:0:
320,192,115398,1,0,0:0:0:0:
192,192,115458,1,0,0:0:0:0:
64,192,115518,1,0,0:0:0:0:
448,192,115518,1,0,0:0:0:0:
320,192,115578,1,0,0:0:0:0:
64,192,115638,1,0,0:0:0:0:
192,192,115638,1,0,0:0:0:0:
448,192,115698,1,0,0:0:0:0:
192,192,115758,1,0,0:0:0:0:
320,192,115758,1,0,0:0:0:0:
64,192,115818,1,0,0:0:0:0:
192,192,115878,1,0,0:0:0:0:
448,192,115878,1,0,0:0:0:0:
320,192,115938,1,0,0:0:0:0:
64,192,115998,1,0,0:0:0:0:
192,192,115998,1,0,0:0:0:0:
448,192,116058,1,0,0:0:0:0:
64,192,116118,1,0,0:0:0:0:
320,192,116118,1,0,0:0:0:0:
192,192,116178,1,0,0:0:0:0:
64,192,116238,1,0,0:0:0:0:
448,192,116238,1,0,0:0:0:0:
320,192,116298,1,0,0:0:0:0:
64,192,116358,1,0,0:0:0:0:
192,192,116358,1,0,0:0:0:0:
448,192,116358,1,0,0:0:0:0:
320,192,116418,1,0,0:0:0:0:
64,192,116478,1,0,0:0:0:0:
192,192,116478,1,0,0:0:0:0:
448,192,116478,1,0,0:0:0:0:
320,192,116538,1,0,0:0:0:0:
64,192,116598,1,0,0:0:0:0:
448,192,116598,1,0,0:0:0:0:
192,192,116638,1,0,0:0:0:0:
320,192,116678,1,0,0:0:0:0:
64,192,116718,1,0,0:0:0:0:
448,192,116718,1,0,0:0:0:0:
320,192,116778,1,0,0:0:0:0:
64,192,116838,1,0,0:0:0:0:
448,192,116838,1,0,0:0:0:0:
192,192,116898,1,0,0:0:0:0:
64,192,116958,1,0,0:0:0:0:
448,192,116958,1,0,0:0:0:0:
320,192,116998,1,0,0:0:0:0:
192,192,117038,1,0,0:0:0:0:
64,192,117078,1,0,0:0:0:0:
448,192,117118,1,0,0:0:0:0:
320,192,117158,1,0,0:0:0:0:
64,192,117198,1,0,0:0:0:0:
192,192,117198,1,0,0:0:0:0:
448,192,117258,1,0,0:0:0:0:
64,192,117318,1,0,0:0:0:0:
320,192,117318,1,0,0:0:0:0:
192,192,117378,1,0,0:0:0:0:
64,192,117438,1,0,0:0:0:0:
448,192,117438,1,0,0:0:0:0:
320,192,117498,1,0,0:0:0:0:
192,192,117558,1,0,0:0:0:0:
448,192,117558,1,0,0:0:0:0:
64,192,117618,1,0,0:0:0:0:
192,192,117678,1,0,0:0:0:0:
320,192,117678,1,0,0:0:0:0:
448,192,117738,1,0,0:0:0:0:
64,192,117798,1,0,0:0:0:0:
320,192,117798,1,0,0:0:0:0:
192,192,117858,1,0,0:0:0:0:
64,192,117918,1,0,0:0:0:0:
448,192,117918,1,0,0:0:0:0:
320,192,117978,1,0,0:0:0:0:
64,192,118038,1,0,0:0:0:0:
192,192,118038,1,0,0:0:0:0:
448,192,118098,1,0,0:0:0:0:
192,192,118158,1,0,0:0:0:0:
320,192,118158,1,0,0:0:0:0:
64,192,118218,1,0,0:0:0:0:
192,192,118278,1,0,0:0:0:0:
448,192,118278,1,0,0:0:0:0:
320,192,118338,1,0,0:0:0:0:
64,192,118398,1,0,0:0:0:0:
192,192,118398,1,0,0:0:0:0:
448,192,118458,1,0,0:0:0:0:
64,192,118518,1,0,0:0:0:0:
320,192,118518,1,0,0:0:0:0:
192,192,118578,1,0,0:0:0:0:
64,192,118638,1,0,0:0:0:0:
448,192,118638,1,0,0:0:0:0:
320,192,118698,1,0,0:0:0:0:
192,192,118758,1,0,0:0:0:0:
448,192,118758,1,0,0:0:0:0:
64,192,118818,1,0,0:0:0:0:
192,192,118878,1,0,0:0:0:0:
320,192,118878,1,0,0:0:0:0:
448,192,118938,1,0,0:0:0:0:
64,192,118998,1,0,0:0:0:0:
320,192,118998,1,0,0:0:0:0:
192,192,119058,1,0,0:0:0:0:
64,192,119118,1,0,0:0:0:0:
448,192,119118,1,0,0:0:0:0:
320,192,119178,1,0,0:0:0:0:
64,192,119238,1,0,0:0:0:0:
192,192,119238,1,0,0:0:0:0:
448,192,119298,1,0,0:0:0:0:
64,192,119358,1,0,0:0:0:0:
320,192,119358,1,0,0:0:0:0:
192,192,119418,1,0,0:0:0:0:
64,192,119478,1,0,0:0:0:0:
320,192,119478,1,0,0:0:0:0:
448,192,119538,1,0,0:0:0:0:
64,192,119598,1,0,0:0:0:0:
320,192,119598,1,0,0:0:0:0:
192,192,119658,1,0,0:0:0:0:
64,192,119718,1,0,0:0:0:0:
448,192,119718,1,0,0:0:0:0:
320,192,119778,1,0,0:0:0:0:
64,192,119838,1,0,0:0:0:0:
192,192,119838,1,0,0:0:0:0:
448,192,119898,1,0,0:0:0:0:
192,192,119958,1,0,0:0:0:0:
320,192,119958,1,0,0:0:0:0:
64,192,120018,1,0,0:0:0:0:
192,192,120078,1,0,0:0:0:0:
448,192,120078,1,0,0:0:0:0:
320,192,120138,1,0,0:0:0:0:
64,192,120198,1,0,0:0:0:0:
448,192,120198,1,0,0:0:0:0:
192,192,120258,1,0,0:0:0:0:
64,192,120318,1,0,0:0:0:0:
320,192,120318,1,0,0:0:0:0:
448,192,120378,1,0,0:0:0:0:
64,192,120438,1,0,0:0:0:0:
192,192,120438,1,0,0:0:0:0:
320,192,120498,1,0,0:0:0:0:
64,192,120558,1,0,0:0:0:0:
192,192,120558,1,0,0:0:0:0:
448,192,120558,1,0,0:0:0:0:
320,192,120618,1,0,0:0:0:0:
64,192,120678,1,0,0:0:0:0:
448,192,120678,1,0,0:0:0:0:
192,192,120718,1,0,0:0:0:0:
320,192,120758,1,0,0:0:0:0:
64,192,120798,1,0,0:0:0:0:
448,192,120798,1,0,0:0:0:0:
192,192,120858,1,0,0:0:0:0:
64,192,120918,1,0,0:0:0:0:
320,192,120918,1,0,0:0:0:0:
448,192,120918,1,0,0:0:0:0:
192,192,120978,1,0,0:0:0:0:
64,192,121038,1,0,0:0:0:0:
320,192,121038,1,0,0:0:0:0:
448,192,121038,1,0,0:0:0:0:
192,192,121098,1,0,0:0:0:0:
64,192,121158,1,0,0:0:0:0:
320,192,121158,1,0,0:0:0:0:
448,192,121158,1,0,0:0:0:0:
192,192,121218,1,0,0:0:0:0:
64,192,121278,1,0,0:0:0:0:
320,192,121278,1,0,0:0:0:0:
448,192,121278,1,0,0:0:0:0:
192,192,121338,1,0,0:0:0:0:
64,192,121398,1,0,0:0:0:0:
448,192,121398,1,0,0:0:0:0:
320,192,121458,1,0,0:0:0:0:
64,192,121518,1,0,0:0:0:0:
192,192,121518,1,0,0:0:0:0:
448,192,121518,1,0,0:0:0:0:
320,192,121578,1,0,0:0:0:0:
192,192,121638,1,0,0:0:0:0:
448,192,121638,1,0,0:0:0:0:
64,192,121698,1,0,0:0:0:0:
192,192,121758,1,0,0:0:0:0:
320,192,121758,1,0,0:0:0:0:
448,192,121758,1,0,0:0:0:0:
64,192,121818,1,0,0:0:0:0:
192,192,121878,1,0,0:0:0:0:
448,192,121878,1,0,0:0:0:0:
320,192,121938,1,0,0:0:0:0:
64,192,121998,1,0,0:0:0:0:
192,192,121998,1,0,0:0:0:0:
448,192,121998,1,0,0:0:0:0:
320,192,122058,1,0,0:0:0:0:
64,192,122118,1,0,0:0:0:0:
448,192,122118,1,0,0:0:0:0:
192,192,122178,1,0,0:0:0:0:
64,192,122238,1,0,0:0:0:0:
320,192,122238,1,0,0:0:0:0:
448,192,122238,1,0,0:0:0:0:
192,192,122298,1,0,0:0:0:0:
64,192,122358,1,0,0:0:0:0:
448,192,122358,1,0,0:0:0:0:
320,192,122418,1,0,0:0:0:0:
64,192,122478,1,0,0:0:0:0:
192,192,122478,1,0,0:0:0:0:
448,192,122478,1,0,0:0:0:0:
320,192,122538,1,0,0:0:0:0:
192,192,122598,1,0,0:0:0:0:
448,192,122598,1,0,0:0:0:0:
64,192,122658,1,0,0:0:0:0:
192,192,122718,1,0,0:0:0:0:
320,192,122718,1,0,0:0:0:0:
448,192,122718,1,0,0:0:0:0:
64,192,122778,1,0,0:0:0:0:
320,192,122838,1,0,0:0:0:0:
448,192,122838,1,0,0:0:0:0:
192,192,122898,1,0,0:0:0:0:
64,192,122958,1,0,0:0:0:0:
320,192,122958,1,0,0:0:0:0:
448,192,122958,1,0,0:0:0:0:
192,192,123018,1,0,0:0:0:0:
64,192,123078,1,0,0:0:0:0:
320,192,123078,1,0,0:0:0:0:
448,192,123078,1,0,0:0:0:0:
192,192,123138,1,0,0:0:0:0:
64,192,123198,1,0,0:0:0:0:
320,192,123198,1,0,0:0:0:0:
448,192,123198,1,0,0:0:0:0:
192,192,123258,1,0,0:0:0:0:
64,192,123318,1,0,0:0:0:0:
320,192,123318,1,0,0:0:0:0:
448,192,123318,1,0,0:0:0:0:
192,192,123378,1,0,0:0:0:0:
64,192,123438,1,0,0:0:0:0:
320,192,123438,1,0,0:0:0:0:
448,192,123438,1,0,0:0:0:0:
192,192,123498,1,0,0:0:0:0:
64,192,123558,1,0,0:0:0:0:
320,192,123558,1,0,0:0:0:0:
448,192,123558,1,0,0:0:0:0:
192,192,123618,1,0,0:0:0:0:
64,192,123678,1,0,0:0:0:0:
320,192,123678,1,0,0:0:0:0:
448,192,123678,1,0,0:0:0:0:
192,192,123738,1,0,0:0:0:0:
64,192,123798,1,0,0:0:0:0:
320,192,123798,1,0,0:0:0:0:
448,192,123798,1,0,0:0:0:0:
192,192,123858,1,0,0:0:0:0:
64,192,123918,1,0,0:0:0:0:
448,192,123918,1,0,0:0:0:0:
320,192,123958,1,0,0:0:0:0:
192,192,123998,1,0,0:0:0:0:
64,192,124038,1,0,0:0:0:0:
448,192,124038,1,0,0:0:0:0:
320,192,124098,1,0,0:0:0:0:
64,192,124158,1,0,0:0:0:0:
192,192,124158,1,0,0:0:0:0:
448,192,124158,1,0,0:0:0:0:
320,192,124218,1,0,0:0:0:0:
64,192,124278,1,0,0:0:0:0:
448,192,124278,1,0,0:0:0:0:
192,192,124318,1,0,0:0:0:0:
320,192,124358,1,0,0:0:0:0:
64,192,124398,1,0,0:0:0:0:
448,192,124398,1,0,0:0:0:0:
192,192,124458,1,0,0:0:0:0:
64,192,124518,1,0,0:0:0:0:
320,192,124518,1,0,0:0:0:0:
448,192,124518,1,0,0:0:0:0:
64,192,124638,1,0,0:0:0:0:
448,192,124638,1,0,0:0:0:0:
320,192,124678,1,0,0:0:0:0:
192,192,124718,1,0,0:0:0:0:
64,192,124758,1,0,0:0:0:0:
448,192,124798,1,0,0:0:0:0:
320,192,124838,1,0,0:0:0:0:
64,192,124878,1,0,0:0:0:0:
192,192,124878,1,0,0:0:0:0:
64,192,128718,1,0,0:0:0:0:
448,192,129678,1,0,0:0:0:0:
320,192,130638,1,0,0:0:0:0:
192,192,131598,1,0,0:0:0:0:
64,192,132558,1,0,0:0:0:0:
448,192,136398,1,0,0:0:0:0:
320,192,137358,1,0,0:0:0:0:
192,192,138318,1,0,0:0:0:0:
64,192,139278,1,0,0:0:0:0:
192,192,140238,1,0,0:0:0:0:
64,192,144078,1,0,0:0:0:0:
192,192,145038,1,0,0:0:0:0:
320,192,145998,1,0,0:0:0:0:
64,192,146958,1,0,0:0:0:0:
192,192,147918,1,0,0:0:0:0:
64,192,151758,1,0,0:0:0:0:
192,192,152718,1,0,0:0:0:0:
320,192,153678,1,0,0:0:0:0:
64,192,154638,1,0,0:0:0:0:
192,192,155598,1,0,0:0:0:0:
64,192,159438,1,0,0:0:0:0:
448,0,159438,128,0,161358:1:0:0:0:
64,0,161358,128,0,162318:1:0:0:0:
192,0,162318,128,0,163278:1:0:0:0:
448,0,163278,128,0,167118:1:0:0:0:
192,0,167118,128,0,169038:1:0:0:0:
64,0,169038,128,0,169998:1:0:0:0:
320,0,169998,128,0,170958:1:0:0:0:
448,0,170958,128,0,174798:1:0:0:0:
64,0,174798,128,0,176718:1:0:0:0:
320,0,176718,128,0,177678:1:0:0:0:
192,0,177678,128,0,178638:1:0:0:0:
448,0,178638,128,0,182478:1:0:0:0:
192,0,182478,128,0,184398:1:0:0:0:
448,0,184398,128,0,185358:1:0:0:0:
64,0,185358,128,0,186318:1:0:0:0:
192,0,186318,128,0,190158:1:0:0:0:
448,0,189198,128,0,190158:1:0:0:0:
64,192,190158,1,0,0:0:0:0:
320,192,190158,1,0,0:0:0:0:
448,192,190218,1,0,0:0:0:0:
192,192,190278,1,0,0:0:0:0:
320,192,190278,1,0,0:0:0:0:
64,192,190338,1,0,0:0:0:0:
192,192,190398,1,0,0:0:0:0:
448,192,190398,1,0,0:0:0:0:
320,192,190458,1,0,0:0:0:0:
64,192,190518,1,0,0:0:0:0:
448,192,190518,1,0,0:0:0:0:
192,192,190578,1,0,0:0:0:0:
64,192,190638,1,0,0:0:0:0:
320,192,190638,1,0,0:0:0:0:
448,192,190698,1,0,0:0:0:0:
64,192,190758,1,0,0:0:0:0:
192,192,190758,1,0,0:0:0:0:
320,192,190818,1,0,0:0:0:0:
64,192,190878,1,0,0:0:0:0:
448,192,190878,1,0,0:0:0:0:
192,192,190938,1,0,0:0:0:0:
320,192,190998,1,0,0:0:0:0:
448,192,190998,1,0,0:0:0:0:
64,192,191058,1,0,0:0:0:0:
192,192,191118,1,0,0:0:0:0:
448,192,191118,1,0,0:0:0:0:
320,192,191178,1,0,0:0:0:0:
64,192,191238,1,0,0:0:0:0:
192,192,191238,1,0,0:0:0:0:
448,192,191298,1,0,0:0:0:0:
64,192,191358,1,0,0:0:0:0:
320,192,191358,1,0,0:0:0:0:
192,192,191418,1,0,0:0:0:0:
64,192,191478,1,0,0:0:0:0:
448,192,191478,1,0,0:0:0:0:
320,192,191538,1,0,0:0:0:0:
192,192,191598,1,0,0:0:0:0:
448,192,191598,1,0,0:0:0:0:
64,192,191658,1,0,0:0:0:0:
192,192,191718,1,0,0:0:0:0:
448,192,191718,1,0,0:0:0:0:
320,192,191778,1,0,0:0:0:0:
64,192,191838,1,0,0:0:0:0:
192,192,191838,1,0,0:0:0:0:
448,192,191898,1,0,0:0:0:0:
64,192,191958,1,0,0:0:0:0:
320,192,191958,1,0,0:0:0:0:
192,192,192018,1,0,0:0:0:0:
64,192,192078,1,0,0:0:0:0:
448,192,192078,1,0,0:0:0:0:
320,192,192138,1,0,0:0:0:0:
64,192,192198,1,0,0:0:0:0:
192,192,192198,1,0,0:0:0:0:
448,192,192258,1,0,0:0:0:0:
64,192,192318,1,0,0:0:0:0:
320,192,192318,1,0,0:0:0:0:
192,192,192378,1,0,0:0:0:0:
64,192,192438,1,0,0:0:0:0:
320,192,192438,1,0,0:0:0:0:
448,192,192498,1,0,0:0:0:0:
64,192,192558,1,0,0:0:0:0:
192,192,192558,1,0,0:0:0:0:
320,192,192618,1,0,0:0:0:0:
64,192,192678,1,0,0:0:0:0:
448,192,192678,1,0,0:0:0:0:
192,192,192738,1,0,0:0:0:0:
320,192,192798,1,0,0:0:0:0:
448,192,192798,1,0,0:0:0:0:
64,192,192858,1,0,0:0:0:0:
192,192,192918,1,0,0:0:0:0:
320,192,192918,1,0,0:0:0:0:
448,192,192978,1,0,0:0:0:0:
64,192,193038,1,0,0:0:0:0:
320,192,193038,1,0,0:0:0:0:
192,192,193098,1,0,0:0:0:0:
64,192,193158,1,0,0:0:0:0:
448,192,193158,1,0,0:0:0:0:
320,192,193218,1,0,0:0:0:0:
64,192,193278,1,0,0:0:0:0:
192,192,193278,1,0,0:0:0:0:
448,192,193338,1,0,0:0:0:0:
64,192,193398,1,0,0:0:0:0:
320,192,193398,1,0,0:0:0:0:
192,192,193458,1,0,0:0:0:0:
320,192,193518,1,0,0:0:0:0:
448,192,193518,1,0,0:0:0:0:
64,192,193578,1,0,0:0:0:0:
320,192,193638,1,0,0:0:0:0:
448,192,193638,1,0,0:0:0:0:
192,192,193678,1,0,0:0:0:0:
64,192,193718,1,0,0:0:0:0:
320,192,193758,1,0,0:0:0:0:
448,192,193758,1,0,0:0:0:0:
192,192,193818,1,0,0:0:0:0:
64,192,193878,1,0,0:0:0:0:
320,192,193878,1,0,0:0:0:0:
448,192,193878,1,0,0:0:0:0:
192,192,193938,1,0,0:0:0:0:
64,192,193998,1,0,0:0:0:0:
320,192,193998,1,0,0:0:0:0:
448,192,193998,1,0,0:0:0:0:
192,192,194058,1,0,0:0:0:0:
64,192,194118,1,0,0:0:0:0:
448,192,194118,1,0,0:0:0:0:
320,192,194178,1,0,0:0:0:0:
64,192,194238,1,0,0:0:0:0:
192,192,194238,1,0,0:0:0:0:
448,192,194298,1,0,0:0:0:0:
64,192,194358,1,0,0:0:0:0:
320,192,194358,1,0,0:0:0:0:
192,192,194418,1,0,0:0:0:0:
64,192,194478,1,0,0:0:0:0:
448,192,194478,1,0,0:0:0:0:
320,192,194538,1,0,0:0:0:0:
64,192,194598,1,0,0:0:0:0:
192,192,194598,1,0,0:0:0:0:
448,192,194658,1,0,0:0:0:0:
192,192,194718,1,0,0:0:0:0:
320,192,194718,1,0,0:0:0:0:
64,192,194778,1,0,0:0:0:0:
192,192,194838,1,0,0:0:0:0:
448,192,194838,1,0,0:0:0:0:
320,192,194898,1,0,0:0:0:0:
64,192,194958,1,0,0:0:0:0:
448,192,194958,1,0,0:0:0:0:
192,192,195018,1,0,0:0:0:0:
320,192,195078,1,0,0:0:0:0:
448,192,195078,1,0,0:0:0:0:
64,192,195138,1,0,0:0:0:0:
192,192,195198,1,0,0:0:0:0:
448,192,195198,1,0,0:0:0:0:
320,192,195258,1,0,0:0:0:0:
64,192,195318,1,0,0:0:0:0:
192,192,195318,1,0,0:0:0:0:
448,192,195378,1,0,0:0:0:0:
64,192,195438,1,0,0:0:0:0:
320,192,195438,1,0,0:0:0:0:
192,192,195498,1,0,0:0:0:0:
64,192,195558,1,0,0:0:0:0:
448,192,195558,1,0,0:0:0:0:
320,192,195618,1,0,0:0:0:0:
192,192,195678,1,0,0:0:0:0:
448,192,195678,1,0,0:0:0:0:
64,192,195738,1,0,0:0:0:0:
320,192,195798,1,0,0:0:0:0:
448,192,195798,1,0,0:0:0:0:
192,192,195858,1,0,0:0:0:0:
64,192,195918,1,0,0:0:0:0:
448,192,195918,1,0,0:0:0:0:
320,192,195978,1,0,0:0:0:0:
64,192,196038,1,0,0:0:0:0:
192,192,196038,1,0,0:0:0:0:
448,192,196098,1,0,0:0:0:0:
192,192,196158,1,0,0:0:0:0:
320,192,196158,1,0,0:0:0:0:
64,192,196218,1,0,0:0:0:0:
192,192,196278,1,0,0:0:0:0:
448,192,196278,1,0,0:0:0:0:
320,192,196338,1,0,0:0:0:0:
64,192,196398,1,0,0:0:0:0:
192,192,196398,1,0,0:0:0:0:
448,192,196458,1,0,0:0:0:0:
64,192,196518,1,0,0:0:0:0:
320,192,196518,1,0,0:0:0:0:
192,192,196578,1,0,0:0:0:0:
320,192,196638,1,0,0:0:0:0:
448,192,196638,1,0,0:0:0:0:
64,192,196698,1,0,0:0:0:0:
192,192,196758,1,0,0:0:0:0:
448,192,196758,1,0,0:0:0:0:
320,192,196818,1,0,0:0:0:0:
64,192,196878,1,0,0:0:0:0:
192,192,196878,1,0,0:0:0:0:
448,192,196878,1,0,0:0:0:0:
320,192,196938,1,0,0:0:0:0:
64,192,196998,1,0,0:0:0:0:
448,192,196998,1,0,0:0:0:0:
192,192,197038,1,0,0:0:0:0:
320,192,197078,1,0,0:0:0:0:
64,192,197118,1,0,0:0:0:0:
448,192,197118,1,0,0:0:0:0:
192,192,197178,1,0,0:0:0:0:
64,192,197238,1,0,0:0:0:0:
320,192,197238,1,0,0:0:0:0:
448,192,197238,1,0,0:0:0:0:
192,192,197298,1,0,0:0:0:0:
64,192,197358,1,0,0:0:0:0:
448,192,197358,1,0,0:0:0:0:
320,192,197398,1,0,0:0:0:0:
192,192,197438,1,0,0:0:0:0:
64,192,197478,1,0,0:0:0:0:
448,192,197478,1,0,0:0:0:0:
320,192,197538,1,0,0:0:0:0:
64,192,197598,1,0,0:0:0:0:
448,192,197598,1,0,0:0:0:0:
192,192,197638,1,0,0:0:0:0:
320,192,197678,1,0,0:0:0:0:
448,192,197718,1,0,0:0:0:0:
64,192,197758,1,0,0:0:0:0:
192,192,197798,1,0,0:0:0:0:
320,192,197838,1,0,0:0:0:0:
448,192,197838,1,0,0:0:0:0:
64,192,197898,1,0,0:0:0:0:
192,192,197958,1,0,0:0:0:0:
320,192,197958,1,0,0:0:0:0:
448,192,198018,1,0,0:0:0:0:
64,192,198078,1,0,0:0:0:0:
320,192,198078,1,0,0:0:0:0:
192,192,198138,1,0,0:0:0:0:
64,192,198198,1,0,0:0:0:0:
448,192,198198,1,0,0:0:0:0:
320,192,198258,1,0,0:0:0:0:
64,192,198318,1,0,0:0:0:0:
192,192,198318,1,0,0:0:0:0:
448,192,198378,1,0,0:0:0:0:
192,192,198438,1,0,0:0:0:0:
320,192,198438,1,0,0:0:0:0:
64,192,198498,1,0,0:0:0:0:
192,192,198558,1,0,0:0:0:0:
448,192,198558,1,0,0:0:0:0:
320,192,198618,1,0,0:0:0:0:
64,192,198678,1,0,0:0:0:0:
448,192,198678,1,0,0:0:0:0:
192,192,198738,1,0,0:0:0:0:
64,192,198798,1,0,0:0:0:0:
320,192,198798,1,0,0:0:0:0:
448,192,198858,1,0,0:0:0:0:
192,192,198918,1,0,0:0:0:0:
320,192,198918,1,0,0:0:0:0:
64,192,198978,1,0,0:0:0:0:
192,192,199038,1,0,0:0:0:0:
448,192,199038,1,0,0:0:0:0:
320,192,199098,1,0,0:0:0:0:
64,192,199158,1,0,0:0:0:0:
192,192,199158,1,0,0:0:0:0:
448,192,199218,1,0,0:0:0:0:
64,192,199278,1,0,0:0:0:0:
320,192,199278,1,0,0:0:0:0:
192,192,199338,1,0,0:0:0:0:
64,192,199398,1,0,0:0:0:0:
448,192,199398,1,0,0:0:0:0:
320,192,199458,1,0,0:0:0:0:
64,192,199518,1,0,0:0:0:0:
192,192,199518,1,0,0:0:0:0:
448,192,199578,1,0,0:0:0:0:
64,192,199638,1,0,0:0:0:0:
320,192,199638,1,0,0:0:0:0:
192,192,199698,1,0,0:0:0:0:
320,192,199758,1,0,0:0:0:0:
448,192,199758,1,0,0:0:0:0:
64,192,199818,1,0,0:0:0:0:
192,192,199878,1,0,0:0:0:0:
320,192,199878,1,0,0:0:0:0:
448,192,199938,1,0,0:0:0:0:
64,192,199998,1,0,0:0:0:0:
320,192,199998,1,0,0:0:0:0:
192,192,200058,1,0,0:0:0:0:
64,192,200118,1,0,0:0:0:0:
448,192,200118,1,0,0:0:0:0:
320,192,200178,1,0,0:0:0:0:
192,192,200238,1,0,0:0:0:0:
448,192,200238,1,0,0:0:0:0:
64,192,200298,1,0,0:0:0:0:
192,192,200358,1,0,0:0:0:0:
320,192,200358,1,0,0:0:0:0:
448,192,200418,1,0,0:0:0:0:
64,192,200478,1,0,0:0:0:0:
320,192,200478,1,0,0:0:0:0:
192,192,200538,1,0,0:0:0:0:
64,192,200598,1,0,0:0:0:0:
448,192,200598,1,0,0:0:0:0:
320,192,200658,1,0,0:0:0:0:
192,192,200718,1,0,0:0:0:0:
448,192,200718,1,0,0:0:0:0:
64,192,200778,1,0,0:0:0:0:
192,192,200838,1,0,0:0:0:0:
320,192,200838,1,0,0:0:0:0:
448,192,200898,1,0,0:0:0:0:
64,192,200958,1,0,0:0:0:0:
320,192,200958,1,0,0:0:0:0:
192,192,201018,1,0,0:0:0:0:
64,192,201078,1,0,0:0:0:0:
448,192,201078,1,0,0:0:0:0:
320,192,201138,1,0,0:0:0:0:
64,192,201198,1,0,0:0:0:0:
192,192,201198,1,0,0:0:0:0:
448,192,201198,1,0,0:0:0:0:
320,192,201258,1,0,0:0:0:0:
64,192,201318,1,0,0:0:0:0:
448,192,201318,1,0,0:0:0:0:
192,192,201358,1,0,0:0:0:0:
320,192,201398,1,0,0:0:0:0:
64,192,201438,1,0,0:0:0:0:
448,192,201438,1,0,0:0:0:0:
192,192,201498,1,0,0:0:0:0:
64,192,201558,1,0,0:0:0:0:
320,192,201558,1,0,0:0:0:0:
448,192,201558,1,0,0:0:0:0:
192,192,201618,1,0,0:0:0:0:
64,192,201678,1,0,0:0:0:0:
320,192,201678,1,0,0:0:0:0:
448,192,201678,1,0,0:0:0:0:
192,192,201738,1,0,0:0:0:0:
64,192,201798,1,0,0:0:0:0:
320,192,201798,1,0,0:0:0:0:
448,192,201858,1,0,0:0:0:0:
64,192,201918,1,0,0:0:0:0:
192,192,201918,1,0,0:0:0:0:
320,192,201978,1,0,0:0:0:0:
64,192,202038,1,0,0:0:0:0:
448,192,202038,1,0,0:0:0:0:
192,192,202098,1,0,0:0:0:0:
64,192,202158,1,0,0:0:0:0:
320,192,202158,1,0,0:0:0:0:
448,192,202218,1,0,0:0:0:0:
192,192,202278,1,0,0:0:0:0:
320,192,202278,1,0,0:0:0:0:
64,192,202338,1,0,0:0:0:0:
192,192,202398,1,0,0:0:0:0:
448,192,202398,1,0,0:0:0:0:
320,192,202458,1,0,0:0:0:0:
64,192,202518,1,0,0:0:0:0:
192,192,202518,1,0,0:0:0:0:
448,192,202578,1,0,0:0:0:0:
64,192,202638,1,0,0:0:0:0:
320,192,202638,1,0,0:0:0:0:
192,192,202698,1,0,0:0:0:0:
64,192,202758,1,0,0:0:0:0:
448,192,202758,1,0,0:0:0:0:
320,192,202818,1,0,0:0:0:0:
64,192,202878,1,0,0:0:0:0:
192,192,202878,1,0,0:0:0:0:
448,192,202938,1,0,0:0:0:0:
64,192,202998,1,0,0:0:0:0:
320,192,202998,1,0,0:0:0:0:
192,192,203058,1,0,0:0:0:0:
64,192,203118,1,0,0:0:0:0:
448,192,203118,1,0,0:0:0:0:
320,192,203178,1,0,0:0:0:0:
192,192,203238,1,0,0:0:0:0:
448,192,203238,1,0,0:0:0:0:
64,192,203298,1,0,0:0:0:0:
192,192,203358,1,0,0:0:0:0:
320,192,203358,1,0,0:0:0:0:
448,192,203418,1,0,0:0:0:0:
64,192,203478,1,0,0:0:0:0:
192,192,203478,1,0,0:0:0:0:
320,192,203538,1,0,0:0:0:0:
64,192,203598,1,0,0:0:0:0:
448,192,203598,1,0,0:0:0:0:
192,192,203658,1,0,0:0:0:0:
320,192,203718,1,0,0:0:0:0:
448,192,203718,1,0,0:0:0:0:
64,192,203778,1,0,0:0:0:0:
192,192,203838,1,0,0:0:0:0:
448,192,203838,1,0,0:0:0:0:
320,192,203898,1,0,0:0:0:0:
64,192,203958,1,0,0:0:0:0:
448,192,203958,1,0,0:0:0:0:
192,192,204018,1,0,0:0:0:0:
64,192,204078,1,0,0:0:0:0:
320,192,204078,1,0,0:0:0:0:
448,192,204138,1,0,0:0:0:0:
192,192,204198,1,0,0:0:0:0:
320,192,204198,1,0,0:0:0:0:
64,192,204258,1,0,0:0:0:0:
192,192,204318,1,0,0:0:0:0:
448,192,204318,1,0,0:0:0:0:
320,192,204378,1,0,0:0:0:0:
64,192,204438,1,0,0:0:0:0:
192,192,204438,1,0,0:0:0:0:
448,192,204498,1,0,0:0:0:0:
64,192,204558,1,0,0:0:0:0:
320,192,204558,1,0,0:0:0:0:
192,192,204618,1,0,0:0:0:0:
64,192,204678,1,0,0:0:0:0:
448,192,204678,1,0,0:0:0:0:
320,192,204718,1,0,0:0:0:0:
192,192,204758,1,0,0:0:0:0:
64,192,204798,1,0,0:0:0:0:
448,192,204798,1,0,0:0:0:0:
320,192,204858,1,0,0:0:0:0:
64,192,204918,1,0,0:0:0:0:
448,192,204918,1,0,0:0:0:0:
192,192,204958,1,0,0:0:0:0:
320,192,204998,1,0,0:0:0:0:
64,192,205038,1,0,0:0:0:0:
448,192,205038,1,0,0:0:0:0:
192,192,205098,1,0,0:0:0:0:
64,192,205158,1,0,0:0:0:0:
448,192,205158,1,0,0:0:0:0:
320,192,205218,1,0,0:0:0:0:
64,192,205278,1,0,0:0:0:0:
192,192,205278,1,0,0:0:0:0:
320,192,205318,1,0,0:0:0:0:
448,192,205358,1,0,0:0:0:0:
64,192,205398,1,0,0:0:0:0:
192,192,205438,1,0,0:0:0:0:
320,192,205478,1,0,0:0:0:0:
64,192,205518,1,0,0:0:0:0:
448,192,205518,1,0,0:0:0:0:
192,192,205578,1,0,0:0:0:0:
64,192,205638,1,0,0:0:0:0:
320,192,205638,1,0,0:0:0:0:
448,192,205698,1,0,0:0:0:0:
64,192,205758,1,0,0:0:0:0:
192,192,205758,1,0,0:0:0:0:
320,192,205818,1,0,0:0:0:0:
64,192,205878,1,0,0:0:0:0:
448,192,205878,1,0,0:0:0:0:
192,192,205938,1,0,0:0:0:0:
320,192,205998,1,0,0:0:0:0:
448,192,205998,1,0,0:0:0:0:
64,192,206058,1,0,0:0:0:0:
192,192,206118,1,0,0:0:0:0:
320,192,206118,1,0,0:0:0:0:
448,192,206178,1,0,0:0:0:0:
64,192,206238,1,0,0:0:0:0:
320,192,206238,1,0,0:0:0:0:
192,192,206298,1,0,0:0:0:0:
64,192,206358,1,0,0:0:0:0:
448,192,206358,1,0,0:0:0:0:
320,192,206418,1,0,0:0:0:0:
64,192,206478,1,0,0:0:0:0:
192,192,206478,1,0,0:0:0:0:
448,192,206538,1,0,0:0:0:0:
64,192,206598,1,0,0:0:0:0:
320,192,206598,1,0,0:0:0:0:
192,192,206658,1,0,0:0:0:0:
320,192,206718,1,0,0:0:0:0:
448,192,206718,1,0,0:0:0:0:
64,192,206778,1,0,0:0:0:0:
192,192,206838,1,0,0:0:0:0:
320,192,206838,1,0,0:0:0:0:
448,192,206898,1,0,0:0:0:0:
64,192,206958,1,0,0:0:0:0:
320,192,206958,1,0,0:0:0:0:
192,192,207018,1,0,0:0:0:0:
320,192,207078,1,0,0:0:0:0:
448,192,207078,1,0,0:0:0:0:
64,192,207138,1,0,0:0:0:0:
192,192,207198,1,0,0:0:0:0:
448,192,207198,1,0,0:0:0:0:
320,192,207258,1,0,0:0:0:0:
64,192,207318,1,0,0:0:0:0:
448,192,207318,1,0,0:0:0:0:
192,192,207378,1,0,0:0:0:0:
64,192,207438,1,0,0:0:0:0:
320,192,207438,1,0,0:0:0:0:
448,192,207498,1,0,0:0:0:0:
64,192,207558,1,0,0:0:0:0:
320,192,207558,1,0,0:0:0:0:
192,192,207618,1,0,0:0:0:0:
64,192,207678,1,0,0:0:0:0:
448,192,207678,1,0,0:0:0:0:
320,192,207738,1,0,0:0:0:0:
64,192,207798,1,0,0:0:0:0:
192,192,207798,1,0,0:0:0:0:
448,192,207858,1,0,0:0:0:0:
192,192,207918,1,0,0:0:0:0:
320,192,207918,1,0,0:0:0:0:
64,192,207978,1,0,0:0:0:0:
192,192,208038,1,0,0:0:0:0:
448,192,208038,1,0,0:0:0:0:
320,192,208098,1,0,0:0:0:0:
64,192,208158,1,0,0:0:0:0:
192,192,208158,1,0,0:0:0:0:
448,192,208218,1,0,0:0:0:0:
64,192,208278,1,0,0:0:0:0:
192,192,208278,1,0,0:0:0:0:
320,192,208338,1,0,0:0:0:0:
64,192,208398,1,0,0:0:0:0:
448,192,208398,1,0,0:0:0:0:
192,192,208458,1,0,0:0:0:0:
320,192,208518,1,0,0:0:0:0:
448,192,208518,1,0,0:0:0:0:
64,192,208578,1,0,0:0:0:0:
192,192,208638,1,0,0:0:0:0:
448,192,208638,1,0,0:0:0:0:
320,192,208698,1,0,0:0:0:0:
64,192,208758,1,0,0:0:0:0:
448,192,208758,1,0,0:0:0:0:
192,192,208818,1,0,0:0:0:0:
64,192,208878,1,0,0:0:0:0:
320,192,208878,1,0,0:0:0:0:
448,192,208878,1,0,0:0:0:0:
192,192,208938,1,0,0:0:0:0:
64,192,208998,1,0,0:0:0:0:
448,192,208998,1,0,0:0:0:0:
320,192,209038,1,0,0:0:0:0:
192,192,209078,1,0,0:0:0:0:
64,192,209118,1,0,0:0:0:0:
448,192,209118,1,0,0:0:0:0:
320,192,209178,1,0,0:0:0:0:
64,192,209238,1,0,0:0:0:0:
192,192,209238,1,0,0:0:0:0:
448,192,209238,1,0,0:0:0:0:
320,192,209298,1,0,0:0:0:0:
64,192,209358,1,0,0:0:0:0:
192,192,209358,1,0,0:0:0:0:
448,192,209358,1,0,0:0:0:0:
320,192,209418,1,0,0:0:0:0:
64,192,209478,1,0,0:0:0:0:
192,192,209478,1,0,0:0:0:0:
448,192,209538,1,0,0:0:0:0:
64,192,209598,1,0,0:0:0:0:
320,192,209598,1,0,0:0:0:0:
192,192,209658,1,0,0:0:0:0:
64,192,209718,1,0,0:0:0:0:
448,192,209718,1,0,0:0:0:0:
320,192,209778,1,0,0:0:0:0:
64,192,209838,1,0,0:0:0:0:
192,192,209838,1,0,0:0:0:0:
448,192,209898,1,0,0:0:0:0:
64,192,209958,1,0,0:0:0:0:
320,192,209958,1,0,0:0:0:0:
192,192,210018,1,0,0:0:0:0:
64,192,210078,1,0,0:0:0:0:
448,192,210078,1,0,0:0:0:0:
320,192,210138,1,0,0:0:0:0:
64,192,210198,1,0,0:0:0:0:
192,192,210198,1,0,0:0:0:0:
448,192,210258,1,0,0:0:0:0:
192,192,210318,1,0,0:0:0:0:
320,192,210318,1,0,0:0:0:0:
64,192,210378,1,0,0:0:0:0:
192,192,210438,1,0,0:0:0:0:
448,192,210438,1,0,0:0:0:0:
64,192,210498,1,0,0:0:0:0:
320,192,210558,1,0,0:0:0:0:
448,192,210558,1,0,0:0:0:0:
192,192,210618,1,0,0:0:0:0:
64,192,210678,1,0,0:0:0:0:
448,192,210678,1,0,0:0:0:0:
320,192,210738,1,0,0:0:0:0:
192,192,210798,1,0,0:0:0:0:
448,192,210798,1,0,0:0:0:0:
64,192,210858,1,0,0:0:0:0:
320,192,210918,1,0,0:0:0:0:
448,192,210918,1,0,0:0:0:0:
192,192,210978,1,0,0:0:0:0:
64,192,211038,1,0,0:0:0:0:
320,192,211038,1,0,0:0:0:0:
448,192,211098,1,0,0:0:0:0:
64,192,211158,1,0,0:0:0:0:
320,192,211158,1,0,0:0:0:0:
192,192,211218,1,0,0:0:0:0:
64,192,211278,1,0,0:0:0:0:
448,192,211278,1,0,0:0:0:0:
320,192,211338,1,0,0:0:0:0:
64,192,211398,1,0,0:0:0:0:
192,192,211398,1,0,0:0:0:0:
448,192,211458,1,0,0:0:0:0:
192,192,211518,1,0,0:0:0:0:
320,192,211518,1,0,0:0:0:0:
64,192,211578,1,0,0:0:0:0:
192,192,211638,1,0,0:0:0:0:
448,192,211638,1,0,0:0:0:0:
320,192,211698,1,0,0:0:0:0:
64,192,211758,1,0,0:0:0:0:
192,192,211758,1,0,0:0:0:0:
448,192,211818,1,0,0:0:0:0:
64,192,211878,1,0,0:0:0:0:
320,192,211878,1,0,0:0:0:0:
192,192,211938,1,0,0:0:0:0:
64,192,211998,1,0,0:0:0:0:
448,192,211998,1,0,0:0:0:0:
320,192,212058,1,0,0:0:0:0:
64,192,212118,1,0,0:0:0:0:
448,192,212118,1,0,0:0:0:0:
192,192,212178,1,0,0:0:0:0:
64,192,212238,1,0,0:0:0:0:
320,192,212238,1,0,0:0:0:0:
448,192,212238,1,0,0:0:0:0:
192,192,212298,1,0,0:0:0:0:
64,192,212358,1,0,0:0:0:0:
320,192,212358,1,0,0:0:0:0:
448,192,212358,1,0,0:0:0:0:
192,192,212418,1,0,0:0:0:0:
64,192,212478,1,0,0:0:0:0:
448,192,212478,1,0,0:0:0:0:
320,192,212518,1,0,0:0:0:0:
192,192,212558,1,0,0:0:0:0:
64,192,212598,1,0,0:0:0:0:
448,192,212598,1,0,0:0:0:0:
320,192,212658,1,0,0:0:0:0:
64,192,212718,1,0,0:0:0:0:
192,192,212718,1,0,0:0:0:0:
448,192,212718,1,0,0:0:0:0:
320,192,212778,1,0,0:0:0:0:
64,192,212838,1,0,0:0:0:0:
192,192,212838,1,0,0:0:0:0:
448,192,212838,1,0,0:0:0:0:
320,192,212898,1,0,0:0:0:0:
64,192,212958,1,0,0:0:0:0:
448,192,212958,1,0,0:0:0:0:
192,192,212998,1,0,0:0:0:0:
320,192,213038,1,0,0:0:0:0:
448,192,213078,1,0,0:0:0:0:
64,192,213118,1,0,0:0:0:0:
192,192,213158,1,0,0:0:0:0:
320,192,213198,1,0,0:0:0:0:
448,192,213198,1,0,0:0:0:0:
64,192,213258,1,0,0:0:0:0:
192,192,213318,1,0,0:0:0:0:
320,192,213318,1,0,0:0:0:0:
448,192,213378,1,0,0:0:0:0:
64,192,213438,1,0,0:0:0:0:
320,192,213438,1,0,0:0:0:0:
192,192,213498,1,0,0:0:0:0:
64,192,213558,1,0,0:0:0:0:
448,192,213558,1,0,0:0:0:0:
320,192,213618,1,0,0:0:0:0:
64,192,213678,1,0,0:0:0:0:
192,192,213678,1,0,0:0:0:0:
448,192,213738,1,0,0:0:0:0:
192,192,213798,1,0,0:0:0:0:
320,192,213798,1,0,0:0:0:0:
64,192,213858,1,0,0:0:0:0:
192,192,213918,1,0,0:0:0:0:
448,192,213918,1,0,0:0:0:0:
320,192,213978,1,0,0:0:0:0:
64,192,214038,1,0,0:0:0:0:
192,192,214038,1,0,0:0:0:0:
448,192,214098,1,0,0:0:0:0:
64,192,214158,1,0,0:0:0:0:
320,192,214158,1,0,0:0:0:0:
192,192,214218,1,0,0:0:0:0:
320,192,214278,1,0,0:0:0:0:
448,192,214278,1,0,0:0:0:0:
64,192,214338,1,0,0:0:0:0:
192,192,214398,1,0,0:0:0:0:
448,192,214398,1,0,0:0:0:0:
320,192,214458,1,0,0:0:0:0:
64,192,214518,1,0,0:0:0:0:
448,192,214518,1,0,0:0:0:0:
192,192,214578,1,0,0:0:0:0:
64,192,214638,1,0,0:0:0:0:
320,192,214638,1,0,0:0:0:0:
448,192,214698,1,0,0:0:0:0:
192,192,214758,1,0,0:0:0:0:
320,192,214758,1,0,0:0:0:0:
64,192,214818,1,0,0:0:0:0:
192,192,214878,1,0,0:0:0:0:
448,192,214878,1,0,0:0:0:0:
320,192,214938,1,0,0:0:0:0:
64,192,214998,1,0,0:0:0:0:
448,192,214998,1,0,0:0:0:0:
192,192,215058,1,0,0:0:0:0:
64,192,215118,1,0,0:0:0:0:
320,192,215118,1,0,0:0:0:0:
448,192,215178,1,0,0:0:0:0:
192,192,215238,1,0,0:0:0:0:
320,192,215238,1,0,0:0:0:0:
64,192,215298,1,0,0:0:0:0:
192,192,215358,1,0,0:0:0:0:
448,192,215358,1,0,0:0:0:0:
320,192,215418,1,0,0:0:0:0:
64,192,215478,1,0,0:0:0:0:
192,192,215478,1,0,0:0:0:0:
448,192,215538,1,0,0:0:0:0:
64,192,215598,1,0,0:0:0:0:
320,192,215598,1,0,0:0:0:0:
192,192,215658,1,0,0:0:0:0:
64,192,215718,1,0,0:0:0:0:
448,192,215718,1,0,0:0:0:0:
320,192,215778,1,0,0:0:0:0:
192,192,215838,1,0,0:0:0:0:
448,192,215838,1,0,0:0:0:0:
64,192,215898,1,0,0:0:0:0:
192,192,215958,1,0,0:0:0:0:
320,192,215958,1,0,0:0:0:0:
448,192,216018,1,0,0:0:0:0:
64,192,216078,1,0,0:0:0:0:
320,192,216078,1,0,0:0:0:0:
192,192,216138,1,0,0:0:0:0:
320,192,216198,1,0,0:0:0:0:
448,192,216198,1,0,0:0:0:0:
64,192,216258,1,0,0:0:0:0:
192,192,216318,1,0,0:0:0:0:
448,192,216318,1,0,0:0:0:0:
320,192,216378,1,0,0:0:0:0:
64,192,216438,1,0,0:0:0:0:
448,192,216438,1,0,0:0:0:0:
192,192,216498,1,0,0:0:0:0:
64,192,216558,1,0,0:0:0:0:
320,192,216558,1,0,0:0:0:0:
448,192,216558,1,0,0:0:0:0:
192,192,216618,1,0,0:0:0:0:
64,192,216678,1,0,0:0:0:0:
448,192,216678,1,0,0:0:0:0:
320,192,216718,1,0,0:0:0:0:
192,192,216758,1,0,0:0:0:0:
64,192,216798,1,0,0:0:0:0:
448,192,216798,1,0,0:0:0:0:
320,192,216858,1,0,0:0:0:0:
64,192,216918,1,0,0:0:0:0:
192,192,216918,1,0,0:0:0:0:
448,192,216918,1,0,0:0:0:0:
320,192,216978,1,0,0:0:0:0:
64,192,217038,1,0,0:0:0:0:
192,192,217038,1,0,0:0:0:0:
448,192,217038,1,0,0:0:0:0:
320,192,217098,1,0,0:0:0:0:
64,192,217158,1,0,0:0:0:0:
448,192,217158,1,0,0:0:0:0:
192,192,217218,1,0,0:0:0:0:
64,192,217278,1,0,0:0:0:0:
320,192,217278,1,0,0:0:0:0:
448,192,217338,1,0,0:0:0:0:
64,192,217398,1,0,0:0:0:0:
192,192,217398,1,0,0:0:0:0:
320,192,217458,1,0,0:0:0:0:
64,192,217518,1,0,0:0:0:0:
448,192,217518,1,0,0:0:0:0:
320,192,217578,1,0,0:0:0:0:
192,192,217638,1,0,0:0:0:0:
448,192,217638,1,0,0:0:0:0:
64,192,217698,1,0,0:0:0:0:
320,192,217758,1,0,0:0:0:0:
448,192,217758,1,0,0:0:0:0:
192,192,217818,1,0,0:0:0:0:
64,192,217878,1,0,0:0:0:0:
320,192,217878,1,0,0:0:0:0:
448,192,217938,1,0,0:0:0:0:
64,192,217998,1,0,0:0:0:0:
192,192,217998,1,0,0:0:0:0:
320,192,218058,1,0,0:0:0:0:
64,192,218118,1,0,0:0:0:0:
448,192,218118,1,0,0:0:0:0:
192,192,218178,1,0,0:0:0:0:
320,192,218238,1,0,0:0:0:0:
448,192,218238,1,0,0:0:0:0:
64,192,218298,1,0,0:0:0:0:
192,192,218358,1,0,0:0:0:0:
320,192,218358,1,0,0:0:0:0:
448,192,218418,1,0,0:0:0:0:
64,192,218478,1,0,0:0:0:0:
320,192,218478,1,0,0:0:0:0:
192,192,218538,1,0,0:0:0:0:
64,192,218598,1,0,0:0:0:0:
448,192,218598,1,0,0:0:0:0:
320,192,218658,1,0,0:0:0:0:
64,192,218718,1,0,0:0:0:0:
192,192,218718,1,0,0:0:0:0:
448,192,218778,1,0,0:0:0:0:
64,192,218838,1,0,0:0:0:0:
320,192,218838,1,0,0:0:0:0:
192,192,218898,1,0,0:0:0:0:
320,192,218958,1,0,0:0:0:0:
448,192,218958,1,0,0:0:0:0:
64,192,219018,1,0,0:0:0:0:
192,192,219078,1,0,0:0:0:0:
448,192,219078,1,0,0:0:0:0:
320,192,219138,1,0,0:0:0:0:
64,192,219198,1,0,0:0:0:0:
448,192,219198,1,0,0:0:0:0:
192,192,219258,1,0,0:0:0:0:
64,192,219318,1,0,0:0:0:0:
320,192,219318,1,0,0:0:0:0:
448,192,219378,1,0,0:0:0:0:
64,192,219438,1,0,0:0:0:0:
192,192,219438,1,0,0:0:0:0:
320,192,219498,1,0,0:0:0:0:
64,192,219558,1,0,0:0:0:0:
448,192,219558,1,0,0:0:0:0:
192,192,219618,1,0,0:0:0:0:
320,192,219678,1,0,0:0:0:0:
448,192,219678,1,0,0:0:0:0:
64,192,219738,1,0,0:0:0:0:
192,192,219798,1,0,0:0:0:0:
448,192,219798,1,0,0:0:0:0:
320,192,219858,1,0,0:0:0:0:
64,192,219918,1,0,0:0:0:0:
448,192,219918,1,0,0:0:0:0:
192,192,219958,1,0,0:0:0:0:
320,192,219998,1,0,0:0:0:0:
64,192,220038,1,0,0:0:0:0:
448,192,220038,1,0,0:0:0:0:
192,192,220098,1,0,0:0:0:0:
320,192,220158,1,0,0:0:0:0:
448,192,220158,1,0,0:0:0:0:
192,192,220218,1,0,0:0:0:0:
64,192,220278,1,0,0:0:0:0:
448,192,220278,1,0,0:0:0:0:
320,192,220318,1,0,0:0:0:0:
192,192,220358,1,0,0:0:0:0:
64,192,220398,1,0,0:0:0:0:
448,192,220398,1,0,0:0:0:0:
320,192,220458,1,0,0:0:0:0:
192,192,220518,1,0,0:0:0:0:
448,192,220518,1,0,0:0:0:0:
64,192,220578,1,0,0:0:0:0:
320,192,220638,1,0,0:0:0:0:
448,192,220638,1,0,0:0:0:0:
192,192,220678,1,0,0:0:0:0:
64,192,220718,1,0,0:0:0:0:
448,192,220758,1,0,0:0:0:0:
320,192,220798,1,0,0:0:0:0:
192,192,220838,1,0,0:0:0:0:
64,192,220878,1,0,0:0:0:0:
448,192,220878,1,0,0:0:0:0:
320,192,220938,1,0,0:0:0:0:
64,192,220998,1,0,0:0:0:0:
192,192,220998,1,0,0:0:0:0:
448,192,221058,1,0,0:0:0:0:
192,192,221118,1,0,0:0:0:0:
320,192,221118,1,0,0:0:0:0:
64,192,221178,1,0,0:0:0:0:
192,192,221238,1,0,0:0:0:0:
448,192,221238,1,0,0:0:0:0:
320,192,221298,1,0,0:0:0:0:
64,192,221358,1,0,0:0:0:0:
192,192,221358,1,0,0:0:0:0:
448,192,221418,1,0,0:0:0:0:
64,192,221478,1,0,0:0:0:0:
320,192,221478,1,0,0:0:0:0:
192,192,221538,1,0,0:0:0:0:
64,192,221598,1,0,0:0:0:0:
448,192,221598,1,0,0:0:0:0:
320,192,221658,1,0,0:0:0:0:
192,192,221718,1,0,0:0:0:0:
448,192,221718,1,0,0:0:0:0:
64,192,221778,1,0,0:0:0:0:
320,192,221838,1,0,0:0:0:0:
448,192,221838,1,0,0:0:0:0:
192,192,221898,1,0,0:0:0:0:
64,192,221958,1,0,0:0:0:0:
320,192,221958,1,0,0:0:0:0:
448,192,222018,1,0,0:0:0:0:
64,192,222078,1,0,0:0:0:0:
192,192,222078,1,0,0:0:0:0:
320,192,222138,1,0,0:0:0:0:
64,192,222198,1,0,0:0:0:0:
448,192,222198,1,0,0:0:0:0:
192,192,222258,1,0,0:0:0:0:
320,192,222318,1,0,0:0:0:0:
448,192,222318,1,0,0:0:0:0:
64,192,222378,1,0,0:0:0:0:
192,192,222438,1,0,0:0:0:0:
448,192,222438,1,0,0:0:0:0:
320,192,222498,1,0,0:0:0:0:
64,192,222558,1,0,0:0:0:0:
192,192,222558,1,0,0:0:0:0:
448,192,222618,1,0,0:0:0:0:
64,192,222678,1,0,0:0:0:0:
320,192,222678,1,0,0:0:0:0:
192,192,222738,1,0,0:0:0:0:
64,192,222798,1,0,0:0:0:0:
448,192,222798,1,0,0:0:0:0:
320,192,222858,1,0,0:0:0:0:
64,192,222918,1,0,0:0:0:0:
192,192,222918,1,0,0:0:0:0:
448,192,222978,1,0,0:0:0:0:
192,192,223038,1,0,0:0:0:0:
320,192,223038,1,0,0:0:0:0:
64,192,223098,1,0,0:0:0:0:
192,192,223158,1,0,0:0:0:0:
448,192,223158,1,0,0:0:0:0:
320,192,223218,1,0,0:0:0:0:
64,192,223278,1,0,0:0:0:0:
192,192,223278,1,0,0:0:0:0:
448,192,223338,1,0,0:0:0:0:
192,192,223398,1,0,0:0:0:0:
320,192,223398,1,0,0:0:0:0:
64,192,223458,1,0,0:0:0:0:
192,192,223518,1,0,0:0:0:0:
448,192,223518,1,0,0:0:0:0:
320,192,223578,1,0,0:0:0:0:
64,192,223638,1,0,0:0:0:0:
448,192,223638,1,0,0:0:0:0:
192,192,223698,1,0,0:0:0:0:
64,192,223758,1,0,0:0:0:0:
320,192,223758,1,0,0:0:0:0:
448,192,223818,1,0,0:0:0:0:
192,192,223878,1,0,0:0:0:0:
320,192,223878,1,0,0:0:0:0:
64,192,223938,1,0,0:0:0:0:
192,192,223998,1,0,0:0:0:0:
448,192,223998,1,0,0:0:0:0:
320,192,224058,1,0,0:0:0:0:
64,192,224118,1,0,0:0:0:0:
192,192,224118,1,0,0:0:0:0:
448,192,224178,1,0,0:0:0:0:
64,192,224238,1,0,0:0:0:0:
192,192,224238,1,0,0:0:0:0:
320,192,224238,1,0,0:0:0:0:
448,192,224298,1,0,0:0:0:0:
64,192,224358,1,0,0:0:0:0:
320,192,224358,1,0,0:0:0:0:
448,192,224398,1,0,0:0:0:0:
192,192,224438,1,0,0:0:0:0:
64,192,224478,1,0,0:0:0:0:
320,192,224478,1,0,0:0:0:0:
448,192,224538,1,0,0:0:0:0:
64,192,224598,1,0,0:0:0:0:
192,192,224598,1,0,0:0:0:0:
320,192,224598,1,0,0:0:0:0:
448,192,224658,1,0,0:0:0:0:
64,192,224718,1,0,0:0:0:0:
192,192,224718,1,0,0:0:0:0:
320,192,224718,1,0,0:0:0:0:
448,192,224778,1,0,0:0:0:0:
64,192,224838,1,0,0:0:0:0:
320,192,224838,1,0,0:0:0:0:
192,192,224898,1,0,0:0:0:0:
64,192,224958,1,0,0:0:0:0:
448,192,224958,1,0,0:0:0:0:
320,192,225018,1,0,0:0:0:0:
64,192,225078,1,0,0:0:0:0:
192,192,225078,1,0,0:0:0:0:
448,192,225138,1,0,0:0:0:0:
192,192,225198,1,0,0:0:0:0:
320,192,225198,1,0,0:0:0:0:
64,192,225258,1,0,0:0:0:0:
192,192,225318,1,0,0:0:0:0:
448,192,225318,1,0,0:0:0:0:
320,192,225378,1,0,0:0:0:0:
64,192,225438,1,0,0:0:0:0:
192,192,225438,1,0,0:0:0:0:
448,192,225498,1,0,0:0:0:0:
64,192,225558,1,0,0:0:0:0:
320,192,225558,1,0,0:0:0:0:
192,192,225618,1,0,0:0:0:0:
64,192,225678,1,0,0:0:0:0:
448,192,225678,1,0,0:0:0:0:
320,192,225738,1,0,0:0:0:0:
64,192,225798,1,0,0:0:0:0:
192,192,225798,1,0,0:0:0:0:
448,192,225858,1,0,0:0:0:0:
192,192,225918,1,0,0:0:0:0:
320,192,225918,1,0,0:0:0:0:
64,192,225978,1,0,0:0:0:0:
192,192,226038,1,0,0:0:0:0:
448,192,226038,1,0,0:0:0:0:
320,192,226098,1,0,0:0:0:0:
64,192,226158,1,0,0:0:0:0:
192,192,226158,1,0,0:0:0:0:
448,192,226218,1,0,0:0:0:0:
192,192,226278,1,0,0:0:0:0:
320,192,226278,1,0,0:0:0:0:
64,192,226338,1,0,0:0:0:0:
192,192,226398,1,0,0:0:0:0:
448,192,226398,1,0,0:0:0:0:
320,192,226458,1,0,0:0:0:0:
64,192,226518,1,0,0:0:0:0:
448,192,226518,1,0,0:0:0:0:
192,192,226578,1,0,0:0:0:0:
320,192,226638,1,0,0:0:0:0:
448,192,226638,1,0,0:0:0:0:
64,192,226698,1,0,0:0:0:0:
192,192,226758,1,0,0:0:0:0:
320,192,226758,1,0,0:0:0:0:
448,192,226818,1,0,0:0:0:0:
64,192,226878,1,0,0:0:0:0:
320,192,226878,1,0,0:0:0:0:
192,192,226938,1,0,0:0:0:0:
64,192,226998,1,0,0:0:0:0:
448,192,226998,1,0,0:0:0:0:
320,192,227058,1,0,0:0:0:0:
64,192,227118,1,0,0:0:0:0:
192,192,227118,1,0,0:0:0:0:
448,192,227178,1,0,0:0:0:0:
192,192,227238,1,0,0:0:0:0:
320,192,227238,1,0,0:0:0:0:
448,192,227298,1,0,0:0:0:0:
64,192,227358,1,0,0:0:0:0:
192,192,227358,1,0,0:0:0:0:
320,192,227418,1,0,0:0:0:0:
64,192,227478,1,0,0:0:0:0:
448,192,227478,1,0,0:0:0:0:
192,192,227538,1,0,0:0:0:0:
64,192,227598,1,0,0:0:0:0:
320,192,227598,1,0,0:0:0:0:
448,192,227598,1,0,0:0:0:0:
192,192,227658,1,0,0:0:0:0:
64,192,227718,1,0,0:0:0:0:
320,192,227718,1,0,0:0:0:0:
448,192,227718,1,0,0:0:0:0:
192,192,227778,1,0,0:0:0:0:
64,192,227838,1,0,0:0:0:0:
448,192,227838,1,0,0:0:0:0:
320,192,227878,1,0,0:0:0:0:
192,192,227918,1,0,0:0:0:0:
64,192,227958,1,0,0:0:0:0:
448,192,227958,1,0,0:0:0:0:
320,192,228018,1,0,0:0:0:0:
64,192,228078,1,0,0:0:0:0:
192,192,228078,1,0,0:0:0:0:
448,192,228078,1,0,0:0:0:0:
320,192,228138,1,0,0:0:0:0:
64,192,228198,1,0,0:0:0:0:
192,192,228198,1,0,0:0:0:0:
448,192,228198,1,0,0:0:0:0:
320,192,228258,1,0,0:0:0:0:
64,192,228318,1,0,0:0:0:0:
448,192,228318,1,0,0:0:0:0:
320,192,228358,1,0,0:0:0:0:
192,192,228398,1,0,0:0:0:0:
64,192,228438,1,0,0:0:0:0:
448,192,228478,1,0,0:0:0:0:
320,192,228518,1,0,0:0:0:0:
64,192,228558,1,0,0:0:0:0:
192,192,228558,1,0,0:0:0:0:
448,192,228618,1,0,0:0:0:0:
64,192,228678,1,0,0:0:0:0:
320,192,228678,1,0,0:0:0:0:
192,192,228738,1,0,0:0:0:0:
320,192,228798,1,0,0:0:0:0:
448,192,228798,1,0,0:0:0:0:
64,192,228858,1,0,0:0:0:0:
192,192,228918,1,0,0:0:0:0:
320,192,228918,1,0,0:0:0:0:
448,192,228978,1,0,0:0:0:0:
64,192,229038,1,0,0:0:0:0:
320,192,229038,1,0,0:0:0:0:
192,192,229098,1,0,0:0:0:0:
64,192,229158,1,0,0:0:0:0:
448,192,229158,1,0,0:0:0:0:
320,192,229218,1,0,0:0:0:0:
64,192,229278,1,0,0:0:0:0:
192,192,229278,1,0,0:0:0:0:
448,192,229338,1,0,0:0:0:0:
192,192,229398,1,0,0:0:0:0:
320,192,229398,1,0,0:0:0:0:
64,192,229458,1,0,0:0:0:0:
192,192,229518,1,0,0:0:0:0:
448,192,229518,1,0,0:0:0:0:
320,192,229578,1,0,0:0:0:0:
64,192,229638,1,0,0:0:0:0:
192,192,229638,1,0,0:0:0:0:
448,192,229698,1,0,0:0:0:0:
64,192,229758,1,0,0:0:0:0:
320,192,229758,1,0,0:0:0:0:
192,192,229818,1,0,0:0:0:0:
64,192,229878,1,0,0:0:0:0:
448,192,229878,1,0,0:0:0:0:
320,192,229938,1,0,0:0:0:0:
64,192,229998,1,0,0:0:0:0:
192,192,229998,1,0,0:0:0:0:
448,192,230058,1,0,0:0:0:0:
192,192,230118,1,0,0:0:0:0:
320,192,230118,1,0,0:0:0:0:
64,192,230178,1,0,0:0:0:0:
192,192,230238,1,0,0:0:0:0:
448,192,230238,1,0,0:0:0:0:
320,192,230298,1,0,0:0:0:0:
64,192,230358,1,0,0:0:0:0:
192,192,230358,1,0,0:0:0:0:
448,192,230418,1,0,0:0:0:0:
64,192,230478,1,0,0:0:0:0:
320,192,230478,1,0,0:0:0:0:
192,192,230538,1,0,0:0:0:0:
64,192,230598,1,0,0:0:0:0:
448,192,230598,1,0,0:0:0:0:
320,192,230658,1,0,0:0:0:0:
192,192,230718,1,0,0:0:0:0:
448,192,230718,1,0,0:0:0:0:
64,192,230778,1,0,0:0:0:0:
192,192,230838,1,0,0:0:0:0:
448,192,230838,1,0,0:0:0:0:
320,192,230898,1,0,0:0:0:0:
64,192,230958,1,0,0:0:0:0:
192,192,230958,1,0,0:0:0:0:
448,192,231018,1,0,0:0:0:0:
64,192,231078,1,0,0:0:0:0:
320,192,231078,1,0,0:0:0:0:
192,192,231138,1,0,0:0:0:0:
64,192,231198,1,0,0:0:0:0:
448,192,231198,1,0,0:0:0:0:
320,192,231258,1,0,0:0:0:0:
64,192,231318,1,0,0:0:0:0:
192,192,231318,1,0,0:0:0:0:
448,192,231378,1,0,0:0:0:0:
64,192,231438,1,0,0:0:0:0:
320,192,231438,1,0,0:0:0:0:
192,192,231498,1,0,0:0:0:0:
320,192,231558,1,0,0:0:0:0:
448,192,231558,1,0,0:0:0:0:
64,192,231618,1,0,0:0:0:0:
192,192,231678,1,0,0:0:0:0:
320,192,231678,1,0,0:0:0:0:
448,192,231738,1,0,0:0:0:0:
64,192,231798,1,0,0:0:0:0:
320,192,231798,1,0,0:0:0:0:
192,192,231858,1,0,0:0:0:0:
64,192,231918,1,0,0:0:0:0:
320,192,231918,1,0,0:0:0:0:
448,192,231918,1,0,0:0:0:0:
192,192,231978,1,0,0:0:0:0:
64,192,232038,1,0,0:0:0:0:
448,192,232038,1,0,0:0:0:0:
320,192,232078,1,0,0:0:0:0:
192,192,232118,1,0,0:0:0:0:
64,192,232158,1,0,0:0:0:0:
448,192,232158,1,0,0:0:0:0:
320,192,232218,1,0,0:0:0:0:
64,192,232278,1,0,0:0:0:0:
192,192,232278,1,0,0:0:0:0:
448,192,232278,1,0,0:0:0:0:
320,192,232338,1,0,0:0:0:0:
64,192,232398,1,0,0:0:0:0:
192,192,232398,1,0,0:0:0:0:
448,192,232398,1,0,0:0:0:0:
320,192,232458,1,0,0:0:0:0:
64,192,232518,1,0,0:0:0:0:
192,192,232518,1,0,0:0:0:0:
448,192,232578,1,0,0:0:0:0:
64,192,232638,1,0,0:0:0:0:
320,192,232638,1,0,0:0:0:0:
192,192,232698,1,0,0:0:0:0:
64,192,232758,1,0,0:0:0:0:
448,192,232758,1,0,0:0:0:0:
320,192,232818,1,0,0:0:0:0:
64,192,232878,1,0,0:0:0:0:
192,192,232878,1,0,0:0:0:0:
448,192,232938,1,0,0:0:0:0:
64,192,232998,1,0,0:0:0:0:
320,192,232998,1,0,0:0:0:0:
192,192,233058,1,0,0:0:0:0:
64,192,233118,1,0,0:0:0:0:
448,192,233118,1,0,0:0:0:0:
320,192,233178,1,0,0:0:0:0:
64,192,233238,1,0,0:0:0:0:
192,192,233238,1,0,0:0:0:0:
448,192,233298,1,0,0:0:0:0:
64,192,233358,1,0,0:0:0:0:
320,192,233358,1,0,0:0:0:0:
192,192,233418,1,0,0:0:0:0:
320,192,233478,1,0,0:0:0:0:
448,192,233478,1,0,0:0:0:0:
64,192,233538,1,0,0:0:0:0:
192,192,233598,1,0,0:0:0:0:
448,192,233598,1,0,0:0:0:0:
320,192,233658,1,0,0:0:0:0:
64,192,233718,1,0,0:0:0:0:
192,192,233718,1,0,0:0:0:0:
448,192,233778,1,0,0:0:0:0:
64,192,233838,1,0,0:0:0:0:
320,192,233838,1,0,0:0:0:0:
192,192,233898,1,0,0:0:0:0:
320,192,233958,1,0,0:0:0:0:
448,192,233958,1,0,0:0:0:0:
64,192,234018,1,0,0:0:0:0:
192,192,234078,1,0,0:0:0:0:
320,192,234078,1,0,0:0:0:0:
448,192,234138,1,0,0:0:0:0:
64,192,234198,1,0,0:0:0:0:
320,192,234198,1,0,0:0:0:0:
192,192,234258,1,0,0:0:0:0:
64,192,234318,1,0,0:0:0:0:
448,192,234318,1,0,0:0:0:0:
320,192,234378,1,0,0:0:0:0:
64,192,234438,1,0,0:0:0:0:
192,192,234438,1,0,0:0:0:0:
448,192,234498,1,0,0:0:0:0:
64,192,234558,1,0,0:0:0:0:
320,192,234558,1,0,0:0:0:0:
192,192,234618,1,0,0:0:0:0:
64,192,234678,1,0,0:0:0:0:
448,192,234678,1,0,0:0:0:0:
320,192,234738,1,0,0:0:0:0:
192,192,234798,1,0,0:0:0:0:
448,192,234798,1,0,0:0:0:0:
64,192,234858,1,0,0:0:0:0:
192,192,234918,1,0,0:0:0:0:
448,192,234918,1,0,0:0:0:0:
320,192,234978,1,0,0:0:0:0:
64,192,235038,1,0,0:0:0:0:
192,192,235038,1,0,0:0:0:0:
448,192,235098,1,0,0:0:0:0:
64,192,235158,1,0,0:0:0:0:
320,192,235158,1,0,0:0:0:0:
192,192,235218,1,0,0:0:0:0:
64,192,235278,1,0,0:0:0:0:
448,192,235278,1,0,0:0:0:0:
320,192,235318,1,0,0:0:0:0:
192,192,235358,1,0,0:0:0:0:
64,192,235398,1,0,0:0:0:0:
448,192,235398,1,0,0:0:0:0:
320,192,235458,1,0,0:0:0:0:
64,192,235518,1,0,0:0:0:0:
192,192,235518,1,0,0:0:0:0:
448,192,235518,1,0,0:0:0:0:
320,192,235578,1,0,0:0:0:0:
64,192,235638,1,0,0:0:0:0:
448,192,235638,1,0,0:0:0:0:
192,192,235678,1,0,0:0:0:0:
320,192,235718,1,0,0:0:0:0:
64,192,235758,1,0,0:0:0:0:
448,192,235758,1,0,0:0:0:0:
192,192,235818,1,0,0:0:0:0:
64,192,235878,1,0,0:0:0:0:
320,192,235878,1,0,0:0:0:0:
448,192,235878,1,0,0:0:0:0:
192,192,235938,1,0,0:0:0:0:
64,192,235998,1,0,0:0:0:0:
448,192,235998,1,0,0:0:0:0:
320,192,236038,1,0,0:0:0:0:
192,192,236078,1,0,0:0:0:0:
64,192,236118,1,0,0:0:0:0:
448,192,236158,1,0,0:0:0:0:
320,192,236198,1,0,0:0:0:0:
64,192,236238,1,0,0:0:0:0:
192,192,236238,1,0,0:0:0:0:
448,192,236298,1,0,0:0:0:0:
64,192,236358,1,0,0:0:0:0:
320,192,236358,1,0,0:0:0:0:
192,192,236418,1,0,0:0:0:0:
64,192,236478,1,0,0:0:0:0:
448,192,236478,1,0,0:0:0:0:
320,192,236538,1,0,0:0:0:0:
64,192,236598,1,0,0:0:0:0:
192,192,236598,1,0,0:0:0:0:
448,192,236658,1,0,0:0:0:0:
64,192,236718,1,0,0:0:0:0:
320,192,236718,1,0,0:0:0:0:
192,192,236778,1,0,0:0:0:0:
64,192,236838,1,0,0:0:0:0:
448,192,236838,1,0,0:0:0:0:
320,192,236898,1,0,0:0:0:0:
192,192,236958,1,0,0:0:0:0:
448,192,236958,1,0,0:0:0:0:
64,192,237018,1,0,0:0:0:0:
320,192,237078,1,0,0:0:0:0:
448,192,237078,1,0,0:0:0:0:
192,192,237138,1,0,0:0:0:0:
64,192,237198,1,0,0:0:0:0:
320,192,237198,1,0,0:0:0:0:
448,192,237258,1,0,0:0:0:0:
64,192,237318,1,0,0:0:0:0:
320,192,237318,1,0,0:0:0:0:
192,192,237378,1,0,0:0:0:0:
320,192,237438,1,0,0:0:0:0:
448,192,237438,1,0,0:0:0:0:
64,192,237498,1,0,0:0:0:0:
192,192,237558,1,0,0:0:0:0:
448,192,237558,1,0,0:0:0:0:
320,192,237618,1,0,0:0:0:0:
64,192,237678,1,0,0:0:0:0:
192,192,237678,1,0,0:0:0:0:
448,192,237738,1,0,0:0:0:0:
64,192,237798,1,0,0:0:0:0:
320,192,237798,1,0,0:0:0:0:
192,192,237858,1,0,0:0:0:0:
64,192,237918,1,0,0:0:0:0:
448,192,237918,1,0,0:0:0:0:
320,192,237978,1,0,0:0:0:0:
192,192,238038,1,0,0:0:0:0:
448,192,238038,1,0,0:0:0:0:
64,192,238098,1,0,0:0:0:0:
320,192,238158,1,0,0:0:0:0:
448,192,238158,1,0,0:0:0:0:
192,192,238218,1,0,0:0:0:0:
64,192,238278,1,0,0:0:0:0:
448,192,238278,1,0,0:0:0:0:
320,192,238338,1,0,0:0:0:0:
64,192,238398,1,0,0:0:0:0:
192,192,238398,1,0,0:0:0:0:
448,192,238458,1,0,0:0:0:0:
64,192,238518,1,0,0:0:0:0:
320,192,238518,1,0,0:0:0:0:
192,192,238578,1,0,0:0:0:0:
64,192,238638,1,0,0:0:0:0:
448,192,238638,1,0,0:0:0:0:
320,192,238698,1,0,0:0:0:0:
192,192,238758,1,0,0:0:0:0:
448,192,238758,1,0,0:0:0:0:
64,192,238818,1,0,0:0:0:0:
192,192,238878,1,0,0:0:0:0:
320,192,238878,1,0,0:0:0:0:
448,192,238938,1,0,0:0:0:0:
64,192,238998,1,0,0:0:0:0:
320,192,238998,1,0,0:0:0:0:
192,192,239058,1,0,0:0:0:0:
64,192,239118,1,0,0:0:0:0:
448,192,239118,1,0,0:0:0:0:
320,192,239178,1,0,0:0:0:0:
64,192,239238,1,0,0:0:0:0:
192,192,239238,1,0,0:0:0:0:
448,192,239298,1,0,0:0:0:0:
64,192,239358,1,0,0:0:0:0:
320,192,239358,1,0,0:0:0:0:
192,192,239418,1,0,0:0:0:0:
320,192,239478,1,0,0:0:0:0:
448,192,239478,1,0,0:0:0:0:
64,192,239538,1,0,0:0:0:0:
192,192,239598,1,0,0:0:0:0:
320,192,239598,1,0,0:0:0:0:
448,192,239598,1,0,0:0:0:0:
64,192,239658,1,0,0:0:0:0:
320,192,239718,1,0,0:0:0:0:
448,192,239718,1,0,0:0:0:0:
192,192,239758,1,0,0:0:0:0:
64,192,239798,1,0,0:0:0:0:
320,192,239838,1,0,0:0:0:0:
448,192,239838,1,0,0:0:0:0:
192,192,239898,1,0,0:0:0:0:
64,192,239958,1,0,0:0:0:0:
320,192,239958,1,0,0:0:0:0:
448,192,239958,1,0,0:0:0:0:
192,192,240018,1,0,0:0:0:0:
64,192,240078,1,0,0:0:0:0:
320,192,240078,1,0,0:0:0:0:
448,192,240078,1,0,0:0:0:0:
192,192,240138,1,0,0:0:0:0:
320,192,240198,1,0,0:0:0:0:
448,192,240198,1,0,0:0:0:0:
64,192,240258,1,0,0:0:0:0:
192,192,240318,1,0,0:0:0:0:
320,192,240318,1,0,0:0:0:0:
448,192,240378,1,0,0:0:0:0:
64,192,240438,1,0,0:0:0:0:
320,192,240438,1,0,0:0:0:0:
192,192,240498,1,0,0:0:0:0:
320,192,240558,1,0,0:0:0:0:
448,192,240558,1,0,0:0:0:0:
64,192,240618,1,0,0:0:0:0:
192,192,240678,1,0,0:0:0:0:
320,192,240678,1,0,0:0:0:0:
448,192,240738,1,0,0:0:0:0:
64,192,240798,1,0,0:0:0:0:
320,192,240798,1,0,0:0:0:0:
192,192,240858,1,0,0:0:0:0:
64,192,240918,1,0,0:0:0:0:
448,192,240918,1,0,0:0:0:0:
320,192,240978,1,0,0:0:0:0:
64,192,241038,1,0,0:0:0:0:
192,192,241038,1,0,0:0:0:0:
448,192,241098,1,0,0:0:0:0:
64,192,241158,1,0,0:0:0:0:
320,192,241158,1,0,0:0:0:0:
192,192,241218,1,0,0:0:0:0:
320,192,241278,1,0,0:0:0:0:
448,192,241278,1,0,0:0:0:0:
64,192,241338,1,0,0:0:0:0:
192,192,241398,1,0,0:0:0:0:
448,192,241398,1,0,0:0:0:0:
320,192,241458,1,0,0:0:0:0:
64,192,241518,1,0,0:0:0:0:
448,192,241518,1,0,0:0:0:0:
192,192,241578,1,0,0:0:0:0:
320,192,241638,1,0,0:0:0:0:
448,192,241638,1,0,0:0:0:0:
64,192,241698,1,0,0:0:0:0:
192,192,241758,1,0,0:0:0:0:
448,192,241758,1,0,0:0:0:0:
320,192,241818,1,0,0:0:0:0:
64,192,241878,1,0,0:0:0:0:
192,192,241878,1,0,0:0:0:0:
448,192,241938,1,0,0:0:0:0:
64,192,241998,1,0,0:0:0:0:
320,192,241998,1,0,0:0:0:0:
192,192,242058,1,0,0:0:0:0:
64,192,242118,1,0,0:0:0:0:
448,192,242118,1,0,0:0:0:0:
320,192,242178,1,0,0:0:0:0:
64,192,242238,1,0,0:0:0:0:
192,192,242238,1,0,0:0:0:0:
448,192,242298,1,0,0:0:0:0:
64,192,242358,1,0,0:0:0:0:
320,192,242358,1,0,0:0:0:0:
192,192,242418,1,0,0:0:0:0:
320,192,242478,1,0,0:0:0:0:
448,192,242478,1,0,0:0:0:0:
64,192,242538,1,0,0:0:0:0:
192,192,242598,1,0,0:0:0:0:
320,192,242598,1,0,0:0:0:0:
448,192,242658,1,0,0:0:0:0:
64,192,242718,1,0,0:0:0:0:
320,192,242718,1,0,0:0:0:0:
192,192,242778,1,0,0:0:0:0:
64,192,242838,1,0,0:0:0:0:
448,192,242838,1,0,0:0:0:0:
320,192,242898,1,0,0:0:0:0:
64,192,242958,1,0,0:0:0:0:
192,192,242958,1,0,0:0:0:0:
448,192,242958,1,0,0:0:0:0:
320,192,243018,1,0,0:0:0:0:
64,192,243078,1,0,0:0:0:0:
192,192,243078,1,0,0:0:0:0:
448,192,243078,1,0,0:0:0:0:
320,192,243138,1,0,0:0:0:0:
64,192,243198,1,0,0:0:0:0:
448,192,243198,1,0,0:0:0:0:
192,192,243238,1,0,0:0:0:0:
320,192,243278,1,0,0:0:0:0:
64,192,243318,1,0,0:0:0:0:
448,192,243318,1,0,0:0:0:0:
192,192,243378,1,0,0:0:0:0:
64,192,243438,1,0,0:0:0:0:
320,192,243438,1,0,0:0:0:0:
448,192,243438,1,0,0:0:0:0:
192,192,243498,1,0,0:0:0:0:
64,192,243558,1,0,0:0:0:0:
320,192,243558,1,0,0:0:0:0:
448,192,243558,1,0,0:0:0:0:
192,192,243618,1,0,0:0:0:0:
64,192,243678,1,0,0:0:0:0:
448,192,243678,1,0,0:0:0:0:
320,192,243718,1,0,0:0:0:0:
192,192,243758,1,0,0:0:0:0:
64,192,243798,1,0,0:0:0:0:
448,192,243838,1,0,0:0:0:0:
320,192,243878,1,0,0:0:0:0:
64,192,243918,1,0,0:0:0:0:
192,192,243918,1,0,0:0:0:0:
448,192,243978,1,0,0:0:0:0:
64,192,244038,1,0,0:0:0:0:
320,192,244038,1,0,0:0:0:0:
192,192,244098,1,0,0:0:0:0:
320,192,244158,1,0,0:0:0:0:
448,192,244158,1,0,0:0:0:0:
64,192,244218,1,0,0:0:0:0:
192,192,244278,1,0,0:0:0:0:
448,192,244278,1,0,0:0:0:0:
320,192,244338,1,0,0:0:0:0:
64,192,244398,1,0,0:0:0:0:
192,192,244398,1,0,0:0:0:0:
448,192,244458,1,0,0:0:0:0:
64,192,244518,1,0,0:0:0:0:
320,192,244518,1,0,0:0:0:0:
192,192,244578,1,0,0:0:0:0:
320,192,244638,1,0,0:0:0:0:
448,192,244638,1,0,0:0:0:0:
64,192,244698,1,0,0:0:0:0:
192,192,244758,1,0,0:0:0:0:
320,192,244758,1,0,0:0:0:0:
448,192,244818,1,0,0:0:0:0:
64,192,244878,1,0,0:0:0:0:
320,192,244878,1,0,0:0:0:0:
192,192,244938,1,0,0:0:0:0:
64,192,244998,1,0,0:0:0:0:
448,192,244998,1,0,0:0:0:0:
320,192,245058,1,0,0:0:0:0:
192,192,245118,1,0,0:0:0:0:
448,192,245118,1,0,0:0:0:0:
64,192,245178,1,0,0:0:0:0:
320,192,245238,1,0,0:0:0:0:
448,192,245238,1,0,0:0:0:0:
192,192,245298,1,0,0:0:0:0:
64,192,245358,1,0,0:0:0:0:
320,192,245358,1,0,0:0:0:0:
448,192,245418,1,0,0:0:0:0:
64,192,245478,1,0,0:0:0:0:
192,192,245478,1,0,0:0:0:0:
320,192,245538,1,0,0:0:0:0:
64,192,245598,1,0,0:0:0:0:
448,192,245598,1,0,0:0:0:0:
192,192,245658,1,0,0:0:0:0:
320,192,245718,1,0,0:0:0:0:
448,192,245718,1,0,0:0:0:0:
64,192,245778,1,0,0:0:0:0:
192,192,245838,1,0,0:0:0:0:
448,192,245838,1,0,0:0:0:0:
320,192,245898,1,0,0:0:0:0:
64,192,245958,1,0,0:0:0:0:
192,192,245958,1,0,0:0:0:0:
448,192,246018,1,0,0:0:0:0:
64,192,246078,1,0,0:0:0:0:
320,192,246078,1,0,0:0:0:0:
192,192,246138,1,0,0:0:0:0:
64,192,246198,1,0,0:0:0:0:
448,192,246198,1,0,0:0:0:0:
320,192,246258,1,0,0:0:0:0:
64,192,246318,1,0,0:0:0:0:
192,192,246318,1,0,0:0:0:0:
448,192,246378,1,0,0:0:0:0:
64,192,246438,1,0,0:0:0:0:
320,192,246438,1,0,0:0:0:0:
192,192,246498,1,0,0:0:0:0:
320,192,246558,1,0,0:0:0:0:
448,192,246558,1,0,0:0:0:0:
64,192,246618,1,0,0:0:0:0:
192,192,246678,1,0,0:0:0:0:
320,192,246678,1,0,0:0:0:0:
448,192,246738,1,0,0:0:0:0:
64,192,246798,1,0,0:0:0:0:
320,192,246798,1,0,0:0:0:0:
192,192,246858,1,0,0:0:0:0:
64,192,246918,1,0,0:0:0:0:
448,192,246918,1,0,0:0:0:0:
320,192,246978,1,0,0:0:0:0:
192,192,247038,1,0,0:0:0:0:
448,192,247038,1,0,0:0:0:0:
64,192,247098,1,0,0:0:0:0:
320,192,247158,1,0,0:0:0:0:
448,192,247158,1,0,0:0:0:0:
192,192,247218,1,0,0:0:0:0:
64,192,247278,1,0,0:0:0:0:
320,192,247278,1,0,0:0:0:0:
448,192,247278,1,0,0:0:0:0:
192,192,247338,1,0,0:0:0:0:
64,192,247398,1,0,0:0:0:0:
448,192,247398,1,0,0:0:0:0:
320,192,247438,1,0,0:0:0:0:
192,192,247478,1,0,0:0:0:0:
64,192,247518,1,0,0:0:0:0:
448,192,247518,1,0,0:0:0:0:
320,192,247578,1,0,0:0:0:0:
64,192,247638,1,0,0:0:0:0:
192,192,247638,1,0,0:0:0:0:
448,192,247638,1,0,0:0:0:0:
320,192,247698,1,0,0:0:0:0:
64,192,247758,1,0,0:0:0:0:
192,192,247758,1,0,0:0:0:0:
448,192,247758,1,0,0:0:0:0:
320,192,247818,1,0,0:0:0:0:
64,192,247878,1,0,0:0:0:0:
448,192,247878,1,0,0:0:0:0:
192,192,247938,1,0,0:0:0:0:
320,192,247998,1,0,0:0:0:0:
448,192,247998,1,0,0:0:0:0:
64,192,248058,1,0,0:0:0:0:
192,192,248118,1,0,0:0:0:0:
448,192,248118,1,0,0:0:0:0:
320,192,248178,1,0,0:0:0:0:
64,192,248238,1,0,0:0:0:0:
192,192,248238,1,0,0:0:0:0:
448,192,248298,1,0,0:0:0:0:
64,192,248358,1,0,0:0:0:0:
320,192,248358,1,0,0:0:0:0:
192,192,248418,1,0,0:0:0:0:
320,192,248478,1,0,0:0:0:0:
448,192,248478,1,0,0:0:0:0:
64,192,248538,1,0,0:0:0:0:
192,192,248598,1,0,0:0:0:0:
320,192,248598,1,0,0:0:0:0:
448,192,248658,1,0,0:0:0:0:
64,192,248718,1,0,0:0:0:0:
320,192,248718,1,0,0:0:0:0:
192,192,248778,1,0,0:0:0:0:
320,192,248838,1,0,0:0:0:0:
448,192,248838,1,0,0:0:0:0:
64,192,248898,1,0,0:0:0:0:
192,192,248958,1,0,0:0:0:0:
320,192,248958,1,0,0:0:0:0:
448,192,249018,1,0,0:0:0:0:
64,192,249078,1,0,0:0:0:0:
320,192,249078,1,0,0:0:0:0:
192,192,249138,1,0,0:0:0:0:
64,192,249198,1,0,0:0:0:0:
448,192,249198,1,0,0:0:0:0:
320,192,249258,1,0,0:0:0:0:
64,192,249318,1,0,0:0:0:0:
192,192,249318,1,0,0:0:0:0:
448,192,249378,1,0,0:0:0:0:
64,192,249438,1,0,0:0:0:0:
320,192,249438,1,0,0:0:0:0:
192,192,249498,1,0,0:0:0:0:
320,192,249558,1,0,0:0:0:0:
448,192,249558,1,0,0:0:0:0:
64,192,249618,1,0,0:0:0:0:
192,192,249678,1,0,0:0:0:0:
448,192,249678,1,0,0:0:0:0:
320,192,249738,1,0,0:0:0:0:
64,192,249798,1,0,0:0:0:0:
192,192,249798,1,0,0:0:0:0:
448,192,249858,1,0,0:0:0:0:
64,192,249918,1,0,0:0:0:0:
320,192,249918,1,0,0:0:0:0:
192,192,249978,1,0,0:0:0:0:
320,192,250038,1,0,0:0:0:0:
448,192,250038,1,0,0:0:0:0:
64,192,250098,1,0,0:0:0:0:
192,192,250158,1,0,0:0:0:0:
448,192,250158,1,0,0:0:0:0:
320,192,250218,1,0,0:0:0:0:
64,192,250278,1,0,0:0:0:0:
192,192,250278,1,0,0:0:0:0:
448,192,250338,1,0,0:0:0:0:
64,192,250398,1,0,0:0:0:0:
320,192,250398,1,0,0:0:0:0:
192,192,250458,1,0,0:0:0:0:
64,192,250518,1,0,0:0:0:0:
448,192,250518,1,0,0:0:0:0:
320,192,250578,1,0,0:0:0:0:
64,192,250638,1,0,0:0:0:0:
448,192,250638,1,0,0:0:0:0:
192,192,250678,1,0,0:0:0:0:
320,192,250718,1,0,0:0:0:0:
64,192,250758,1,0,0:0:0:0:
448,192,250758,1,0,0:0:0:0:
192,192,250818,1,0,0:0:0:0:
64,192,250878,1,0,0:0:0:0:
320,192,250878,1,0,0:0:0:0:
448,192,250878,1,0,0:0:0:0:
192,192,250938,1,0,0:0:0:0:
64,192,250998,1,0,0:0:0:0:
320,192,250998,1,0,0:0:0:0:
448,192,250998,1,0,0:0:0:0:
192,192,251058,1,0,0:0:0:0:
64,192,251118,1,0,0:0:0:0:
448,192,251118,1,0,0:0:0:0:
320,192,251158,1,0,0:0:0:0:
192,192,251198,1,0,0:0:0:0:
64,192,251238,1,0,0:0:0:0:
448,192,251238,1,0,0:0:0:0:
320,192,251298,1,0,0:0:0:0:
64,192,251358,1,0,0:0:0:0:
448,192,251358,1,0,0:0:0:0:
192,192,251398,1,0,0:0:0:0:
320,192,251438,1,0,0:0:0:0:
448,192,251478,1,0,0:0:0:0:
64,192,251518,1,0,0:0:0:0:
192,192,251558,1,0,0:0:0:0:
320,192,251598,1,0,0:0:0:0:
448,0,251598,128,0,253518:1:0:0:0:
64,0,253518,128,0,254478:1:0:0:0:
448,0,254478,128,0,255438:1:0:0:0:
320,0,255438,128,0,257358:1:0:0:0:
64,0,257358,128,0,258318:1:0:0:0:
192,0,258318,128,0,259278:1:0:0:0:
320,0,259278,128,0,261198:1:0:0:0:
448,0,261198,128,0,262158:1:0:0:0:
64,0,262158,128,0,263118:1:0:0:0:
320,0,263118,128,0,265038:1:0:0:0:
448,0,265038,128,0,266958:1:0:0:0:
192,0,265998,128,0,266958:1:0:0:0:
64,192,266958,1,0,0:0:0:0:
320,192,266958,1,0,0:0:0:0:
448,192,267018,1,0,0:0:0:0:
64,192,267078,1,0,0:0:0:0:
320,192,267078,1,0,0:0:0:0:
192,192,267138,1,0,0:0:0:0:
64,192,267198,1,0,0:0:0:0:
448,192,267198,1,0,0:0:0:0:
320,192,267258,1,0,0:0:0:0:
64,192,267318,1,0,0:0:0:0:
192,192,267318,1,0,0:0:0:0:
448,192,267378,1,0,0:0:0:0:
64,192,267438,1,0,0:0:0:0:
320,192,267438,1,0,0:0:0:0:
192,192,267498,1,0,0:0:0:0:
320,192,267558,1,0,0:0:0:0:
448,192,267558,1,0,0:0:0:0:
64,192,267618,1,0,0:0:0:0:
192,192,267678,1,0,0:0:0:0:
320,192,267678,1,0,0:0:0:0:
448,192,267738,1,0,0:0:0:0:
64,192,267798,1,0,0:0:0:0:
320,192,267798,1,0,0:0:0:0:
192,192,267858,1,0,0:0:0:0:
64,192,267918,1,0,0:0:0:0:
448,192,267918,1,0,0:0:0:0:
320,192,267978,1,0,0:0:0:0:
64,192,268038,1,0,0:0:0:0:
192,192,268038,1,0,0:0:0:0:
448,192,268098,1,0,0:0:0:0:
64,192,268158,1,0,0:0:0:0:
320,192,268158,1,0,0:0:0:0:
192,192,268218,1,0,0:0:0:0:
320,192,268278,1,0,0:0:0:0:
448,192,268278,1,0,0:0:0:0:
64,192,268338,1,0,0:0:0:0:
192,192,268398,1,0,0:0:0:0:
448,192,268398,1,0,0:0:0:0:
320,192,268458,1,0,0:0:0:0:
64,192,268518,1,0,0:0:0:0:
192,192,268518,1,0,0:0:0:0:
448,192,268578,1,0,0:0:0:0:
64,192,268638,1,0,0:0:0:0:
320,192,268638,1,0,0:0:0:0:
192,192,268698,1,0,0:0:0:0:
64,192,268758,1,0,0:0:0:0:
448,192,268758,1,0,0:0:0:0:
320,192,268818,1,0,0:0:0:0:
64,192,268878,1,0,0:0:0:0:
192,192,268878,1,0,0:0:0:0:
448,192,268938,1,0,0:0:0:0:
64,192,268998,1,0,0:0:0:0:
320,192,268998,1,0,0:0:0:0:
192,192,269058,1,0,0:0:0:0:
64,192,269118,1,0,0:0:0:0:
448,192,269118,1,0,0:0:0:0:
320,192,269178,1,0,0:0:0:0:
64,192,269238,1,0,0:0:0:0:
448,192,269238,1,0,0:0:0:0:
192,192,269298,1,0,0:0:0:0:
320,192,269358,1,0,0:0:0:0:
448,192,269358,1,0,0:0:0:0:
64,192,269418,1,0,0:0:0:0:
192,192,269478,1,0,0:0:0:0:
320,192,269478,1,0,0:0:0:0:
448,192,269538,1,0,0:0:0:0:
64,192,269598,1,0,0:0:0:0:
320,192,269598,1,0,0:0:0:0:
192,192,269658,1,0,0:0:0:0:
64,192,269718,1,0,0:0:0:0:
448,192,269718,1,0,0:0:0:0:
320,192,269778,1,0,0:0:0:0:
192,192,269838,1,0,0:0:0:0:
448,192,269838,1,0,0:0:0:0:
64,192,269898,1,0,0:0:0:0:
192,192,269958,1,0,0:0:0:0:
320,192,269958,1,0,0:0:0:0:
448,192,270018,1,0,0:0:0:0:
64,192,270078,1,0,0:0:0:0:
320,192,270078,1,0,0:0:0:0:
192,192,270138,1,0,0:0:0:0:
64,192,270198,1,0,0:0:0:0:
448,192,270198,1,0,0:0:0:0:
320,192,270258,1,0,0:0:0:0:
64,192,270318,1,0,0:0:0:0:
192,192,270318,1,0,0:0:0:0:
448,192,270378,1,0,0:0:0:0:
64,192,270438,1,0,0:0:0:0:
320,192,270438,1,0,0:0:0:0:
192,192,270498,1,0,0:0:0:0:
320,192,270558,1,0,0:0:0:0:
448,192,270558,1,0,0:0:0:0:
64,192,270618,1,0,0:0:0:0:
192,192,270678,1,0,0:0:0:0:
448,192,270678,1,0,0:0:0:0:
320,192,270738,1,0,0:0:0:0:
64,192,270798,1,0,0:0:0:0:
448,192,270798,1,0,0:0:0:0:
192,192,270858,1,0,0:0:0:0:
320,192,270918,1,0,0:0:0:0:
448,192,270918,1,0,0:0:0:0:
64,192,270978,1,0,0:0:0:0:
192,192,271038,1,0,0:0:0:0:
320,192,271038,1,0,0:0:0:0:
448,192,271098,1,0,0:0:0:0:
64,192,271158,1,0,0:0:0:0:
320,192,271158,1,0,0:0:0:0:
192,192,271218,1,0,0:0:0:0:
64,192,271278,1,0,0:0:0:0:
448,192,271278,1,0,0:0:0:0:
320,192,271338,1,0,0:0:0:0:
64,192,271398,1,0,0:0:0:0:
192,192,271398,1,0,0:0:0:0:
448,192,271458,1,0,0:0:0:0:
64,192,271518,1,0,0:0:0:0:
320,192,271518,1,0,0:0:0:0:
192,192,271578,1,0,0:0:0:0:
64,192,271638,1,0,0:0:0:0:
448,192,271638,1,0,0:0:0:0:
320,192,271698,1,0,0:0:0:0:
192,192,271758,1,0,0:0:0:0:
448,192,271758,1,0,0:0:0:0:
64,192,271818,1,0,0:0:0:0:
320,192,271878,1,0,0:0:0:0:
448,192,271878,1,0,0:0:0:0:
192,192,271938,1,0,0:0:0:0:
64,192,271998,1,0,0:0:0:0:
320,192,271998,1,0,0:0:0:0:
448,192,272058,1,0,0:0:0:0:
192,192,272118,1,0,0:0:0:0:
320,192,272118,1,0,0:0:0:0:
64,192,272178,1,0,0:0:0:0:
192,192,272238,1,0,0:0:0:0:
448,192,272238,1,0,0:0:0:0:
320,192,272298,1,0,0:0:0:0:
64,192,272358,1,0,0:0:0:0:
448,192,272358,1,0,0:0:0:0:
192,192,272418,1,0,0:0:0:0:
320,192,272478,1,0,0:0:0:0:
448,192,272478,1,0,0:0:0:0:
64,192,272538,1,0,0:0:0:0:
192,192,272598,1,0,0:0:0:0:
320,192,272598,1,0,0:0:0:0:
448,192,272658,1,0,0:0:0:0:
64,192,272718,1,0,0:0:0:0:
320,192,272718,1,0,0:0:0:0:
192,192,272778,1,0,0:0:0:0:
64,192,272838,1,0,0:0:0:0:
448,192,272838,1,0,0:0:0:0:
320,192,272898,1,0,0:0:0:0:
64,192,272958,1,0,0:0:0:0:
192,192,272958,1,0,0:0:0:0:
448,192,273018,1,0,0:0:0:0:
64,192,273078,1,0,0:0:0:0:
320,192,273078,1,0,0:0:0:0:
192,192,273138,1,0,0:0:0:0:
64,192,273198,1,0,0:0:0:0:
448,192,273198,1,0,0:0:0:0:
320,192,273258,1,0,0:0:0:0:
192,192,273318,1,0,0:0:0:0:
448,192,273318,1,0,0:0:0:0:
64,192,273378,1,0,0:0:0:0:
192,192,273438,1,0,0:0:0:0:
448,192,273438,1,0,0:0:0:0:
320,192,273498,1,0,0:0:0:0:
64,192,273558,1,0,0:0:0:0:
192,192,273558,1,0,0:0:0:0:
448,192,273618,1,0,0:0:0:0:
64,192,273678,1,0,0:0:0:0:
320,192,273678,1,0,0:0:0:0:
192,192,273738,1,0,0:0:0:0:
64,192,273798,1,0,0:0:0:0:
448,192,273798,1,0,0:0:0:0:
320,192,273858,1,0,0:0:0:0:
64,192,273918,1,0,0:0:0:0:
192,192,273918,1,0,0:0:0:0:
448,192,273918,1,0,0:0:0:0:
320,192,273978,1,0,0:0:0:0:
64,192,274038,1,0,0:0:0:0:
448,192,274038,1,0,0:0:0:0:
192,192,274078,1,0,0:0:0:0:
320,192,274118,1,0,0:0:0:0:
64,192,274158,1,0,0:0:0:0:
448,192,274158,1,0,0:0:0:0:
192,192,274218,1,0,0:0:0:0:
64,192,274278,1,0,0:0:0:0:
320,192,274278,1,0,0:0:0:0:
448,192,274278,1,0,0:0:0:0:
192,192,274338,1,0,0:0:0:0:
64,192,274398,1,0,0:0:0:0:
448,192,274398,1,0,0:0:0:0:
320,192,274438,1,0,0:0:0:0:
192,192,274478,1,0,0:0:0:0:
64,192,274518,1,0,0:0:0:0:
448,192,274518,1,0,0:0:0:0:
320,192,274578,1,0,0:0:0:0:
64,192,274638,1,0,0:0:0:0:
192,192,274638,1,0,0:0:0:0:
448,192,274638,1,0,0:0:0:0:
320,192,274698,1,0,0:0:0:0:
64,192,274758,1,0,0:0:0:0:
448,192,274758,1,0,0:0:0:0:
192,192,274818,1,0,0:0:0:0:
320,192,274878,1,0,0:0:0:0:
448,192,274878,1,0,0:0:0:0:
64,192,274938,1,0,0:0:0:0:
192,192,274998,1,0,0:0:0:0:
448,192,274998,1,0,0:0:0:0:
320,192,275058,1,0,0:0:0:0:
64,192,275118,1,0,0:0:0:0:
192,192,275118,1,0,0:0:0:0:
448,192,275178,1,0,0:0:0:0:
64,192,275238,1,0,0:0:0:0:
320,192,275238,1,0,0:0:0:0:
192,192,275298,1,0,0:0:0:0:
64,192,275358,1,0,0:0:0:0:
448,192,275358,1,0,0:0:0:0:
320,192,275418,1,0,0:0:0:0:
64,192,275478,1,0,0:0:0:0:
192,192,275478,1,0,0:0:0:0:
448,192,275538,1,0,0:0:0:0:
64,192,275598,1,0,0:0:0:0:
320,192,275598,1,0,0:0:0:0:
192,192,275658,1,0,0:0:0:0:
64,192,275718,1,0,0:0:0:0:
448,192,275718,1,0,0:0:0:0:
320,192,275778,1,0,0:0:0:0:
192,192,275838,1,0,0:0:0:0:
448,192,275838,1,0,0:0:0:0:
64,192,275898,1,0,0:0:0:0:
192,192,275958,1,0,0:0:0:0:
448,192,275958,1,0,0:0:0:0:
320,192,276018,1,0,0:0:0:0:
64,192,276078,1,0,0:0:0:0:
192,192,276078,1,0,0:0:0:0:
448,192,276138,1,0,0:0:0:0:
64,192,276198,1,0,0:0:0:0:
320,192,276198,1,0,0:0:0:0:
192,192,276258,1,0,0:0:0:0:
64,192,276318,1,0,0:0:0:0:
448,192,276318,1,0,0:0:0:0:
320,192,276378,1,0,0:0:0:0:
64,192,276438,1,0,0:0:0:0:
192,192,276438,1,0,0:0:0:0:
448,192,276498,1,0,0:0:0:0:
192,192,276558,1,0,0:0:0:0:
320,192,276558,1,0,0:0:0:0:
64,192,276618,1,0,0:0:0:0:
192,192,276678,1,0,0:0:0:0:
448,192,276678,1,0,0:0:0:0:
320,192,276738,1,0,0:0:0:0:
64,192,276798,1,0,0:0:0:0:
192,192,276798,1,0,0:0:0:0:
448,192,276858,1,0,0:0:0:0:
192,192,276918,1,0,0:0:0:0:
320,192,276918,1,0,0:0:0:0:
64,192,276978,1,0,0:0:0:0:
192,192,277038,1,0,0:0:0:0:
448,192,277038,1,0,0:0:0:0:
320,192,277098,1,0,0:0:0:0:
64,192,277158,1,0,0:0:0:0:
192,192,277158,1,0,0:0:0:0:
448,192,277218,1,0,0:0:0:0:
64,192,277278,1,0,0:0:0:0:
320,192,277278,1,0,0:0:0:0:
192,192,277338,1,0,0:0:0:0:
320,192,277398,1,0,0:0:0:0:
448,192,277398,1,0,0:0:0:0:
64,192,277458,1,0,0:0:0:0:
192,192,277518,1,0,0:0:0:0:
448,192,277518,1,0,0:0:0:0:
320,192,277578,1,0,0:0:0:0:
64,192,277638,1,0,0:0:0:0:
448,192,277638,1,0,0:0:0:0:
192,192,277698,1,0,0:0:0:0:
64,192,277758,1,0,0:0:0:0:
448,192,277758,1,0,0:0:0:0:
320,192,277818,1,0,0:0:0:0:
64,192,277878,1,0,0:0:0:0:
192,192,277878,1,0,0:0:0:0:
448,192,277938,1,0,0:0:0:0:
64,192,277998,1,0,0:0:0:0:
320,192,277998,1,0,0:0:0:0:
192,192,278058,1,0,0:0:0:0:
64,192,278118,1,0,0:0:0:0:
448,192,278118,1,0,0:0:0:0:
320,192,278178,1,0,0:0:0:0:
64,192,278238,1,0,0:0:0:0:
192,192,278238,1,0,0:0:0:0:
448,192,278298,1,0,0:0:0:0:
64,192,278358,1,0,0:0:0:0:
320,192,278358,1,0,0:0:0:0:
192,192,278418,1,0,0:0:0:0:
64,192,278478,1,0,0:0:0:0:
448,192,278478,1,0,0:0:0:0:
320,192,278538,1,0,0:0:0:0:
192,192,278598,1,0,0:0:0:0:
448,192,278598,1,0,0:0:0:0:
64,192,278658,1,0,0:0:0:0:
320,192,278718,1,0,0:0:0:0:
448,192,278718,1,0,0:0:0:0:
64,192,278778,1,0,0:0:0:0:
192,192,278838,1,0,0:0:0:0:
448,192,278838,1,0,0:0:0:0:
320,192,278898,1,0,0:0:0:0:
192,192,278958,1,0,0:0:0:0:
448,192,278958,1,0,0:0:0:0:
64,192,279018,1,0,0:0:0:0:
320,192,279078,1,0,0:0:0:0:
448,192,279078,1,0,0:0:0:0:
192,192,279138,1,0,0:0:0:0:
64,192,279198,1,0,0:0:0:0:
448,192,279198,1,0,0:0:0:0:
320,192,279258,1,0,0:0:0:0:
192,192,279318,1,0,0:0:0:0:
448,192,279318,1,0,0:0:0:0:
64,192,279378,1,0,0:0:0:0:
320,192,279438,1,0,0:0:0:0:
448,192,279438,1,0,0:0:0:0:
64,192,279498,1,0,0:0:0:0:
192,192,279558,1,0,0:0:0:0:
448,192,279558,1,0,0:0:0:0:
320,192,279618,1,0,0:0:0:0:
64,192,279678,1,0,0:0:0:0:
448,192,279678,1,0,0:0:0:0:
192,192,279738,1,0,0:0:0:0:
320,192,279798,1,0,0:0:0:0:
448,192,279798,1,0,0:0:0:0:
64,192,279858,1,0,0:0:0:0:
192,192,279918,1,0,0:0:0:0:
320,192,279918,1,0,0:0:0:0:
448,192,279978,1,0,0:0:0:0:
64,192,280038,1,0,0:0:0:0:
320,192,280038,1,0,0:0:0:0:
192,192,280098,1,0,0:0:0:0:
64,192,280158,1,0,0:0:0:0:
448,192,280158,1,0,0:0:0:0:
320,192,280218,1,0,0:0:0:0:
192,192,280278,1,0,0:0:0:0:
448,192,280278,1,0,0:0:0:0:
64,192,280338,1,0,0:0:0:0:
320,192,280398,1,0,0:0:0:0:
448,192,280398,1,0,0:0:0:0:
192,192,280458,1,0,0:0:0:0:
64,192,280518,1,0,0:0:0:0:
320,192,280518,1,0,0:0:0:0:
448,192,280578,1,0,0:0:0:0:
64,192,280638,1,0,0:0:0:0:
320,192,280638,1,0,0:0:0:0:
192,192,280698,1,0,0:0:0:0:
64,192,280758,1,0,0:0:0:0:
448,192,280758,1,0,0:0:0:0:
320,192,280818,1,0,0:0:0:0:
64,192,280878,1,0,0:0:0:0:
192,192,280878,1,0,0:0:0:0:
448,192,280938,1,0,0:0:0:0:
64,192,280998,1,0,0:0:0:0:
320,192,280998,1,0,0:0:0:0:
192,192,281058,1,0,0:0:0:0:
64,192,281118,1,0,0:0:0:0:
448,192,281118,1,0,0:0:0:0:
320,192,281178,1,0,0:0:0:0:
192,192,281238,1,0,0:0:0:0:
448,192,281238,1,0,0:0:0:0:
64,192,281298,1,0,0:0:0:0:
320,192,281358,1,0,0:0:0:0:
448,192,281358,1,0,0:0:0:0:
192,192,281418,1,0,0:0:0:0:
64,192,281478,1,0,0:0:0:0:
448,192,281478,1,0,0:0:0:0:
320,192,281538,1,0,0:0:0:0:
64,192,281598,1,0,0:0:0:0:
448,192,281598,1,0,0:0:0:0:
192,192,281658,1,0,0:0:0:0:
320,192,281718,1,0,0:0:0:0:
448,192,281718,1,0,0:0:0:0:
64,192,281778,1,0,0:0:0:0:
192,192,281838,1,0,0:0:0:0:
448,192,281838,1,0,0:0:0:0:
320,192,281898,1,0,0:0:0:0:
64,192,281958,1,0,0:0:0:0:
448,192,281958,1,0,0:0:0:0:
192,192,282018,1,0,0:0:0:0:
320,192,282078,1,0,0:0:0:0:
448,192,282078,1,0,0:0:0:0:
64,192,282138,1,0,0:0:0:0:
192,192,282198,1,0,0:0:0:0:
320,192,282198,1,0,0:0:0:0:
448,192,282258,1,0,0:0:0:0:
64,192,282318,1,0,0:0:0:0:
192,192,282318,1,0,0:0:0:0:
320,192,282378,1,0,0:0:0:0:
448,192,282378,1,0,0:0:0:0:
64,192,282438,1,0,0:0:0:0:
192,192,282438,1,0,0:0:0:0:
320,192,282498,1,0,0:0:0:0:
448,192,282498,1,0,0:0:0:0:
64,192,282558,1,0,0:0:0:0:
192,192,282558,1,0,0:0:0:0:
448,192,282618,1,0,0:0:0:0:
64,192,282678,1,0,0:0:0:0:
320,192,282678,1,0,0:0:0:0:
192,192,282738,1,0,0:0:0:0:
448,192,282738,1,0,0:0:0:0:
64,192,282798,1,0,0:0:0:0:
320,192,282798,1,0,0:0:0:0:
192,192,282858,1,0,0:0:0:0:
448,192,282858,1,0,0:0:0:0:
64,192,282918,1,0,0:0:0:0:
320,192,282918,1,0,0:0:0:0:
192,192,282978,1,0,0:0:0:0:
64,192,283038,1,0,0:0:0:0:
448,192,283038,1,0,0:0:0:0:
192,192,283098,1,0,0:0:0:0:
320,192,283098,1,0,0:0:0:0:
64,192,283158,1,0,0:0:0:0:
448,192,283158,1,0,0:0:0:0:
320,192,283218,1,0,0:0:0:0:
64,192,283278,1,0,0:0:0:0:
192,192,283278,1,0,0:0:0:0:
320,192,283338,1,0,0:0:0:0:
448,192,283338,1,0,0:0:0:0:
64,192,283398,1,0,0:0:0:0:
192,192,283398,1,0,0:0:0:0:
320,192,283458,1,0,0:0:0:0:
448,192,283458,1,0,0:0:0:0:
64,192,283518,1,0,0:0:0:0:
192,192,283518,1,0,0:0:0:0:
448,192,283578,1,0,0:0:0:0:
64,192,283638,1,0,0:0:0:0:
320,192,283638,1,0,0:0:0:0:
192,192,283698,1,0,0:0:0:0:
448,192,283698,1,0,0:0:0:0:
64,192,283758,1,0,0:0:0:0:
320,192,283758,1,0,0:0:0:0:
192,192,283818,1,0,0:0:0:0:
448,192,283818,1,0,0:0:0:0:
64,192,283878,1,0,0:0:0:0:
320,192,283878,1,0,0:0:0:0:
192,192,283938,1,0,0:0:0:0:
64,192,283998,1,0,0:0:0:0:
448,192,283998,1,0,0:0:0:0:
192,192,284058,1,0,0:0:0:0:
320,192,284058,1,0,0:0:0:0:
64,192,284118,1,0,0:0:0:0:
448,192,284118,1,0,0:0:0:0:
192,192,284178,1,0,0:0:0:0:
320,192,284178,1,0,0:0:0:0:
64,192,284238,1,0,0:0:0:0:
448,192,284238,1,0,0:0:0:0:
192,192,284298,1,0,0:0:0:0:
64,192,284358,1,0,0:0:0:0:
320,192,284358,1,0,0:0:0:0:
192,192,284418,1,0,0:0:0:0:
448,192,284418,1,0,0:0:0:0:
64,192,284478,1,0,0:0:0:0:
320,192,284478,1,0,0:0:0:0:
192,192,284538,1,0,0:0:0:0:
448,192,284538,1,0,0:0:0:0:
64,192,284598,1,0,0:0:0:0:
320,192,284598,1,0,0:0:0:0:
448,192,284658,1,0,0:0:0:0:
64,192,284718,1,0,0:0:0:0:
192,192,284718,1,0,0:0:0:0:
320,192,284778,1,0,0:0:0:0:
448,192,284778,1,0,0:0:0:0:
64,192,284838,1,0,0:0:0:0:
192,192,284838,1,0,0:0:0:0:
320,192,284898,1,0,0:0:0:0:
448,192,284898,1,0,0:0:0:0:
64,192,284958,1,0,0:0:0:0:
192,192,284958,1,0,0:0:0:0:
448,192,285018,1,0,0:0:0:0:
64,192,285078,1,0,0:0:0:0:
320,192,285078,1,0,0:0:0:0:
192,192,285138,1,0,0:0:0:0:
448,192,285138,1,0,0:0:0:0:
64,192,285198,1,0,0:0:0:0:
320,192,285198,1,0,0:0:0:0:
192,192,285258,1,0,0:0:0:0:
448,192,285258,1,0,0:0:0:0:
64,192,285318,1,0,0:0:0:0:
320,192,285318,1,0,0:0:0:0:
192,192,285378,1,0,0:0:0:0:
320,192,285438,1,0,0:0:0:0:
448,192,285438,1,0,0:0:0:0:
64,192,285498,1,0,0:0:0:0:
192,192,285498,1,0,0:0:0:0:
320,192,285558,1,0,0:0:0:0:
448,192,285558,1,0,0:0:0:0:
64,192,285618,1,0,0:0:0:0:
192,192,285618,1,0,0:0:0:0:
320,192,285678,1,0,0:0:0:0:
448,192,285678,1,0,0:0:0:0:
64,192,285738,1,0,0:0:0:0:
192,192,285798,1,0,0:0:0:0:
448,192,285798,1,0,0:0:0:0:
64,192,285858,1,0,0:0:0:0:
320,192,285858,1,0,0:0:0:0:
192,192,285918,1,0,0:0:0:0:
448,192,285918,1,0,0:0:0:0:
64,192,285978,1,0,0:0:0:0:
320,192,285978,1,0,0:0:0:0:
192,192,286038,1,0,0:0:0:0:
448,192,286038,1,0,0:0:0:0:
320,192,286098,1,0,0:0:0:0:
64,192,286158,1,0,0:0:0:0:
448,192,286158,1,0,0:0:0:0:
192,192,286218,1,0,0:0:0:0:
320,192,286218,1,0,0:0:0:0:
64,192,286278,1,0,0:0:0:0:
448,192,286278,1,0,0:0:0:0:
192,192,286338,1,0,0:0:0:0:
320,192,286338,1,0,0:0:0:0:
64,192,286398,1,0,0:0:0:0:
448,192,286398,1,0,0:0:0:0:
192,192,286458,1,0,0:0:0:0:
320,192,286518,1,0,0:0:0:0:
448,192,286518,1,0,0:0:0:0:
64,192,286578,1,0,0:0:0:0:
192,192,286578,1,0,0:0:0:0:
320,192,286638,1,0,0:0:0:0:
448,192,286638,1,0,0:0:0:0:
64,192,286698,1,0,0:0:0:0:
192,192,286698,1,0,0:0:0:0:
320,192,286758,1,0,0:0:0:0:
448,192,286758,1,0,0:0:0:0:
64,192,286818,1,0,0:0:0:0:
192,192,286878,1,0,0:0:0:0:
448,192,286878,1,0,0:0:0:0:
64,192,286938,1,0,0:0:0:0:
320,192,286938,1,0,0:0:0:0:
192,192,286998,1,0,0:0:0:0:
448,192,286998,1,0,0:0:0:0:
64,192,287058,1,0,0:0:0:0:
320,192,287058,1,0,0:0:0:0:
192,192,287118,1,0,0:0:0:0:
448,192,287118,1,0,0:0:0:0:
64,192,287178,1,0,0:0:0:0:
320,192,287238,1,0,0:0:0:0:
448,192,287238,1,0,0:0:0:0:
64,192,287298,1,0,0:0:0:0:
192,192,287298,1,0,0:0:0:0:
320,192,287358,1,0,0:0:0:0:
448,192,287358,1,0,0:0:0:0:
64,192,287418,1,0,0:0:0:0:
192,192,287418,1,0,0:0:0:0:
320,192,287478,1,0,0:0:0:0:
448,192,287478,1,0,0:0:0:0:
64,192,287538,1,0,0:0:0:0:
192,192,287598,1,0,0:0:0:0:
320,192,287598,1,0,0:0:0:0:
64,192,287658,1,0,0:0:0:0:
448,192,287658,1,0,0:0:0:0:
192,192,287718,1,0,0:0:0:0:
320,192,287718,1,0,0:0:0:0:
64,192,287778,1,0,0:0:0:0:
448,192,287778,1,0,0:0:0:0:
192,192,287838,1,0,0:0:0:0:
320,192,287838,1,0,0:0:0:0:
448,192,287898,1,0,0:0:0:0:
64,192,287958,1,0,0:0:0:0:
320,192,287958,1,0,0:0:0:0:
192,192,288018,1,0,0:0:0:0:
448,192,288018,1,0,0:0:0:0:
64,192,288078,1,0,0:0:0:0:
320,192,288078,1,0,0:0:0:0:
192,192,288138,1,0,0:0:0:0:
448,192,288138,1,0,0:0:0:0:
64,192,288198,1,0,0:0:0:0:
320,192,288198,1,0,0:0:0:0:
448,192,288258,1,0,0:0:0:0:
64,192,288318,1,0,0:0:0:0:
192,192,288318,1,0,0:0:0:0:
320,192,288378,1,0,0:0:0:0:
448,192,288378,1,0,0:0:0:0:
64,192,288438,1,0,0:0:0:0:
192,192,288438,1,0,0:0:0:0:
320,192,288498,1,0,0:0:0:0:
448,192,288498,1,0,0:0:0:0:
64,192,288558,1,0,0:0:0:0:
192,192,288558,1,0,0:0:0:0:
320,192,288618,1,0,0:0:0:0:
192,192,288678,1,0,0:0:0:0:
448,192,288678,1,0,0:0:0:0:
64,192,288738,1,0,0:0:0:0:
320,192,288738,1,0,0:0:0:0:
192,192,288798,1,0,0:0:0:0:
448,192,288798,1,0,0:0:0:0:
64,192,288858,1,0,0:0:0:0:
320,192,288858,1,0,0:0:0:0:
192,192,288918,1,0,0:0:0:0:
448,192,288918,1,0,0:0:0:0:
64,192,288978,1,0,0:0:0:0:
192,192,289038,1,0,0:0:0:0:
320,192,289038,1,0,0:0:0:0:
64,192,289098,1,0,0:0:0:0:
448,192,289098,1,0,0:0:0:0:
192,192,289158,1,0,0:0:0:0:
320,192,289158,1,0,0:0:0:0:
64,192,289218,1,0,0:0:0:0:
448,192,289218,1,0,0:0:0:0:
192,192,289278,1,0,0:0:0:0:
320,192,289278,1,0,0:0:0:0:
448,192,289338,1,0,0:0:0:0:
64,192,289398,1,0,0:0:0:0:
320,192,289398,1,0,0:0:0:0:
192,192,289458,1,0,0:0:0:0:
448,192,289458,1,0,0:0:0:0:
64,192,289518,1,0,0:0:0:0:
320,192,289518,1,0,0:0:0:0:
192,192,289578,1,0,0:0:0:0:
448,192,289578,1,0,0:0:0:0:
64,192,289638,1,0,0:0:0:0:
320,192,289638,1,0,0:0:0:0:
448,192,289698,1,0,0:0:0:0:
64,192,289758,1,0,0:0:0:0:
192,192,289758,1,0,0:0:0:0:
320,192,289818,1,0,0:0:0:0:
448,192,289818,1,0,0:0:0:0:
64,192,289878,1,0,0:0:0:0:
192,192,289878,1,0,0:0:0:0:
320,192,289938,1,0,0:0:0:0:
448,192,289938,1,0,0:0:0:0:
64,192,289998,1,0,0:0:0:0:
192,192,289998,1,0,0:0:0:0:
320,192,290058,1,0,0:0:0:0:
448,192,290058,1,0,0:0:0:0:
64,192,290118,1,0,0:0:0:0:
320,192,290178,1,0,0:0:0:0:
448,192,290178,1,0,0:0:0:0:
64,192,290238,1,0,0:0:0:0:
192,192,290238,1,0,0:0:0:0:
320,192,290298,1,0,0:0:0:0:
448,192,290298,1,0,0:0:0:0:
64,192,290358,1,0,0:0:0:0:
192,192,290358,1,0,0:0:0:0:
320,192,290418,1,0,0:0:0:0:
448,192,290418,1,0,0:0:0:0:
64,192,290478,1,0,0:0:0:0:
192,192,290478,1,0,0:0:0:0:
320,192,290538,1,0,0:0:0:0:
64,192,290598,1,0,0:0:0:0:
448,192,290598,1,0,0:0:0:0:
192,192,290658,1,0,0:0:0:0:
320,192,290658,1,0,0:0:0:0:
64,192,290718,1,0,0:0:0:0:
448,192,290718,1,0,0:0:0:0:
192,192,290778,1,0,0:0:0:0:
320,192,290778,1,0,0:0:0:0:
64,192,290838,1,0,0:0:0:0:
448,192,290838,1,0,0:0:0:0:
192,192,290898,1,0,0:0:0:0:
320,192,290958,1,0,0:0:0:0:
448,192,290958,1,0,0:0:0:0:
64,192,291018,1,0,0:0:0:0:
192,192,291018,1,0,0:0:0:0:
320,192,291078,1,0,0:0:0:0:
448,192,291078,1,0,0:0:0:0:
64,192,291138,1,0,0:0:0:0:
192,192,291138,1,0,0:0:0:0:
320,192,291198,1,0,0:0:0:0:
448,192,291198,1,0,0:0:0:0:
64,192,291258,1,0,0:0:0:0:
192,192,291258,1,0,0:0:0:0:
320,192,291318,1,0,0:0:0:0:
192,192,291378,1,0,0:0:0:0:
448,192,291378,1,0,0:0:0:0:
64,192,291438,1,0,0:0:0:0:
320,192,291438,1,0,0:0:0:0:
192,192,291498,1,0,0:0:0:0:
448,192,291498,1,0,0:0:0:0:
64,192,291558,1,0,0:0:0:0:
320,192,291558,1,0,0:0:0:0:
192,192,291618,1,0,0:0:0:0:
448,192,291618,1,0,0:0:0:0:
64,192,291678,1,0,0:0:0:0:
320,192,291678,1,0,0:0:0:0:
448,192,291738,1,0,0:0:0:0:
64,192,291798,1,0,0:0:0:0:
192,192,291798,1,0,0:0:0:0:
320,192,291858,1,0,0:0:0:0:
448,192,291858,1,0,0:0:0:0:
64,192,291918,1,0,0:0:0:0:
192,192,291918,1,0,0:0:0:0:
320,192,291978,1,0,0:0:0:0:
448,192,291978,1,0,0:0:0:0:
64,192,292038,1,0,0:0:0:0:
192,192,292038,1,0,0:0:0:0:
320,192,292098,1,0,0:0:0:0:
448,192,292098,1,0,0:0:0:0:
64,192,292158,1,0,0:0:0:0:
192,192,292218,1,0,0:0:0:0:
448,192,292218,1,0,0:0:0:0:
64,192,292278,1,0,0:0:0:0:
320,192,292278,1,0,0:0:0:0:
192,192,292338,1,0,0:0:0:0:
448,192,292338,1,0,0:0:0:0:
64,192,292398,1,0,0:0:0:0:
320,192,292398,1,0,0:0:0:0:
192,192,292458,1,0,0:0:0:0:
448,192,292458,1,0,0:0:0:0:
64,192,292518,1,0,0:0:0:0:
320,192,292578,1,0,0:0:0:0:
448,192,292578,1,0,0:0:0:0:
64,192,292638,1,0,0:0:0:0:
192,192,292638,1,0,0:0:0:0:
320,192,292698,1,0,0:0:0:0:
448,192,292698,1,0,0:0:0:0:
64,192,292758,1,0,0:0:0:0:
192,192,292758,1,0,0:0:0:0:
320,192,292818,1,0,0:0:0:0:
448,192,292818,1,0,0:0:0:0:
64,192,292878,1,0,0:0:0:0:
192,192,292878,1,0,0:0:0:0:
448,192,292938,1,0,0:0:0:0:
192,192,292998,1,0,0:0:0:0:
320,192,292998,1,0,0:0:0:0:
64,192,293058,1,0,0:0:0:0:
448,192,293058,1,0,0:0:0:0:
192,192,293118,1,0,0:0:0:0:
320,192,293118,1,0,0:0:0:0:
64,192,293178,1,0,0:0:0:0:
448,192,293178,1,0,0:0:0:0:
192,192,293238,1,0,0:0:0:0:
320,192,293238,1,0,0:0:0:0:
64,192,293298,1,0,0:0:0:0:
320,192,293358,1,0,0:0:0:0:
448,192,293358,1,0,0:0:0:0:
64,192,293418,1,0,0:0:0:0:
192,192,293418,1,0,0:0:0:0:
320,192,293478,1,0,0:0:0:0:
448,192,293478,1,0,0:0:0:0:
64,192,293538,1,0,0:0:0:0:
192,192,293538,1,0,0:0:0:0:
320,192,293598,1,0,0:0:0:0:
448,192,293598,1,0,0:0:0:0:
64,192,293658,1,0,0:0:0:0:
192,192,293658,1,0,0:0:0:0:
320,192,293718,1,0,0:0:0:0:
192,192,293778,1,0,0:0:0:0:
448,192,293778,1,0,0:0:0:0:
64,192,293838,1,0,0:0:0:0:
320,192,293838,1,0,0:0:0:0:
192,192,293898,1,0,0:0:0:0:
448,192,293898,1,0,0:0:0:0:
64,192,293958,1,0,0:0:0:0:
320,192,293958,1,0,0:0:0:0:
192,192,294018,1,0,0:0:0:0:
448,192,294018,1,0,0:0:0:0:
320,192,294078,1,0,0:0:0:0:
64,192,294138,1,0,0:0:0:0:
192,192,294138,1,0,0:0:0:0:
320,192,294198,1,0,0:0:0:0:
448,192,294198,1,0,0:0:0:0:
64,192,294258,1,0,0:0:0:0:
192,192,294258,1,0,0:0:0:0:
320,192,294318,1,0,0:0:0:0:
448,192,294318,1,0,0:0:0:0:
64,192,294378,1,0,0:0:0:0:
192,192,294378,1,0,0:0:0:0:
320,192,294438,1,0,0:0:0:0:
448,192,294438,1,0,0:0:0:0:
64,192,294498,1,0,0:0:0:0:
192,192,294558,1,0,0:0:0:0:
448,192,294558,1,0,0:0:0:0:
64,192,294618,1,0,0:0:0:0:
320,192,294618,1,0,0:0:0:0:
192,192,294678,1,0,0:0:0:0:
448,192,294678,1,0,0:0:0:0:
64,192,294738,1,0,0:0:0:0:
320,192,294738,1,0,0:0:0:0:
192,192,294798,1,0,0:0:0:0:
448,192,294798,1,0,0:0:0:0:
320,192,294858,1,0,0:0:0:0:
64,192,294918,1,0,0:0:0:0:
192,192,294918,1,0,0:0:0:0:
320,192,294978,1,0,0:0:0:0:
448,192,294978,1,0,0:0:0:0:
64,192,295038,1,0,0:0:0:0:
192,192,295038,1,0,0:0:0:0:
320,192,295098,1,0,0:0:0:0:
448,192,295098,1,0,0:0:0:0:
64,192,295158,1,0,0:0:0:0:
192,192,295158,1,0,0:0:0:0:
320,192,295218,1,0,0:0:0:0:
448,192,295218,1,0,0:0:0:0:
64,192,295278,1,0,0:0:0:0:
192,192,295338,1,0,0:0:0:0:
320,192,295338,1,0,0:0:0:0:
64,192,295398,1,0,0:0:0:0:
448,192,295398,1,0,0:0:0:0:
192,192,295458,1,0,0:0:0:0:
320,192,295458,1,0,0:0:0:0:
64,192,295518,1,0,0:0:0:0:
448,192,295518,1,0,0:0:0:0:
192,192,295578,1,0,0:0:0:0:
320,192,295578,1,0,0:0:0:0:
64,192,295638,1,0,0:0:0:0:
320,192,295698,1,0,0:0:0:0:
448,192,295698,1,0,0:0:0:0:
64,192,295758,1,0,0:0:0:0:
192,192,295758,1,0,0:0:0:0:
320,192,295818,1,0,0:0:0:0:
448,192,295818,1,0,0:0:0:0:
64,192,295878,1,0,0:0:0:0:
192,192,295878,1,0,0:0:0:0:
320,192,295938,1,0,0:0:0:0:
448,192,295938,1,0,0:0:0:0:
64,192,295998,1,0,0:0:0:0:
192,192,295998,1,0,0:0:0:0:
320,192,296058,1,0,0:0:0:0:
192,192,296118,1,0,0:0:0:0:
448,192,296118,1,0,0:0:0:0:
64,192,296178,1,0,0:0:0:0:
320,192,296178,1,0,0:0:0:0:
192,192,296238,1,0,0:0:0:0:
448,192,296238,1,0,0:0:0:0:
64,192,296298,1,0,0:0:0:0:
320,192,296298,1,0,0:0:0:0:
192,192,296358,1,0,0:0:0:0:
448,192,296358,1,0,0:0:0:0:
64,192,296418,1,0,0:0:0:0:
192,192,296478,1,0,0:0:0:0:
320,192,296478,1,0,0:0:0:0:
64,192,296538,1,0,0:0:0:0:
448,192,296538,1,0,0:0:0:0:
192,192,296598,1,0,0:0:0:0:
320,192,296598,1,0,0:0:0:0:
64,192,296658,1,0,0:0:0:0:
448,192,296658,1,0,0:0:0:0:
192,192,296718,1,0,0:0:0:0:
320,192,296718,1,0,0:0:0:0:
64,192,296778,1,0,0:0:0:0:
448,192,296778,1,0,0:0:0:0:
192,192,296838,1,0,0:0:0:0:
320,192,296898,1,0,0:0:0:0:
448,192,296898,1,0,0:0:0:0:
64,192,296958,1,0,0:0:0:0:
192,192,296958,1,0,0:0:0:0:
320,192,297018,1,0,0:0:0:0:
448,192,297018,1,0,0:0:0:0:
64,192,297078,1,0,0:0:0:0:
192,192,297078,1,0,0:0:0:0:
320,192,297138,1,0,0:0:0:0:
448,192,297138,1,0,0:0:0:0:
64,192,297198,1,0,0:0:0:0:
192,192,297198,1,0,0:0:0:0:
320,192,297258,1,0,0:0:0:0:
64,192,297318,1,0,0:0:0:0:
448,192,297318,1,0,0:0:0:0:
192,192,297378,1,0,0:0:0:0:
320,192,297378,1,0,0:0:0:0:
64,192,297438,1,0,0:0:0:0:
448,192,297438,1,0,0:0:0:0:
192,192,297498,1,0,0:0:0:0:
320,192,297498,1,0,0:0:0:0:
64,192,297558,1,0,0:0:0:0:
448,192,297558,1,0,0:0:0:0:
192,192,297618,1,0,0:0:0:0:
320,192,297618,1,0,0:0:0:0:
448,192,297678,1,0,0:0:0:0:
320,192,297708,1,0,0:0:0:0:
192,192,297738,1,0,0:0:0:0:
64,192,297768,1,0,0:0:0:0:
448,192,297798,1,0,0:0:0:0:
320,192,297828,1,0,0:0:0:0:
192,192,297858,1,0,0:0:0:0:
64,192,297888,1,0,0:0:0:0:
448,192,297918,1,0,0:0:0:0:
320,192,297948,1,0,0:0:0:0:
192,192,297978,1,0,0:0:0:0:
64,192,298008,1,0,0:0:0:0:
448,192,298038,1,0,0:0:0:0:
320,192,298068,1,0,0:0:0:0:
192,192,298098,1,0,0:0:0:0:
64,192,298128,1,0,0:0:0:0:
448,192,298158,1,0,0:0:0:0:
320,192,298188,1,0,0:0:0:0:
64,192,298218,1,0,0:0:0:0:
192,192,298248,1,0,0:0:0:0:
448,192,298278,1,0,0:0:0:0:
320,192,298308,1,0,0:0:0:0:
64,192,298338,1,0,0:0:0:0:
192,192,298368,1,0,0:0:0:0:
448,192,298398,1,0,0:0:0:0:
320,192,298428,1,0,0:0:0:0:
64,192,298458,1,0,0:0:0:0:
192,192,298488,1,0,0:0:0:0:
448,192,298518,1,0,0:0:0:0:
320,192,298548,1,0,0:0:0:0:
64,192,298578,1,0,0:0:0:0:
192,192,298608,1,0,0:0:0:0:
448,192,298638,1,0,0:0:0:0:
320,192,298668,1,0,0:0:0:0:
192,192,298698,1,0,0:0:0:0:
64,192,298728,1,0,0:0:0:0:
448,192,298758,1,0,0:0:0:0:
320,192,298788,1,0,0:0:0:0:
192,192,298818,1,0,0:0:0:0:
64,192,298848,1,0,0:0:0:0:
448,192,298878,1,0,0:0:0:0:
320,192,298908,1,0,0:0:0:0:
192,192,298938,1,0,0:0:0:0:
64,192,298968,1,0,0:0:0:0:
448,192,298998,1,0,0:0:0:0:
320,192,299028,1,0,0:0:0:0:
192,192,299058,1,0,0:0:0:0:
64,192,299088,1,0,0:0:0:0:
448,192,299118,1,0,0:0:0:0:
192,192,299148,1,0,0:0:0:0:
320,192,299178,1,0,0:0:0:0:
64,192,299208,1,0,0:0:0:0:
448,192,299238,1,0,0:0:0:0:
192,192,299268,1,0,0:0:0:0:
320,192,299298,1,0,0:0:0:0:
64,192,299328,1,0,0:0:0:0:
448,192,299358,1,0,0:0:0:0:
192,192,299388,1,0,0:0:0:0:
320,192,299418,1,0,0:0:0:0:
64,192,299448,1,0,0:0:0:0:
448,192,299478,1,0,0:0:0:0:
192,192,299508,1,0,0:0:0:0:
320,192,299538,1,0,0:0:0:0:
64,192,299568,1,0,0:0:0:0:
448,192,299598,1,0,0:0:0:0:
320,192,299628,1,0,0:0:0:0:
192,192,299658,1,0,0:0:0:0:
64,192,299688,1,0,0:0:0:0:
448,192,299718,1,0,0:0:0:0:
320,192,299748,1,0,0:0:0:0:
192,192,299778,1,0,0:0:0:0:
64,192,299808,1,0,0:0:0:0:
448,192,299838,1,0,0:0:0:0:
320,192,299868,1,0,0:0:0:0:
192,192,299898,1,0,0:0:0:0:
64,192,299928,1,0,0:0:0:0:
448,192,299958,1,0,0:0:0:0:
320,192,299988,1,0,0:0:0:0:
192,192,300018,1,0,0:0:0:0:
64,192,300048,1,0,0:0:0:0:
448,192,300078,1,0,0:0:0:0:
192,192,300108,1,0,0:0:0:0:
320,192,300138,1,0,0:0:0:0:
64,192,300168,1,0,0:0:0:0:
448,192,300198,1,0,0:0:0:0:
192,192,300228,1,0,0:0:0:0:
320,192,300258,1,0,0:0:0:0:
64,192,300288,1,0,0:0:0:0:
448,192,300318,1,0,0:0:0:0:
192,192,300348,1,0,0:0:0:0:
320,192,300378,1,0,0:0:0:0:
64,192,300408,1,0,0:0:0:0:
448,192,300438,1,0,0:0:0:0:
192,192,300468,1,0,0:0:0:0:
320,192,300498,1,0,0:0:0:0:
64,192,300528,1,0,0:0:0:0:
448,192,300558,1,0,0:0:0:0:
320,192,300588,1,0,0:0:0:0:
192,192,300618,1,0,0:0:0:0:
64,192,300648,1,0,0:0:0:0:
448,192,300678,1,0,0:0:0:0:
320,192,300708,1,0,0:0:0:0:
192,192,300738,1,0,0:0:0:0:
64,192,300768,1,0,0:0:0:0:
448,192,300798,1,0,0:0:0:0:
320,192,300828,1,0,0:0:0:0:
192,192,300858,1,0,0:0:0:0:
64,192,300888,1,0,0:0:0:0:
448,192,300918,1,0,0:0:0:0:
320,192,300948,1,0,0:0:0:0:
192,192,300978,1,0,0:0:0:0:
64,192,301008,1,0,0:0:0:0:
448,192,301038,1,0,0:0:0:0:
320,192,301068,1,0,0:0:0:0:
64,192,301098,1,0,0:0:0:0:
192,192,301128,1,0,0:0:0:0:
448,192,301158,1,0,0:0:0:0:
320,192,301188,1,0,0:0:0:0:
64,192,301218,1,0,0:0:0:0:
192,192,301248,1,0,0:0:0:0:
448,192,301278,1,0,0:0:0:0:
320,192,301308,1,0,0:0:0:0:
64,192,301338,1,0,0:0:0:0:
192,192,301368,1,0,0:0:0:0:
448,192,301398,1,0,0:0:0:0:
320,192,301428,1,0,0:0:0:0:
64,192,301458,1,0,0:0:0:0:
192,192,301488,1,0,0:0:0:0:
448,192,301518,1,0,0:0:0:0:
320,192,301548,1,0,0:0:0:0:
192,192,301578,1,0,0:0:0:0:
64,192,301608,1,0,0:0:0:0:
448,192,301638,1,0,0:0:0:0:
320,192,301668,1,0,0:0:0:0:
192,192,301698,1,0,0:0:0:0:
64,192,301728,1,0,0:0:0:0:
448,192,301758,1,0,0:0:0:0:
320,192,301788,1,0,0:0:0:0:
192,192,301818,1,0,0:0:0:0:
64,192,301848,1,0,0:0:0:0:
448,192,301878,1,0,0:0:0:0:
320,192,301908,1,0,0:0:0:0:
192,192,301938,1,0,0:0:0:0:
64,192,301968,1,0,0:0:0:0:
448,192,301998,1,0,0:0:0:0:
192,192,302028,1,0,0:0:0:0:
320,192,302058,1,0,0:0:0:0:
64,192,302088,1,0,0:0:0:0:
448,192,302118,1,0,0:0:0:0:
192,192,302148,1,0,0:0:0:0:
320,192,302178,1,0,0:0:0:0:
64,192,302208,1,0,0:0:0:0:
448,192,302238,1,0,0:0:0:0:
192,192,302268,1,0,0:0:0:0:
320,192,302298,1,0,0:0:0:0:
64,192,302328,1,0,0:0:0:0:
448,192,302358,1,0,0:0:0:0:
192,192,302388,1,0,0:0:0:0:
320,192,302418,1,0,0:0:0:0:
64,192,302448,1,0,0:0:0:0:
448,192,302478,1,0,0:0:0:0:
320,192,302508,1,0,0:0:0:0:
192,192,302538,1,0,0:0:0:0:
64,192,302568,1,0,0:0:0:0:
448,192,302598,1,0,0:0:0:0:
320,192,302628,1,0,0:0:0:0:
192,192,302658,1,0,0:0:0:0:
64,192,302688,1,0,0:0:0:0:
448,192,302718,1,0,0:0:0:0:
320,192,302748,1,0,0:0:0:0:
192,192,302778,1,0,0:0:0:0:
64,192,302808,1,0,0:0:0:0:
448,192,302838,1,0,0:0:0:0:
320,192,302868,1,0,0:0:0:0:
192,192,302898,1,0,0:0:0:0:
64,192,302928,1,0,0:0:0:0:
448,192,302958,1,0,0:0:0:0:
192,192,302988,1,0,0:0:0:0:
320,192,303018,1,0,0:0:0:0:
64,192,303048,1,0,0:0:0:0:
448,192,303078,1,0,0:0:0:0:
192,192,303108,1,0,0:0:0:0:
320,192,303138,1,0,0:0:0:0:
64,192,303168,1,0,0:0:0:0:
448,192,303198,1,0,0:0:0:0:
192,192,303228,1,0,0:0:0:0:
320,192,303258,1,0,0:0:0:0:
64,192,303288,1,0,0:0:0:0:
448,192,303318,1,0,0:0:0:0:
192,192,303348,1,0,0:0:0:0:
320,192,303378,1,0,0:0:0:0:
64,192,303408,1,0,0:0:0:0:
448,192,303438,1,0,0:0:0:0:
320,192,303468,1,0,0:0:0:0:
192,192,303498,1,0,0:0:0:0:
64,192,303528,1,0,0:0:0:0:
448,192,303558,1,0,0:0:0:0:
320,192,303588,1,0,0:0:0:0:
192,192,303618,1,0,0:0:0:0:
64,192,303648,1,0,0:0:0:0:
448,192,303678,1,0,0:0:0:0:
320,192,303708,1,0,0:0:0:0:
192,192,303738,1,0,0:0:0:0:
64,192,303768,1,0,0:0:0:0:
448,192,303798,1,0,0:0:0:0:
320,192,303828,1,0,0:0:0:0:
192,192,303858,1,0,0:0:0:0:
64,192,303888,1,0,0:0:0:0:
448,192,303918,1,0,0:0:0:0:
320,192,303948,1,0,0:0:0:0:
64,192,303978,1,0,0:0:0:0:
192,192,304008,1,0,0:0:0:0:
448,192,304038,1,0,0:0:0:0:
320,192,304068,1,0,0:0:0:0:
64,192,304098,1,0,0:0:0:0:
192,192,304128,1,0,0:0:0:0:
448,192,304158,1,0,0:0:0:0:
320,192,304188,1,0,0:0:0:0:
64,192,304218,1,0,0:0:0:0:
192,192,304248,1,0,0:0:0:0:
448,192,304278,1,0,0:0:0:0:
320,192,304308,1,0,0:0:0:0:
64,192,304338,1,0,0:0:0:0:
192,192,304368,1,0,0:0:0:0:
448,192,304398,1,0,0:0:0:0:
320,192,304428,1,0,0:0:0:0:
192,192,304458,1,0,0:0:0:0:
64,192,304488,1,0,0:0:0:0:
448,192,304518,1,0,0:0:0:0:
320,192,304548,1,0,0:0:0:0:
192,192,304578,1,0,0:0:0:0:
64,192,304608,1,0,0:0:0:0:
448,192,304638,1,0,0:0:0:0:
320,192,304668,1,0,0:0:0:0:
192,192,304698,1,0,0:0:0:0:
64,192,304728,1,0,0:0:0:0:
448,192,304758,1,0,0:0:0:0:
320,192,304788,1,0,0:0:0:0:
192,192,304818,1,0,0:0:0:0:
64,192,304848,1,0,0:0:0:0:
448,192,304878,1,0,0:0:0:0:
192,192,304908,1,0,0:0:0:0:
320,192,304938,1,0,0:0:0:0:
64,192,304968,1,0,0:0:0:0:
448,192,304998,1,0,0:0:0:0:
192,192,305028,1,0,0:0:0:0:
320,192,305058,1,0,0:0:0:0:
64,192,305088,1,0,0:0:0:0:
448,192,305118,1,0,0:0:0:0:
192,192,305148,1,0,0:0:0:0:
320,192,305178,1,0,0:0:0:0:
64,192,305208,1,0,0:0:0:0:
448,192,305238,1,0,0:0:0:0:
192,192,305268,1,0,0:0:0:0:
320,192,305298,1,0,0:0:0:0:
64,192,305328,1,0,0:0:0:0:
448,192,305358,1,0,0:0:0:0:
320,192,305388,1,0,0:0:0:0:
192,192,305418,1,0,0:0:0:0:
64,192,305448,1,0,0:0:0:0:
448,192,305478,1,0,0:0:0:0:
320,192,305508,1,0,0:0:0:0:
192,192,305538,1,0,0:0:0:0:
64,192,305568,1,0,0:0:0:0:
448,192,305598,1,0,0:0:0:0:
320,192,305628,1,0,0:0:0:0:
192,192,305658,1,0,0:0:0:0:
64,192,305688,1,0,0:0:0:0:
448,192,305718,1,0,0:0:0:0:
320,192,305748,1,0,0:0:0:0:
192,192,305778,1,0,0:0:0:0:
64,192,305808,1,0,0:0:0:0:
448,192,305838,1,0,0:0:0:0:
192,192,305868,1,0,0:0:0:0:
320,192,305898,1,0,0:0:0:0:
64,192,305928,1,0,0:0:0:0:
448,192,305958,1,0,0:0:0:0:
192,192,305988,1,0,0:0:0:0:
320,192,306018,1,0,0:0:0:0:
64,192,306048,1,0,0:0:0:0:
448,192,306078,1,0,0:0:0:0:
192,192,306108,1,0,0:0:0:0:
320,192,306138,1,0,0:0:0:0:
64,192,306168,1,0,0:0:0:0:
448,192,306198,1,0,0:0:0:0:
192,192,306228,1,0,0:0:0:0:
320,192,306258,1,0,0:0:0:0:
64,192,306288,1,0,0:0:0:0:
448,192,306318,1,0,0:0:0:0:
320,192,306348,1,0,0:0:0:0:
192,192,306378,1,0,0:0:0:0:
64,192,306408,1,0,0:0:0:0:
448,192,306438,1,0,0:0:0:0:
320,192,306468,1,0,0:0:0:0:
192,192,306498,1,0,0:0:0:0:
64,192,306528,1,0,0:0:0:0:
448,192,306558,1,0,0:0:0:0:
320,192,306588,1,0,0:0:0:0:
192,192,306618,1,0,0:0:0:0:
64,192,306648,1,0,0:0:0:0:
448,192,306678,1,0,0:0:0:0:
320,192,306708,1,0,0:0:0:0:
192,192,306738,1,0,0:0:0:0:
64,192,306768,1,0,0:0:0:0:
448,192,306798,1,0,0:0:0:0:
192,192,306828,1,0,0:0:0:0:
320,192,306858,1,0,0:0:0:0:
64,192,306888,1,0,0:0:0:0:
448,192,306918,1,0,0:0:0:0:
192,192,306948,1,0,0:0:0:0:
320,192,306978,1,0,0:0:0:0:
64,192,307008,1,0,0:0:0:0:
448,192,307038,1,0,0:0:0:0:
192,192,307068,1,0,0:0:0:0:
320,192,307098,1,0,0:0:0:0:
64,192,307128,1,0,0:0:0:0:
448,192,307158,1,0,0:0:0:0:
192,192,307188,1,0,0:0:0:0:
320,192,307218,1,0,0:0:0:0:
64,192,307248,1,0,0:0:0:0:
448,192,307278,1,0,0:0:0:0:
320,192,307308,1,0,0:0:0:0:
192,192,307338,1,0,0:0:0:0:
64,192,307368,1,0,0:0:0:0:
448,192,307398,1,0,0:0:0:0:
320,192,307428,1,0,0:0:0:0:
192,192,307458,1,0,0:0:0:0:
64,192,307488,1,0,0:0:0:0:
448,192,307518,1,0,0:0:0:0:
320,192,307548,1,0,0:0:0:0:
192,192,307578,1,0,0:0:0:0:
64,192,307608,1,0,0:0:0:0:
448,192,307638,1,0,0:0:0:0:
320,192,307668,1,0,0:0:0:0:
192,192,307698,1,0,0:0:0:0:
64,192,307728,1,0,0:0:0:0:
448,192,307758,1,0,0:0:0:0:
192,192,307788,1,0,0:0:0:0:
320,192,307818,1,0,0:0:0:0:
64,192,307848,1,0,0:0:0:0:
448,192,307878,1,0,0:0:0:0:
192,192,307908,1,0,0:0:0:0:
320,192,307938,1,0,0:0:0:0:
64,192,307968,1,0,0:0:0:0:
448,192,307998,1,0,0:0:0:0:
192,192,308028,1,0,0:0:0:0:
320,192,308058,1,0,0:0:0:0:
64,192,308088,1,0,0:0:0:0:
448,192,308118,1,0,0:0:0:0:
192,192,308148,1,0,0:0:0:0:
320,192,308178,1,0,0:0:0:0:
64,192,308208,1,0,0:0:0:0:
448,192,308238,1,0,0:0:0:0:
320,192,308268,1,0,0:0:0:0:
192,192,308298,1,0,0:0:0:0:
64,192,308328,1,0,0:0:0:0:
448,192,308358,1,0,0:0:0:0:
320,192,308388,1,0,0:0:0:0:
192,192,308418,1,0,0:0:0:0:
64,192,308448,1,0,0:0:0:0:
448,192,308478,1,0,0:0:0:0:
320,192,308508,1,0,0:0:0:0:
192,192,308538,1,0,0:0:0:0:
64,192,308568,1,0,0:0:0:0:
448,192,308598,1,0,0:0:0:0:
320,192,308628,1,0,0:0:0:0:
192,192,308658,1,0,0:0:0:0:
64,192,308688,1,0,0:0:0:0:
448,192,308718,1,0,0:0:0:0:
192,192,308748,1,0,0:0:0:0:
320,192,308778,1,0,0:0:0:0:
64,192,308808,1,0,0:0:0:0:
448,192,308838,1,0,0:0:0:0:
192,192,308868,1,0,0:0:0:0:
320,192,308898,1,0,0:0:0:0:
64,192,308928,1,0,0:0:0:0:
448,192,308958,1,0,0:0:0:0:
192,192,308988,1,0,0:0:0:0:
320,192,309018,1,0,0:0:0:0:
64,192,309048,1,0,0:0:0:0:
448,192,309078,1,0,0:0:0:0:
192,192,309108,1,0,0:0:0:0:
320,192,309138,1,0,0:0:0:0:
64,192,309168,1,0,0:0:0:0:
448,192,309198,1,0,0:0:0:0:
320,192,309228,1,0,0:0:0:0:
192,192,309258,1,0,0:0:0:0:
64,192,309288,1,0,0:0:0:0:
448,192,309318,1,0,0:0:0:0:
320,192,309348,1,0,0:0:0:0:
192,192,309378,1,0,0:0:0:0:
64,192,309408,1,0,0:0:0:0:
448,192,309438,1,0,0:0:0:0:
320,192,309468,1,0,0:0:0:0:
192,192,309498,1,0,0:0:0:0:
64,192,309528,1,0,0:0:0:0:
448,192,309558,1,0,0:0:0:0:
320,192,309588,1,0,0:0:0:0:
192,192,309618,1,0,0:0:0:0:
64,192,309648,1,0,0:0:0:0:
448,192,309678,1,0,0:0:0:0:
192,192,309708,1,0,0:0:0:0:
320,192,309738,1,0,0:0:0:0:
64,192,309768,1,0,0:0:0:0:
448,192,309798,1,0,0:0:0:0:
192,192,309828,1,0,0:0:0:0:
320,192,309858,1,0,0:0:0:0:
64,192,309888,1,0,0:0:0:0:
448,192,309918,1,0,0:0:0:0:
192,192,309948,1,0,0:0:0:0:
320,192,309978,1,0,0:0:0:0:
64,192,310008,1,0,0:0:0:0:
448,192,310038,1,0,0:0:0:0:
192,192,310068,1,0,0:0:0:0:
320,192,310098,1,0,0:0:0:0:
64,192,310128,1,0,0:0:0:0:
448,192,310158,1,0,0:0:0:0:
320,192,310188,1,0,0:0:0:0:
192,192,310218,1,0,0:0:0:0:
64,192,310248,1,0,0:0:0:0:
448,192,310278,1,0,0:0:0:0:
320,192,310308,1,0,0:0:0:0:
192,192,310338,1,0,0:0:0:0:
64,192,310368,1,0,0:0:0:0:
448,192,310398,1,0,0:0:0:0:
320,192,310428,1,0,0:0:0:0:
192,192,310458,1,0,0:0:0:0:
64,192,310488,1,0,0:0:0:0:
448,192,310518,1,0,0:0:0:0:
320,192,310548,1,0,0:0:0:0:
192,192,310578,1,0,0:0:0:0:
64,192,310608,1,0,0:0:0:0:
448,192,310638,1,0,0:0:0:0:
192,192,310668,1,0,0:0:0:0:
320,192,310698,1,0,0:0:0:0:
64,192,310728,1,0,0:0:0:0:
448,192,310758,1,0,0:0:0:0:
192,192,310788,1,0,0:0:0:0:
320,192,310818,1,0,0:0:0:0:
64,192,310848,1,0,0:0:0:0:
448,192,310878,1,0,0:0:0:0:
192,192,310908,1,0,0:0:0:0:
320,192,310938,1,0,0:0:0:0:
64,192,310968,1,0,0:0:0:0:
448,192,310998,1,0,0:0:0:0:
192,192,311028,1,0,0:0:0:0:
320,192,311058,1,0,0:0:0:0:
64,192,311088,1,0,0:0:0:0:
448,192,311118,1,0,0:0:0:0:
320,192,311148,1,0,0:0:0:0:
192,192,311178,1,0,0:0:0:0:
64,192,311208,1,0,0:0:0:0:
448,192,311238,1,0,0:0:0:0:
320,192,311268,1,0,0:0:0:0:
192,192,311298,1,0,0:0:0:0:
64,192,311328,1,0,0:0:0:0:
448,192,311358,1,0,0:0:0:0:
320,192,311388,1,0,0:0:0:0:
192,192,311418,1,0,0:0:0:0:
64,192,311448,1,0,0:0:0:0:
448,192,311478,1,0,0:0:0:0:
320,192,311508,1,0,0:0:0:0:
192,192,311538,1,0,0:0:0:0:
64,192,311568,1,0,0:0:0:0:
448,192,311598,1,0,0:0:0:0:
192,192,311628,1,0,0:0:0:0:
320,192,311658,1,0,0:0:0:0:
64,192,311688,1,0,0:0:0:0:
448,192,311718,1,0,0:0:0:0:
192,192,311748,1,0,0:0:0:0:
320,192,311778,1,0,0:0:0:0:
64,192,311808,1,0,0:0:0:0:
448,192,311838,1,0,0:0:0:0:
192,192,311868,1,0,0:0:0:0:
320,192,311898,1,0,0:0:0:0:
64,192,311928,1,0,0:0:0:0:
448,192,311958,1,0,0:0:0:0:
192,192,311988,1,0,0:0:0:0:
320,192,312018,1,0,0:0:0:0:
64,192,312048,1,0,0:0:0:0:
448,192,312078,1,0,0:0:0:0:
320,192,312108,1,0,0:0:0:0:
192,192,312138,1,0,0:0:0:0:
64,192,312168,1,0,0:0:0:0:
448,192,312198,1,0,0:0:0:0:
320,192,312228,1,0,0:0:0:0:
192,192,312258,1,0,0:0:0:0:
64,192,312288,1,0,0:0:0:0:
448,192,312318,1,0,0:0:0:0:
320,192,312348,1,0,0:0:0:0:
192,192,312378,1,0,0:0:0:0:
64,192,312408,1,0,0:0:0:0:
448,192,312438,1,0,0:0:0:0:
320,192,312468,1,0,0:0:0:0:
192,192,312498,1,0,0:0:0:0:
64,192,312528,1,0,0:0:0:0:
448,192,312558,1,0,0:0:0:0:
320,192,312588,1,0,0:0:0:0:
64,192,312618,1,0,0:0:0:0:
192,192,312648,1,0,0:0:0:0:
448,192,312678,1,0,0:0:0:0:
320,192,312708,1,0,0:0:0:0:
64,192,312738,1,0,0:0:0:0:
192,192,312768,1,0,0:0:0:0:
448,192,312798,1,0,0:0:0:0:
320,192,312828,1,0,0:0:0:0:
64,192,312858,1,0,0:0:0:0:
192,192,312888,1,0,0:0:0:0:
448,192,312918,1,0,0:0:0:0:
320,192,312948,1,0,0:0:0:0:
64,192,312978,1,0,0:0:0:0:
192,192,313008,1,0,0:0:0:0:
64,0,313038,128,0,320718:1:0:0:0:
448,0,313038,128,0,320718:1:0:0:0:
