osu file format v14

[General]
AudioFilename: audio.mp3
AudioLeadIn: 0
PreviewTime: -1
Countdown: 0
SampleSet: Normal
StackLeniency: 0.2
Mode: 0
LetterboxInBreaks: 0
WidescreenStoryboard: 1

[Editor]
Bookmarks: 19744,29099
DistanceSpacing: 1.1
BeatDivisor: 4
GridSize: 4
TimelineZoom: 1.8

[Metadata]
Title:Kuukan Formation
TitleUnicode:空閒⇔Formation
Artist:Yairi
ArtistUnicode:Yairi
Creator:Tyser
Version:My Try Revamped
Source:
Tags:vocaloid Megpoid GUMI
BeatmapID:1001912
BeatmapSetID:468414

[Difficulty]
HPDrainRate:6
CircleSize:4
OverallDifficulty:8.4
ApproachRate:9.2
SliderMultiplier:1.2
SliderTickRate:1

[Events]
//Background and Video events
0,0,"Megpoid GUMI.jpg",0,0
//Break Periods
2,63492,76530
2,107040,115240
//Storyboard Layer 0 (Background)
//Storyboard Layer 1 (Fail)
//Storyboard Layer 2 (Pass)
//Storyboard Layer 3 (Foreground)
//Storyboard Sound Samples

[TimingPoints]
1035,322.58064516129,4,2,0,60,1,8
10873,-100,4,3,0,60,0,8
11034,-100,4,3,0,70,0,8
11196,-100,4,3,0,80,0,8
11357,-62.5,4,3,0,90,0,8
20873,-62.5,4,3,0,80,0,8
21196,-62.5,4,3,0,85,0,8
21357,-62.5,4,3,0,90,0,8
21518,-62.5,4,3,0,95,0,8
21680,-55.5555555555556,4,1,0,100,0,8
31196,-50,4,1,0,100,0,8
32002,-50,4,1,0,80,0,8
34744,-83.3333333333333,4,1,0,65,0,8
39260,-83.3333333333333,4,3,0,65,0,0
39905,-62.5,4,1,0,65,0,8
41841,-125,4,1,0,65,0,8
42486,-100,4,1,0,65,0,8
44422,-71.4285714285714,4,3,0,70,0,8
44502,-71.4285714285714,4,3,0,10,0,0
44583,-71.4285714285714,4,3,0,70,0,0
44664,-71.4285714285714,4,3,0,10,0,0
44744,-71.4285714285714,4,3,0,70,0,0
44825,-71.4285714285714,4,3,0,10,0,0
44905,-71.4285714285714,4,3,0,70,0,0
44986,-71.4285714285714,4,3,0,10,0,0
45067,-62.5,4,1,0,80,0,8
55551,-62.5,4,1,0,75,0,8
68293,-50,4,1,0,100,0,9
84422,-50,4,2,0,90,0,8
84905,-50,4,2,0,85,0,8
85228,-50,4,2,0,80,0,8
85551,-50,4,2,0,75,0,8
85873,-50,4,2,0,70,0,8
86196,-62.5,4,3,0,90,0,8
96518,-55.5555555555556,4,1,0,100,0,8
106357,-111.111111111111,4,2,0,70,0,8
116680,-111.111111111111,4,3,0,50,0,0
116760,-111.111111111111,4,3,0,5,0,0
116841,-111.111111111111,4,3,0,50,0,0
116922,-111.111111111111,4,3,0,5,0,0
117002,-111.111111111111,4,3,0,50,0,0
117083,-111.111111111111,4,3,0,5,0,0
117164,-111.111111111111,4,3,0,50,0,0
117244,-111.111111111111,4,3,0,5,0,0
117325,-62.5,4,1,0,75,0,0
123454,-83.3333333333333,4,1,0,75,0,0
124260,-62.5,4,1,0,75,0,0
127647,-71.4285714285714,4,1,0,75,0,0
129099,-62.5,4,1,0,75,0,0

[HitObjects]
116,97,10551,6,0,P|167:52|219:60,1,120
184,124,11034,1,0,0:0:0:0:
320,76,11196,1,0,0:0:0:0:
183,232,11357,6,2,P|230:267|361:275,1,192,2|0,0:0|0:0,0:0:0:0:
503,147,11841,1,8,0:0:0:0:
321,86,12002,1,0,0:0:0:0:
359,275,12164,1,8,0:0:0:0:
436,79,12325,1,0,0:0:0:0:
228,44,12486,1,8,0:0:0:0:
216,221,12647,5,0,0:0:0:0:
245,217,12728,1,0,0:0:0:0:
271,205,12809,2,0,P|330:173|381:124,1,96,8|0,0:0|0:0,0:0:0:0:
158,326,13131,2,0,P|95:352|25:359,1,96,8|0,0:0|0:0,0:0:0:0:
271,205,13454,1,8,0:0:0:0:
23,205,13615,1,12,0:0:0:0:
23,205,13938,6,2,B|90:150|137:256|218:205,1,192,2|0,0:0|0:0,0:0:0:0:
380,133,14422,1,8,0:0:0:0:
198,74,14583,1,0,0:0:0:0:
269,252,14744,1,8,0:0:0:0:
311,65,14905,1,0,0:0:0:0:
173,200,15067,1,8,0:0:0:0:
364,209,15228,5,0,0:0:0:0:
394,185,15309,1,0,0:0:0:0:
415,153,15389,2,0,P|439:93|442:30,1,96,8|0,0:0|0:0,0:0:0:0:
336,236,15712,2,0,P|397:215|447:177,1,96,8|0,0:0|0:0,0:0:0:0:
205,169,16034,1,0,0:0:0:0:
184,189,16114,1,0,0:0:0:0:
154,206,16195,1,0,0:0:0:0:
111,208,16275,1,0,0:0:0:0:
67,187,16356,1,0,0:0:0:0:
46,136,16437,1,0,0:0:0:0:
53,76,16518,6,2,B|77:37|80:3|80:3|127:26|206:0,1,192,2|0,0:0|0:0,0:0:0:0:
354,179,17002,2,0,L|295:179,1,48,8|0,0:0|0:0,0:0:0:0:
387,105,17164,1,0,0:0:0:0:
321,253,17325,2,0,L|262:253,1,48,8|0,0:0|0:0,0:0:0:0:
354,179,17487,1,0,0:0:0:0:
261,376,17647,1,8,0:0:0:0:
117,223,17809,5,0,0:0:0:0:
117,223,17889,1,0,0:0:0:0:
117,223,17970,1,8,0:0:0:0:
276,87,18131,1,0,0:0:0:0:
34,101,18293,2,0,P|63:42|126:19,1,96,8|0,0:0|0:0,0:0:0:0:
34,223,18615,1,8,0:0:0:0:
391,179,18776,1,12,0:0:0:0:
391,179,19099,6,2,B|456:218|439:311|372:334,1,192,2|0,0:0|0:0,0:0:0:0:
199,255,19583,1,8,0:0:0:0:
194,80,19744,2,0,P|237:62|303:52,2,96
140,127,20147,1,0,0:0:0:0:
140,127,20228,1,8,0:0:0:0:
18,291,20389,6,2,B|76:332|139:225|212:260,1,192,0|0,0:0|0:0,0:0:0:0:
334,324,20873,1,0,0:0:0:0:
401,213,21034,1,0,0:0:0:0:
397,194,21115,1,0,0:0:0:0:
385,172,21196,1,0,0:0:0:0:
367,149,21276,1,0,0:0:0:0:
339,128,21357,1,0,0:0:0:0:
301,119,21438,1,0,0:0:0:0:
258,116,21518,1,0,0:0:0:0:
210,124,21599,1,0,0:0:0:0:
161,145,21680,6,0,B|192:123|257:115|257:115|214:65|231:-1,1,215.999993408203,2|0,0:0|0:0,0:0:0:0:
41,95,22164,1,8,0:0:0:0:
164,298,22325,1,0,0:0:0:0:
164,298,22405,1,0,0:0:0:0:
164,298,22486,1,0,0:0:0:0:
287,95,22647,2,0,P|366:96|418:134,1,107.999996704102,0|8,0:0|0:0,0:0:0:0:
469,334,22970,5,0,0:0:0:0:
469,334,23051,1,0,0:0:0:0:
469,334,23131,1,0,0:0:0:0:
288,368,23293,2,0,P|224:320|204:259,1,107.999996704102,0|8,0:0|0:0,0:0:0:0:
281,68,23615,1,0,0:0:0:0:
281,68,23696,1,0,0:0:0:0:
281,68,23776,1,0,0:0:0:0:
381,146,23938,1,8,0:0:0:0:
153,198,24099,1,8,0:0:0:0:
325,340,24260,6,2,P|335:272|279:126,1,215.999993408203,2|0,0:0|0:0,0:0:0:0:
411,284,24744,1,8,0:0:0:0:
224,198,24905,1,0,0:0:0:0:
224,198,24986,1,0,0:0:0:0:
224,198,25067,2,0,P|288:204|368:191,1,107.999996704102
476,12,25389,1,8,0:0:0:0:
268,105,25551,5,0,0:0:0:0:
243,115,25631,1,0,0:0:0:0:
217,125,25712,2,0,P|159:141|99:128,1,107.999996704102
27,17,26034,1,8,0:0:0:0:
27,223,26196,2,0,L|118:223,1,53.9999983520508
112,133,26357,1,8,0:0:0:0:
259,346,26518,1,12,0:0:0:0:
259,346,26841,6,2,P|374:344|502:306,1,215.999993408203,2|0,0:0|0:0,0:0:0:0:
400,170,27325,1,8,0:0:0:0:
259,86,27486,2,0,L|171:86,2,53.9999983520508
212,240,27809,1,0,0:0:0:0:
57,134,27970,1,8,0:0:0:0:
259,86,28131,5,0,0:0:0:0:
259,86,28212,1,0,0:0:0:0:
259,86,28293,2,0,P|283:156|286:218,1,107.999996704102
189,364,28615,1,8,0:0:0:0:
107,125,28776,1,0,0:0:0:0:
108,345,28938,1,0,0:0:0:0:
193,124,29099,1,8,0:0:0:0:
270,345,29260,1,8,0:0:0:0:
399,82,29422,6,2,P|439:172|431:325,1,215.999993408203,2|0,0:0|0:0,0:0:0:0:
213,256,29905,2,0,P|263:237|317:236,1,107.999996704102,8|0,0:0|0:0,0:0:0:0:
342,243,30147,1,0,0:0:0:0:
367,252,30228,1,0,0:0:0:0:
168,199,30389,1,0,0:0:0:0:
384,174,30551,1,8,0:0:0:0:
226,344,30712,2,0,L|141:345,1,53.9999983520508
126,275,30873,1,0,0:0:0:0:
117,98,31034,1,0,0:0:0:0:
181,249,31196,2,0,L|26:324,1,120,8|0,0:0|0:0,0:0:0:0:
331,135,31518,2,0,L|439:82,1,120,8|4,0:0|0:0,0:0:0:0:
256,192,32002,12,0,33131,0:0:0:0:
250,114,33373,6,0,L|246:146,1,30
258,107,33454,1,0,0:0:0:0:
404,179,33615,1,0,0:0:0:0:
266,271,33776,1,0,0:0:0:0:
404,179,33938,1,8,0:0:0:0:
190,72,34099,1,8,0:0:0:0:
201,311,34260,1,8,0:0:0:0:
404,179,34422,1,12,0:0:0:0:
404,179,34744,6,0,P|410:115|404:66,2,107.999996704102
344,350,35389,1,8,0:0:0:0:
404,178,35712,1,0,0:0:0:0:
344,350,35873,2,0,P|354:332|316:249,1,107.999996704102,0|0,0:0|2:0,0:0:0:0:
265,231,36196,1,0,0:0:0:0:
115,321,36357,2,0,P|96:314|75:225,1,107.999996704102,0|0,0:0|2:0,0:0:0:0:
104,179,36680,5,8,0:0:0:0:
253,81,36948,1,0,0:0:0:0:
404,179,37164,1,0,0:0:0:0:
404,179,37325,2,0,L|404:293,2,107.999996704102
269,48,37970,6,0,P|220:25|168:34,1,107.999996704102,8|0,0:0|2:0,0:0:0:0:
102,82,38293,1,0,0:0:0:0:
35,279,38454,6,0,P|103:302|140:290,1,107.999996704102,0|0,0:0|2:0,0:0:0:0:
201,244,38776,1,0,0:0:0:0:
314,77,38938,6,0,P|363:93|421:134,1,107.999996704102
433,146,39260,1,0,0:0:0:0:
454,174,39341,1,0,0:0:0:0:
462,209,39422,1,0,0:0:0:0:
460,243,39502,1,0,0:0:0:0:
442,274,39583,1,0,0:0:0:0:
413,296,39664,1,0,0:0:0:0:
379,307,39744,1,0,0:0:0:0:
342,305,39825,1,0,0:0:0:0:
307,288,39905,2,0,P|262:258|244:213,1,96,0|0,0:0|2:0,0:0:0:0:
295,126,40147,2,0,P|273:83|233:59,1,96,0|0,0:0|2:0,0:0:0:0:
162,117,40389,1,0,0:0:0:0:
352,203,40551,1,8,0:0:0:0:
223,250,40873,5,0,0:0:0:0:
223,250,41034,1,0,0:0:0:0:
223,72,41357,5,0,0:0:0:0:
223,72,41518,1,0,0:0:0:0:
352,200,41841,6,0,P|326:247|296:269,1,72,8|0,0:0|2:0,0:0:0:0:
205,190,42164,2,0,P|260:184|290:200,1,72,0|0,0:0|2:0,0:0:0:0:
238,259,42486,2,0,B|176:282|117:245|118:188|124:153|153:124|189:116,1,240,0|8,0:0|0:0,0:0:0:0:
367,86,43454,5,0,0:0:0:0:
367,86,43615,1,0,0:0:0:0:
260,261,43938,5,0,0:0:0:0:
260,261,44099,1,0,0:0:0:0:
57,37,44422,6,0,L|66:98,1,41.9999987182618
146,155,44583,2,0,L|112:211,1,41.9999987182618
30,253,44744,2,0,L|56:308,1,41.9999987182618
151,336,44905,2,0,L|204:334,1,41.9999987182618
350,327,45067,6,0,P|387:263|406:134,1,192,2|8,0:0|0:0,0:0:0:0:
218,43,45551,1,0,0:0:0:0:
172,56,45631,1,0,0:0:0:0:
128,76,45712,2,0,L|224:105,1,96
1,132,46034,1,8,0:0:0:0:
167,204,46196,1,0,0:0:0:0:
205,230,46276,1,0,0:0:0:0:
247,252,46357,2,0,L|129:286,1,96
387,156,46680,1,8,0:0:0:0:
439,338,46841,6,0,L|372:338,1,48
367,228,47002,1,0,0:0:0:0:
158,324,47164,1,0,0:0:0:0:
275,108,47325,1,8,0:0:0:0:
311,338,47486,1,0,0:0:0:0:
91,108,47647,2,0,P|123:179|214:229,1,144,2|0,0:0|0:0,0:0:0:0:
275,184,47970,1,8,0:0:0:0:
42,236,48131,1,0,0:0:0:0:
42,236,48212,1,0,0:0:0:0:
42,236,48293,1,0,0:0:0:0:
289,339,48454,1,0,0:0:0:0:
452,108,48615,2,0,P|468:184|464:232,1,96,8|0,0:0|0:0,0:0:0:0:
467,201,48857,1,0,0:0:0:0:
467,201,48938,1,0,0:0:0:0:
324,56,49099,1,0,0:0:0:0:
92,170,49260,1,8,0:0:0:0:
92,170,49583,6,0,L|173:144,1,48
278,148,49744,2,0,L|233:195,1,48
294,314,49905,2,0,L|340:267,1,48
453,213,50067,2,0,L|396:229,1,48
284,234,50228,6,0,L|350:161,1,96
445,35,50470,2,0,L|317:23,1,96
165,8,50712,2,0,L|184:144,1,96
199,343,51196,6,0,L|335:324,1,96
426,225,51438,2,0,L|353:159,1,96
226,64,51680,2,0,L|214:191,1,96
284,234,52002,5,0,0:0:0:0:
284,234,52083,1,0,0:0:0:0:
284,234,52164,2,0,P|197:256|152:242,1,96
257,48,52486,2,0,P|350:59|385:81,1,96
155,350,52809,2,0,P|112:285|114:162,1,192
261,353,53293,1,0,0:0:0:0:
261,353,53373,1,0,0:0:0:0:
261,353,53454,1,0,0:0:0:0:
110,174,53615,1,0,0:0:0:0:
289,23,53776,1,0,0:0:0:0:
440,202,53938,1,0,0:0:0:0:
193,185,54099,6,0,P|134:175|79:186,1,96
431,317,54422,2,0,P|435:266|429:209,1,96
111,136,54744,2,0,P|158:172|229:190,1,96
476,87,55067,2,0,P|444:132|381:167,1,96
235,253,55389,1,0,0:0:0:0:
80,56,55873,5,0,0:0:0:0:
48,132,56034,1,0,0:0:0:0:
432,56,56357,5,0,0:0:0:0:
464,132,56518,1,0,0:0:0:0:
130,201,56841,6,0,L|172:223,1,48
230,297,57002,2,0,L|274:278,1,48
314,193,57164,2,0,L|356:215,1,48
416,287,57325,1,0,0:0:0:0:
416,287,57809,5,0,0:0:0:0:
320,294,57970,1,0,0:0:0:0:
235,248,58131,2,0,P|198:193|187:156,1,96
293,73,58454,5,0,0:0:0:0:
288,166,58615,1,0,0:0:0:0:
235,248,58776,2,0,P|176:278|138:286,1,96
130,99,59099,5,0,0:0:0:0:
161,187,59260,1,0,0:0:0:0:
235,248,59421,2,0,P|299:260|338:255,1,96
416,215,59744,1,0,0:0:0:0:
416,215,59905,1,0,0:0:0:0:
235,248,60067,1,0,0:0:0:0:
156,52,60228,1,0,0:0:0:0:
103,132,60389,6,0,P|139:206|170:221,1,96
235,248,60712,1,0,0:0:0:0:
330,252,60873,1,0,0:0:0:0:
316,79,61034,5,0,0:0:0:0:
261,157,61195,1,0,0:0:0:0:
235,248,61357,2,0,P|241:295|270:331,1,96
367,328,61680,5,0,0:0:0:0:
452,149,61841,2,0,B|390:158|372:64|297:78,1,144
292,85,62164,1,0,0:0:0:0:
51,146,62325,1,0,0:0:0:0:
180,15,62486,1,0,0:0:0:0:
180,15,62567,1,0,0:0:0:0:
292,223,62809,1,0,0:0:0:0:
258,183,62889,1,0,0:0:0:0:
220,146,62970,6,0,L|220:260,2,96
383,201,77970,5,0,0:0:0:0:
375,171,78051,1,0,0:0:0:0:
355,148,78131,1,0,0:0:0:0:
327,136,78212,1,0,0:0:0:0:
296,134,78293,1,0,0:0:0:0:
266,138,78373,1,0,0:0:0:0:
239,152,78454,1,0,0:0:0:0:
212,164,78534,1,0,0:0:0:0:
183,172,78615,6,0,P|118:188|58:183,1,120
250,34,78938,1,0,0:0:0:0:
301,218,79099,1,0,0:0:0:0:
301,218,79180,1,0,0:0:0:0:
301,218,79260,2,0,P|256:270|180:284,1,120
338,47,79583,6,0,P|393:76|437:133,1,120
450,156,79825,1,0,0:0:0:0:
458,196,79905,1,0,0:0:0:0:
435,353,80067,1,0,0:0:0:0:
301,218,80228,1,0,0:0:0:0:
184,348,80389,2,0,P|104:326|72:290,1,120
301,218,80712,1,0,0:0:0:0:
190,77,80873,1,0,0:0:0:0:
207,253,81034,1,0,0:0:0:0:
284,92,81196,6,0,P|351:44|426:39,1,120
439,216,81518,1,0,0:0:0:0:
248,166,81680,1,0,0:0:0:0:
354,342,81841,2,0,P|267:348|223:329,1,120
39,189,82164,2,0,P|126:183|170:202,1,120
206,263,82405,1,0,0:0:0:0:
206,263,82486,2,0,P|240:184|321:117,1,180
351,115,82809,1,0,0:0:0:0:
172,25,82970,1,0,0:0:0:0:
87,197,83131,2,0,L|87:341,1,120
87,317,83615,6,0,P|180:362|338:353,1,240
394,326,84099,1,8,0:0:0:0:
443,255,84422,1,0,0:0:0:0:
432,248,84502,1,0,0:0:0:0:
421,242,84583,1,0,0:0:0:0:
409,239,84664,1,0,0:0:0:0:
397,238,84744,1,0,0:0:0:0:
384,238,84825,1,0,0:0:0:0:
371,239,84905,6,0,P|310:266|251:275,1,120,2|0,0:0|0:0,0:0:0:0:
56,73,85228,2,0,P|110:47|169:37,1,120,2|0,0:0|0:0,0:0:0:0:
165,320,85551,2,0,P|143:264|137:204,1,120,2|0,0:0|0:0,0:0:0:0:
180,142,85793,1,0,0:0:0:0:
180,142,85873,2,0,P|239:139|298:151,1,120,2|4,0:0|0:0,0:0:0:0:
298,151,86196,6,2,B|232:131|180:143|180:143|184:91|158:67,1,192,2|0,0:0|0:0,0:0:0:0:
441,27,86680,1,8,0:0:0:0:
442,249,86841,1,0,0:0:0:0:
275,77,87002,1,8,0:0:0:0:
508,137,87164,1,0,0:0:0:0:
508,137,87244,1,0,0:0:0:0:
508,137,87325,1,8,0:0:0:0:
376,363,87486,1,0,0:0:0:0:
376,363,87567,1,0,0:0:0:0:
376,363,87647,2,0,P|342:305|348:240,1,96,8|0,0:0|0:0,0:0:0:0:
176,78,87970,2,0,P|210:136|204:201,1,96,8|0,0:0|0:0,0:0:0:0:
119,152,88293,1,8,0:0:0:0:
433,289,88454,1,4,0:0:0:0:
433,289,88776,6,2,B|409:330|406:362|406:362|359:339|280:365,1,192,2|0,0:0|0:0,0:0:0:0:
40,352,89260,1,8,0:0:0:0:
265,245,89422,1,0,0:0:0:0:
60,326,89583,1,8,0:0:0:0:
245,122,89744,1,0,0:0:0:0:
245,122,89825,1,0,0:0:0:0:
245,122,89906,1,8,0:0:0:0:
182,374,90067,5,0,0:0:0:0:
182,374,90147,1,0,0:0:0:0:
182,374,90228,2,0,L|137:269,1,96,8|0,0:0|0:0,0:0:0:0:
405,194,90551,2,0,P|367:238|308:237,1,96,8|0,0:0|0:0,0:0:0:0:
89,189,90873,1,0,0:0:0:0:
63,183,90953,1,0,0:0:0:0:
35,164,91034,1,0,0:0:0:0:
14,129,91114,1,0,0:0:0:0:
12,79,91195,1,0,0:0:0:0:
35,29,91276,1,0,0:0:0:0:
89,0,91357,6,2,B|142:38|140:78|140:78|186:47|251:62,1,192,2|0,0:0|0:0,0:0:0:0:
462,40,91841,1,8,0:0:0:0:
208,130,92002,1,0,0:0:0:0:
497,11,92164,1,8,0:0:0:0:
497,306,92325,1,0,0:0:0:0:
497,306,92405,1,0,0:0:0:0:
497,306,92486,1,8,0:0:0:0:
282,115,92647,5,0,0:0:0:0:
249,93,92728,1,0,0:0:0:0:
217,70,92809,2,0,P|215:128|174:182,1,96,8|0,0:0|0:0,0:0:0:0:
13,379,93131,2,0,P|12:319|45:260,1,96,8|0,0:0|0:0,0:0:0:0:
85,340,93454,1,8,0:0:0:0:
416,340,93615,1,12,0:0:0:0:
416,340,93938,6,2,P|324:379|243:296,1,192,2|0,0:0|0:0,0:0:0:0:
456,272,94422,1,8,0:0:0:0:
193,282,94583,1,0,0:0:0:0:
336,300,94744,1,8,0:0:0:0:
90,207,94905,1,0,0:0:0:0:
57,185,94986,1,0,0:0:0:0:
42,149,95067,1,8,0:0:0:0:
295,47,95228,5,0,0:0:0:0:
329,64,95309,1,0,0:0:0:0:
352,94,95389,2,0,P|383:150|363:210,1,96
70,61,95712,2,0,P|105:25|152:6,1,96,8|0,0:0|0:0,0:0:0:0:
352,94,96034,1,0,0:0:0:0:
381,137,96114,1,0,0:0:0:0:
368,188,96195,1,0,0:0:0:0:
322,214,96275,1,0,0:0:0:0:
269,203,96356,1,0,0:0:0:0:
223,176,96437,1,0,0:0:0:0:
182,142,96518,6,2,B|154:111|109:118|109:118|117:180|35:275,1,215.999993408203,2|0,0:0|0:0,0:0:0:0:
23,26,97002,1,8,0:0:0:0:
164,223,97164,1,0,0:0:0:0:
182,261,97244,1,0,0:0:0:0:
204,297,97325,2,0,P|124:308|51:293,1,107.999996704102
257,84,97647,1,8,0:0:0:0:
383,319,97809,5,0,0:0:0:0:
416,346,97889,1,0,0:0:0:0:
459,350,97970,2,0,P|474:284|465:217,1,107.999996704102
446,59,98293,1,8,0:0:0:0:
349,257,98454,1,0,0:0:0:0:
256,39,98615,1,0,0:0:0:0:
166,301,98776,1,8,0:0:0:0:
55,0,98938,1,8,0:0:0:0:
6,347,99099,6,2,B|13:354|19:373|19:373|66:344|115:365|115:365|122:314|174:297,1,215.999993408203,2|0,0:0|0:0,0:0:0:0:
190,372,99583,1,8,0:0:0:0:
12,205,99744,1,0,0:0:0:0:
20,173,99825,1,0,0:0:0:0:
33,143,99905,2,0,P|91:98|146:78,1,107.999996704102
366,9,100228,1,8,0:0:0:0:
332,260,100389,5,0,0:0:0:0:
299,257,100470,1,0,0:0:0:0:
267,250,100550,2,0,P|212:200|183:150,1,107.999996704102
494,236,100873,2,0,P|515:306|477:349,1,107.999996704102,8|0,0:0|0:0,0:0:0:0:
445,287,101196,1,8,0:0:0:0:
198,95,101357,1,12,0:0:0:0:
198,95,101680,6,2,B|235:73|237:25|237:25|301:55|377:13,1,215.999993408203,2|0,0:0|0:0,0:0:0:0:
506,199,102164,1,8,0:0:0:0:
341,357,102325,1,0,0:0:0:0:
310,346,102405,1,0,0:0:0:0:
282,328,102486,2,0,P|237:267|242:211,1,107.999996704102
506,199,102809,1,8,0:0:0:0:
282,328,102970,5,0,0:0:0:0:
239,334,103051,1,0,0:0:0:0:
196,334,103131,2,0,P|118:313|78:282,1,107.999996704102
16,77,103454,1,8,0:0:0:0:
263,59,103615,2,0,P|232:114|187:146,1,107.999996704102
403,104,103938,1,8,0:0:0:0:
162,322,104099,1,8,0:0:0:0:
484,366,104260,6,2,B|495:331|460:307|460:307|501:272|475:227|475:227|503:186|468:138,1,215.999993408203,2|0,0:0|0:0,0:0:0:0:
481,19,104744,1,8,0:0:0:0:
263,132,104905,1,0,0:0:0:0:
228,158,104986,1,0,0:0:0:0:
221,200,105067,2,0,P|283:204|331:171,1,107.999996704102
132,22,105389,1,8,0:0:0:0:
36,211,105551,5,0,0:0:0:0:
28,253,105631,1,0,0:0:0:0:
26,296,105712,2,0,B|20:319|16:362|16:362|58:344|82:366,1,107.999996704102
275,298,106034,1,8,0:0:0:0:
132,22,106196,1,8,0:0:0:0:
135,253,106357,6,2,B|158:239|187:263|187:263|202:229|193:205|193:205|221:191|256:218,1,161.999995056153,2|6,0:0|0:0,0:0:0:0:
73,62,116680,6,0,L|116:62,1,26.9999991760254
102,136,116841,6,0,L|142:121,1,26.9999991760254
164,191,117002,6,0,L|196:163,1,26.9999991760254
242,222,117164,6,0,L|263:184,1,26.9999991760254
249,71,117325,6,0,B|220:54|220:54|193:74|176:56|176:56|143:32|97:43,1,144
130,110,117647,1,0,0:0:0:0:
238,313,117809,1,0,0:0:0:0:
238,313,117889,1,0,0:0:0:0:
238,313,117970,2,0,P|301:280|321:238,1,96
182,131,118293,1,0,0:0:0:0:
51,259,118454,1,0,0:0:0:0:
51,259,118534,1,0,0:0:0:0:
51,259,118615,2,0,P|104:307|150:311,1,96
419,327,118938,5,0,0:0:0:0:
258,208,119099,1,0,0:0:0:0:
233,178,119180,1,0,0:0:0:0:
243,141,119260,1,0,0:0:0:0:
419,42,119422,1,0,0:0:0:0:
315,254,119583,1,0,0:0:0:0:
157,25,119744,1,0,0:0:0:0:
38,310,119905,2,0,B|86:348|107:325|107:325|146:337|180:318,1,144
136,258,120228,5,0,0:0:0:0:
16,97,120389,1,0,0:0:0:0:
2,61,120470,1,0,0:0:0:0:
16,25,120551,2,0,P|60:43|136:37,1,96
302,164,120872,1,0,0:0:0:0:
275,191,120953,1,0,0:0:0:0:
236,194,121034,2,0,P|233:146|135:113,1,144
168,176,121357,1,0,0:0:0:0:
440,32,121518,1,0,0:0:0:0:
418,330,121841,6,0,L|393:264,1,48
361,123,122002,2,0,L|346:170,1,48
316,319,122164,2,0,L|291:253,1,48
262,135,122325,2,0,L|247:182,1,48
209,299,122486,6,0,L|158:178,1,96
227,47,122728,2,0,L|352:62,1,96
442,188,122970,2,0,L|365:287,1,96
252,236,123454,6,0,L|216:149,1,71.9999978027344
261,116,123696,2,0,L|346:126,1,71.9999978027344
364,183,123938,2,0,L|303:262,1,71.9999978027344
147,242,124260,6,0,L|125:190,1,48
104,127,124422,2,0,P|163:128|214:138,1,96
498,352,124744,2,0,P|439:351|388:341,1,96
244,206,125067,2,0,P|228:144|233:-4,1,192
137,176,125551,1,0,0:0:0:0:
137,176,125631,1,0,0:0:0:0:
137,176,125712,1,0,0:0:0:0:
375,48,125873,1,0,0:0:0:0:
137,176,126034,1,0,0:0:0:0:
375,308,126196,1,0,0:0:0:0:
137,176,126357,6,0,P|78:166|23:177,1,96
375,308,126680,2,0,P|379:257|373:200,1,96
55,127,127002,2,0,P|102:163|173:181,1,96
420,78,127325,2,0,P|388:123|325:158,1,96
179,244,127647,2,0,P|186:309|217:241,1,167.999994873047
102,167,128131,5,0,0:0:0:0:
356,233,128293,1,0,0:0:0:0:
356,233,128615,5,0,0:0:0:0:
47,253,128777,1,0,0:0:0:0:
47,253,129099,2,0,L|99:288,1,48
187,335,129260,2,0,L|187:271,1,48
187,172,129422,1,0,0:0:0:0:
187,172,129502,1,0,0:0:0:0:
187,172,129583,1,0,0:0:0:0:
276,301,129744,1,0,0:0:0:0:
332,194,129905,1,0,0:0:0:0:
368,274,130067,1,0,0:0:0:0:
142,229,130228,1,0,0:0:0:0:
142,229,130389,1,0,0:0:0:0:
