osu file format v14

[General]
AudioFilename: audio.mp3
AudioLeadIn: 0
PreviewTime: 67197
Countdown: 0
SampleSet: Soft
StackLeniency: 0.7
Mode: 0
LetterboxInBreaks: 0
WidescreenStoryboard: 0

[Editor]
Bookmarks: 1068,11370,21700,34757,45079,55402,68305,78627,86205,96524,107015,117337,127660,135402,141840,152176,159918,162499,167660,172821,177982,183144,185724,190886,196047,203628,213950,216047
DistanceSpacing: 0.9
BeatDivisor: 2
GridSize: 32
TimelineZoom: 1.100006

[Metadata]
Title:KUUKAN<=>Formation
TitleUnicode:空閒⇔Formation
Artist:YAIRI
ArtistUnicode:やいり
Creator:Net0
Version:K4L1's Easy
Source:
Tags:Room⇔Formation 2013 AKIAKANE ROOM Japanese Rock Vocaloid Kalindraz Enerugi HowRengar Rensia AlextroIIPsy K4L1
BeatmapID:2160549
BeatmapSetID:1033379

[Difficulty]
HPDrainRate:2
CircleSize:3
OverallDifficulty:3
ApproachRate:3
SliderMultiplier:0.9
SliderTickRate:1

[Events]
//Background and Video events
0,0,"gumipresamusicafoda.jpg",0,0
//Break Periods
2,106591,115918
2,173042,176563
2,193687,194628
//Storyboard Layer 0 (Background)
//Storyboard Layer 1 (Fail)
//Storyboard Layer 2 (Pass)
//Storyboard Layer 3 (Foreground)
//Storyboard Layer 4 (Overlay)
//Storyboard Sound Samples

[TimingPoints]
10262,322.58064516129,4,2,0,100,1,0
11391,-100,4,2,0,40,0,0
34778,-117.647058823529,4,2,0,40,0,0
45100,-100,4,2,0,40,0,0
68326,-100,4,2,0,60,0,1
86229,-100,4,2,0,40,0,0
141874,-100,4,2,0,60,0,1
159939,-100,4,2,0,40,0,0
185745,-111.111111111111,4,2,0,40,0,0
190907,-105.263157894737,4,2,0,40,0,0
196068,-100,4,2,0,60,0,1
203649,-100,4,2,0,40,0,0

[Colours]
Combo1 : 192,92,203
Combo2 : 192,192,192
Combo3 : 128,128,128
Combo4 : 0,255,64
Combo5 : 0,193,0
Combo6 : 128,0,255

[HitObjects]
496,270,11391,6,0,P|431:255|360:270,1,135,12|8,3:1|0:1,0:0:0:0:
314,342,12197,2,0,L|203:350,1,90,8|8,0:1|0:1,0:0:0:0:
160,285,12842,2,0,L|70:278,1,90,8|8,0:1|0:1,0:0:0:0:
1,337,13487,1,8,3:1:0:0:
0,201,13971,6,0,P|65:186|136:201,1,135,12|8,3:1|0:1,0:0:0:0:
182,273,14777,2,0,L|293:281,1,90,8|8,0:1|0:1,0:0:0:0:
336,216,15422,2,0,L|425:209,1,90,8|8,0:1|0:1,0:0:0:0:
495,268,16067,1,8,0:1:0:0:
493,132,16552,6,0,P|428:117|357:132,1,135,12|8,3:1|0:1,0:0:0:0:
311,204,17358,2,0,L|200:212,1,90,8|8,0:1|0:1,0:0:0:0:
157,147,18003,2,0,L|67:140,1,90,8|8,0:1|0:1,0:0:0:0:
1,199,18648,1,8,3:1:0:0:
1,63,19132,6,0,B|57:48|57:48|233:60,1,225,12|0,3:1|3:0,0:0:0:0:
352,17,20423,2,0,B|385:112|320:112|353:238,1,225,0|8,3:0|0:1,0:0:0:0:
472,300,21713,6,0,P|403:323|339:324,1,135,4|2,0:0|0:3,0:0:0:0:
256,292,22520,2,0,B|192:279|192:279|127:300|127:300|61:285,1,180,2|0,0:3|3:0,0:0:0:0:
3,245,23487,1,8,0:0:0:0:
43,116,23971,1,8,0:0:0:0:
11,31,24294,6,0,B|55:17|55:17|152:27,1,135,4|2,0:0|0:3,0:0:0:0:
197,97,25100,2,0,L|413:84,1,180,2|0,0:3|3:0,0:0:0:0:
457,46,26068,1,8,0:0:0:0:
511,169,26552,1,8,3:2:0:0:
431,211,26874,6,0,P|395:267|401:334,1,135,4|2,0:0|0:3,0:0:0:0:
480,290,27681,2,0,B|350:253|350:253|302:260,1,180,2|0,0:3|3:0,0:0:0:0:
238,319,28649,1,8,0:0:0:0:
105,294,29132,1,8,0:0:0:0:
26,337,29455,6,0,P|24:274|0:173,1,135,4|2,0:0|0:3,0:0:0:0:
5,113,30261,2,0,P|69:130|101:182,1,90,2|2,0:3|1:3,0:0:0:0:
150,207,30907,2,0,P|186:240|235:247,2,90,0|8|8,3:0|0:0|3:2,0:0:0:0:
145,72,32036,1,4,0:0:0:0:
145,72,34778,6,0,B|221:85|221:46|295:70,1,153.000002918243,2|8,3:2|0:0,0:0:0:0:
506,292,36713,1,8,0:0:0:0:
367,357,37358,6,0,B|299:380|299:380|199:367,1,153.000002918243,2|8,3:2|0:0,0:0:0:0:
7,147,39294,1,8,0:0:0:0:
112,36,39939,6,0,B|161:31|161:31|215:40|215:40|264:35,1,153.000002918243,2|8,3:2|0:0,0:0:0:0:
498,231,41874,1,10,0:0:0:0:
377,325,42520,6,0,L|207:322,1,153.000002918243,2|10,0:3|0:0,0:0:0:0:
12,101,44455,1,8,0:0:0:0:
24,280,45100,6,0,B|90:293|158:278|145:229|220:212|280:230,2,270,4|2|2,3:2|1:3|3:0,0:0:0:0:
4,192,47358,1,2,1:3:0:0:
25,104,47681,6,0,B|97:122|142:164|142:164|149:107|203:44,2,270,4|2|2,3:2|1:3|3:0,0:0:0:0:
4,192,49939,1,0,3:0:0:0:
82,235,50261,6,0,B|178:317|295:308|295:308|388:242|402:114,1,450,4|2,0:0|1:3,0:0:0:0:
423,36,52197,2,0,P|365:35|332:71,1,90,2|2,3:0|1:3,0:0:0:0:
307,137,52842,6,0,P|212:138|123:105,1,180,4|0,0:1|3:0,0:0:0:0:
72,43,53810,1,8,0:1:0:0:
2,100,54132,2,0,L|13:216,1,90,2|10,3:2|1:2,0:0:0:0:
64,262,54778,2,0,L|55:351,2,90,10|10|12,1:2|1:2|0:1,0:0:0:0:
512,61,58003,5,0,3:0:0:0:
365,166,58649,1,0,3:0:0:0:
185,183,59294,1,0,3:0:0:0:
13,129,59939,1,0,3:0:0:0:
179,60,60584,5,4,3:2:0:0:
278,210,61229,1,0,3:0:0:0:
189,366,61874,2,0,P|177:205|248:123,1,270,2|2,0:3|0:3,0:0:0:0:
331,127,63165,6,0,B|384:119|384:119|449:152|449:152|503:147,1,180,4|2,3:2|3:0,0:0:0:0:
472,62,64132,1,8,0:0:0:0:
387,29,64455,2,0,L|185:65,1,180,2|2,3:0|3:0,0:0:0:0:
121,40,65423,1,8,0:0:0:0:
58,104,65745,6,0,B|12:185|20:294|20:294|62:310|95:287,1,270,4|8,3:2|0:0,0:0:0:0:
160,232,67036,1,8,0:0:0:0:
495,379,68326,6,0,P|481:293|403:249,1,180,4|12,3:2|0:1,0:0:0:0:
321,218,69294,1,8,0:0:0:0:
231,226,69616,2,0,P|155:182|141:96,1,180,4|12,3:2|0:1,0:0:0:0:
202,30,70584,1,8,0:0:0:0:
289,51,70907,2,0,B|338:79|338:79|468:74,2,180,4|12|4,3:2|0:1|3:2,0:0:0:0:
111,24,72842,5,12,0:1:0:0:
44,84,73165,1,12,0:1:0:0:
21,171,73487,2,0,B|70:199|70:199|200:194,1,180,4|12,3:2|0:1,0:0:0:0:
273,152,74455,1,8,0:0:0:0:
304,67,74778,2,0,B|427:62|427:62|476:90,1,180,4|12,3:2|0:1,0:0:0:0:
511,173,75745,1,8,0:0:0:0:
509,263,76068,6,0,B|417:284|417:241|320:266,1,180,4|8,0:0|0:0,0:0:0:0:
288,343,77036,2,0,P|240:272|280:188,1,180,2|0,0:0|0:0,0:0:0:0:
360,167,78003,1,8,3:1:0:0:
384,80,78326,1,8,3:1:0:0:
338,1,78649,6,0,B|246:9|260:45|165:50,1,180,4|0,3:2|3:0,0:0:0:0:
83,15,79616,1,8,0:0:0:0:
29,87,79939,2,0,L|24:275,1,180,4|2,0:0|3:0,0:0:0:0:
1,354,80907,1,8,0:0:0:0:
87,330,81229,6,0,P|178:317|270:324,1,180,4|0,0:0|3:0,0:0:0:0:
346,362,82197,1,8,0:0:0:0:
425,319,82520,2,0,B|459:278|459:278|465:133,1,180,4|6,0:0|3:0,0:0:0:0:
394,35,83649,6,0,B|316:27|257:35,1,135,4|8,0:0|0:0,0:0:0:0:
175,67,84455,1,2,3:0:0:0:
103,181,84939,2,0,L|91:274,2,90,2|0|0,3:0|3:0|3:0,0:0:0:0:
27,131,85907,1,12,0:0:0:0:
23,41,86229,6,0,P|92:32|164:35,1,135,12|8,3:1|0:1,0:0:0:0:
199,113,87035,2,0,L|310:121,1,90,8|8,0:1|0:1,0:0:0:0:
353,56,87680,2,0,L|443:49,1,90,8|8,0:1|0:1,0:0:0:0:
512,108,88326,1,8,3:1:0:0:
512,243,88810,6,0,P|443:252|371:249,1,135,12|8,3:1|0:1,0:0:0:0:
336,171,89616,2,0,L|225:163,1,90,8|8,0:1|0:1,0:0:0:0:
182,228,90261,2,0,L|92:235,1,90,8|8,0:1|0:1,0:0:0:0:
23,176,90906,1,8,0:1:0:0:
23,41,91391,6,0,P|92:32|164:35,1,135,12|8,3:1|0:1,0:0:0:0:
199,113,92197,2,0,L|310:121,1,90,8|8,0:1|0:1,0:0:0:0:
353,56,92842,2,0,L|443:49,1,90,8|8,0:1|0:1,0:0:0:0:
512,108,93487,1,8,3:1:0:0:
508,242,93971,6,0,B|421:261|421:261|318:172,1,225,12|0,3:1|3:0,0:0:0:0:
185,155,95261,2,0,P|117:227|198:233,1,225,0|8,3:0|0:1,0:0:0:0:
269,123,96552,6,0,P|217:79|153:67,1,135,4|2,0:0|0:3,0:0:0:0:
69,101,97358,2,0,P|28:179|52:279,1,180,2|0,0:3|3:0,0:0:0:0:
111,325,98326,1,8,0:0:0:0:
245,314,98810,1,8,0:0:0:0:
323,358,99132,6,0,P|336:287|338:213,1,135,4|2,0:0|0:3,0:0:0:0:
274,160,99939,2,0,B|319:138|319:138|395:142|395:142|450:112,1,180,2|0,0:3|3:0,0:0:0:0:
469,30,100907,1,8,0:0:0:0:
336,4,101391,1,8,3:2:0:0:
270,65,101713,6,0,B|180:77|180:77|128:66,1,135,4|2,0:0|0:3,0:0:0:0:
73,3,102520,2,0,P|49:84|108:152,1,180,2|0,0:3|3:0,0:0:0:0:
194,167,103487,1,8,0:0:0:0:
316,224,103971,1,8,0:0:0:0:
405,236,104294,6,0,P|375:290|283:308,1,135,4|2,0:0|0:3,0:0:0:0:
233,262,105100,2,0,L|137:251,1,90,2|2,0:3|1:3,0:0:0:0:
128,340,105745,2,0,L|217:350,1,90,0|8,3:0|0:0,0:0:0:0:
302,319,106391,1,8,3:2:0:0:
203,44,117358,6,0,B|149:107|142:164|142:164|97:122|25:104,2,270,4|2|2,3:2|1:3|3:0,0:0:0:0:
290,23,119616,1,2,1:3:0:0:
365,71,119939,6,0,B|383:131|366:206|317:193|302:261|315:327,2,270,4|2|2,3:2|1:3|3:0,0:0:0:0:
290,23,122197,1,0,3:0:0:0:
218,77,122520,6,0,B|45:114|45:114|14:206|14:206|204:168,1,450,4|2,0:0|1:3,0:0:0:0:
275,154,124455,2,0,L|270:246,1,90,2|2,3:0|1:3,0:0:0:0:
312,323,125100,6,0,L|498:285,1,180,4|2,0:1|3:0,0:0:0:0:
510,199,126068,1,2,1:3:0:0:
452,129,126391,2,0,L|340:110,1,90,2|10,3:2|1:2,0:0:0:0:
333,198,127036,2,0,L|421:213,1,90,10|10,1:2|1:2,0:0:0:0:
510,199,127681,1,12,0:1:0:0:
510,199,130261,5,8,0:1:0:0:
343,268,130907,1,8,0:1:0:0:
176,199,131552,1,0,3:0:0:0:
9,268,132198,1,8,0:0:0:0:
176,337,132842,5,8,0:1:0:0:
280,190,133487,1,8,0:1:0:0:
162,53,134132,2,0,B|129:32|98:27|98:27|89:137|116:235,1,270,2|10,3:0|0:0,0:0:0:0:
193,268,135423,6,0,B|254:281|254:281|300:267|300:267|372:283,1,180,2|8,3:2|3:2,0:0:0:0:
445,236,136391,1,2,0:3:0:0:
364,196,136713,2,0,B|296:180|296:180|250:194|250:194|189:181,1,180,2|8,3:2|3:2,0:0:0:0:
112,228,137681,1,2,0:3:0:0:
32,185,138003,6,0,P|32:93|106:47,1,180,6|8,3:2|3:2,0:0:0:0:
181,83,138971,1,2,0:3:0:0:
111,140,139294,1,8,0:0:0:0:
111,140,141874,6,0,P|206:157|308:139,1,180,4|12,3:2|0:1,0:0:0:0:
361,93,142842,1,8,0:0:0:0:
446,122,143165,2,0,L|461:329,1,180,4|12,3:2|0:1,0:0:0:0:
417,381,144132,1,8,0:0:0:0:
333,346,144455,2,0,P|253:332|152:354,2,180,4|12|4,3:2|0:1|3:2,0:0:0:0:
510,314,146391,5,12,0:1:0:0:
457,241,146713,1,12,0:1:0:0:
367,232,147036,2,0,P|337:143|349:44,1,180,4|12,3:2|0:1,0:0:0:0:
429,31,148003,1,8,0:0:0:0:
416,120,148326,2,0,P|334:147|252:102,1,180,4|12,3:2|0:1,0:0:0:0:
241,16,149294,1,8,0:0:0:0:
151,7,149616,6,0,L|137:195,1,180,4|8,0:0|0:0,0:0:0:0:
56,226,150584,2,0,P|125:274|218:226,1,180,2|0,0:0|0:0,0:0:0:0:
263,170,151552,5,8,3:1:0:0:
347,140,151874,1,8,3:1:0:0:
435,157,152197,2,0,L|448:342,1,180,4|0,3:2|3:0,0:0:0:0:
366,375,153165,1,8,0:0:0:0:
281,345,153487,2,0,B|192:331|193:369|99:347,1,180,4|2,0:0|3:0,0:0:0:0:
17,317,154455,1,8,0:0:0:0:
8,227,154778,6,0,B|0:177|0:177|12:89|12:89|10:30,2,180,4|0|4,0:0|3:0|0:0,0:0:0:0:
178,284,156713,1,6,3:0:0:0:
271,381,157197,6,0,P|302:329|311:243,1,135,4|8,0:0|0:0,0:0:0:0:
284,171,158003,1,2,3:0:0:0:
176,89,158487,2,0,P|122:125|98:174,1,90,2|0,3:0|3:0,0:0:0:0:
128,234,159132,2,0,P|181:197|205:148,1,90,0|12,3:0|0:0,0:0:0:0:
272,66,159939,5,6,0:0:0:0:
273,65,162520,6,0,L|454:56,2,180,4|8|4,3:2|0:1|3:2,0:0:0:0:
93,49,164455,1,8,0:1:0:0:
237,155,165100,2,0,L|418:146,2,180,4|8|4,3:2|0:1|3:2,0:0:0:0:
57,134,167036,1,8,0:1:0:0:
120,302,167681,5,4,3:2:0:0:
299,293,168326,1,2,3:0:0:0:
345,119,168971,1,2,1:3:0:0:
194,21,169616,1,2,3:0:0:0:
57,134,170261,2,0,L|50:223,1,90,2|8,3:0|0:1,0:0:0:0:
107,293,170907,6,0,L|111:362,2,67.5,8|8|4,0:1|0:1|3:1,0:0:0:0:
168,226,171713,2,0,B|210:217|210:217|320:227,1,135,0|8,3:0|0:1,0:0:0:0:
380,270,172520,1,8,0:1:0:0:
465,242,172842,1,4,3:2:0:0:
465,242,178003,6,0,B|277:270,1,180,0|0,3:0|3:0,0:0:0:0:
206,228,178971,1,12,0:2:0:0:
160,150,179294,2,0,P|114:229|159:306,1,180,0|0,3:0|3:0,0:0:0:0:
231,341,180261,1,2,3:2:0:0:
286,268,180584,2,0,L|391:253,1,90,4|8,3:1|0:1,0:0:0:0:
406,339,181229,2,0,L|316:351,1,90,2|8,3:2|0:1,0:0:0:0:
231,341,181874,6,0,P|169:318|82:329,1,135,8|8,0:1|0:1,0:0:0:0:
61,344,182520,2,0,L|50:239,1,90,8|8,0:1|0:1,0:0:0:0:
256,192,183165,12,8,184455,0:3:0:0:
77,47,185745,6,0,L|112:314,1,242.999992584229,4|0,3:1|0:0,0:0:0:0:
189,276,187036,2,0,L|157:35,1,242.999992584229,4|0,3:1|0:0,0:0:0:0:
237,21,188326,6,0,L|249:110,1,80.9999975280763,4|0,3:1|0:0,0:0:0:0:
281,174,188971,2,0,L|269:263,1,80.9999975280763,4|0,3:1|0:0,0:0:0:0:
247,331,189616,2,0,B|304:351|304:351|418:340,1,161.999995056153,4|8,3:1|0:0,0:0:0:0:
482,364,190584,1,4,1:3:0:0:
509,282,190907,6,0,B|510:197|510:197|332:209,1,256.499993150711,8|8,3:2|3:1,0:0:0:0:
268,256,192197,2,0,B|96:267|96:267|97:182,1,256.499993150711,4|8,3:2|3:1,0:0:0:0:
97,97,193487,1,2,0:0:0:0:
97,182,196068,6,0,P|181:152|278:178,1,180,4|0,3:2|3:0,0:0:0:0:
321,243,197036,1,8,0:0:0:0:
409,258,197358,2,0,B|431:210|431:210|431:72,1,180,4|2,0:0|3:0,0:0:0:0:
380,8,198326,1,8,0:0:0:0:
300,50,198649,2,0,L|106:28,2,180,4|0|4,0:0|3:0|0:0,0:0:0:0:
474,4,200584,1,6,3:0:0:0:
509,134,201068,6,0,L|373:166,1,135,4|8,0:0|0:0,0:0:0:0:
292,136,201874,1,2,3:0:0:0:
211,244,202358,2,0,L|347:276,1,135,2|8,3:0|0:0,0:0:0:0:
428,246,203164,1,8,0:0:0:0:
499,360,203649,6,0,L|358:375,1,135,4|2,0:1|0:3,0:0:0:0:
278,347,204455,2,0,B|201:336|140:387|54:358|22:292,1,270,2|8,0:3|0:0,0:0:0:0:
2,169,205907,1,8,0:0:0:0:
47,91,206229,6,0,B|83:84|83:84|184:97,1,135,4|2,0:0|0:3,0:0:0:0:
204,183,207036,2,0,B|299:195|299:195|388:173|388:173|487:184,1,270,2|8,0:3|0:0,0:0:0:0:
510,263,208326,1,8,3:2:0:0:
440,378,208810,6,0,P|371:370|304:345,1,135,4|2,0:0|0:3,0:0:0:0:
219,352,209616,2,0,P|128:365|82:220,1,270,2|8,0:3|0:0,0:0:0:0:
216,215,211068,1,8,0:0:0:0:
289,266,211391,6,0,P|304:206|260:136,1,135,4|2,0:0|0:3,0:0:0:0:
182,128,212197,2,0,L|167:12,1,90,2|2,0:3|1:3,0:0:0:0:
80,33,212842,2,0,L|95:146,1,90,0|8,3:0|0:0,0:0:0:0:
52,203,213487,1,8,3:2:0:0:
174,146,213971,1,4,0:0:0:0:
256,192,214132,12,4,216068,0:0:0:0:
