osu file format v14

[General]
AudioFilename: audio.mp3
AudioLeadIn: 0
PreviewTime: 67197
Countdown: 0
SampleSet: Soft
StackLeniency: 0.2
Mode: 0
LetterboxInBreaks: 0
WidescreenStoryboard: 1

[Editor]
Bookmarks: 21713,32036,78649,96552,106391,107036,117358,130261,135423,141229,152197,155261,159939,162520,166391,172842,176713,185745,190907,193487,196068,203649
DistanceSpacing: 0.9
BeatDivisor: 12
GridSize: 4
TimelineZoom: 8

[Metadata]
Title:KUUKAN<=>Formation
TitleUnicode:空閒⇔Formation
Artist:YAIRI
ArtistUnicode:やいり
Creator:Net0
Version:Imprisoning Tearful Melody
Source:
Tags:Room⇔Formation 2013 AKIAKANE ROOM Japanese Rock Vocaloid Kalindraz Enerugi HowRengar Rensia AlextroIIPsy K4L1
BeatmapID:2160548
BeatmapSetID:1033379

[Difficulty]
HPDrainRate:5
CircleSize:4
OverallDifficulty:9
ApproachRate:9.5
SliderMultiplier:2.17
SliderTickRate:1

[Events]
//Background and Video events
0,0,"gumipresamusicafoda.jpg",0,0
//Break Periods
2,193687,195100
//Storyboard Layer 0 (Background)
//Storyboard Layer 1 (Fail)
//Storyboard Layer 2 (Pass)
//Storyboard Layer 3 (Foreground)
//Storyboard Layer 4 (Overlay)
//Storyboard Sound Samples

[TimingPoints]
10262,322.58064516129,4,2,0,60,1,0
10584,-500,4,2,0,40,0,0
10826,-500,4,2,0,5,0,0
10907,-100,4,2,0,70,0,0
10987,-100,4,2,0,5,0,0
11068,-76.9230769230769,4,2,0,70,0,0
11149,-76.9230769230769,4,2,0,5,0,0
11229,-62.5,4,2,0,70,0,0
11310,-62.5,4,2,0,5,0,0
11391,-66.6666666666667,4,2,0,60,0,0
11632,-100,4,2,0,5,0,0
11713,-100,4,2,0,60,0,0
13649,-333.333333333333,4,2,0,60,0,0
13891,-333.333333333333,4,2,0,5,0,0
13971,-66.6666666666667,4,2,0,60,0,0
14213,-100,4,2,0,5,0,0
14294,-100,4,2,0,60,0,0
16552,-66.6666666666667,4,2,0,60,0,0
16794,-100,4,2,0,5,0,0
16874,-100,4,2,0,60,0,0
18810,-294.117647058824,4,2,0,60,0,0
19052,-294.117647058824,4,2,0,5,0,0
19132,-66.6666666666667,4,2,0,60,0,0
19374,-100,4,2,0,5,0,0
19455,-100,4,2,0,60,0,0
20423,-80,4,2,0,60,0,0
20665,-80,4,2,0,5,0,0
20745,-80,4,2,0,60,0,0
21713,-66.6666666666667,4,2,0,70,0,0
21955,-100,4,2,0,5,0,0
22036,-100,4,2,0,70,0,0
24294,-66.6666666666667,4,2,0,70,0,0
24536,-100,4,2,0,5,0,0
24616,-100,4,2,0,70,0,0
26552,-294.117647058824,4,2,0,60,0,0
26794,-66.6666666666667,4,2,0,5,0,0
26874,-52.6315789473684,4,2,0,70,0,0
27116,-100,4,2,0,5,0,0
27197,-100,4,2,0,70,0,0
29455,-66.6666666666667,4,2,0,70,0,0
29697,-100,4,2,0,5,0,0
29778,-100,4,2,0,70,0,0
29939,-100,4,2,0,70,0,0
31713,-277.777777777778,4,2,0,70,0,0
31955,-277.777777777778,4,2,0,5,0,0
32036,-66.6666666666667,4,2,0,70,0,0
32278,-100,4,2,0,5,0,0
32358,-100,4,2,0,70,0,0
34455,-333.333333333333,4,2,0,70,0,0
34778,-66.6666666666667,4,2,0,70,0,0
34818,-100,4,2,0,5,0,0
35020,-66.6666666666667,4,2,0,70,0,0
35060,-100,4,2,0,5,0,0
35261,-66.6666666666667,4,2,0,70,0,0
35302,-100,4,2,0,5,0,0
35423,-66.6666666666667,4,2,0,70,0,0
35463,-100,4,2,0,5,0,0
35584,-133.333333333333,4,2,0,70,0,0
37358,-263.157894736842,4,2,0,70,0,0
37520,-100,4,2,0,5,0,0
37600,-263.157894736842,4,2,0,70,0,0
37761,-100,4,2,0,5,0,0
37842,-133.333333333333,4,2,0,70,0,0
37923,-100,4,2,0,5,0,0
38003,-263.157894736842,4,2,0,70,0,0
38326,-133.333333333333,4,2,0,70,0,0
39294,-100,4,2,0,70,0,0
39939,-66.6666666666667,4,2,0,70,0,0
40100,-100,4,2,0,5,0,0
40181,-263.157894736842,4,2,0,70,0,0
40342,-100,4,2,0,5,0,0
40423,-133.333333333333,4,2,0,70,0,0
40503,-100,4,2,0,5,0,0
40584,-66.6666666666667,4,2,0,70,0,0
40907,-133.333333333333,4,2,0,70,0,0
42520,-263.157894736842,4,2,0,70,0,0
42681,-100,4,2,0,5,0,0
42761,-66.6666666666667,4,2,0,70,0,0
42923,-100,4,2,0,5,0,0
43003,-66.6666666666667,4,2,0,70,0,0
43084,-100,4,2,0,5,0,0
43165,-263.157894736842,4,2,0,70,0,0
43649,-133.333333333333,4,2,0,70,0,0
45100,-80,4,2,0,70,0,0
55584,-100,4,2,0,70,0,0
55907,-80,4,2,0,70,0,0
56068,-120.481927710843,4,2,0,70,0,0
56391,-80,4,2,0,70,0,0
56955,-100,4,2,0,5,0,0
57036,-80,4,2,0,70,0,0
57116,-100,4,2,0,5,0,0
57197,-80,4,2,0,70,0,0
57278,-100,4,2,0,5,0,0
57358,-100,4,2,0,70,0,0
67036,-66.6666666666667,4,2,0,70,0,0
67197,-100,4,2,0,5,0,0
67278,-66.6666666666667,4,2,0,70,0,0
67439,-100,4,2,0,5,0,0
67520,-66.6666666666667,4,2,0,70,0,0
67600,-100,4,2,0,5,0,0
67681,-100,4,2,0,15,0,0
67842,-100,4,2,0,25,0,0
68003,-100,4,2,0,40,0,0
68165,-100,4,2,0,50,0,0
68326,-66.6666666666667,4,2,0,70,0,1
68487,-100,4,2,0,5,0,1
68568,-66.6666666666667,4,2,0,70,0,1
68729,-100,4,2,0,5,0,1
68810,-66.6666666666667,4,2,0,70,0,1
69213,-100,4,2,0,5,0,1
69294,-66.6666666666667,4,2,0,70,0,1
69778,-100,4,2,0,5,0,1
69858,-66.6666666666667,4,2,0,70,0,1
70020,-100,4,2,0,5,0,1
70100,-66.6666666666667,4,2,0,70,0,1
70584,-66.6666666666667,4,2,0,70,0,1
71068,-100,4,2,0,5,0,1
71149,-66.6666666666667,4,2,0,70,0,1
71310,-100,4,2,0,5,0,1
71391,-66.6666666666667,4,2,0,70,0,1
73165,-66.6666666666667,4,2,0,70,0,1
73407,-100,4,2,0,5,0,1
73487,-66.6666666666667,4,2,0,70,0,1
73649,-100,4,2,0,5,0,1
73729,-66.6666666666667,4,2,0,70,0,1
73891,-100,4,2,0,5,0,1
73971,-66.6666666666667,4,2,0,70,0,1
74374,-100,4,2,0,5,0,1
74455,-66.6666666666667,4,2,0,70,0,1
74939,-100,4,2,0,5,0,1
75020,-66.6666666666667,4,2,0,70,0,1
75181,-100,4,2,0,5,0,1
75261,-66.6666666666667,4,2,0,70,0,1
78003,-66.6666666666667,4,2,0,70,0,0
78649,-66.6666666666667,4,2,0,70,0,1
83649,-66.6666666666667,4,2,0,70,0,1
83971,-66.6666666666667,4,2,0,70,0,1
86068,-100,4,2,0,70,0,0
86471,-100,4,2,0,5,0,0
86552,-100,4,2,0,70,0,0
88487,-277.777777777778,4,2,0,70,0,0
88587,-66.6666666666667,4,2,0,70,0,0
88729,-277.777777777778,4,2,0,5,0,0
88810,-66.6666666666667,4,2,0,70,0,0
89052,-100,4,2,0,5,0,0
89132,-100,4,2,0,70,0,0
91391,-66.6666666666667,4,2,0,70,0,0
91632,-100,4,2,0,5,0,0
91713,-100,4,2,0,70,0,0
93649,-277.777777777778,4,2,0,70,0,0
93891,-277.777777777778,4,2,0,5,0,0
93971,-66.6666666666667,4,2,0,70,0,0
94213,-100,4,2,0,5,0,0
94294,-100,4,2,0,70,0,0
95261,-66.6666666666667,4,2,0,70,0,0
96552,-66.6666666666667,4,2,0,70,0,0
96794,-100,4,2,0,5,0,0
96874,-100,4,2,0,70,0,0
99132,-66.6666666666667,4,2,0,70,0,0
99374,-100,4,2,0,5,0,0
99455,-100,4,2,0,70,0,0
101391,-277.777777777778,4,2,0,70,0,0
101632,-277.777777777778,4,2,0,5,0,0
101713,-66.6666666666667,4,2,0,70,0,0
101955,-100,4,2,0,5,0,0
102036,-100,4,2,0,70,0,0
104294,-66.6666666666667,4,2,0,70,0,0
104536,-100,4,2,0,5,0,0
104616,-100,4,2,0,70,0,0
104778,-100,4,2,0,70,0,0
106391,-25,4,2,0,70,0,0
106471,-25,4,2,0,40,0,0
106552,-25,4,2,0,30,0,0
106632,-25,4,2,0,20,0,0
106713,-25,4,2,0,15,0,0
106794,-25,4,2,0,10,0,0
107036,-100,4,2,0,70,0,0
107116,-100,4,2,0,5,0,0
107197,-277.777777777778,4,2,0,26,0,0
107439,-277.777777777778,4,2,0,5,0,0
107520,-100,4,2,0,26,0,0
107600,-100,4,2,0,5,0,0
107681,-294.117647058824,4,2,0,37,0,0
107923,-294.117647058824,4,2,0,5,0,0
108003,-100,4,2,0,26,0,0
108084,-100,4,2,0,5,0,0
108165,-294.117647058824,4,2,0,37,0,0
108407,-294.117647058824,4,2,0,5,0,0
108487,-100,4,2,0,26,0,0
108568,-100,4,2,0,5,0,0
108649,-294.117647058824,4,2,0,37,0,0
108891,-294.117647058824,4,2,0,5,0,0
108971,-294.117647058824,4,2,0,37,0,0
109213,-294.117647058824,4,2,0,5,0,0
109294,-294.117647058824,4,2,0,37,0,0
109536,-294.117647058824,4,2,0,5,0,0
109616,-100,4,2,0,40,0,0
109697,-100,4,2,0,5,0,0
109778,-294.117647058824,4,2,0,35,0,0
110020,-294.117647058824,4,2,0,5,0,0
110100,-100,4,2,0,35,0,0
110181,-100,4,2,0,5,0,0
110261,-294.117647058824,4,2,0,35,0,0
110503,-294.117647058824,4,2,0,5,0,0
110584,-100,4,2,0,35,0,0
110665,-100,4,2,0,5,0,0
110745,-294.117647058824,4,2,0,35,0,0
110987,-294.117647058824,4,2,0,5,0,0
111068,-100,4,2,0,35,0,0
111149,-100,4,2,0,5,0,0
111229,-294.117647058824,4,2,0,35,0,0
111471,-294.117647058824,4,2,0,5,0,0
111552,-227.272727272727,4,2,0,50,0,0
116713,-31.25,4,2,0,50,0,0
117358,-66.6666666666667,4,2,0,70,0,0
129132,-100,4,2,0,70,0,0
129213,-100,4,2,0,5,0,0
129294,-100,4,2,0,70,0,0
129374,-100,4,2,0,5,0,0
129455,-100,4,2,0,70,0,0
130342,-100,4,2,0,5,0,0
130423,-294.117647058824,4,2,0,70,0,0
130665,-294.117647058824,4,2,0,5,0,0
130745,-100,4,2,0,70,0,0
130826,-100,4,2,0,5,0,0
130907,-100,4,2,0,70,0,0
130987,-100,4,2,0,5,0,0
131068,-100,4,2,0,70,0,0
131149,-100,4,2,0,70,0,0
131391,-100,4,2,0,70,0,0
131471,-100,4,2,0,5,0,0
131552,-100,4,2,0,70,0,0
131632,-100,4,2,0,5,0,0
131713,-294.117647058824,4,2,0,70,0,0
131955,-294.117647058824,4,2,0,5,0,0
132036,-100,4,2,0,70,0,0
132116,-100,4,2,0,5,0,0
132197,-100,4,2,0,70,0,0
132278,-100,4,2,0,5,0,0
132358,-100,4,2,0,70,0,0
132439,-100,4,2,0,5,0,0
132681,-100,4,2,0,70,0,0
132761,-100,4,2,0,5,0,0
132842,-100,4,2,0,70,0,0
132923,-100,4,2,0,5,0,0
133003,-294.117647058824,4,2,0,70,0,0
133245,-294.117647058824,4,2,0,5,0,0
133326,-100,4,2,0,70,0,0
133407,-100,4,2,0,5,0,0
133487,-100,4,2,0,70,0,0
133568,-100,4,2,0,5,0,0
133649,-100,4,2,0,70,0,0
133729,-100,4,2,0,5,0,0
133971,-100,4,2,0,70,0,0
134052,-100,4,2,0,5,0,0
134132,-100,4,2,0,70,0,0
135423,-100,4,2,0,70,0,0
138003,-83.3333333333333,4,2,0,70,0,0
139294,-58.8235294117647,4,2,0,70,0,1
139455,-100,4,2,0,5,0,0
139536,-58.8235294117647,4,2,0,70,0,1
139697,-100,4,2,0,5,0,0
139778,-58.8235294117647,4,2,0,70,0,1
139858,-100,4,2,0,5,0,0
139939,-58.8235294117647,4,2,0,70,0,1
140100,-58.8235294117647,4,2,0,70,0,0
140584,-71.4285714285714,4,2,0,70,0,0
141229,-66.6666666666667,4,2,0,70,0,0
141552,-50,4,2,0,70,0,0
141874,-66.6666666666667,4,2,0,70,0,1
142036,-100,4,2,0,5,0,1
142116,-66.6666666666667,4,2,0,70,0,1
142278,-100,4,2,0,5,0,1
142358,-66.6666666666667,4,2,0,70,0,1
142761,-100,4,2,0,5,0,1
142842,-66.6666666666667,4,2,0,70,0,1
143326,-100,4,2,0,5,0,1
143407,-66.6666666666667,4,2,0,70,0,1
143568,-100,4,2,0,5,0,1
143649,-66.6666666666667,4,2,0,70,0,1
144132,-66.6666666666667,4,2,0,70,0,1
144616,-100,4,2,0,5,0,1
144697,-66.6666666666667,4,2,0,70,0,1
144858,-100,4,2,0,5,0,1
144939,-66.6666666666667,4,2,0,70,0,1
146713,-66.6666666666667,4,2,0,70,0,1
146955,-100,4,2,0,5,0,1
147036,-66.6666666666667,4,2,0,70,0,1
147197,-100,4,2,0,5,0,1
147278,-66.6666666666667,4,2,0,70,0,1
147439,-100,4,2,0,5,0,1
147520,-66.6666666666667,4,2,0,70,0,1
147923,-100,4,2,0,5,0,1
148003,-66.6666666666667,4,2,0,70,0,1
148487,-100,4,2,0,5,0,1
148568,-66.6666666666667,4,2,0,70,0,1
148729,-100,4,2,0,5,0,1
148810,-66.6666666666667,4,2,0,70,0,1
157520,-66.6666666666667,4,2,0,70,0,1
159616,-100,4,2,0,70,0,0
162520,-294.117647058824,4,2,0,70,0,0
162681,-294.117647058824,4,2,0,5,0,0
162761,-294.117647058824,4,2,0,70,0,0
162923,-294.117647058824,4,2,0,5,0,0
163003,-133.333333333333,4,2,0,70,0,0
163084,-133.333333333333,4,2,0,5,0,0
163165,-294.117647058824,4,2,0,70,0,0
163326,-294.117647058824,4,2,0,5,0,0
163407,-294.117647058824,4,2,0,70,0,0
163568,-294.117647058824,4,2,0,5,0,0
163649,-133.333333333333,4,2,0,70,0,0
163729,-133.333333333333,4,2,0,5,0,0
163810,-66.6666666666667,4,2,0,70,0,0
163850,-66.6666666666667,4,2,0,5,0,0
164052,-66.6666666666667,4,2,0,70,0,0
164092,-66.6666666666667,4,2,0,5,0,0
164294,-66.6666666666667,4,2,0,70,0,0
164334,-66.6666666666667,4,2,0,5,0,0
164455,-66.6666666666667,4,2,0,70,0,0
164495,-66.6666666666667,4,2,0,5,0,0
164697,-66.6666666666667,4,2,0,70,0,0
164737,-66.6666666666667,4,2,0,5,0,0
164939,-66.6666666666667,4,2,0,70,0,0
164979,-66.6666666666667,4,2,0,5,0,0
165100,-294.117647058824,4,2,0,70,0,0
165261,-294.117647058824,4,2,0,5,0,0
165342,-66.6666666666667,4,2,0,70,0,0
165382,-66.6666666666667,4,2,0,5,0,0
165584,-133.333333333333,4,2,0,70,0,0
165665,-133.333333333333,4,2,0,5,0,0
165745,-66.6666666666667,4,2,0,70,0,0
165786,-66.6666666666667,4,2,0,5,0,0
165907,-294.117647058824,4,2,0,70,0,0
165987,-294.117647058824,4,2,0,70,0,0
166149,-133.333333333333,4,2,0,70,0,0
166229,-133.333333333333,4,2,0,70,0,0
166310,-133.333333333333,4,2,0,5,0,0
166391,-133.333333333333,4,2,0,60,0,0
167143,-90.9090909090909,4,2,0,60,0,0
167278,-133.333333333333,4,2,0,60,0,0
170907,-50,4,2,0,60,0,0
171068,-50,4,2,0,5,0,0
171149,-50,4,2,0,60,0,0
171310,-50,4,2,0,5,0,0
171391,-50,4,2,0,60,0,0
171632,-50,4,2,0,5,0,0
171713,-133.333333333333,4,2,0,70,0,0
172036,-80,4,2,0,70,0,0
172358,-57.1428571428571,4,2,0,70,0,0
172842,-57.1428571428571,4,2,0,70,0,0
173487,-100,4,2,0,70,0,0
174132,-62.5,4,2,0,70,0,0
178003,-100,4,2,0,70,0,0
181552,-76.9230769230769,4,2,0,70,0,0
181794,-76.9230769230769,4,2,0,5,0,0
181874,-62.5,4,2,0,75,0,0
182036,-100,4,2,0,5,0,0
182116,-62.5,4,2,0,70,0,0
182278,-100,4,2,0,5,0,0
182358,-62.5,4,2,0,70,0,0
182439,-100,4,2,0,5,0,0
182520,-100,4,2,0,70,0,0
182842,-55.5555555555556,4,2,0,70,0,0
183326,-133.333333333333,4,2,0,70,0,0
183649,-55.5555555555556,4,2,0,70,0,0
184455,-181.818181818181,4,2,0,70,0,0
184616,-83.3333333333333,4,2,0,70,0,0
184778,-66.6666666666667,4,2,0,70,0,0
184939,-50,4,2,0,70,0,0
185100,-500,4,2,0,70,0,0
185423,-50,4,2,0,70,0,0
185665,-50,4,2,0,5,0,0
185745,-100,4,2,0,70,0,1
185826,-100,4,2,0,70,0,0
187036,-100,4,2,0,70,0,1
187116,-100,4,2,0,70,0,0
188326,-100,4,2,0,70,0,1
188407,-100,4,2,0,70,0,0
188971,-100,4,2,0,70,0,1
189052,-100,4,2,0,70,0,0
189616,-100,4,2,0,70,0,1
189697,-100,4,2,0,70,0,0
190584,-200,4,2,0,70,0,0
190826,-100,4,2,0,5,0,0
190907,-100,4,2,0,70,0,1
190987,-100,4,2,0,70,0,0
191229,-100,4,2,0,75,0,0
191552,-100,4,2,0,80,0,0
191874,-100,4,2,0,85,0,0
192197,-100,4,2,0,90,0,1
192278,-100,4,2,0,5,0,1
192358,-100,4,2,0,90,0,1
192439,-100,4,2,0,5,0,1
192520,-100,4,2,0,93,0,1
192600,-100,4,2,0,5,0,1
192681,-100,4,2,0,93,0,1
192761,-100,4,2,0,5,0,1
192842,-100,4,2,0,96,0,1
192923,-100,4,2,0,5,0,1
193003,-100,4,2,0,96,0,1
193084,-100,4,2,0,5,0,1
193165,-100,4,2,0,99,0,1
193245,-100,4,2,0,5,0,1
193326,-100,4,2,0,99,0,1
193407,-100,4,2,0,5,0,1
193487,-1000,4,2,0,70,0,0
196068,-66.6666666666667,4,2,0,70,0,1
201068,-66.6666666666667,4,2,0,70,0,1
203487,-100,4,2,0,70,0,0
203649,-66.6666666666667,4,2,0,70,0,0
203891,-100,4,2,0,5,0,0
203971,-100,4,2,0,70,0,0
206229,-66.6666666666667,4,2,0,70,0,0
206471,-100,4,2,0,5,0,0
206552,-100,4,2,0,70,0,0
208487,-294.117647058824,4,2,0,70,0,0
208729,-294.117647058824,4,2,0,5,0,0
208810,-66.6666666666667,4,2,0,70,0,0
209052,-100,4,2,0,5,0,0
209132,-100,4,2,0,70,0,0
211391,-66.6666666666667,4,2,0,70,0,0
211632,-100,4,2,0,5,0,0
211713,-100,4,2,0,70,0,0
213644,-294.117647058824,4,2,0,70,0,0
213891,-294.117647058824,4,2,0,5,0,0
213971,-66.6666666666667,4,2,0,70,0,0
214213,-100,4,2,0,5,0,0
214294,-66.6666666666667,4,2,0,70,0,0

[Colours]
Combo1 : 192,92,203
Combo2 : 192,192,192
Combo3 : 128,128,128
Combo4 : 0,255,64
Combo5 : 0,193,0
Combo6 : 128,0,255

[HitObjects]
83,186,10584,6,0,P|79:171|78:153,1,32.55,0|0,0:0|0:0,0:0:0:0:
78,135,10907,6,0,P|71:160|86:202,1,54.25,8|0,0:1|0:0,0:0:0:0:
232,87,11068,2,0,P|213:68|169:60,1,70.5249967716219,8|0,0:1|0:0,0:0:0:0:
179,256,11229,2,0,P|210:247|247:204,1,86.8,8|0,0:1|0:0,0:0:0:0:
25,61,11391,6,0,P|-8:148|51:293,1,244.12500931263,12|0,3:1|0:0,0:0:0:0:
108,345,11713,1,0,3:0:0:0:
271,310,11874,6,0,P|308:304|326:289,1,54.25,8|0,0:1|0:0,0:0:0:0:
450,176,12036,1,0,3:0:0:0:
361,131,12197,6,0,P|347:166|351:189,1,54.25,8|0,0:1|0:0,0:0:0:0:
388,353,12358,1,0,3:0:0:0:
471,299,12520,6,0,P|447:269|425:261,1,54.25,8|0,0:1|0:0,0:0:0:0:
265,211,12681,1,0,3:0:0:0:
248,202,12762,1,0,3:0:0:0:
231,192,12842,6,0,L|293:181,1,54.25,8|0,0:1|0:0,0:0:0:0:
446,371,13003,2,0,L|389:342,1,54.25,0|0,3:0|0:0,0:0:0:0:
377,99,13165,2,0,L|406:155,1,54.25,8|0,0:1|0:0,0:0:0:0:
273,360,13326,2,0,L|282:297,1,54.25,0|0,3:0|3:0,0:3:0:0:
511,211,13487,6,0,L|466:256,1,54.25,8|0,3:1|0:3,0:3:0:0:
243,99,13649,2,0,L|277:64,1,48.8249985099793,8|0,3:1|0:3,0:3:0:0:
231,0,13971,6,0,B|136:13|136:13|119:30|119:30|33:44|33:44|67:22,1,244.12500931263,12|0,3:1|0:0,0:0:0:0:
10,78,14294,1,0,3:0:0:0:
10,78,14374,1,0,0:0:0:0:
10,78,14455,6,0,L|18:143,1,54.25,8|0,0:1|0:0,0:0:0:0:
99,220,14616,1,0,3:0:0:0:
153,99,14778,6,0,L|161:164,1,54.25,8|0,0:1|0:0,0:0:0:0:
239,239,14939,1,0,3:0:0:0:
284,117,15100,6,0,L|292:182,1,54.25,8|0,0:1|0:0,0:0:0:0:
373,257,15261,1,0,3:0:0:0:
383,246,15342,1,0,3:0:0:0:
394,237,15423,6,0,L|404:174,1,54.25,8|0,0:1|0:0,0:0:0:0:
303,295,15584,2,0,L|313:358,1,54.25,0|0,3:0|0:0,0:0:0:0:
195,187,15745,2,0,L|205:124,1,54.25,8|0,0:1|0:0,0:0:0:0:
118,327,15907,2,0,L|128:390,1,54.25,0|0,3:0|3:0,0:0:0:0:
17,159,16068,5,8,0:1:0:0:
41,203,16149,1,8,0:1:0:0:
41,159,16229,5,0,3:0:0:0:
14,201,16310,1,8,0:1:0:0:
54,181,16391,5,8,0:1:0:0:
2,178,16472,1,8,0:1:0:0:
28,182,16552,22,0,B|191:179|83:275|253:265,1,244.12500931263,12|0,3:1|0:0,0:0:0:0:
330,232,16874,1,0,3:0:0:0:
326,8,17036,6,0,L|269:26,1,54.25,8|0,0:1|0:0,0:0:0:0:
207,58,17197,1,0,3:0:0:0:
223,67,17358,6,0,L|279:85,1,54.25,8|0,0:1|0:0,0:0:0:0:
381,119,17520,1,0,3:0:0:0:
360,127,17600,1,0,3:0:0:0:
340,133,17681,6,0,L|283:151,1,54.25,8|0,0:1|0:0,0:0:0:0:
197,173,17842,1,0,3:0:0:0:
176,181,17923,1,0,3:0:0:0:
153,191,18003,22,0,L|210:205,1,54.25,8|0,0:1|0:0,0:0:0:0:
375,231,18165,2,0,L|318:245,1,54.25,0|0,3:0|0:0,0:0:0:0:
126,278,18326,2,0,L|183:292,1,54.25,8|0,0:1|0:0,0:0:0:0:
405,328,18488,2,0,L|348:342,1,54.25,0|0,3:0|3:0,0:0:0:0:
92,368,18649,6,0,L|149:382,1,54.25,8|0,3:1|0:0,0:0:0:0:
405,328,18810,2,0,L|349:343,1,55.335000337738,8|0,3:1|0:0,0:0:0:0:
257,384,19132,6,0,B|265:302|265:302|269:298|269:298|278:197|278:197|288:231|308:255,1,244.12500931263,12|0,3:1|0:0,0:0:0:0:
324,271,19455,1,0,3:0:0:0:
152,302,19616,1,8,0:1:0:0:
251,77,19778,1,0,3:0:0:0:
455,76,19939,6,0,P|482:125|469:176,1,108.5,0|0,3:0|3:0,0:0:0:0:
403,232,20181,1,0,3:0:0:0:
403,232,20261,2,0,P|370:232|342:228,1,54.25,8|0,0:1|0:0,0:0:0:0:
199,73,20423,6,0,B|325:58|261:145|383:132,1,203.4375,0|0,3:0|0:0,0:0:0:0:
373,46,20745,2,0,B|367:12|367:12|352:41,1,67.8125,0|0,3:0|3:0,0:0:0:0:
220,172,20907,5,8,0:0:0:0:
208,167,20987,1,8,0:0:0:0:
191,169,21068,1,8,0:0:0:0:
170,183,21149,1,8,0:0:0:0:
158,222,21229,1,8,0:1:0:0:
172,276,21310,1,8,0:1:0:0:
227,313,21391,1,8,0:1:0:0:
295,304,21471,1,8,0:1:0:0:
345,246,21552,1,8,3:1:0:0:
345,167,21632,1,8,3:1:0:0:
296,91,21713,6,0,B|184:102|184:102|179:98|179:98|50:112,1,244.12500931263,4|0,0:0|0:0,0:0:0:0:
68,243,22036,6,0,P|66:272|55:298,1,54.25,0|0,3:0|0:0,0:0:0:0:
114,358,22197,2,0,P|140:345|168:341,1,54.25,2|0,0:3|0:0,0:0:0:0:
289,371,22358,69,0,3:0:0:0:
289,371,22439,1,0,3:0:0:0:
289,371,22520,2,0,P|289:336|300:312,1,54.25,2|0,0:3|0:0,0:0:0:0:
191,261,22681,6,0,P|166:244|149:222,1,54.25,0|0,3:0|0:0,0:0:0:0:
68,243,22842,2,0,P|66:272|54:298,1,54.25,2|0,1:3|0:0,0:0:0:0:
324,248,23003,69,0,3:0:0:0:
324,248,23084,1,0,3:0:0:0:
324,248,23165,2,0,P|346:221|370:209,1,54.25,0|0,3:0|0:0,0:0:0:0:
114,359,23326,6,0,P|140:346|168:342,1,54.25,0|0,3:0|0:0,0:0:0:0:
191,261,23487,2,0,P|166:244|149:222,1,54.25,8|0,0:0|0:0,0:0:0:0:
438,184,23649,69,0,3:0:0:0:
438,184,23730,1,0,3:0:0:0:
438,184,23810,2,0,P|472:177|498:184,1,54.25,0|0,3:0|0:0,0:0:0:0:
455,303,23971,54,0,P|438:325|415:339,1,54.25,8|0,0:0|0:0,0:0:0:0:
341,367,24132,2,0,P|314:374|281:370,1,54.25,0|0,3:0|0:0,0:0:0:0:
151,225,24294,6,0,B|138:194|140:167|140:167|63:248|141:343,1,244.12500931263,4|0,0:0|0:0,0:0:0:0:
257,325,24616,70,0,L|311:321,1,54.25,0|0,3:0|0:0,0:0:0:0:
366,318,24778,2,0,L|311:321,1,54.25,2|0,0:3|0:0,0:0:0:0:
238,209,24939,21,0,3:0:0:0:
238,209,25020,1,0,3:0:0:0:
238,209,25100,2,0,L|306:194,1,54.25,2|0,0:3|0:0,0:0:0:0:
288,370,25261,54,0,L|311:321,1,54.25,0|0,3:0|0:0,0:0:0:0:
336,272,25423,2,0,L|312:320,1,54.25,2|0,1:3|0:0,0:0:0:0:
367,176,25584,21,0,3:0:0:0:
367,176,25665,1,0,3:0:0:0:
367,176,25745,2,0,L|409:120,1,54.25,0|0,3:0|0:0,0:0:0:0:
342,366,25907,54,0,L|311:321,1,54.25,0|0,3:0|0:0,0:0:0:0:
281,275,26069,2,0,L|311:319,1,54.25,8|0,0:0|0:0,0:0:0:0:
438,63,26229,21,0,3:0:0:0:
438,63,26310,1,0,3:0:0:0:
438,63,26390,2,0,L|435:-6,1,54.25,8|0,3:2|0:0,0:0:0:0:
235,21,26552,2,0,L|237:76,1,55.335000337738,8|0,3:2|0:0,0:0:0:0:
249,192,26874,6,0,B|300:156|272:91|186:65|136:129|178:218|62:214,1,309.224991742802,4|0,0:0|0:0,0:0:0:0:
74,88,27197,70,0,L|89:23,1,54.25,0|0,3:0|0:0,0:0:0:0:
88,76,27358,2,0,L|75:128,1,54.25,2|0,0:3|0:0,0:0:0:0:
187,182,27520,5,0,3:0:0:0:
187,182,27600,1,0,3:0:0:0:
187,182,27681,2,0,B|185:215|185:215|197:242,1,54.25,2|0,0:3|0:0,0:0:0:0:
72,78,27842,70,0,L|136:59,1,54.25,0|0,3:0|0:0,0:0:0:0:
89,85,28003,2,0,L|37:100,1,54.25,2|0,1:3|0:0,0:0:0:0:
299,145,28165,5,0,3:0:0:0:
299,145,28245,1,0,3:0:0:0:
299,145,28326,2,0,B|270:127|270:127|241:123,1,54.25,0|0,3:0|0:0,0:0:0:0:
79,72,28487,70,0,L|128:118,1,54.25,0|0,3:0|0:0,0:0:0:0:
82,91,28648,2,0,L|43:54,1,54.25,8|0,0:0|0:0,0:0:0:0:
270,264,28810,5,0,3:0:0:0:
270,264,28890,1,0,3:0:0:0:
270,264,28971,2,0,B|299:248|299:248|317:224,1,54.25,0|0,3:0|0:0,0:0:0:0:
187,182,29132,70,0,B|185:215|185:215|197:242,1,54.25,8|0,0:0|0:0,0:0:0:0:
299,145,29294,2,0,B|270:127|270:127|241:123,1,54.25,0|0,3:0|0:0,0:0:0:0:
73,228,29455,6,0,B|9:308|86:385|86:385|72:343|96:297,1,244.12500931263,4|0,0:0|0:0,0:0:0:0:
181,340,29778,38,0,L|244:325,1,54.25,0|0,3:0|0:0,0:0:0:0:
196,288,29939,2,0,L|177:350,1,54.25,2|0,0:3|0:0,0:0:0:0:
379,378,30100,5,0,3:0:0:0:
379,378,30181,1,0,3:0:0:0:
379,378,30261,2,0,P|398:342|399:325,1,54.25,2|0,0:3|0:0,0:0:0:0:
196,288,30423,38,0,L|177:350,1,54.25,0|0,3:0|0:0,0:0:0:0:
233,326,30584,2,0,L|188:278,1,54.25,2|0,1:3|0:0,0:0:0:0:
392,241,30746,5,0,3:0:0:0:
392,241,30827,1,0,3:0:0:0:
392,241,30907,2,0,P|384:201|373:187,1,54.25,0|0,3:0|0:0,0:0:0:0:
233,327,31068,38,0,L|188:279,1,54.25,0|0,3:0|0:0,0:0:0:0:
181,340,31229,2,0,L|243:325,1,54.25,8|0,0:0|0:0,0:0:0:0:
331,121,31391,5,0,3:0:0:0:
331,121,31472,1,0,3:0:0:0:
331,121,31552,2,0,P|299:95|282:91,1,54.25,8|0,3:2|0:0,0:0:0:0:
57,148,31713,2,0,P|88:173|105:177,1,58.59000143042,8|0,3:2|0:0,0:0:0:0:
178,247,32036,6,0,B|193:200|193:200|53:246|53:246|123:284,1,244.12500931263,4|0,0:0|0:0,0:0:0:0:
162,323,32358,1,2,0:0:0:0:
280,273,32520,5,2,0:0:0:0:
146,336,32681,1,2,0:0:0:0:
291,373,32842,5,2,0:0:0:0:
270,242,33003,1,2,0:0:0:0:
124,356,33165,5,2,0:0:0:0:
320,368,33366,1,0,0:0:0:0:
354,361,33427,1,0,0:0:0:0:
390,354,33487,6,0,L|397:289,1,54.25,4|0,3:2|0:0,0:0:0:0:
229,186,33649,6,0,L|234:239,1,54.25,0|0,3:0|0:0,0:0:0:0:
254,193,33810,2,0,L|259:246,1,54.25,0|0,3:0|0:0,0:0:0:0:
410,79,33971,6,0,P|377:88|345:103,1,54.25,8|0,0:1|0:0,0:0:0:0:
143,38,34132,2,0,P|152:71|167:103,1,54.25,8|0,0:1|0:0,0:0:0:0:
102,305,34294,2,0,P|135:296|167:281,1,54.25,8|0,0:1|0:0,0:0:0:0:
369,346,34455,2,0,P|361:317|348:290,1,48.8249985099793,10|0,0:1|0:0,0:0:0:0:
313,223,34778,6,0,L|304:171,1,40.687501552105,2|0,3:2|0:0,0:0:0:0:
215,195,35020,2,0,L|206:143,1,40.687501552105,2|0,3:2|0:0,0:0:0:0:
117,167,35261,2,0,L|108:115,1,40.687501552105,2|0,3:2|0:0,0:0:0:0:
19,139,35423,6,0,L|10:87,1,40.687501552105,8|0,0:0|0:0,0:0:0:0:
19,139,35745,1,0,3:0:0:0:
74,19,35907,2,0,P|107:20|154:34,1,81.37500310421,2|0,3:2|0:0,0:0:0:0:
267,117,36229,1,0,3:0:0:0:
375,151,36391,2,0,P|426:147|455:135,1,81.37500310421,2|0,3:2|0:0,0:0:0:0:
365,26,36713,6,0,L|358:113,1,81.37500310421,8|0,0:0|0:0,0:0:0:0:
375,151,36955,2,0,L|368:238,1,81.37500310421,0|0,3:0|0:0,0:0:0:0:
398,266,37197,2,0,L|393:318,1,40.687501552105,0|0,3:0|0:0,0:0:0:0:
313,223,37358,6,0,L|303:169,1,41.2299994967041,2|0,3:2|0:0,0:0:0:0:
215,195,37600,2,0,L|205:141,1,41.2299994967041,2|0,3:2|0:0,0:0:0:0:
117,167,37842,2,0,L|107:113,1,40.687501552105,2|0,3:2|0:0,0:0:0:0:
19,139,38003,6,0,L|9:85,1,41.2299994967041,8|0,0:0|0:0,0:0:0:0:
19,139,38326,1,0,3:0:0:0:
0,236,38487,2,0,L|11:323,1,81.37500310421,2|0,3:2|0:0,0:0:0:0:
99,370,38810,1,0,3:0:0:0:
167,299,38971,2,0,P|127:275|90:271,1,81.37500310421,2|0,3:2|0:0,0:0:0:0:
261,352,39294,5,8,0:0:0:0:
258,329,39374,2,0,L|247:268,2,54.25,8|8|0,0:3|0:3|3:0,0:0:0:0:
340,300,39616,5,8,0:3:0:0:
383,292,39697,1,8,0:3:0:0:
340,300,39778,1,4,0:3:0:0:
383,292,39858,1,4,0:3:0:0:
313,223,39939,6,0,L|303:169,1,41.2299994967041,2|0,3:2|0:0,0:0:0:0:
215,195,40181,2,0,L|205:141,1,41.2299994967041,2|0,3:2|0:0,0:0:0:0:
117,167,40423,2,0,L|107:113,1,40.687501552105,2|0,3:2|0:0,0:0:0:0:
19,139,40584,6,0,L|9:85,1,41.2299994967041,8|0,0:0|0:0,0:0:0:0:
19,139,40907,1,2,3:2:0:0:
101,72,41068,1,0,0:0:0:0:
101,72,41149,2,0,L|116:133,1,40.687501552105,2|0,3:2|0:0,0:0:0:0:
176,266,41391,6,0,L|181:210,1,40.687501552105,2|0,3:2|0:0,0:0:0:0:
260,110,41552,53,2,3:0:0:0:
260,110,41874,2,0,P|304:100|347:104,1,81.37500310421,10|0,0:0|0:0,0:0:0:0:
395,129,42116,2,0,P|405:173|423:213,1,81.37500310421,2|0,3:2|0:0,0:0:0:0:
451,265,42358,2,0,L|390:256,1,40.687501552105,2|0,3:2|0:0,0:0:0:0:
313,223,42520,22,0,L|303:169,1,41.2299994967041,2|0,0:3|0:0,0:0:0:0:
215,195,42762,2,0,L|205:141,1,41.2299994967041,2|0,0:3|0:0,0:0:0:0:
117,167,43004,2,0,L|107:113,1,40.687501552105,2|0,0:3|0:0,0:0:0:0:
19,139,43165,6,0,L|9:85,1,41.2299994967041,10|0,0:0|0:0,0:0:0:0:
19,139,43487,1,0,3:0:0:0:
75,252,43649,2,0,P|142:259|165:252,1,81.37500310421,2|0,3:2|0:0,0:0:0:0:
244,140,43971,37,2,3:2:0:0:
291,54,44132,2,0,L|379:45,1,81.37500310421,2|0,3:0|0:0,0:0:0:0:
468,82,44455,5,8,0:0:0:0:
468,102,44536,1,8,0:3:0:0:
451,179,44616,5,8,0:3:0:0:
425,220,44697,1,0,3:0:0:0:
369,280,44778,5,8,0:3:0:0:
293,307,44858,1,8,0:3:0:0:
205,308,44939,5,0,3:0:0:0:
117,276,45020,1,0,3:0:0:0:
64,200,45100,6,0,P|52:231|57:268,1,67.8125,4|0,3:2|0:0,0:0:0:0:
275,203,45261,2,0,B|209:212|209:212|206:221|206:221|142:233,1,135.625,0|2,3:0|1:3,0:0:0:0:
135,146,45503,1,0,0:0:0:0:
135,146,45584,2,0,B|147:112|147:112|169:146,1,67.8125,0|0,3:0|3:0,0:0:0:0:
205,308,45745,6,0,B|334:306|261:376|391:379,1,203.4375,2|0,3:0|0:0,0:0:0:0:
456,330,46068,2,0,L|439:255,1,67.8125,2|0,1:3|0:0,0:0:0:0:
407,92,46229,2,0,P|455:73|411:149,1,203.4375,0|0,3:0|0:0,0:0:0:0:
418,161,46552,1,0,3:0:0:0:
169,94,46713,6,0,B|319:65|319:65|281:83|252:123,1,203.4375,2|0,1:3|3:0,0:0:0:0:
126,164,47036,2,0,P|85:105|102:41,1,135.625,2|0,3:0|3:0,0:0:0:0:
179,11,47278,1,0,0:0:0:0:
179,11,47358,2,0,L|261:-5,1,67.8125,2|0,1:3|0:0,0:0:0:0:
66,225,47520,2,0,L|0:238,1,67.8125,0|0,3:0|0:0,0:0:0:0:
202,324,47681,6,0,L|345:308,1,135.625,4|0,3:2|3:0,0:0:0:0:
484,201,47923,2,0,P|416:186|351:221,1,135.625,0|0,0:0|0:0,0:0:0:0:
417,353,48165,2,0,P|428:306|422:268,1,67.8125,0|0,3:0|3:0,0:0:0:0:
259,172,48326,2,0,B|275:280|275:280|297:257,1,135.625,2|0,3:0|3:0,0:0:0:0:
358,213,48568,1,0,0:0:0:0:
358,213,48649,2,0,L|343:140,1,67.8125,2|0,1:3|0:0,0:0:0:0:
253,59,48810,6,0,B|196:70|196:70|178:91|178:91|146:97|146:97|131:120|131:120|54:140,1,203.4375,0|0,3:0|0:0,0:0:0:0:
43,141,49132,1,0,3:0:0:0:
157,286,49294,2,0,B|227:298|280:260|280:260|263:300|273:334,1,203.4375,2|0,1:3|3:0,0:0:0:0:
373,374,49616,70,0,P|358:333|356:305,1,67.8125,2|0,3:0|0:0,0:0:0:0:
148,205,49778,2,0,P|198:206|233:196,1,67.8125,0|0,3:0|3:0,0:0:0:0:
366,172,49939,1,0,3:0:0:0:
373,153,50020,1,0,3:0:0:0:
382,135,50100,1,0,3:0:0:0:
389,116,50181,1,0,3:0:0:0:
398,90,50261,6,0,L|260:108,1,135.625,4|0,0:0|3:0,0:0:0:0:
174,46,50503,1,2,0:0:0:0:
184,33,50584,2,0,L|178:118,1,67.8125,2|0,1:3|0:0,0:0:0:0:
48,256,50745,6,0,B|103:261|140:218|140:218|140:273|200:305,1,203.4375,0|0,3:0|0:0,0:0:0:0:
100,340,51068,1,0,3:0:0:0:
65,172,51229,2,0,P|51:162|69:170,1,67.8125,2|0,1:3|0:0,0:0:0:0:
228,216,51391,1,0,3:0:0:0:
228,216,51471,1,0,3:0:0:0:
228,216,51552,2,0,P|244:215|225:212,1,67.8125,2|0,3:0|0:0,0:0:0:0:
98,57,51713,6,0,B|160:77|160:77|174:111|174:111|206:92|206:92|267:112,1,203.4375,0|0,3:0|0:0,0:0:0:0:
288,120,52036,1,0,3:0:0:0:
508,48,52197,2,0,B|408:32|408:32|368:64,1,135.625,2|0,3:0|3:0,0:0:0:0:
372,128,52439,1,0,0:0:0:0:
372,128,52520,2,0,L|384:204,1,67.8125,2|0,1:3|0:0,0:0:0:0:
400,280,52681,2,0,L|412:356,1,67.8125,0|0,3:0|0:0,0:0:0:0:
492,272,52842,6,0,B|392:220|392:220|344:200|316:248,1,203.4375,4|0,0:1|0:0,0:0:0:0:
240,332,53165,2,0,L|88:352,1,135.625,8|0,0:1|3:0,0:0:0:0:
32,300,53407,1,0,3:0:0:0:
32,300,53487,2,0,P|16:264|24:236,1,67.8125,0|0,3:0|0:0,0:0:0:0:
248,184,53649,2,0,P|264:220|256:248,1,67.8125,0|0,3:0|0:0,0:0:0:0:
40,152,53810,2,0,L|192:136,1,135.625,8|0,0:1|3:0,0:0:0:0:
382,122,54132,6,0,L|525:109,1,135.625,2|0,3:2|3:0,0:0:0:0:
394,11,54374,1,0,0:0:0:0:
321,56,54455,2,0,P|295:116|319:185,1,135.625,10|0,1:2|3:0,0:0:0:0:
396,287,54697,1,0,3:0:0:0:
381,270,54778,5,10,1:2:0:0:
366,273,54858,1,8,0:3:0:0:
351,277,54939,6,0,L|278:297,1,67.8125,8|0,0:3|3:0,0:0:0:0:
135,280,55100,2,0,B|159:178|159:178|211:268,1,203.4375,10|8,1:2|0:1,0:0:0:0:
186,354,55423,69,12,0:1:0:0:
444,170,55584,2,0,L|468:329,1,162.75,0|0,3:0|0:0,0:0:0:0:
186,354,55907,6,0,L|176:287,1,67.8125,2|0,3:1|0:0,0:0:0:0:
348,183,56068,2,0,L|368:318,1,135.082501958136,2|0,1:0|0:0,0:0:0:0:
186,354,56391,6,0,L|176:287,1,67.8125,2|0,3:1|0:0,0:0:0:0:
253,192,56552,2,0,L|263:259,1,67.8125,0|0,3:0|0:0,0:0:0:0:
157,202,56874,6,0,L|165:260,1,33.90625,2|0,0:3|0:0,0:0:0:0:
157,202,57036,2,0,L|165:260,1,33.90625,2|0,0:3|0:0,0:0:0:0:
157,202,57197,2,0,L|165:260,1,33.90625,2|0,1:1|0:0,0:0:0:0:
62,210,57358,5,8,3:0:0:0:
62,210,57761,5,0,0:0:0:0:
62,210,57842,2,0,L|72:149,1,54.25,2|0,0:0|0:0,0:0:0:0:
84,59,58003,5,0,3:0:0:0:
84,59,58165,1,0,3:0:0:0:
217,187,58326,6,0,P|267:163|306:126,1,108.5,8|0,0:1|0:0,0:0:0:0:
84,59,58649,5,0,3:0:0:0:
84,59,58811,1,0,3:0:0:0:
305,126,58971,6,0,P|329:176|366:215,1,108.5,8|0,0:1|0:0,0:0:0:0:
84,59,59294,5,0,3:0:0:0:
84,59,59456,1,0,3:0:0:0:
365,214,59616,6,0,P|315:238|276:275,1,108.5,8|0,0:1|0:0,0:0:0:0:
84,59,59939,5,0,3:0:0:0:
84,59,60101,1,8,0:1:0:0:
276,274,60261,6,0,P|252:224|215:185,1,108.5,8|0,0:1|0:0,0:0:0:0:
86,358,60584,5,4,3:2:0:0:
215,185,60745,1,0,3:0:0:0:
215,185,60826,1,0,0:0:0:0:
215,185,60907,2,0,P|251:224|275:273,1,108.5,8|0,0:1|0:0,0:0:0:0:
86,358,61229,5,0,3:0:0:0:
275,273,61391,1,0,3:0:0:0:
275,273,61471,1,0,0:0:0:0:
275,273,61552,2,0,P|314:236|363:212,1,108.5,8|0,0:1|0:0,0:0:0:0:
363,212,61874,6,0,P|326:172|302:123,1,108.5,2|0,0:3|0:0,0:0:0:0:
275,273,62116,2,0,P|314:236|363:212,1,108.5,8|0,0:1|0:0,0:0:0:0:
214,184,62358,2,0,P|250:223|274:272,1,108.5,8|2,0:1|0:3,0:0:0:0:
302,123,62600,2,0,P|262:159|213:183,1,108.5,8|0,0:1|0:0,0:0:0:0:
363,212,62842,2,0,P|341:188|327:160,1,54.25,2|0,0:3|0:0,0:0:0:0:
477,45,63003,1,0,3:0:0:0:
477,45,63084,1,0,3:0:0:0:
477,45,63165,6,0,L|487:108,1,54.25,4|0,3:2|0:0,0:0:0:0:
502,174,63326,2,0,L|512:237,1,54.25,0|0,3:0|0:0,0:0:0:0:
363,212,63487,6,0,P|314:235|274:272,1,108.5,8|0,0:0|3:0,0:0:0:0:
477,45,63810,6,0,L|487:108,1,54.25,2|0,3:0|0:0,0:0:0:0:
502,174,63971,2,0,L|512:237,1,54.25,0|0,3:0|0:0,0:0:0:0:
274,272,64132,6,0,P|250:223|213:183,1,108.5,8|0,0:0|3:0,0:0:0:0:
477,45,64455,6,0,L|487:108,1,54.25,2|0,3:0|0:0,0:0:0:0:
502,174,64616,2,0,L|512:237,1,54.25,0|0,3:0|0:0,0:0:0:0:
213,183,64777,6,0,P|261:159|301:122,1,108.5,8|0,0:0|3:0,0:0:0:0:
477,45,65100,6,0,L|487:108,1,54.25,2|0,3:0|0:0,0:0:0:0:
502,174,65261,2,0,L|512:237,1,54.25,8|0,0:0|0:0,0:0:0:0:
301,122,65422,6,0,P|324:170|361:210,1,108.5,8|0,0:0|3:0,0:0:0:0:
424,274,65665,1,0,0:0:0:0:
436,263,65745,6,0,P|451:229|451:205,1,54.25,4|0,3:2|0:0,0:0:0:0:
345,356,65907,2,0,L|223:377,1,108.5,2|8,3:0|0:0,0:0:0:0:
49,234,66229,1,0,3:0:0:0:
49,234,66310,1,0,0:0:0:0:
49,234,66391,6,0,L|58:166,1,54.25,2|2,3:0|0:3,0:0:0:0:
185,18,66552,2,0,L|176:86,1,54.25,2|0,3:0|0:0,0:0:0:0:
45,90,66713,2,0,B|137:89|89:160|210:152,1,162.75,8|0,0:0|0:0,0:0:0:0:
288,132,67036,6,0,P|271:77|174:74,1,162.75000620842,8|0,0:0|0:0,0:0:0:0:
166,247,67278,2,0,B|240:242|240:242|252:259|252:259|325:254,1,162.75000620842,8|0,0:0|0:0,0:0:0:0:
415,260,67520,2,0,P|409:221|367:180,1,81.37500310421,8|0,0:0|0:0,0:0:0:0:
137,335,67681,6,0,L|134:351,28,13.5625,8|0|0|0|0|0|0|0|0|0|0|0|0|0|0|0|2|0|0|0|0|0|0|0|0|0|0|0|0,0:0|0:0|0:0|0:0|0:0|0:0|0:0|0:0|0:0|0:0|0:0|0:0|0:0|0:0|0:0|0:0|0:0|0:0|0:0|0:0|0:0|0:0|0:0|0:0|0:0|0:0|0:0|0:0|0:0,0:0:0:0:
221,333,68326,6,0,B|250:294|250:294|232:173,1,162.75000620842,4|0,3:2|0:0,0:0:0:0:
0,197,68568,2,0,B|115:191|34:258|169:251,1,162.75000620842,4|0,3:2|0:0,0:0:0:0:
250,85,68810,2,0,P|194:88|169:108,1,81.37500310421,4|0,3:2|0:0,0:0:0:0:
321,260,68971,70,0,B|374:293|374:293|431:277|431:277|433:279|433:279|432:276|432:276|486:260|486:260|516:184,1,244.12500931263,12|0,0:1|0:0,0:0:0:0:
508,114,69294,5,8,0:0:0:0:
462,63,69374,1,8,0:0:0:0:
509,67,69455,5,8,0:0:0:0:
460,110,69536,1,8,0:0:0:0:
485,90,69616,38,0,B|411:109|411:109|407:120|407:120|322:144,1,162.75000620842,4|0,3:2|0:0,0:0:0:0:
157,66,69858,2,0,B|222:13|222:13|295:50,1,162.75000620842,4|0,3:2|0:0,0:0:0:0:
169,243,70100,2,0,B|151:233|151:233|141:170,1,81.37500310421,4|0,3:2|0:0,0:0:0:0:
308,313,70261,6,0,P|201:339|135:383,1,162.75000620842,12|0,0:1|3:0,0:0:0:0:
27,298,70503,1,0,3:0:0:0:
49,291,70584,2,0,P|61:321|75:375,1,81.37500310421,8|0,0:0|0:0,0:0:0:0:
199,167,70745,2,0,P|188:197|164:248,1,81.37500310421,0|0,3:0|0:0,0:0:0:0:
1,55,70907,6,0,B|63:55|63:55|78:48|86:44|86:44|89:53|95:68|95:68|157:112,1,162.75000620842,4|0,3:2|0:0,0:0:0:0:
49,291,71149,2,0,B|24:247|24:247|33:207|33:207|32:206|32:206|34:206|34:206|52:136,1,162.75000620842,4|0,3:2|0:0,0:0:0:0:
189,15,71391,2,0,P|205:37|231:89,1,81.37500310421,4|0,3:2|0:0,0:0:0:0:
277,199,71552,70,0,B|321:216|321:216|358:206|358:206|370:223|390:227|390:227|411:223|421:208|421:208|461:217|461:217|503:198,1,244.12500931263,12|0,0:1|3:0,0:0:0:0:
512,113,71874,2,0,B|468:112|468:112|427:145,1,81.37500310421,2|0,0:0|0:0,0:0:0:0:
338,308,72036,2,0,B|294:309|294:309|253:276,1,81.37500310421,0|0,3:0|0:0,0:0:0:0:
125,122,72197,6,0,L|110:300,1,162.75000620842,4|0,3:2|0:0,0:0:0:0:
76,314,72439,2,0,L|89:151,1,162.75000620842,0|0,3:0|0:0,0:0:0:0:
0,55,72681,2,0,P|33:45|84:52,1,81.37500310421,2|0,3:0|0:0,0:0:0:0:
257,139,72842,5,12,0:1:0:0:
289,142,72923,1,8,3:0:0:0:
321,145,73003,1,4,3:0:0:0:
353,149,73084,1,0,3:0:0:0:
413,221,73165,5,12,0:1:0:0:
185,91,73326,1,0,0:0:0:0:
444,132,73487,6,0,B|322:116|322:116|281:137,1,162.75000620842,4|0,3:2|0:0,0:0:0:0:
379,330,73729,2,0,P|441:292|389:214,1,162.75000620842,4|0,3:2|0:0,0:0:0:0:
184,134,73971,2,0,P|190:180|213:208,1,81.37500310421,4|0,3:2|0:0,0:0:0:0:
412,220,74132,38,0,B|260:220|349:322|179:319,1,244.12500931263,12|0,0:1|0:0,0:0:0:0:
22,271,74455,69,8,0:0:0:0:
31,285,74536,1,8,0:0:0:0:
14,317,74616,5,8,0:0:0:0:
69,294,74697,1,8,0:0:0:0:
40,300,74778,38,0,B|24:205|24:205|19:166|64:138,1,162.75000620842,4|0,3:2|0:0,0:0:0:0:
223,165,75020,2,0,B|247:191|247:191|110:210,1,162.75000620842,4|0,3:2|0:0,0:0:0:0:
27,53,75261,2,0,P|77:55|108:74,1,81.37500310421,4|0,3:2|0:0,0:0:0:0:
212,289,75423,6,0,B|283:277|283:277|296:285|296:285|377:272,1,162.75000620842,12|0,0:1|3:0,0:0:0:0:
353,181,75665,1,0,3:0:0:0:
353,181,75745,2,0,B|336:144|336:144|324:198,1,81.37500310421,8|0,0:0|0:0,0:0:0:0:
450,336,75907,2,0,B|467:373|467:373|476:334,1,81.37500310421,0|0,3:0|0:0,0:0:0:0:
262,361,76068,6,0,B|174:368|174:368|161:359|161:359|73:364|73:364|112:331,1,244.12500931263,4|0,0:0|3:0,0:0:0:0:
212,289,76391,2,0,B|248:284|248:284|247:277|247:277|302:272,1,81.37500310421,2|0,0:0|0:0,0:0:0:0:
114,90,76552,2,0,B|78:95|78:95|78:101|78:101|24:107,1,81.37500310421,2|0,3:2|0:0,0:0:0:0:
3,193,76713,6,0,B|50:199|75:234|75:234|104:198|146:201,1,162.75000620842,8|0,0:0|0:0,0:0:0:0:
252,97,76955,2,0,B|205:91|180:56|180:56|151:92|109:89,1,162.75000620842,0|0,3:0|0:0,0:0:0:0:
239,199,77197,2,0,P|280:192|319:174,1,81.37500310421,0|0,3:0|0:0,0:0:0:0:
413,106,77358,6,0,B|432:71|493:90|512:126|497:190|452:188|429:198|429:228|443:268|471:277,2,244.12500931263,2|0|0,3:0|3:0|3:0,0:0:0:0:
196,266,78003,5,8,3:1:0:0:
182,269,78084,1,0,3:0:0:0:
168,272,78165,1,8,3:0:0:0:
154,275,78245,1,4,3:0:0:0:
140,278,78326,5,8,3:1:0:0:
220,290,78407,1,8,0:0:0:0:
300,302,78487,1,8,0:0:0:0:
380,314,78568,1,8,0:0:0:0:
463,326,78649,22,0,B|476:218|476:218|431:164,1,162.75000620842,4|0,3:2|0:0,0:0:0:0:
325,178,78891,1,0,3:0:0:0:
325,178,78971,2,0,L|386:238,1,81.37500310421,8|0,0:0|0:0,0:0:0:0:
393,17,79132,2,0,L|321:74,1,81.37500310421,0|0,3:0|3:0,0:0:0:0:
133,114,79294,6,0,B|212:105|212:105|248:185|248:185|328:177,1,244.12500931263,0|0,3:0|0:0,0:0:0:0:
338,176,79616,1,8,0:0:0:0:
64,51,79778,1,0,3:0:0:0:
64,51,79858,1,0,3:0:0:0:
64,51,79939,70,0,P|42:121|91:198,1,162.75000620842,4|0,0:0|0:0,0:0:0:0:
202,150,80181,1,0,3:0:0:0:
202,150,80261,2,0,P|177:126|117:115,1,81.37500310421,8|0,0:0|0:0,0:0:0:0:
15,247,80423,2,0,P|40:271|100:282,1,81.37500310421,0|0,3:0|3:0,0:0:0:0:
224,302,80584,6,0,B|310:305|362:263|362:263|350:320|390:360,1,244.12500931263,2|0,3:0|0:0,0:0:0:0:
470,377,80907,2,0,P|473:338|450:298,1,81.37500310421,8|0,0:0|0:0,0:0:0:0:
224,217,81068,2,0,P|263:220|304:203,1,81.37500310421,0|0,3:0|0:0,0:0:0:0:
438,107,81229,70,0,B|362:81|362:81|290:120,1,162.75000620842,4|0,0:0|0:0,0:0:0:0:
219,42,81471,1,0,3:0:0:0:
219,42,81552,2,0,P|233:71|247:125,1,81.37500310421,8|0,0:0|0:0,0:0:0:0:
496,26,81713,2,0,P|486:56|479:112,1,81.37500310421,0|0,3:0|3:0,0:0:0:0:
371,179,81874,6,0,B|357:95|357:95|345:77|345:77|331:-15|331:-15|361:28,1,244.12500931263,0|0,3:0|0:0,0:0:0:0:
364,28,82197,1,8,0:0:0:0:
385,289,82358,1,0,3:0:0:0:
385,289,82439,1,0,3:0:0:0:
385,289,82520,70,0,B|231:287|337:188|161:183,1,244.12500931263,4|0,0:0|3:0,0:0:0:0:
66,206,82842,5,8,0:0:0:0:
51,242,82923,1,0,3:0:0:0:
57,280,83003,1,2,3:2:0:0:
76,314,83084,1,8,3:0:0:0:
109,338,83165,2,0,L|207:301,1,81.37500310421,6|0,3:0|0:0,0:0:0:0:
482,189,83326,5,8,0:0:0:0:
482,189,83649,6,0,B|434:183|434:183|401:195|401:195|363:185|363:185|301:196,1,162.75000620842,4|0,0:0|0:0,0:0:0:0:
413,293,83891,1,0,0:0:0:0:
413,293,83971,2,0,L|396:198,1,81.37500310421,0|0,3:0|3:0,0:0:0:0:
365,49,84132,38,0,B|426:53|435:98|435:98|371:153|278:113,1,244.12500931263,8|0,0:0|0:0,0:0:0:0:
200,68,84455,2,0,P|189:114|197:159,1,81.37500310421,2|0,3:0|0:0,0:0:0:0:
0,123,84616,2,0,P|33:157|50:198,1,81.37500310421,0|0,3:0|0:0,0:0:0:0:
87,19,84778,1,8,0:0:0:0:
87,19,84858,1,0,0:0:0:0:
87,19,84939,6,0,B|102:98|102:98|106:101|106:101|123:183,1,162.75000620842,2|0,3:0|0:0,0:0:0:0:
422,343,85261,2,0,B|407:264|407:264|403:261|403:261|386:179,1,162.75000620842,0|8,3:0|0:0,0:0:0:0:
294,130,85503,1,0,0:0:0:0:
294,130,85584,2,0,B|281:156|281:156|294:212,1,81.37500310421,0|0,3:0|0:0,0:0:0:0:
511,383,85745,2,0,B|524:357|524:357|511:301,1,81.37500310421,8|0,0:0|0:0,0:0:0:0:
184,286,85907,5,12,0:0:0:0:
184,286,86229,6,0,L|356:266,1,162.75,12|0,3:1|0:0,0:0:0:0:
376,262,86552,1,0,3:0:0:0:
402,102,86713,6,0,P|387:126|377:151,1,54.25,8|0,0:1|0:0,0:0:0:0:
316,349,86874,1,0,3:0:0:0:
110,102,87035,6,0,P|125:126|135:151,1,54.25,8|0,0:1|0:0,0:0:0:0:
196,349,87196,1,0,3:0:0:0:
105,257,87358,6,0,P|149:240|159:238,1,54.25,8|0,0:1|0:0,0:0:0:0:
421,257,87520,1,0,3:0:0:0:
421,257,87600,1,0,3:0:0:0:
421,257,87681,6,0,L|361:236,1,54.25,8|0,0:1|0:0,0:0:0:0:
254,365,87842,2,0,L|255:301,1,54.25,0|0,3:0|0:0,0:0:0:0:
99,241,88003,2,0,L|159:222,1,54.25,8|0,0:1|0:0,0:0:0:0:
170,55,88165,2,0,L|206:107,1,54.25,0|0,3:0|3:0,0:0:0:0:
368,65,88326,6,0,L|329:115,1,54.25,8|0,3:1|0:0,0:0:0:0:
157,328,88487,2,0,L|195:277,1,58.59000143042,8|0,3:1|0:0,0:0:0:0:
239,203,88810,54,0,B|258:185|272:164|272:164|187:92|73:212,1,244.12500931263,12|0,3:1|0:0,0:0:0:0:
43,243,89132,1,0,3:0:0:0:
157,328,89294,6,0,L|149:269,1,54.25,8|0,0:1|0:0,0:0:0:0:
128,69,89455,1,0,3:0:0:0:
355,328,89616,6,0,L|363:269,1,54.25,8|0,0:1|0:0,0:0:0:0:
384,69,89777,1,0,3:0:0:0:
72,214,89939,5,8,0:1:0:0:
72,214,90020,1,0,0:0:0:0:
72,214,90100,2,0,P|112:203|136:196,1,54.25,0|0,3:0|3:0,0:0:0:0:
440,214,90261,6,0,P|400:203|376:196,1,54.25,8|0,0:1|0:0,0:0:0:0:
128,110,90423,2,0,L|75:104,1,54.25,0|0,3:0|0:0,0:0:0:0:
383,110,90584,2,0,L|437:104,1,54.25,8|0,0:1|0:0,0:0:0:0:
254,2,90745,2,0,L|254:63,1,54.25,0|0,3:0|3:0,0:0:0:0:
235,372,90907,5,8,0:1:0:0:
276,343,90988,1,8,0:1:0:0:
232,348,91068,5,0,3:0:0:0:
277,370,91149,1,8,0:1:0:0:
253,332,91230,5,8,0:1:0:0:
255,384,91311,1,8,0:1:0:0:
256,358,91391,22,0,B|191:254|316:237|268:127,1,244.12500931263,12|0,3:1|0:0,0:0:0:0:
256,53,91713,1,0,3:0:0:0:
116,56,91874,6,0,P|156:51|170:51,1,54.25,8|0,0:1|0:0,0:0:0:0:
379,68,92036,1,0,3:0:0:0:
97,150,92197,6,0,P|141:152|156:154,1,54.25,8|0,0:1|0:0,0:0:0:0:
379,212,92359,1,0,3:0:0:0:
77,235,92520,6,0,P|124:245|140:251,1,54.25,8|0,0:1|0:0,0:0:0:0:
370,356,92682,1,0,3:0:0:0:
370,356,92761,1,0,3:0:0:0:
370,356,92842,6,0,P|349:339|326:306,1,54.25,8|0,0:1|0:0,0:0:0:0:
67,126,93003,2,0,P|94:127|132:140,1,54.25,0|0,3:0|0:0,0:0:0:0:
447,134,93165,2,0,P|424:148|386:160,1,54.25,8|0,0:1|0:0,0:0:0:0:
135,351,93326,2,0,P|144:325|169:293,1,54.25,0|0,3:0|3:0,0:0:0:0:
260,0,93487,6,0,P|267:18|266:58,1,54.25,8|0,3:1|0:0,0:0:0:0:
70,249,93649,2,0,P|105:227|126:221,1,58.59000143042,8|0,3:1|0:0,0:0:0:0:
189,170,93971,22,0,P|148:64|117:151,1,244.12500931263,12|0,3:1|0:0,0:0:0:0:
107,150,94294,1,0,3:0:0:0:
330,61,94455,1,8,0:1:0:0:
193,13,94616,1,0,3:0:0:0:
319,193,94778,2,0,L|441:203,1,108.5,0|0,3:0|3:0,0:0:0:0:
417,57,95020,1,0,3:0:0:0:
417,57,95100,2,0,L|413:114,1,54.25,8|0,0:1|0:0,0:0:0:0:
259,264,95261,6,0,P|224:186|265:115,1,162.75000620842,0|0,3:0|0:0,0:0:0:0:
334,96,95503,1,0,0:0:0:0:
334,96,95584,2,0,B|382:103|382:103|385:107|385:107|425:112,1,81.37500310421,0|0,3:0|3:0,0:0:0:0:
466,362,95745,2,0,B|320:364|413:259|249:264,1,244.12500931263,8|8,0:0|0:0,0:0:0:0:
122,297,96068,5,8,0:1:0:0:
130,263,96148,1,8,0:1:0:0:
78,257,96229,5,8,0:1:0:0:
72,287,96310,1,8,0:1:0:0:
102,273,96390,38,0,B|110:228|110:228|117:187|117:187,1,81.37500310421,8|8,3:1|3:1,0:0:0:0:
163,45,96552,6,0,B|223:37|223:37|227:34|227:34|288:27|288:27|294:30|294:30|362:25|362:25|336:45|316:81,1,244.12500931263,4|0,0:0|0:0,0:0:0:0:
323,156,96874,6,0,L|335:223,1,54.25,0|0,3:0|0:0,0:0:0:0:
445,197,97036,2,0,L|435:143,1,54.25,2|0,0:3|0:0,0:0:0:0:
211,193,97197,5,0,3:0:0:0:
211,193,97278,1,0,3:0:0:0:
211,193,97358,2,0,P|206:230|187:258,1,54.25,2|0,0:3|0:0,0:0:0:0:
374,282,97520,6,0,L|428:273,1,54.25,0|0,3:0|0:0,0:0:0:0:
396,71,97681,2,0,L|343:81,1,54.25,2|0,1:3|0:0,0:0:0:0:
118,272,97842,5,0,3:0:0:0:
118,272,97923,1,0,3:0:0:0:
118,272,98003,2,0,P|88:249|73:218,1,54.25,0|0,3:0|0:0,0:0:0:0:
323,156,98165,6,0,L|335:223,1,54.25,0|0,3:0|0:0,0:0:0:0:
445,197,98327,2,0,L|435:143,1,54.25,8|0,0:0|0:0,0:0:0:0:
89,150,98487,5,0,3:0:0:0:
89,150,98568,1,0,3:0:0:0:
89,150,98648,2,0,P|123:135|157:138,1,54.25,0|0,3:0|0:0,0:0:0:0:
374,282,98810,6,0,L|428:273,1,54.25,8|0,0:0|0:0,0:0:0:0:
396,71,98971,2,0,L|343:81,1,54.25,0|0,3:0|0:0,0:0:0:0:
224,202,99132,6,0,B|135:217|168:147|69:162|69:162|121:155|156:120,1,244.12500931263,4|0,0:0|0:0,0:0:0:0:
216,52,99455,6,0,L|140:56,1,54.25,0|0,3:0|0:0,0:0:0:0:
23,263,99616,2,0,L|99:259,1,54.25,2|0,0:3|0:0,0:0:0:0:
256,338,99778,5,0,3:0:0:0:
256,338,99858,1,0,3:0:0:0:
256,338,99939,2,0,P|280:324|306:297,1,54.25,2|0,0:3|0:0,0:0:0:0:
16,63,100100,6,0,L|17:123,1,54.25,0|0,3:0|0:0,0:0:0:0:
224,256,100261,2,0,L|223:201,1,54.25,2|0,1:3|0:0,0:0:0:0:
353,242,100423,5,0,3:0:0:0:
353,242,100503,1,0,3:0:0:0:
353,242,100584,2,0,P|363:216|365:178,1,54.25,0|0,3:0|0:0,0:0:0:0:
216,52,100745,6,0,L|140:56,1,54.25,0|0,3:0|0:0,0:0:0:0:
23,263,100906,2,0,L|99:259,1,54.25,8|0,0:0|0:0,0:0:0:0:
363,98,101068,5,0,3:0:0:0:
363,98,101148,1,0,3:0:0:0:
363,98,101229,2,0,P|352:72|327:44,1,54.25,8|0,3:2|0:0,0:0:0:0:
138,170,101391,2,0,P|148:195|173:223,1,58.59000143042,8|0,3:2|0:0,0:0:0:0:
228,286,101713,6,0,B|292:278|292:278|351:182|351:182|430:175,1,244.12500931263,4|0,0:0|0:0,0:0:0:0:
417,95,102036,6,0,L|352:98,1,54.25,0|0,3:0|0:0,0:0:0:0:
137,169,102197,2,0,L|192:167,1,54.25,2|0,0:3|0:0,0:0:0:0:
264,21,102358,5,0,3:0:0:0:
264,21,102439,1,0,3:0:0:0:
264,21,102520,2,0,L|269:86,1,54.25,2|0,0:3|0:0,0:0:0:0:
129,222,102681,6,0,P|132:191|138:162,1,54.25,0|0,3:0|0:0,0:0:0:0:
417,95,102842,2,0,P|421:121|424:148,1,54.25,2|0,1:3|0:0,0:0:0:0:
277,169,103003,5,0,3:0:0:0:
277,169,103084,1,0,3:0:0:0:
277,169,103165,2,0,L|282:234,1,54.25,0|0,3:0|0:0,0:0:0:0:
91,260,103326,6,0,P|124:229|131:218,1,54.25,0|0,3:0|0:0,0:0:0:0:
424,148,103487,2,0,P|440:169|461:186,1,54.25,8|0,0:0|0:0,0:0:0:0:
288,297,103649,5,0,3:0:0:0:
288,297,103730,1,0,3:0:0:0:
288,297,103811,2,0,L|293:362,1,54.25,0|0,3:0|0:0,0:0:0:0:
102,312,103971,6,0,L|88:249,1,54.25,8|0,0:0|0:0,0:0:0:0:
461,186,104132,2,0,L|458:244,1,54.25,0|0,3:0|0:0,0:0:0:0:
228,240,104294,6,0,B|193:224|193:224|243:350|243:350|298:284,1,244.12500931263,4|0,0:0|0:0,0:0:0:0:
352,163,104616,6,0,P|362:137|388:114,1,54.25,0|0,3:0|0:0,0:0:0:0:
160,163,104778,2,0,P|150:137|124:114,1,54.25,2|0,0:3|0:0,0:0:0:0:
331,246,104939,5,0,3:0:0:0:
331,246,105020,1,0,3:0:0:0:
331,246,105100,2,0,P|336:272|330:304,1,54.25,2|0,0:3|0:0,0:0:0:0:
131,118,105261,6,0,P|118:91|112:58,1,54.25,0|0,3:0|0:0,0:0:0:0:
399,67,105423,2,0,P|393:93|381:118,1,54.25,2|0,1:3|0:0,0:0:0:0:
170,298,105584,5,0,3:0:0:0:
170,298,105665,1,0,3:0:0:0:
170,298,105745,2,0,P|165:272|171:240,1,54.25,0|0,3:0|0:0,0:0:0:0:
372,22,105907,6,0,P|382:50|407:72,1,54.25,0|0,3:0|0:0,0:0:0:0:
139,22,106068,2,0,P|129:50|104:72,1,54.25,8|0,0:0|0:0,0:0:0:0:
255,322,106229,6,0,L|257:257,1,54.25,0|0,3:0|3:0,0:0:0:0:
250,89,106391,6,0,P|251:110|256:89,28,54.25,8|0|0|0|0|0|0|0|8|0|0|0|0|0|0|0|2|0|0|0|0|0|0|0|4|0|0|0|0,3:2|0:0|0:0|0:0|0:0|0:0|0:0|0:0|3:2|0:0|0:0|0:0|0:0|0:0|0:0|0:0|0:3|0:0|0:0|0:0|0:0|0:0|0:0|0:0|0:0|0:0|0:0|0:0|0:0,0:0:0:0:
351,122,107036,6,0,P|355:155|362:179,1,54.25,2|0,3:2|0:0,0:0:0:0:
161,325,107197,2,0,P|157:358|150:382,1,58.59000143042,2|0,0:0|0:0,0:0:0:0:
129,241,107520,6,0,P|161:237|188:242,1,54.25,2|0,3:2|0:0,0:0:0:0:
373,295,107681,2,0,P|405:299|432:294,1,55.335000337738,8|0,0:0|0:0,0:0:0:0:
488,235,108003,6,0,P|497:208|502:176,1,54.25,0|0,3:0|0:0,0:0:0:0:
246,90,108165,2,0,P|237:63|232:31,1,55.335000337738,2|0,3:2|0:0,0:0:0:0:
341,37,108487,6,0,P|336:63|327:89,1,54.25,0|0,3:0|0:0,0:0:0:0:
84,205,108649,2,0,P|89:233|98:261,1,55.335000337738,2|0,3:2|0:0,0:0:0:0:
164,327,108971,6,0,P|173:301|178:274,1,55.335000337738,2|0,0:0|0:0,0:0:0:0:
84,205,109294,2,0,P|75:178|70:151,1,55.335000337738,2|0,0:0|0:0,0:0:0:0:
82,47,109616,6,0,P|118:41|148:41,1,54.25,2|0,3:2|0:0,0:0:0:0:
296,125,109778,2,0,P|330:130|358:130,1,55.335000337738,2|0,0:0|0:0,0:0:0:0:
407,72,110100,6,0,P|417:46|422:20,1,54.25,2|0,3:2|0:0,0:0:0:0:
244,267,110261,2,0,P|251:298|262:323,1,55.335000337738,8|0,0:0|0:0,0:0:0:0:
344,316,110584,6,0,P|354:290|359:264,1,54.25,0|0,3:0|0:0,0:0:0:0:
192,88,110745,2,0,P|181:61|175:34,1,55.335000337738,2|0,3:2|0:0,0:0:0:0:
281,35,111068,6,0,P|275:61|265:86,1,54.25,0|0,3:0|0:0,0:0:0:0:
87,233,111229,2,0,P|113:224|141:220,1,55.335000337738,2|0,3:2|0:0,0:0:0:0:
290,275,111552,6,0,P|305:273|312:265,1,23.8700007284546,8|8,0:0|0:3,0:0:0:0:
330,256,111713,2,0,P|337:270|347:274,1,23.8700007284546,8|0,0:3|3:0,0:0:0:0:
360,289,111874,2,0,P|349:300|348:310,1,23.8700007284546,8|8,0:3|0:3,0:0:0:0:
338,328,112036,2,0,P|325:321|314:323,1,23.8700007284546,4|4,0:3|0:3,0:0:0:0:
294,319,112197,5,2,3:2:0:0:
193,338,112439,1,2,3:2:0:0:
91,358,112681,1,2,3:2:0:0:
261,203,112842,5,8,0:0:0:0:
91,358,113165,5,2,3:2:0:0:
134,207,113407,1,2,3:2:0:0:
57,77,113649,1,2,3:2:0:0:
261,203,113810,5,2,3:0:0:0:
57,77,114132,5,10,0:0:0:0:
261,47,114455,1,2,3:2:0:0:
424,148,114777,5,2,0:3:0:0:
427,145,114858,1,2,0:0:0:0:
431,142,114939,1,2,0:0:0:0:
436,141,115019,1,2,0:0:0:0:
440,142,115100,1,2,0:0:0:0:
444,145,115180,1,2,0:0:0:0:
447,148,115261,1,2,0:0:0:0:
448,153,115342,1,2,0:0:0:0:
447,158,115422,1,2,0:0:0:0:
444,162,115503,1,2,0:0:0:0:
440,164,115584,1,2,0:0:0:0:
436,165,115664,1,2,0:0:0:0:
431,164,115745,1,2,0:1:0:0:
427,162,115826,1,2,0:0:0:0:
424,158,115906,1,2,0:1:0:0:
424,153,115987,1,2,0:0:0:0:
424,153,116068,5,2,0:0:0:0:
436,147,116148,1,2,0:0:0:0:
454,149,116229,1,2,0:1:0:0:
476,164,116310,1,2,0:0:0:0:
488,205,116390,1,2,0:1:0:0:
474,261,116471,1,2,0:0:0:0:
416,300,116552,1,2,0:0:0:0:
345,290,116632,1,2,0:0:0:0:
293,230,116713,6,0,L|251:155,1,86.8,2|0,0:1|0:0,0:0:0:0:
250,154,116874,6,0,L|208:229,1,86.8,2|0,0:1|0:0,0:0:0:0:
207,229,117036,6,0,L|165:154,1,86.8,2|0,0:1|0:0,0:0:0:0:
164,153,117197,6,0,L|122:228,1,86.8,2|0,0:1|0:0,0:0:0:0:
121,228,117358,6,0,L|70:154,1,81.37500310421,4|0,3:2|0:0,0:0:0:0:
17,331,117520,2,0,B|128:319|128:319|187:360,1,162.75000620842,0|2,3:0|1:3,0:0:0:0:
256,383,117761,1,0,0:0:0:0:
256,383,117842,2,0,L|353:373,1,81.37500310421,0|0,3:0|3:0,0:0:0:0:
377,293,118003,70,0,B|337:279|321:245|321:245|204:237|204:237|263:275,1,244.12500931263,2|0,3:0|0:0,0:0:0:0:
258,275,118326,1,2,1:3:0:0:
389,97,118487,6,0,B|419:80|433:42|433:42|413:113|413:113|419:121|419:121|398:226,1,244.12500931263,0|0,3:0|0:0,0:0:0:0:
493,232,118810,2,0,L|509:144,1,81.37500310421,0|0,3:0|0:0,0:0:0:0:
343,19,118971,6,0,B|209:22|291:129|139:135,1,244.12500931263,2|0,1:3|3:0,0:0:0:0:
26,229,119294,2,0,P|105:214|192:265,1,162.75000620842,2|0,3:0|3:0,0:0:0:0:
171,337,119536,1,0,0:0:0:0:
171,337,119616,6,0,P|133:330|97:299,1,81.37500310421,2|0,1:3|0:0,0:0:0:0:
58,142,119778,2,0,P|60:110|90:73,1,81.37500310421,0|0,3:0|0:0,0:0:0:0:
178,40,119939,6,0,B|249:58|249:58|258:70|258:70|343:91,1,162.75000620842,4|0,3:2|3:0,0:0:0:0:
503,161,120181,2,0,B|423:139|423:139|369:199,1,162.75000620842,0|0,0:0|0:0,0:0:0:0:
404,21,120423,2,0,L|420:134,1,81.37500310421,0|0,3:0|3:0,0:0:0:0:
424,275,120584,6,0,P|339:293|282:244,1,162.75000620842,2|0,3:0|3:0,0:0:0:0:
255,170,120826,1,0,0:0:0:0:
255,170,120907,2,0,P|207:175|162:202,1,81.37500310421,2|0,1:3|0:0,0:0:0:0:
88,303,121068,6,0,B|167:313|167:313|182:330|182:330|214:334|214:334|232:357|232:357|319:371,1,244.12500931263,0|0,3:0|0:0,0:0:0:0:
332,375,121391,1,0,3:0:0:0:
482,155,121552,6,0,B|430:188|363:164|363:164|359:158|359:158|363:163|363:163|284:205|362:296,1,244.12500931263,2|0,1:3|3:0,0:0:0:0:
407,325,121874,2,0,B|428:309|436:292|436:292|439:292|439:292|435:292|435:292|441:274|439:247,1,81.37500310421,2|0,3:0|0:0,0:0:0:0:
263,130,122036,2,0,B|266:156|277:171|277:171|275:174|275:174|277:170|277:170|290:184|314:196,1,81.37500310421,0|0,3:0|3:0,0:0:0:0:
419,89,122197,5,0,3:0:0:0:
433,73,122278,1,0,3:0:0:0:
446,56,122358,1,0,3:0:0:0:
460,39,122439,1,0,3:0:0:0:
473,21,122520,6,0,B|378:37|378:37|381:31|381:31|379:37|379:37|310:48,1,162.75000620842,4|0,0:0|3:0,0:0:0:0:
263,130,122761,2,0,B|210:138|210:138|208:144|208:144|211:138|211:138|116:154,1,162.75000620842,2|0,0:0|0:0,0:0:0:0:
0,99,123003,1,0,3:0:0:0:
86,3,123165,5,2,3:0:0:0:
86,3,123487,6,0,P|144:53|136:178,1,162.75000620842,2|0,1:3|3:0,0:0:0:0:
263,130,123729,2,0,P|268:206|174:289,1,162.75000620842,0|0,3:0|0:0,0:0:0:0:
223,374,123971,1,0,3:0:0:0:
87,350,124132,5,2,1:3:0:0:
331,252,124294,1,0,3:0:0:0:
331,252,124374,1,0,3:0:0:0:
331,252,124455,6,0,B|441:238|441:238|474:254|477:284|455:310|455:310|395:317,1,244.12500931263,2|0,3:0|0:0,0:0:0:0:
297,336,124778,2,0,B|187:350|187:350|154:334|151:304|173:278|173:278|233:271,1,244.12500931263,2|0,1:3|0:0,0:0:0:0:
331,252,125100,6,0,B|361:212|361:212|334:84,1,162.75000620842,4|0,0:1|3:0,0:0:0:0:
215,30,125342,1,0,0:0:0:0:
215,30,125423,2,0,P|226:67|257:104,1,81.37500310421,2|0,1:3|0:0,0:0:0:0:
192,160,125584,2,0,P|225:178|274:182,1,81.37500310421,0|0,3:0|3:0,0:0:0:0:
444,44,125745,6,0,B|458:12|486:-7|486:-7|302:29,1,244.12500931263,2|0,3:0|0:0,0:0:0:0:
215,30,126068,2,0,B|181:37|181:37|176:35|176:35|119:46,1,81.37500310421,2|0,1:3|0:0,0:0:0:0:
15,203,126229,1,0,3:0:0:0:
15,203,126310,1,0,3:0:0:0:
15,203,126391,6,0,B|81:193|81:193|86:201|86:201|87:191|87:191|181:177,1,162.75000620842,2|0,3:2|3:0,0:0:0:0:
343,339,126632,1,0,0:0:0:0:
343,339,126713,2,0,B|277:349|277:349|272:341|272:341|271:351|271:351|177:365,1,162.75000620842,10|0,1:2|3:0,0:0:0:0:
112,366,126955,1,0,3:0:0:0:
112,366,127036,22,0,L|123:279,1,81.37500310421,10|8,1:2|0:3,0:0:0:0:
252,163,127197,2,0,L|262:243,1,81.37500310421,8|0,0:3|3:0,0:0:0:0:
82,384,127358,6,0,L|93:297,1,81.37500310421,10|8,1:2|0:3,0:0:0:0:
281,140,127519,2,0,L|291:220,1,81.37500310421,8|8,0:3|0:1,0:0:0:0:
6,236,127681,5,12,0:1:0:0:
403,176,127842,1,0,3:0:0:0:
387,168,128165,5,2,3:1:0:0:
71,127,128326,1,2,1:0:0:0:
52,145,128649,5,0,3:0:0:0:
422,73,128810,1,0,3:0:0:0:
441,72,129132,6,0,L|432:146,1,54.25,2|0,0:3|0:0,0:0:0:0:
423,205,129294,2,0,L|414:279,1,54.25,2|0,0:3|0:0,0:0:0:0:
403,354,129455,5,8,0:1:0:0:
403,354,129536,1,8,0:1:0:0:
403,354,129616,1,8,0:1:0:0:
324,230,129778,5,2,3:2:0:0:
254,345,129939,1,2,1:2:0:0:
186,275,130100,1,8,0:1:0:0:
145,302,130181,1,8,0:1:0:0:
105,323,130261,6,0,P|107:295|115:263,1,54.25,8|0,0:1|0:0,0:0:0:0:
155,57,130423,2,0,P|169:33|191:8,1,55.335000337738,0|0,3:0|0:0,0:0:0:0:
275,15,130745,2,0,P|293:35|307:59,1,55.335000337738,2|0,0:0|0:0,0:0:0:0:
362,143,130907,6,0,P|328:155|304:162,1,54.25,8|0,0:1|0:0,0:0:0:0:
54,236,131068,2,0,P|20:248|-4:255,1,54.25,0|0,3:0|0:0,0:0:0:0:
2,253,131391,2,0,P|36:265|60:272,1,54.25,2|0,0:0|0:0,0:0:0:0:
134,294,131552,6,0,P|170:293|196:284,1,54.25,0|0,3:0|0:0,0:0:0:0:
441,100,131713,2,0,P|455:67|459:39,1,55.335000337738,0|0,3:0|0:0,0:0:0:0:
371,26,132036,2,0,P|356:58|352:86,1,54.25,2|0,0:0|0:0,0:0:0:0:
343,167,132197,6,0,P|306:177|282:177,1,54.25,8|0,0:0|0:0,0:0:0:0:
50,104,132358,2,0,P|15:87|-3:72,1,54.25,0|0,3:0|0:0,0:0:0:0:
2,78,132681,2,0,P|27:68|54:65,1,54.25,2|0,3:2|0:0,0:0:0:0:
152,66,132842,6,0,P|186:72|213:87,1,54.25,8|0,0:1|0:0,0:0:0:0:
443,301,133003,2,0,P|458:331|462:362,1,55.335000337738,0|0,3:0|0:0,0:0:0:0:
372,376,133326,2,0,P|356:345|352:314,1,54.25,2|0,0:0|0:0,0:0:0:0:
278,283,133487,6,0,P|279:260|290:220,1,54.25,8|0,0:1|0:0,0:0:0:0:
387,39,133649,2,0,P|400:20|432:-6,1,54.25,0|0,3:0|0:0,0:0:0:0:
424,0,133971,2,0,P|444:18|460:39,1,54.25,2|0,0:0|0:0,0:0:0:0:
474,130,134132,6,0,L|468:188,3,54.25,2|0|2|0,3:0|0:0|3:2|0:0,0:0:0:0:
394,157,134455,5,2,0:3:0:0:
372,163,134536,1,2,0:0:0:0:
350,169,134616,1,2,0:0:0:0:
328,175,134697,1,2,0:0:0:0:
279,242,134778,6,0,L|273:300,3,54.25,10|0|0|0,0:0|0:0|3:0|0:0,0:0:0:0:
199,269,135101,5,10,0:0:0:0:
177,275,135182,1,0,0:0:0:0:
155,281,135262,1,2,3:2:0:0:
133,287,135343,1,0,0:0:0:0:
81,325,135423,6,0,L|72:387,1,54.25,2|0,3:2|0:0,0:0:0:0:
0,172,135584,1,2,3:2:0:0:
126,156,135745,1,2,3:1:0:0:
252,140,135906,5,2,3:2:0:0:
73,378,136068,6,0,L|11:369,1,54.25,8|0,3:2|0:0,0:0:0:0:
0,172,136229,1,2,3:1:0:0:
126,156,136390,1,2,0:3:0:0:
252,140,136551,5,2,3:2:0:0:
19,370,136713,6,0,L|28:308,1,54.25,2|0,3:2|0:0,0:0:0:0:
0,172,136874,1,2,3:2:0:0:
126,156,137035,1,2,3:1:0:0:
252,140,137196,5,2,3:2:0:0:
26,316,137358,6,0,L|88:325,1,54.25,8|0,3:2|0:0,0:0:0:0:
126,156,137520,5,2,3:1:0:0:
126,156,137600,2,0,L|137:101,1,54.25,0|2,0:0|0:3,0:0:0:0:
252,140,137761,5,0,0:0:0:0:
252,140,137842,2,0,L|263:85,1,54.25,2|0,3:2|0:0,0:0:0:0:
387,129,138003,6,0,L|404:54,1,65.0999980133057,6|0,3:2|0:0,0:0:0:0:
332,228,138165,2,0,B|425:214|425:214|478:235,1,130.199996026611,2|2,3:2|3:1,0:0:0:0:
431,363,138407,1,0,0:0:0:0:
431,363,138487,2,0,L|412:288,1,65.0999980133057,2|0,3:2|0:0,0:0:0:0:
246,165,138649,6,0,P|226:205|221:233,1,65.0999980133057,8|2,3:2|0:3,0:0:0:0:
327,353,138810,2,0,P|302:315|280:297,1,65.0999980133057,2|0,3:1|0:0,0:0:0:0:
35,384,138971,2,0,B|168:373|80:308|218:305,1,195.299994039917,2|0,0:3|0:0,0:0:0:0:
287,302,139294,6,0,B|328:267|328:267|332:183|332:183|285:124,1,184.450003518105,8|0,0:0|0:0,0:0:0:0:
78,198,139536,2,0,B|111:211|145:202|145:202|168:219|168:219|194:209|194:209|221:225|277:223,1,184.450003518105,8|0,0:0|0:0,0:0:0:0:
354,75,139778,2,0,P|312:56|262:70,1,92.2250017590523,8|0,0:0|0:0,0:0:0:0:
144,300,139939,5,10,3:2:0:0:
155,303,140020,1,8,3:0:0:0:
167,307,140100,1,0,3:0:0:0:
179,311,140181,1,4,3:0:0:0:
256,324,140261,54,0,B|264:288|264:288|285:324,1,46.1125008795262,8|0,0:0|0:0,0:0:0:0:
282,330,140342,2,0,B|317:338|317:338|281:359,1,46.1125008795262,8|0,0:0|0:0,0:0:0:0:
276,356,140423,2,0,B|267:391|267:391|246:355,1,46.1125008795262,8|0,0:0|0:0,0:0:0:0:
249,350,140504,2,0,B|213:341|213:341|249:320,1,46.1125008795262,8|0,0:0|0:0,0:0:0:0:
265,339,140584,6,0,B|286:282|286:282|282:264|282:264|307:188,1,151.89999536438,4|2,3:2|0:1,0:0:0:0:
352,64,140907,1,2,0:1:0:0:
500,188,141108,5,2,0:1:0:0:
482,194,141169,1,0,0:0:0:0:
466,202,141229,54,0,P|394:210|302:194,1,162.75000620842,8|6,0:0|3:3,0:0:0:0:
174,46,141471,1,0,0:0:0:0:
174,46,141552,6,0,P|141:65|114:94,1,54.25,8|0,3:1|0:0,0:0:0:0:
127,57,141632,2,0,P|103:86|87:123,1,54.25,0|0,0:0|0:0,0:0:0:0:
88,84,141713,2,0,P|76:120|74:159,1,54.25,0|0,0:0|0:0,0:0:0:0:
60,122,141794,2,0,P|60:160|72:198,1,54.25,0|0,0:0|0:0,0:0:0:0:
51,198,141874,6,0,B|134:174|134:174|210:219,1,162.75000620842,4|0,3:2|0:0,0:0:0:0:
135,356,142116,2,0,B|103:389|103:389|122:262,1,162.75000620842,4|0,3:2|0:0,0:0:0:0:
202,118,142358,2,0,L|276:155,1,81.37500310421,4|0,3:2|0:0,0:0:0:0:
478,107,142520,6,0,B|427:87|427:87|425:90|425:90|427:86|427:86|362:59|362:59|368:57|368:57|361:58|361:58|234:7,1,244.12500931263,12|0,0:1|0:0,0:0:0:0:
202,118,142843,5,8,0:0:0:0:
153,125,142923,1,8,0:0:0:0:
206,134,143004,5,8,0:0:0:0:
151,141,143084,1,8,0:0:0:0:
178,165,143165,6,0,B|99:178|99:178|93:173|93:173|-4:189,1,162.75000620842,4|0,3:2|0:0,0:0:0:0:
231,234,143407,2,0,P|265:169|217:90,1,162.75000620842,4|0,3:2|0:0,0:0:0:0:
16,272,143649,2,0,L|102:257,1,81.37500310421,4|0,3:2|0:0,0:0:0:0:
226,95,143810,6,0,P|308:107|388:153,1,162.75000620842,12|0,0:1|3:0,0:0:0:0:
383,258,144052,1,0,3:0:0:0:
365,236,144132,2,0,P|404:223|459:215,1,81.37500310421,8|0,0:0|0:0,0:0:0:0:
226,327,144294,2,0,P|267:328|321:339,1,81.37500310421,0|0,3:0|0:0,0:0:0:0:
35,149,144455,6,0,B|118:141|118:141|193:188,1,162.75000620842,4|0,3:2|0:0,0:0:0:0:
118,384,144697,2,0,B|106:330|106:330|115:290|115:290|97:227,1,162.75000620842,4|0,3:2|0:0,0:0:0:0:
277,88,144939,2,0,L|264:187,1,81.37500310421,4|0,3:2|0:0,0:0:0:0:
51,30,145100,6,0,B|233:15|120:95|284:88,1,244.12500931263,12|0,0:1|3:0,0:0:0:0:
347,13,145423,2,0,P|289:0|259:0,1,81.37500310421,2|0,0:0|0:0,0:0:0:0:
111,148,145584,2,0,P|94:202|93:238,1,81.37500310421,0|0,3:0|0:0,0:0:0:0:
230,279,145745,6,0,B|302:269|302:269|311:257|311:257|391:249,1,162.75000620842,4|0,3:2|0:0,0:0:0:0:
491,172,145987,2,0,B|450:144|440:107|440:107|415:134|341:138,1,162.75000620842,0|0,3:0|0:0,0:0:0:0:
389,335,146229,2,0,P|430:322|461:295,1,81.37500310421,2|0,3:0|0:0,0:0:0:0:
256,133,146391,5,12,0:1:0:0:
218,142,146471,1,8,3:0:0:0:
180,151,146552,1,4,3:0:0:0:
142,160,146632,1,0,3:0:0:0:
96,244,146713,5,12,0:1:0:0:
337,41,146874,1,0,0:0:0:0:
96,6,147036,6,0,B|113:78|113:78|121:83|121:83|150:191,1,162.75000620842,4|0,3:2|0:0,0:0:0:0:
337,41,147278,2,0,P|265:7|185:34,1,162.75000620842,4|0,3:2|0:0,0:0:0:0:
190,247,147520,2,0,B|228:235|228:235|234:238|234:238|272:228,1,81.375,4|0,3:2|0:0,0:0:0:0:
458,169,147681,6,0,B|481:137|514:128|514:128|425:70|349:166,1,244.12500931263,12|0,0:1|0:0,0:0:0:0:
333,305,148003,5,8,0:0:0:0:
335,325,148084,1,8,0:0:0:0:
381,306,148165,5,8,0:0:0:0:
288,330,148245,1,8,0:0:0:0:
196,362,148326,6,0,B|91:375|91:375|42:340,1,162.75000620842,4|0,3:2|0:0,0:0:0:0:
201,208,148568,2,0,B|151:286|245:280|190:371,1,162.75000620842,4|0,3:2|0:0,0:0:0:0:
0,208,148810,2,0,P|42:190|81:189,1,81.37500310421,4|0,3:2|0:0,0:0:0:0:
259,106,148971,6,0,B|190:96|190:96|184:80|184:80|101:72,1,162.75000620842,12|0,0:1|3:0,0:0:0:0:
251,7,149213,1,0,3:0:0:0:
251,7,149294,2,0,B|290:13|290:13|248:25,1,81.37500310421,8|0,0:0|0:0,0:0:0:0:
127,175,149455,2,0,B|88:169|88:169|130:157,1,81.37500310421,0|0,3:0|0:0,0:0:0:0:
381,250,149616,6,0,P|444:202|327:156,1,244.12500931263,4|0,0:0|3:0,0:0:0:0:
283,243,149939,2,0,P|253:259|198:274,1,81.37500310421,2|0,0:0|0:0,0:0:0:0:
9,118,150100,2,0,P|39:102|94:87,1,81.37500310421,2|0,3:2|0:0,0:0:0:0:
60,327,150261,6,0,B|50:275|50:275|64:251|64:251|95:221|76:150,1,162.75000620842,8|0,0:0|0:0,0:0:0:0:
241,18,150503,2,0,B|251:70|251:70|237:94|237:94|206:124|225:195,1,162.75000620842,0|0,3:0|0:0,0:0:0:0:
66,6,150745,2,0,P|111:12|155:40,1,81.37500310421,0|0,3:0|0:0,0:0:0:0:
197,259,150907,6,0,B|235:271|267:254|267:254|333:333|333:333|370:317|417:335,2,244.12500931263,2|0|0,3:0|3:0|3:0,0:0:0:0:
456,129,151552,5,8,3:1:0:0:
470,126,151633,1,0,3:0:0:0:
484,123,151714,1,8,3:0:0:0:
498,120,151794,1,4,3:0:0:0:
512,117,151875,5,8,3:1:0:0:
432,105,151956,1,8,0:0:0:0:
352,93,152036,1,8,0:0:0:0:
272,81,152117,1,8,0:0:0:0:
189,69,152198,22,0,B|164:151|164:151|200:225,1,162.75000620842,4|0,3:2|0:0,0:0:0:0:
283,242,152439,1,0,3:0:0:0:
283,242,152520,2,0,P|286:212|256:158,1,81.37500310421,8|0,0:0|0:0,0:0:0:0:
63,128,152681,2,0,P|87:145|149:146,1,81.37500310421,0|0,3:0|3:0,0:0:0:0:
272,81,152842,6,0,B|428:83|342:177|485:179,1,244.12500931263,0|0,3:0|0:0,0:0:0:0:
475,74,153165,2,0,B|489:11|489:11|459:31,1,81.37500310421,8|0,0:0|0:0,0:0:0:0:
300,189,153326,2,0,B|286:252|286:252|316:232,1,81.37500310421,0|0,3:0|3:0,0:0:0:0:
476,313,153487,6,0,L|304:336,1,162.75000620842,4|0,0:0|0:0,0:0:0:0:
241,304,153729,1,0,3:0:0:0:
241,304,153810,2,0,L|156:315,1,81.37500310421,8|0,0:0|0:0,0:0:0:0:
5,227,153971,2,0,L|85:216,1,81.37500310421,0|0,3:0|3:0,0:0:0:0:
232,147,154132,54,0,B|278:142|285:91|285:91|214:36|135:104,1,244.12500931263,2|0,3:0|0:0,0:0:0:0:
270,222,154455,2,0,P|326:192|346:159,1,81.37500310421,8|0,0:0|0:0,0:0:0:0:
135,21,154616,2,0,P|132:84|151:118,1,81.37500310421,0|0,3:0|0:0,0:0:0:0:
327,29,154778,70,0,B|399:42|399:42|410:67|410:67|515:83|515:83|471:38,1,244.12500931263,4|0,0:0|3:0,0:0:0:0:
510,170,155100,2,0,P|490:196|471:245,1,81.37500310421,8|0,0:0|0:0,0:0:0:0:
312,132,155261,2,0,P|314:173|309:218,1,81.37500310421,0|0,3:0|3:0,0:0:0:0:
440,333,155423,6,0,B|395:314|382:278|382:278|354:300|309:308,1,162.75000620842,0|0,3:0|3:0,0:0:0:0:
400,179,155665,1,0,0:0:0:0:
400,179,155745,2,0,L|386:261,1,81.37500310421,8|0,0:0|0:0,0:0:0:0:
230,384,155907,2,0,L|216:303,1,81.37500310421,0|0,3:0|3:0,0:0:0:0:
59,284,156068,6,0,B|49:316|42:344|42:344|119:329|119:329|133:315|133:315|221:303,1,244.12500931263,4|0,0:0|3:0,0:0:0:0:
465,228,156391,5,8,0:0:0:0:
480,192,156472,1,0,3:0:0:0:
474,154,156552,1,2,3:2:0:0:
455,120,156633,1,8,3:0:0:0:
422,96,156714,2,0,L|319:116,1,81.37500310421,6|0,3:0|0:0,0:0:0:0:
42,183,156875,5,8,0:0:0:0:
42,183,157197,6,0,B|111:169|111:169|139:178|139:178|168:146|213:148,1,162.75000620842,4|0,0:0|0:0,0:0:0:0:
220,0,157439,1,0,0:0:0:0:
220,0,157520,2,0,P|195:33|192:80,1,81.37500310421,0|0,3:0|3:0,0:0:0:0:
206,243,157681,6,0,B|269:226|269:226|312:111|312:111|277:67,1,244.12500931263,8|0,0:0|0:0,0:0:0:0:
190,72,158003,2,0,B|161:79|161:79|156:75|156:75|106:87,1,81.37500310421,2|0,3:0|0:0,0:0:0:0:
245,316,158165,2,0,B|274:309|274:309|279:313|279:313|329:301,1,81.37500310421,0|0,3:0|0:0,0:0:0:0:
136,180,158326,1,8,0:0:0:0:
136,180,158407,1,0,0:0:0:0:
136,180,158487,6,0,P|112:229|168:327,1,162.75000620842,2|0,3:0|0:0,0:0:0:0:
458,193,158810,2,0,P|482:144|426:46,1,162.75000620842,0|8,3:0|0:0,0:0:0:0:
361,17,159052,1,0,0:0:0:0:
361,17,159132,2,0,P|320:19|274:40,1,81.37500310421,0|0,3:0|0:0,0:0:0:0:
322,302,159294,2,0,P|340:265|345:215,1,81.37500310421,8|0,0:0|0:0,0:0:0:0:
94,125,159455,2,0,P|116:159|157:188,1,81.37500310421,12|0,0:0|0:0,0:0:0:0:
387,133,159616,5,0,3:0:0:0:
387,133,159939,6,0,P|295:147|249:204,1,162.75,6|2,0:0|0:0,0:0:0:0:
346,225,160423,2,0,L|363:261,2,36.1666666666667,2|2|2,0:3|0:3|0:3,0:0:0:0:
387,133,160584,6,0,P|295:147|249:204,1,162.75,2|2,0:3|0:0,0:0:0:0:
346,225,161068,2,0,L|363:261,2,36.1666666666667,2|2|2,0:3|0:3|0:3,0:0:0:0:
387,133,161229,6,0,P|295:147|249:204,1,162.75,2|2,0:3|0:0,0:0:0:0:
346,225,161713,2,0,L|363:261,2,36.1666666666667,2|2|2,0:3|0:3|0:3,0:0:0:0:
387,133,161874,5,2,0:3:0:0:
387,133,162520,6,0,P|366:136|338:148,1,36.8900002251587,4|0,3:2|0:0,0:0:0:0:
252,288,162761,2,0,P|259:268|263:238,1,36.8900002251587,2|0,3:0|0:0,0:0:0:0:
185,93,163003,2,0,P|198:109|222:127,1,40.687501552105,2|0,3:0|0:0,0:0:0:0:
362,243,163165,6,0,L|390:266,1,36.8900002251587,8|0,0:1|0:0,0:0:0:0:
291,67,163407,2,0,L|297:30,1,36.8900002251587,2|0,3:0|0:0,0:0:0:0:
180,213,163649,2,0,L|132:230,1,40.687501552105,2|0,3:0|0:0,0:0:0:0:
60,255,163810,6,0,P|41:261|21:264,1,40.687501552105,4|0,3:2|0:0,0:0:0:0:
168,119,164051,2,0,P|173:99|181:81,1,40.687501552105,2|0,3:0|0:0,0:0:0:0:
232,281,164293,2,0,P|247:295|260:312,1,40.687501552105,2|0,3:0|0:0,0:0:0:0:
19,107,164455,6,0,L|51:134,1,40.687501552105,8|0,0:1|0:0,0:0:0:0:
127,383,164697,2,0,L|135:343,1,40.687501552105,2|0,3:0|0:0,0:0:0:0:
304,156,164939,2,0,L|266:170,1,40.687501552105,2|0,3:0|0:0,0:0:0:0:
198,140,165100,22,0,P|180:135|163:128,1,36.8900002251587,4|0,3:2|0:0,0:0:0:0:
350,82,165342,2,0,P|362:68|380:56,1,40.687501552105,2|0,3:0|0:0,0:0:0:0:
317,238,165584,2,0,P|321:255|324:278,1,40.687501552105,2|0,3:0|0:0,0:0:0:0:
222,233,165745,6,0,P|202:228|183:219,1,40.687501552105,8|0,0:1|0:0,0:0:0:0:
399,173,165987,2,0,P|404:192|406:212,1,36.8900002251587,2|0,3:0|0:0,0:0:0:0:
259,54,166229,2,0,P|273:39|289:27,1,40.687501552105,2|0,3:0|0:0,0:0:0:0:
182,62,166391,5,4,3:2:0:0:
153,75,166498,1,8,0:3:0:0:
121,91,166606,1,8,0:3:0:0:
91,172,166713,5,0,3:0:0:0:
49,190,166820,1,8,0:3:0:0:
3,213,166928,1,8,0:3:0:0:
8,297,167036,5,8,0:1:0:0:
8,297,167143,2,0,L|17:343,1,39.7833345474244,8|0,0:1|3:0,0:0:0:0:
106,344,167278,5,0,0:0:0:0:
148,353,167412,1,0,0:0:0:0:
252,294,167573,5,0,0:0:0:0:
314,190,167681,5,4,3:2:0:0:
295,193,167896,1,2,3:0:0:0:
276,196,168111,1,2,1:3:0:0:
257,199,168326,1,2,3:0:0:0:
238,202,168541,1,2,3:0:0:0:
219,205,168756,1,2,3:0:0:0:
200,208,168971,1,2,1:3:0:0:
181,211,169186,1,2,3:0:0:0:
162,214,169401,1,2,3:0:0:0:
143,217,169616,1,2,3:0:0:0:
124,220,169831,1,2,1:3:0:0:
105,223,170046,1,2,3:0:0:0:
86,226,170261,5,2,3:0:0:0:
88,243,170342,1,8,0:3:0:0:
91,258,170423,2,0,L|98:313,1,40.687501552105,8|8,0:3|0:3,0:0:0:0:
395,384,170584,5,8,0:1:0:0:
385,329,170665,1,0,0:0:0:0:
373,276,170746,2,0,L|359:212,1,40.687501552105,0|0,3:0|3:0,0:0:0:0:
188,160,170907,6,0,B|158:188|158:188|330:154,1,217,8|0,0:1|0:0,0:0:0:0:
424,31,171149,2,0,B|395:1|331:12|331:12|329:8|329:8|330:14|330:14|264:34|253:110,1,217,8|0,0:1|0:0,0:0:0:0:
450,227,171391,6,0,B|502:263|549:192|551:153|472:88|422:106|357:144|311:161,1,325.5,4|0,3:1|0:0,0:0:0:0:
261,233,171713,6,0,L|270:278,1,40.687501552105,0|0,3:0|3:0,0:0:0:0:
349,278,171874,2,0,L|341:238,1,40.687501552105,2|0,3:2|0:0,0:0:0:0:
151,49,172036,6,0,P|136:74|127:117,1,67.8125,0|0,3:0|3:0,0:0:0:0:
51,79,172197,2,0,P|48:122|54:155,1,67.8125,8|0,0:1|0:0,0:0:0:0:
404,173,172358,6,0,P|369:155|304:146,1,94.9375009053946,0|0,3:0|3:0,0:0:0:0:
126,290,172520,2,0,B|101:320|77:343|77:343|170:327|170:327|191:346|191:346|313:331,1,284.812502716184,8|0,0:1|0:0,0:0:0:0:
383,318,172842,6,0,P|376:276|327:233,1,94.9375009053946,4|0,3:2|0:0,0:0:0:0:
152,188,173003,1,0,0:0:0:0:
152,188,173084,2,0,P|191:202|253:182,1,94.9375009053946,4|0,3:2|0:0,0:0:0:0:
379,68,173245,1,0,0:0:0:0:
379,68,173326,2,0,P|346:95|333:158,1,94.9375009053946,4|0,3:2|0:0,0:0:0:0:
267,374,173487,6,0,L|259:308,1,54.25,4|0,3:2|0:0,0:0:0:0:
247,244,173649,1,0,0:0:0:0:
247,244,173729,2,0,L|239:178,1,54.25,4|0,3:2|0:0,0:0:0:0:
226,112,173891,1,0,0:0:0:0:
226,112,173971,2,0,L|218:46,1,54.25,4|0,3:2|0:0,0:0:0:0:
130,10,174132,22,0,P|88:1|41:2,1,86.8,4|0,3:2|0:0,0:0:0:0:
331,143,174294,1,0,0:0:0:0:
331,143,174374,2,0,P|372:134|419:135,1,86.8,4|2,3:2|0:2,0:0:0:0:
105,266,174536,1,0,0:0:0:0:
105,266,174616,2,0,P|63:257|16:258,1,86.8,4|0,3:2|0:0,0:0:0:0:
322,364,174778,5,2,3:1:0:0:
347,341,174858,5,8,0:3:0:0:
367,338,174939,1,8,0:3:0:0:
387,335,175020,1,2,3:1:0:0:
419,305,175100,5,8,0:3:0:0:
444,282,175180,5,8,0:3:0:0:
464,279,175261,1,2,3:1:0:0:
484,276,175342,1,0,0:0:0:0:
512,239,175423,21,4,3:1:0:0:
508,177,175503,1,8,0:3:0:0:
476,126,175584,1,8,0:3:0:0:
422,97,175665,1,4,3:1:0:0:
362,99,175745,1,4,0:3:0:0:
309,132,175826,1,4,0:3:0:0:
282,186,175907,1,2,3:0:0:0:
284,246,175987,1,8,0:3:0:0:
271,240,176068,5,8,0:3:0:0:
267,302,176148,1,0,3:0:0:0:
235,353,176229,1,0,3:0:0:0:
181,382,176310,1,0,3:0:0:0:
121,380,176390,1,0,3:0:0:0:
68,347,176471,1,0,3:0:0:0:
41,293,176552,1,2,3:2:0:0:
43,233,176632,1,2,3:2:0:0:
69,171,176713,5,8,0:1:0:0:
69,171,178003,5,0,3:0:0:0:
273,117,178165,1,0,3:0:0:0:
204,255,178326,1,8,0:1:0:0:
139,28,178487,1,2,0:3:0:0:
141,39,178568,1,2,0:3:0:0:
145,52,178649,1,0,3:0:0:0:
305,243,178810,1,2,3:0:0:0:
363,129,178971,2,0,L|375:76,1,54.25,12|0,0:2|0:0,0:0:0:0:
192,167,179132,2,0,L|142:128,1,54.25,8|0,0:1|0:0,0:0:0:0:
323,371,179294,5,0,3:0:0:0:
276,145,179455,1,0,3:0:0:0:
245,267,179616,21,8,0:1:0:0:
271,263,179697,1,8,0:1:0:0:
296,258,179778,1,8,0:1:0:0:
323,254,179858,1,8,0:1:0:0:
348,249,179939,1,0,3:0:0:0:
321,371,180100,53,2,0:3:0:0:
315,343,180180,1,0,3:0:0:0:
310,317,180261,1,2,3:2:0:0:
276,145,180423,1,8,0:1:0:0:
245,267,180584,1,4,3:1:0:0:
401,327,180745,22,0,L|453:342,1,54.25,8|0,0:1|0:0,0:0:0:0:
374,166,180907,2,0,L|415:130,1,54.25,8|0,0:1|0:0,0:0:0:0:
224,366,181068,1,2,3:2:0:0:
224,366,181149,1,0,0:0:0:0:
224,366,181229,6,0,L|220:302,1,54.25,2|2,3:2|0:3,0:0:0:0:
374,166,181391,2,0,L|370:230,1,54.25,2|0,3:2|0:0,0:0:0:0:
197,222,181552,2,0,B|321:217|266:307|391:305,1,211.574990314866,8|0,0:1|0:0,0:0:0:0:
479,276,181874,6,0,B|495:173|495:173|498:131|454:111,1,173.6,8|0,0:1|0:0,0:0:0:0:
181,61,182116,2,0,B|165:164|165:164|162:206|206:226,1,173.6,8|0,0:1|0:0,0:0:0:0:
388,35,182358,2,0,B|351:19|351:19|292:33,1,86.8,8|0,0:1|0:0,0:0:0:0:
216,308,182520,5,8,0:1:0:0:
205,311,182601,1,8,0:3:0:0:
193,315,182681,1,8,0:3:0:0:
181,319,182762,1,8,0:3:0:0:
110,269,182842,38,0,L|129:194,1,48.8249985099793,8|0,0:1|0:0,0:0:0:0:
95,250,182923,2,0,L|104:173,1,48.8249985099793,8|0,0:1|0:0,0:0:0:0:
79,236,183003,2,0,L|77:158,1,48.8249985099793,8|0,0:1|0:0,0:0:0:0:
62,223,183084,2,0,L|49:146,1,48.8249985099793,8|0,0:1|0:0,0:0:0:0:
9,288,183165,5,2,3:2:0:0:
55,379,183326,1,2,0:0:0:0:
55,379,183487,2,0,L|135:365,1,81.37500310421,2|0,0:0|3:2,0:0:0:0:
229,308,183689,6,0,L|251:379,1,73.2374977649689
257,342,183810,54,0,L|456:307,1,195.299994039917,8|4,0:0|0:3,0:0:0:0:
459,96,184132,5,8,0:0:0:0:
485,103,184213,1,8,0:0:0:0:
509,108,184294,5,8,0:0:0:0:
416,84,184374,1,8,0:0:0:0:
321,57,184455,6,0,L|281:67,1,29.8375009105683,8|8,0:3|0:3,0:0:0:0:
163,192,184616,6,0,P|197:193|247:185,1,65.0999980133057,0|0,3:0|3:0,0:0:0:0:
380,226,184778,6,0,L|369:131,1,81.37500310421,4|4,0:3|0:3,0:0:0:0:
55,21,184939,6,0,L|66:128,1,108.5,0|0,3:0|3:0,0:0:0:0:
319,344,185100,6,0,L|348:340,1,21.7,8|8,0:3|3:3,0:0:0:0:
463,258,185342,1,8,3:3:0:0:
463,258,185423,6,0,B|428:261|428:261|425:266|425:266|419:262|419:262|376:267|376:267|357:258|357:258|311:263|311:263|312:256|312:256|314:263|314:263|271:270|271:270|260:284|260:284|210:292|210:292|213:298|213:298|210:293|210:293|136:302,1,325.5,8|0,0:0|0:0,0:0:0:0:
15,326,185745,5,4,3:1:0:0:
15,326,187036,5,4,3:1:0:0:
15,326,188326,5,4,3:1:0:0:
15,326,188971,5,4,3:1:0:0:
15,326,189616,5,4,3:1:0:0:
15,326,189939,5,0,3:0:0:0:
89,243,190100,1,0,3:0:0:0:
89,243,190181,1,0,3:0:0:0:
89,243,190261,2,0,L|97:186,1,54.25,8|8,0:0|0:3,0:0:0:0:
203,0,190423,2,0,L|210:53,1,54.25,8|4,0:3|0:3,0:0:0:0:
53,119,190584,6,0,L|142:111,1,81.375,4|0,1:3|0:0,0:0:0:0:
145,111,190907,5,8,3:2:0:0:
393,192,191068,5,8,3:2:0:0:
144,272,191229,5,8,3:2:0:0:
298,61,191391,5,8,3:2:0:0:
302,335,191552,5,8,3:1:0:0:
185,58,191713,5,8,3:1:0:0:
391,258,191874,5,8,3:1:0:0:
107,217,192036,5,8,3:1:0:0:
361,83,192197,6,0,P|354:111|339:136,1,54.25,4|0,3:2|0:0,0:0:0:0:
162,329,192358,6,0,P|151:302|149:273,1,54.25,8|0,3:2|0:0,0:0:0:0:
251,25,192520,6,0,P|275:41|294:63,1,54.25,8|0,3:2|0:0,0:0:0:0:
357,323,192681,6,0,P|328:325|300:318,1,54.25,8|0,3:2|0:0,0:0:0:0:
96,144,192842,6,0,P|118:126|145:115,1,54.25,8|0,3:1|0:0,0:0:0:0:
427,129,193003,6,0,P|419:156|404:181,1,54.25,8|0,3:1|0:0,0:0:0:0:
97,283,193165,6,0,P|86:256|84:227,1,54.25,8|0,3:1|0:0,0:0:0:0:
331,24,193326,6,0,P|355:40|374:62,1,54.25,8|0,3:1|0:0,0:0:0:0:
293,370,193487,5,2,0:0:0:0:
56,190,196068,54,0,L|153:177,1,81.37500310421,4|0,3:2|0:0,0:0:0:0:
282,24,196229,2,0,B|196:27|196:27|145:89,1,162.75000620842,0|8,0:0|0:0,0:0:0:0:
257,183,196471,1,0,0:0:0:0:
257,183,196552,2,0,P|255:141|236:104,1,81.37500310421,0|0,3:0|3:0,0:0:0:0:
168,258,196713,6,0,B|237:248|280:295|280:295|298:238|374:206,1,244.12500931263,0|0,3:0|0:0,0:0:0:0:
404,317,197036,2,0,P|392:304|403:325,1,81.37500310421,8|0,0:0|0:0,0:0:0:0:
185,356,197197,2,0,P|197:343|186:364,1,81.37500310421,0|0,3:0|3:0,0:0:0:0:
74,273,197358,70,0,P|93:208|179:161,1,162.75000620842,4|0,0:0|0:0,0:0:0:0:
255,189,197600,1,0,3:0:0:0:
255,189,197681,2,0,P|262:151|244:104,1,81.37500310421,8|0,0:0|0:0,0:0:0:0:
124,4,197842,1,0,3:0:0:0:
294,11,198003,6,0,B|209:23|209:23|168:88|168:88|74:109,1,244.12500931263,2|0,3:0|0:0,0:0:0:0:
45,111,198326,1,8,0:0:0:0:
251,283,198487,1,0,3:0:0:0:
251,283,198568,1,0,0:0:0:0:
251,283,198649,70,0,B|327:276|327:276|340:285|340:285|421:278,1,162.75000620842,4|0,0:0|0:0,0:0:0:0:
471,204,198891,1,0,3:0:0:0:
471,204,198971,2,0,P|431:191|390:194,1,81.37500310421,8|0,0:0|0:0,0:0:0:0:
296,366,199132,2,0,P|256:379|215:376,1,81.37500310421,0|0,3:0|3:0,0:0:0:0:
1,202,199294,6,0,B|77:225|147:167|147:167|146:217|185:258,1,244.12500931263,0|0,3:0|0:0,0:0:0:0:
251,283,199616,2,0,P|264:234|237:188,1,81.37500310421,8|0,0:0|0:0,0:0:0:0:
6,118,199778,1,0,3:0:0:0:
6,118,199858,1,0,3:0:0:0:
6,118,199939,70,0,B|69:139|116:71|116:71|142:67|142:67|150:56|150:56|256:50,1,244.12500931263,4|0,0:0|3:0,0:0:0:0:
453,41,200261,5,8,0:0:0:0:
485,63,200342,1,0,3:0:0:0:
500,98,200422,1,2,3:2:0:0:
503,137,200503,1,8,3:0:0:0:
488,176,200584,2,0,L|391:198,1,81.37500310421,6|0,3:0|0:0,0:0:0:0:
87,262,200745,5,8,0:0:0:0:
87,262,201068,6,0,B|164:252|164:252|175:257|175:257|251:248,1,162.75000620842,4|0,0:0|0:0,0:0:0:0:
155,135,201310,1,0,0:0:0:0:
155,135,201391,2,0,L|174:225,1,81.37500310421,0|0,3:0|3:0,0:0:0:0:
355,250,201552,6,0,B|309:234|309:234|242:263|242:263|240:258|240:258|244:264|244:264|182:293|182:293|162:346,1,244.12500931263,8|0,0:0|0:0,0:0:0:0:
244,358,201874,2,0,L|322:320,1,81.37500310421,2|0,3:0|0:0,0:0:0:0:
247,179,202036,2,0,L|240:265,1,81.37500310421,0|0,3:0|0:0,0:0:0:0:
425,318,202197,1,8,0:0:0:0:
425,318,202278,1,0,0:0:0:0:
425,318,202358,6,0,B|452:272|452:272|427:158,1,162.75000620842,2|0,3:0|0:0,0:0:0:0:
87,66,202681,2,0,B|60:112|60:112|85:226,1,162.75000620842,0|8,3:0|0:0,0:0:0:0:
101,296,202923,1,0,0:0:0:0:
101,296,203003,2,0,P|152:299|188:289,1,81.37500310421,0|0,3:0|0:0,0:0:0:0:
411,88,203165,2,0,P|360:85|324:95,1,81.37500310421,8|0,0:0|0:0,0:0:0:0:
171,200,203326,5,8,0:0:0:0:
171,200,203649,6,0,B|237:112|153:37|153:37|150:85|133:114,1,244.12500931263,4|0,0:1|0:0,0:0:0:0:
50,182,203971,6,0,P|59:209|59:237,1,54.25,0|0,3:0|0:0,0:0:0:0:
9,347,204132,2,0,P|27:324|52:310,1,54.25,2|0,0:3|0:0,0:0:0:0:
243,370,204293,69,0,3:0:0:0:
243,370,204374,1,0,3:0:0:0:
243,370,204455,2,0,P|268:346|278:321,1,54.25,2|0,0:3|0:0,0:0:0:0:
172,301,204616,6,0,P|142:295|118:281,1,54.25,0|0,3:0|0:0,0:0:0:0:
50,182,204777,2,0,P|59:209|58:238,1,54.25,2|0,1:3|0:0,0:0:0:0:
309,260,204938,69,0,3:0:0:0:
309,260,205019,1,0,3:0:0:0:
309,260,205100,2,0,P|313:225|306:199,1,54.25,0|0,3:0|0:0,0:0:0:0:
9,347,205261,6,0,P|27:324|52:310,1,54.25,0|0,3:0|0:0,0:0:0:0:
172,301,205422,2,0,P|142:295|118:281,1,54.25,8|0,0:0|0:0,0:0:0:0:
278,133,205584,69,0,3:0:0:0:
278,133,205665,1,0,3:0:0:0:
278,133,205745,2,0,P|259:103|237:89,1,54.25,0|0,3:0|0:0,0:0:0:0:
292,8,205907,2,0,P|326:7|350:-5,1,54.25,8|0,0:0|0:0,0:0:0:0:
393,82,206068,2,0,P|376:112|375:139,1,54.25,0|0,3:0|0:0,0:0:0:0:
446,211,206229,6,0,B|285:222|406:325|231:333,1,244.12500931263,4|0,0:0|0:0,0:0:0:0:
86,246,206552,6,0,L|99:314,1,54.25,0|0,3:0|0:0,0:0:0:0:
186,247,206713,2,0,L|173:315,1,54.25,2|0,0:3|0:0,0:0:0:0:
0,66,206874,5,0,3:0:0:0:
0,66,206955,1,0,3:0:0:0:
0,66,207036,2,0,P|29:54|57:51,1,54.25,2|0,0:3|0:0,0:0:0:0:
75,192,207197,6,0,L|88:260,1,54.25,0|0,3:0|0:0,0:0:0:0:
196,193,207358,2,0,L|183:261,1,54.25,2|0,1:3|0:0,0:0:0:0:
138,43,207520,5,0,3:0:0:0:
138,43,207601,1,0,3:0:0:0:
138,43,207682,2,0,P|167:55|195:58,1,54.25,0|0,3:0|0:0,0:0:0:0:
64,138,207842,6,0,L|77:206,1,54.25,0|0,3:0|0:0,0:0:0:0:
206,139,208003,2,0,L|193:207,1,54.25,8|0,0:0|0:0,0:0:0:0:
266,44,208165,5,0,3:0:0:0:
266,44,208246,1,0,3:0:0:0:
266,44,208327,2,0,P|295:32|323:29,1,54.25,8|0,3:2|0:0,0:0:0:0:
360,245,208487,2,0,P|331:257|303:260,1,55.335000337738,8|0,3:2|0:0,0:0:0:0:
209,258,208810,54,0,P|166:234|267:182,1,244.12500931263,4|0,0:0|0:0,0:0:0:0:
166,329,209132,6,0,L|157:384,1,54.25,0|0,3:0|0:0,0:0:0:0:
77,366,209294,2,0,L|85:312,1,54.25,2|0,0:3|0:0,0:0:0:0:
315,243,209455,5,0,3:0:0:0:
315,243,209536,1,0,3:0:0:0:
315,243,209616,2,0,L|326:307,1,54.25,2|0,0:3|0:0,0:0:0:0:
75,208,209778,6,0,L|84:263,1,54.25,0|0,3:0|0:0,0:0:0:0:
164,245,209940,2,0,L|155:191,1,54.25,2|0,1:3|0:0,0:0:0:0:
374,124,210100,5,0,3:0:0:0:
374,124,210181,1,0,3:0:0:0:
374,124,210261,2,0,L|363:188,1,54.25,0|0,3:0|0:0,0:0:0:0:
145,66,210423,6,0,L|136:121,1,54.25,0|0,3:0|0:0,0:0:0:0:
56,103,210585,2,0,L|64:49,1,54.25,8|0,0:0|0:0,0:0:0:0:
302,13,210745,5,0,3:0:0:0:
302,13,210826,1,0,3:0:0:0:
302,13,210906,2,0,L|313:77,1,54.25,0|0,3:0|0:0,0:0:0:0:
447,64,211068,2,0,L|386:41,1,54.25,8|0,0:0|0:0,0:0:0:0:
327,162,211229,2,0,L|376:120,1,54.25,0|0,3:0|0:0,0:0:0:0:
178,20,211391,6,0,B|258:-15|258:-15|351:44|351:44|323:51|294:81,1,244.12500931263,4|0,0:0|0:0,0:0:0:0:
203,131,211713,70,0,P|201:158|198:186,1,54.25,0|0,3:0|0:0,0:0:0:0:
309,131,211874,2,0,P|311:158|314:186,1,54.25,2|0,0:3|0:0,0:0:0:0:
256,384,212036,5,0,3:0:0:0:
256,384,212116,1,0,3:0:0:0:
256,384,212197,2,0,L|256:315,1,54.25,2|0,0:3|0:0,0:0:0:0:
169,197,212358,70,0,P|157:221|143:246,1,54.25,0|0,3:0|0:0,0:0:0:0:
343,197,212520,2,0,P|354:221|368:246,1,54.25,2|0,1:3|0:0,0:0:0:0:
255,248,212681,5,0,3:0:0:0:
255,248,212761,1,0,3:0:0:0:
255,248,212842,2,0,L|255:179,1,54.25,0|0,3:0|0:0,0:0:0:0:
113,269,213003,70,0,P|92:287|71:305,1,54.25,0|0,3:0|0:0,0:0:0:0:
399,269,213165,2,0,P|419:287|440:305,1,54.25,8|0,0:0|0:0,0:0:0:0:
254,115,213326,5,0,3:0:0:0:
254,115,213406,1,0,3:0:0:0:
254,115,213487,2,0,L|254:46,1,54.25,8|0,3:2|0:0,0:0:0:0:
256,328,213649,2,0,L|256:397,1,55.335000337738,2|0,0:3|0:0,0:0:0:0:
142,313,213971,70,0,B|186:296|186:296|223:306|223:306|235:289|255:285|255:285|276:289|286:304|286:304|326:295|326:295|368:314,1,244.12500931263,4|0,0:0|0:0,0:0:0:0:
376,340,214294,5,2,0:2:0:0:
136,340,214455,1,2,0:2:0:0:
408,227,214616,5,2,0:2:0:0:
104,227,214778,1,2,0:2:0:0:
449,120,214939,5,2,0:2:0:0:
63,120,215100,1,2,0:2:0:0:
423,26,215261,5,2,0:1:0:0:
423,26,215315,1,0,0:0:0:0:
423,26,215369,1,0,0:0:0:0:
423,26,215423,6,0,L|333:32,1,81.37500310421,8|0,0:0|0:0,0:0:0:0:
297,114,215584,2,0,L|214:120,1,81.37500310421,0|0,3:0|0:0,0:0:0:0:
176,205,215745,2,0,L|86:211,1,81.37500310421,0|0,3:0|0:0,0:0:0:0:
423,26,215907,6,0,L|333:32,1,81.37500310421,8|0,0:0|0:0,0:0:0:0:
11,300,216068,5,4,0:0:0:0:
