osu file format v14

[General]
AudioFilename: audio.mp3
AudioLeadIn: 0
PreviewTime: 67197
Countdown: 0
SampleSet: Soft
StackLeniency: 0.7
Mode: 0
LetterboxInBreaks: 0
WidescreenStoryboard: 1

[Editor]
Bookmarks: 21713,32036,78649,96552,106391,107036,117358,130261,135423,141229,152197,159939,162520,172842,176713,185745,190907,193487,196068,203649
DistanceSpacing: 1
BeatDivisor: 4
GridSize: 32
TimelineZoom: 1.7

[Metadata]
Title:KUUKAN<=>Formation
TitleUnicode:空閒⇔Formation
Artist:YAIRI
ArtistUnicode:やいり
Creator:Net0
Version:HowRengar's Insane
Source:
Tags:Room⇔Formation 2013 AKIAKANE ROOM Japanese Rock Vocaloid Kalindraz Enerugi HowRengar Rensia AlextroIIPsy K4L1
BeatmapID:2160547
BeatmapSetID:1033379

[Difficulty]
HPDrainRate:5.5
CircleSize:4
OverallDifficulty:7.2
ApproachRate:9
SliderMultiplier:1.65
SliderTickRate:1

[Events]
//Background and Video events
0,0,"gumipresamusicafoda.jpg",0,0
//Break Periods
//Storyboard Layer 0 (Background)
//Storyboard Layer 1 (Fail)
//Storyboard Layer 2 (Pass)
//Storyboard Layer 3 (Foreground)
//Storyboard Layer 4 (Overlay)
//Storyboard Sound Samples

[TimingPoints]
10262,322.58064516129,4,2,0,100,1,0
10907,-100,4,2,0,70,0,0
11391,-100,4,2,0,60,0,0
11632,-100,4,2,0,5,0,0
11713,-100,4,2,0,60,0,0
14213,-100,4,2,0,5,0,0
14294,-100,4,2,0,60,0,0
16794,-100,4,2,0,5,0,0
16874,-100,4,2,0,60,0,0
19132,-90.9090909090909,4,2,0,60,0,0
19374,-90.9090909090909,4,2,0,5,0,0
19455,-90.9090909090909,4,2,0,60,0,0
21713,-80,4,2,0,70,0,0
21955,-80,4,2,0,5,0,0
22036,-80,4,2,0,70,0,0
24536,-80,4,2,0,5,0,0
24616,-80,4,2,0,70,0,0
27116,-80,4,2,0,5,0,0
27197,-80,4,2,0,70,0,0
29697,-80,4,2,0,5,0,0
29778,-80,4,2,0,70,0,0
29939,-95.2380952380952,4,2,0,70,0,0
32278,-95.2380952380952,4,2,0,5,0,0
32358,-95.2380952380952,4,2,0,70,0,0
34778,-117.647058823529,4,2,0,70,0,0
34939,-117.647058823529,4,2,0,5,0,0
35020,-117.647058823529,4,2,0,70,0,0
35181,-117.647058823529,4,2,0,5,0,0
35261,-117.647058823529,4,2,0,70,0,0
35342,-117.647058823529,4,2,0,5,0,0
35423,-117.647058823529,4,2,0,70,0,0
37358,-117.647058823529,4,2,0,70,0,0
37520,-117.647058823529,4,2,0,5,0,0
37600,-117.647058823529,4,2,0,70,0,0
37761,-117.647058823529,4,2,0,5,0,0
37842,-117.647058823529,4,2,0,70,0,0
37923,-117.647058823529,4,2,0,5,0,0
38003,-117.647058823529,4,2,0,70,0,0
40100,-117.647058823529,4,2,0,5,0,0
40181,-117.647058823529,4,2,0,70,0,0
40342,-117.647058823529,4,2,0,5,0,0
40423,-117.647058823529,4,2,0,70,0,0
40503,-117.647058823529,4,2,0,5,0,0
40584,-117.647058823529,4,2,0,70,0,0
42681,-117.647058823529,4,2,0,5,0,0
42761,-117.647058823529,4,2,0,70,0,0
42923,-117.647058823529,4,2,0,5,0,0
43003,-117.647058823529,4,2,0,70,0,0
43084,-117.647058823529,4,2,0,5,0,0
43165,-117.647058823529,4,2,0,70,0,0
45100,-100,4,2,0,70,0,0
56955,-100,4,2,0,5,0,0
57036,-100,4,2,0,70,0,0
57116,-100,4,2,0,5,0,0
57197,-100,4,2,0,70,0,0
57278,-100,4,2,0,5,0,0
57358,-100,4,2,0,70,0,0
67197,-100,4,2,0,5,0,0
67278,-100,4,2,0,70,0,0
67439,-100,4,2,0,5,0,0
67520,-100,4,2,0,70,0,0
67600,-100,4,2,0,5,0,0
67681,-100,4,2,0,70,0,0
68326,-86.9565217391304,4,2,0,70,0,1
68487,-86.9565217391304,4,2,0,5,0,1
68568,-86.9565217391304,4,2,0,70,0,1
68729,-86.9565217391304,4,2,0,5,0,1
68810,-86.9565217391304,4,2,0,70,0,1
69213,-86.9565217391304,4,2,0,5,0,1
69294,-86.9565217391304,4,2,0,70,0,1
69778,-86.9565217391304,4,2,0,5,0,1
69858,-86.9565217391304,4,2,0,70,0,1
70020,-86.9565217391304,4,2,0,5,0,1
70100,-86.9565217391304,4,2,0,70,0,1
70503,-86.9565217391304,4,2,0,5,0,1
70584,-86.9565217391304,4,2,0,70,0,1
71068,-86.9565217391304,4,2,0,5,0,1
71149,-86.9565217391304,4,2,0,70,0,1
71310,-86.9565217391304,4,2,0,5,0,1
71391,-86.9565217391304,4,2,0,70,0,1
73165,-133.333333333333,4,2,0,70,0,1
73407,-133.333333333333,4,2,0,5,0,1
73487,-86.9565217391303,4,2,0,70,0,1
73649,-86.9565217391303,4,2,0,5,0,1
73729,-86.9565217391303,4,2,0,70,0,1
73891,-86.9565217391303,4,2,0,5,0,1
73971,-86.9565217391303,4,2,0,70,0,1
74374,-86.9565217391303,4,2,0,5,0,1
74455,-86.9565217391303,4,2,0,70,0,1
74939,-86.9565217391303,4,2,0,5,0,1
75020,-86.9565217391303,4,2,0,70,0,1
75181,-86.9565217391303,4,2,0,5,0,1
75261,-86.9565217391303,4,2,0,70,0,1
83649,-95.2380952380952,4,2,0,70,0,1
83891,-95.2380952380952,4,2,0,5,0,1
83971,-95.2380952380952,4,2,0,70,0,1
86068,-100,4,2,0,70,0,0
86471,-100,4,2,0,5,0,0
86552,-100,4,2,0,70,0,0
89052,-100,4,2,0,5,0,0
89132,-100,4,2,0,70,0,0
91632,-100,4,2,0,5,0,0
91713,-100,4,2,0,70,0,0
94213,-100,4,2,0,5,0,0
94294,-100,4,2,0,70,0,0
96552,-80,4,2,0,70,0,0
96794,-80,4,2,0,5,0,0
96874,-80,4,2,0,70,0,0
99374,-80,4,2,0,5,0,0
99455,-80,4,2,0,70,0,0
101955,-80,4,2,0,5,0,0
102036,-80,4,2,0,70,0,0
104536,-80,4,2,0,5,0,0
104616,-80,4,2,0,70,0,0
104778,-95.2380952380952,4,2,0,70,0,0
106391,-68.9655172413793,4,2,0,70,0,0
107036,-181.818181818181,4,2,0,70,0,0
109616,-142.857142857143,4,2,0,70,0,0
117358,-100,4,2,0,70,0,0
129213,-100,4,2,0,5,0,0
129294,-100,4,2,0,70,0,0
129374,-100,4,2,0,5,0,0
129455,-100,4,2,0,70,0,0
135423,-133.333333333333,4,2,0,70,0,0
138003,-117.647058823529,4,2,0,70,0,0
139455,-117.647058823529,4,2,0,5,0,0
139536,-117.647058823529,4,2,0,70,0,0
139697,-117.647058823529,4,2,0,5,0,0
139778,-117.647058823529,4,2,0,70,0,0
139858,-117.647058823529,4,2,0,5,0,0
139939,-117.647058823529,4,2,0,70,0,0
141229,-86.9565217391302,4,2,0,70,0,0
141794,-86.9565217391302,4,2,0,5,0,0
141874,-86.9565217391304,4,2,0,70,0,1
142036,-86.9565217391304,4,2,0,5,0,1
142116,-86.9565217391304,4,2,0,70,0,1
142278,-86.9565217391304,4,2,0,5,0,1
142358,-86.9565217391304,4,2,0,70,0,1
142761,-86.9565217391304,4,2,0,5,0,1
142842,-86.9565217391304,4,2,0,70,0,1
143326,-86.9565217391304,4,2,0,5,0,1
143407,-86.9565217391304,4,2,0,70,0,1
143568,-86.9565217391304,4,2,0,5,0,1
143649,-86.9565217391304,4,2,0,70,0,1
144052,-86.9565217391304,4,2,0,5,0,1
144132,-86.9565217391304,4,2,0,70,0,1
144616,-86.9565217391304,4,2,0,5,0,1
144697,-86.9565217391304,4,2,0,70,0,1
144858,-86.9565217391304,4,2,0,5,0,1
144939,-86.9565217391304,4,2,0,70,0,1
146713,-133.333333333333,4,2,0,70,0,1
146955,-133.333333333333,4,2,0,5,0,1
147036,-86.9565217391303,4,2,0,70,0,1
147197,-86.9565217391303,4,2,0,5,0,1
147278,-86.9565217391303,4,2,0,70,0,1
147439,-86.9565217391303,4,2,0,5,0,1
147520,-86.9565217391303,4,2,0,70,0,1
147923,-86.9565217391303,4,2,0,5,0,1
148003,-86.9565217391303,4,2,0,70,0,1
148487,-86.9565217391303,4,2,0,5,0,1
148568,-86.9565217391303,4,2,0,70,0,1
148729,-86.9565217391303,4,2,0,5,0,1
148810,-86.9565217391303,4,2,0,70,0,1
157439,-86.9565217391303,4,2,0,5,0,1
157520,-86.9565217391303,4,2,0,70,0,1
159616,-100,4,2,0,70,0,0
165261,-100,4,2,0,5,0,0
165342,-100,4,2,0,70,0,0
165907,-100,4,2,0,5,0,0
165987,-100,4,2,0,70,0,0
171068,-100,4,2,0,5,0,0
171149,-100,4,2,0,70,0,0
171391,-83.3333333333333,4,2,0,70,0,0
171713,-125,4,2,0,70,0,0
178003,-111.111111111111,4,2,0,70,0,0
182036,-111.111111111111,4,2,0,5,0,0
182116,-111.111111111111,4,2,0,70,0,0
182278,-111.111111111111,4,2,0,5,0,0
182358,-111.111111111111,4,2,0,70,0,0
182439,-111.111111111111,4,2,0,5,0,0
182520,-111.111111111111,4,2,0,70,0,0
185745,-125,4,2,0,70,0,0
190584,-166.666666666667,4,2,0,70,0,0
190826,-166.666666666667,4,2,0,5,0,0
190907,-125,4,2,0,70,0,0
196068,-86.9565217391304,4,2,0,70,0,1
201068,-95.2380952380952,4,2,0,70,0,1
201310,-95.2380952380952,4,2,0,5,0,1
201391,-95.2380952380952,4,2,0,70,0,1
203487,-100,4,2,0,70,0,0
203649,-79.9999999999999,4,2,0,70,0,0
203891,-79.9999999999999,4,2,0,5,0,0
203971,-79.9999999999999,4,2,0,70,0,0
206471,-79.9999999999999,4,2,0,5,0,0
206552,-79.9999999999999,4,2,0,70,0,0
209052,-79.9999999999999,4,2,0,5,0,0
209132,-79.9999999999999,4,2,0,70,0,0
211632,-79.9999999999999,4,2,0,5,0,0
211713,-79.9999999999999,4,2,0,70,0,0
214213,-79.9999999999999,4,2,0,5,0,0
214294,-79.9999999999999,4,2,0,70,0,0

[Colours]
Combo1 : 192,92,203
Combo2 : 192,192,192
Combo3 : 128,128,128
Combo4 : 0,255,64
Combo5 : 0,193,0
Combo6 : 128,0,255

[HitObjects]
110,122,10907,5,8,0:1:0:0:
190,106,11068,1,8,0:1:0:0:
271,91,11229,1,8,0:1:0:0:
320,211,11391,6,0,B|323:161|323:161|346:134|346:134|351:75,1,123.75,12|0,3:1|0:0,0:0:0:0:
349,83,11713,1,0,3:0:0:0:
430,112,11874,2,0,P|478:114|524:118,1,82.5,8|0,0:1|3:0,0:0:0:0:
406,193,12197,2,0,P|454:195|500:199,1,82.5,8|0,0:1|3:0,0:0:0:0:
512,198,12439,1,0,3:0:0:0:
512,198,12520,1,8,0:1:0:0:
410,275,12681,1,0,3:0:0:0:
410,275,12762,1,0,3:0:0:0:
410,275,12842,6,0,P|408:227|404:181,1,82.5,8|0,0:1|3:0,0:0:0:0:
326,327,13165,2,0,P|324:279|320:233,1,82.5,8|0,0:1|3:0,0:0:0:0:
320,224,13407,1,0,3:0:0:0:
320,224,13487,1,8,3:1:0:0:
166,258,13649,1,8,3:1:0:0:
166,258,13971,6,0,B|168:206|168:206|183:176|183:176|189:118,1,123.75,12|0,3:1|0:0,0:0:0:0:
188,118,14294,1,0,3:0:0:0:
90,149,14455,2,0,P|33:146|0:143,1,82.5,8|0,0:1|3:0,0:0:0:0:
108,62,14778,2,0,P|51:59|18:56,1,82.5,8|0,0:1|3:0,0:0:0:0:
5,56,15020,1,0,3:0:0:0:
5,56,15100,1,8,0:1:0:0:
7,143,15262,1,0,3:0:0:0:
7,143,15342,1,0,3:0:0:0:
7,143,15423,6,0,P|3:191|0:242,1,82.5,8|0,0:1|3:0,0:0:0:0:
98,155,15745,2,0,P|94:203|91:254,1,82.5,8|0,0:1|3:0,0:0:0:0:
192,166,16068,1,8,0:1:0:0:
192,166,16149,1,8,0:1:0:0:
192,166,16229,2,0,L|190:211,3,41.25,0|8|8|8,3:0|0:1|0:1|0:1,0:0:0:0:
189,225,16552,6,0,B|219:253|219:253|315:247,1,123.75,12|0,3:1|0:0,0:0:0:0:
321,247,16874,1,0,3:0:0:0:
322,331,17036,2,0,P|280:331|240:336,1,82.5,8|0,0:1|3:0,0:0:0:0:
403,251,17358,2,0,P|361:250|320:246,1,82.5,8|0,0:1|3:0,0:0:0:0:
301,247,17600,1,0,3:0:0:0:
301,247,17681,1,8,0:1:0:0:
215,181,17842,1,0,3:0:0:0:
215,181,17923,1,0,3:0:0:0:
215,181,18003,6,0,P|213:234|209:274,1,82.5,8|0,0:1|3:0,0:0:0:0:
297,68,18326,2,0,P|299:121|303:161,1,82.5,8|0,0:1|3:0,0:0:0:0:
305,169,18568,1,0,3:0:0:0:
305,169,18649,1,8,3:1:0:0:
469,179,18810,1,8,3:1:0:0:
469,179,19132,6,0,B|473:231|473:231|458:276|458:276|458:312,1,136.125004154205,12|0,3:1|0:0,0:0:0:0:
459,331,19455,1,0,3:0:0:0:
379,369,19616,2,0,P|334:376|289:380,1,90.7500027694703,8|0,0:1|3:0,0:0:0:0:
225,276,19939,2,0,P|270:280|314:287,1,90.7500027694703,0|0,3:0|3:0,0:0:0:0:
332,290,20181,1,0,3:0:0:0:
332,290,20261,1,8,0:1:0:0:
205,365,20423,6,0,P|185:275|106:259,1,181.500005538941,0|0,3:0|3:0,0:0:0:0:
85,266,20826,1,0,3:0:0:0:
85,266,20907,2,0,P|51:272|24:271,3,45.3750013847352,8|8|8|8,0:0|0:0|0:0|0:0,0:0:0:0:
55,185,21229,5,8,0:1:0:0:
52,155,21309,1,8,0:1:0:0:
50,125,21390,1,8,0:1:0:0:
47,95,21470,1,8,0:1:0:0:
45,65,21551,1,8,3:1:0:0:
42,35,21632,1,8,3:1:0:0:
40,5,21713,6,0,B|71:16|101:16|101:16|121:1|146:-7|146:-7|174:2|222:1,1,154.6875,4|0,0:0|0:0,0:0:0:0:
208,3,22036,1,0,3:0:0:0:
265,89,22197,2,0,B|236:87|236:87|211:91|211:91|179:88|161:84,1,103.125,2|0,0:3|3:0,0:0:0:0:
132,171,22520,1,2,0:3:0:0:
222,228,22681,1,0,3:0:0:0:
317,172,22842,2,0,B|369:169|369:169|425:184,1,103.125,2|0,1:3|3:0,0:0:0:0:
473,276,23165,6,0,B|421:279|421:279|365:264,1,103.125,0|0,3:0|3:0,0:0:0:0:
279,313,23487,1,8,0:0:0:0:
173,325,23648,1,0,3:0:0:0:
118,241,23810,2,0,B|68:227|68:227|16:230,1,103.125,0|8,3:0|0:0,0:0:0:0:
0,238,24052,1,0,0:0:0:0:
0,238,24132,1,0,3:0:0:0:
64,317,24294,6,0,B|88:334|118:337|118:337|147:328|171:324|171:324|194:333|211:333,1,154.6875,4|0,0:0|0:0,0:0:0:0:
230,333,24616,1,0,3:0:0:0:
222,228,24778,2,0,B|223:212|223:212|223:187|232:166|232:166|226:135|214:99,1,103.125,2|0,0:3|3:0,0:0:0:0:
286,66,25100,1,2,0:3:0:0:
368,92,25261,1,0,3:0:0:0:
470,56,25423,2,0,B|467:81|467:81|474:116|474:116|467:157,1,103.125,2|0,1:3|3:0,0:0:0:0:
371,194,25745,6,0,B|364:153|364:153|371:118|371:118|368:92,1,103.125,0|0,3:0|3:0,0:0:0:0:
280,15,26068,2,0,B|283:40|283:40|276:75|276:75|283:116,1,103.125,8|0,0:0|3:0,0:0:0:0:
287,137,26310,1,0,3:0:0:0:
287,137,26391,1,8,3:2:0:0:
149,78,26552,1,8,3:2:0:0:
149,78,26874,6,0,P|188:137|301:125,1,154.6875,4|0,0:0|0:0,0:0:0:0:
287,137,27197,1,0,3:0:0:0:
360,230,27358,2,0,B|309:217|309:217|254:229,1,103.125,2|0,0:3|3:0,0:0:0:0:
206,330,27681,2,0,P|261:314|314:302,1,103.125,2|0,0:3|3:0,0:0:0:0:
395,315,28003,1,2,1:3:0:0:
477,237,28165,2,0,P|483:181|485:119,1,103.125,0|0,3:0|3:0,0:0:0:0:
352,127,28487,2,0,P|354:178|359:229,2,103.125,0|8|0,3:0|0:0|3:0,0:0:0:0:
363,35,28971,5,0,3:0:0:0:
272,78,29132,1,8,0:0:0:0:
185,46,29294,1,0,3:0:0:0:
156,22,29455,6,0,B|165:64|165:64|152:93|146:119|146:119|161:141|169:171,1,154.6875,4|0,0:0|0:0,0:0:0:0:
173,186,29778,1,0,3:0:0:0:
115,279,29939,2,0,P|159:286|204:300,1,86.6249973564149,2|0,0:3|3:0,0:0:0:0:
339,212,30261,2,0,P|297:224|254:231,1,86.6249973564149,2|0,0:3|3:0,0:0:0:0:
304,115,30584,5,2,1:3:0:0:
309,134,30745,1,0,3:0:0:0:
173,186,30907,5,0,3:0:0:0:
168,167,31068,1,0,3:0:0:0:
254,230,31229,6,0,P|244:285|232:325,1,86.6249973564149,8|0,0:0|3:0,0:0:0:0:
229,336,31471,1,0,3:0:0:0:
229,336,31552,1,8,3:2:0:0:
449,337,31713,1,8,3:2:0:0:
449,337,32036,6,0,B|464:302|464:266|464:266|449:236|446:204,1,129.937496034622,4|0,0:0|0:0,0:0:0:0:
445,191,32358,1,2,0:0:0:0:
356,170,32520,1,2,0:0:0:0:
350,153,32681,1,2,0:0:0:0:
420,100,32842,1,2,0:0:0:0:
376,248,33003,1,2,0:0:0:0:
369,264,33165,1,2,0:0:0:0:
257,222,33366,5,0,0:0:0:0:
257,222,33427,1,0,0:0:0:0:
257,222,33487,2,0,P|247:172|242:135,1,86.6249973564149,4|0,3:2|3:0,0:0:0:0:
364,67,33810,2,0,P|357:109|349:152,1,86.6249973564149,0|8,3:0|0:1,0:0:0:0:
257,222,34132,5,8,0:1:0:0:
352,248,34294,1,8,0:1:0:0:
440,270,34455,1,10,0:1:0:0:
440,270,34778,6,0,P|388:263|339:258,1,70.1250013375282,2|0,3:2|0:0,0:0:0:0:
360,282,35020,2,0,P|308:275|259:270,1,70.1250013375282,2|0,3:2|0:0,0:0:0:0:
269,294,35261,2,0,L|318:299,1,35.0625006687641,2|0,3:2|0:0,0:0:0:0:
418,379,35423,1,8,0:0:0:0:
418,379,35745,5,0,3:0:0:0:
440,270,35907,1,2,3:2:0:0:
440,270,36229,5,0,3:0:0:0:
418,379,36391,2,0,P|368:371|334:368,1,70.1250013375282,2|0,3:2|0:0,0:0:0:0:
218,340,36713,2,0,P|240:280|228:232,2,105.187502006292,8|0|0,0:0|3:0|3:0,0:0:0:0:
82,283,37358,6,0,B|125:273|125:273|168:273,1,70.1250013375282,2|0,3:2|0:0,0:0:0:0:
162,247,37600,2,0,B|202:247|202:247|231:240,1,70.1250013375282,2|0,3:2|0:0,0:0:0:0:
245,217,37842,2,0,L|200:209,1,35.0625006687641,2|0,3:2|0:0,0:0:0:0:
68,166,38003,1,8,0:0:0:0:
68,166,38326,5,0,3:0:0:0:
82,283,38487,1,2,3:2:0:0:
82,283,38810,5,0,3:0:0:0:
68,166,38971,2,0,B|115:163|115:163|161:148,1,70.1250013375282,2|0,3:2|0:0,0:0:0:0:
223,52,39294,5,8,0:0:0:0:
223,52,39374,1,8,0:3:0:0:
223,52,39455,2,0,L|215:95,1,35.0625006687641,8|0,0:3|3:0,0:0:0:0:
302,116,39616,2,0,L|310:159,3,35.0625006687641,8|8|4|4,0:3|0:3|0:3|0:3,0:0:0:0:
388,202,39939,6,0,P|403:157|393:114,1,70.1250013375282,2|0,3:2|0:0,0:0:0:0:
383,114,40181,2,0,P|368:69|378:26,1,70.1250013375282,2|0,3:2|0:0,0:0:0:0:
376,21,40423,2,0,P|366:40|355:59,1,35.0625006687641,2|0,3:2|0:0,0:0:0:0:
308,150,40584,1,8,0:0:0:0:
308,150,40907,5,2,3:2:0:0:
475,172,41068,1,0,0:0:0:0:
475,172,41391,5,2,3:2:0:0:
308,150,41552,2,0,P|293:195|303:238,1,70.1250013375282,2|0,3:0|0:0,0:0:0:0:
421,297,41874,6,0,P|414:242|378:193,2,105.187502006292,10|2|2,0:0|3:2|3:2,0:0:0:0:
330,380,42520,6,0,B|301:377|301:377|274:364|274:364|248:360,1,70.1250013375282,2|0,0:3|0:0,0:0:0:0:
255,335,42761,2,0,B|226:332|226:332|199:319|199:319|173:315,1,70.1250013375282,2|0,0:3|0:0,0:0:0:0:
169,296,43003,2,0,L|226:288,1,35.0625006687641,2|0,0:3|0:0,0:0:0:0:
329,269,43165,1,10,0:0:0:0:
329,269,43487,5,0,3:0:0:0:
330,380,43649,1,2,3:2:0:0:
330,380,43971,5,2,3:2:0:0:
329,269,44132,2,0,P|362:254|396:244,1,70.1250013375282,2|0,3:0|0:0,0:0:0:0:
485,183,44455,5,8,0:0:0:0:
468,178,44535,1,8,0:3:0:0:
451,172,44616,1,8,0:3:0:0:
435,166,44696,1,0,3:0:0:0:
418,158,44778,2,0,L|423:119,3,35.0625006687641,8|8|0|0,0:3|0:3|3:0|3:0,0:0:0:0:
426,94,45100,6,0,B|345:126|342:62|266:97,1,165,4|2,3:2|1:3,0:0:0:0:
228,190,45584,1,0,3:0:0:0:
228,190,45665,1,0,3:0:0:0:
228,190,45745,2,0,P|274:186|320:173,1,82.5,2|0,3:0|3:0,0:0:0:0:
390,284,46068,2,0,P|349:274|308:270,1,82.5,2|0,1:3|3:0,0:0:0:0:
173,357,46391,6,0,P|187:275|197:180,1,165,2|2,3:0|1:3,0:0:0:0:
199,98,46874,1,0,3:0:0:0:
199,98,46955,1,0,3:0:0:0:
199,98,47036,2,0,P|159:99|110:104,1,82.5,2|0,3:0|3:0,0:0:0:0:
183,6,47358,2,0,P|224:9|265:11,1,82.5,2|0,1:3|3:0,0:0:0:0:
400,96,47681,6,0,P|355:13|267:31,1,165,4|2,3:2|1:3,0:0:0:0:
312,96,48165,1,0,3:0:0:0:
312,96,48245,1,0,3:0:0:0:
312,96,48326,2,0,P|320:142|324:179,1,82.5,2|0,3:0|3:0,0:0:0:0:
201,256,48649,2,0,P|205:215|212:174,1,82.5,2|0,1:3|3:0,0:0:0:0:
361,258,48971,6,0,B|282:285|279:218|192:260,1,165,2|2,3:0|1:3,0:0:0:0:
117,344,49455,1,0,3:0:0:0:
117,344,49536,1,0,3:0:0:0:
117,344,49616,2,0,L|169:338,3,41.25,2|0|0|0,3:0|0:0|3:0|3:0,0:0:0:0:
180,341,49939,2,0,L|232:347,3,41.25,0|0|0|0,3:0|3:0|3:0|3:0,0:0:0:0:
241,335,50261,6,0,B|253:287|249:224,1,82.5,4|0,0:0|3:0,0:0:0:0:
251,232,50503,1,2,0:0:0:0:
251,232,50584,1,2,1:3:0:0:
390,169,50745,2,0,B|302:201|302:125|212:151,1,165,0|0,3:0|3:0,0:0:0:0:
143,131,51229,6,0,B|146:164|134:212,1,82.5,2|0,1:3|3:0,0:0:0:0:
129,235,51471,1,0,3:0:0:0:
129,235,51552,1,2,3:0:0:0:
232,146,51713,2,0,P|211:69|116:48,1,165,0|0,3:0|3:0,0:0:0:0:
60,138,52197,2,0,P|112:133|157:130,1,82.5,2|0,3:0|3:0,0:0:0:0:
129,235,52520,2,0,P|181:230|226:227,1,82.5,2|0,1:3|3:0,0:0:0:0:
373,161,52842,5,4,0:1:0:0:
373,161,53003,2,0,B|345:150|345:150|263:153,1,82.5,0|8,3:0|0:1,0:0:0:0:
488,65,53326,1,0,3:0:0:0:
488,65,53487,2,0,B|460:76|460:76|378:73,1,82.5,0|0,3:0|3:0,0:0:0:0:
321,72,53810,1,8,0:1:0:0:
373,161,53971,5,0,3:0:0:0:
373,161,54052,1,0,3:0:0:0:
373,161,54132,2,0,P|378:210|382:243,1,82.5,2|0,3:2|3:0,0:0:0:0:
475,346,54455,2,0,P|479:305|484:263,1,82.5,10|0,1:2|3:0,0:0:0:0:
486,241,54697,1,0,3:0:0:0:
486,241,54778,2,0,L|490:200,1,41.25,10|8,1:2|0:3,0:0:0:0:
382,243,54939,1,8,0:3:0:0:
382,243,55020,1,0,3:0:0:0:
382,243,55100,2,0,L|386:283,3,41.25,10|8|8|8,1:2|0:3|0:3|0:1,0:0:0:0:
390,308,55423,5,12,0:1:0:0:
209,289,55584,1,0,3:0:0:0:
209,289,55907,1,2,3:1:0:0:
315,141,56068,1,2,1:0:0:0:
315,141,56391,5,0,3:0:0:0:
209,289,56552,1,0,3:0:0:0:
209,289,56874,6,0,L|157:281,1,41.25,2|0,0:3|0:0,0:0:0:0:
144,303,57036,2,0,L|185:310,1,41.25,2|0,0:3|0:0,0:0:0:0:
160,330,57197,2,0,L|119:323,1,41.25,2|0,1:1|0:0,0:0:0:0:
40,374,57358,1,8,3:0:0:0:
146,150,58003,5,0,3:0:0:0:
146,150,58165,1,0,3:0:0:0:
202,226,58326,2,0,P|240:201|281:184,1,82.5,8|0,0:1|0:0,0:0:0:0:
146,150,58649,5,0,3:0:0:0:
146,150,58811,1,0,3:0:0:0:
52,160,58972,2,0,P|54:205|48:249,1,82.5,8|0,0:1|0:0,0:0:0:0:
146,150,59294,5,0,3:0:0:0:
146,150,59456,1,0,3:0:0:0:
184,63,59617,2,0,P|143:42|108:15,1,82.5,8|0,0:1|0:0,0:0:0:0:
146,150,59939,5,0,3:0:0:0:
296,42,60100,1,8,0:1:0:0:
296,42,60261,1,8,0:1:0:0:
371,232,60584,5,4,3:2:0:0:
371,232,60745,1,0,3:0:0:0:
320,326,60907,2,0,B|294:291|294:291|248:268,1,82.5,8|0,0:1|0:0,0:0:0:0:
371,232,61229,5,0,3:0:0:0:
371,232,61390,1,0,3:0:0:0:
477,229,61552,2,0,B|459:269|459:269|462:320,1,82.5,8|0,0:1|0:0,0:0:0:0:
371,232,61874,6,0,L|351:143,1,82.5,2|0,0:3|0:0,0:0:0:0:
188,184,62197,2,0,L|277:164,1,82.5,2|8,0:3|0:1,0:0:0:0:
236,1,62520,2,0,L|256:90,1,82.5,2|0,0:3|0:0,0:0:0:0:
419,49,62842,2,0,L|330:69,1,82.5,2|0,0:3|3:0,0:0:0:0:
315,74,63084,1,0,3:0:0:0:
315,74,63165,6,0,P|328:121|332:156,1,82.5,4|0,3:2|3:0,0:0:0:0:
221,214,63487,2,0,P|236:175|246:135,1,82.5,8|0,0:0|3:0,0:0:0:0:
155,154,63810,2,0,P|126:183|94:209,1,82.5,2|0,3:0|3:0,0:0:0:0:
0,121,64132,2,0,P|40:116|80:105,1,82.5,8|0,0:0|3:0,0:0:0:0:
235,171,64455,6,0,P|195:159|154:154,1,82.5,2|0,3:0|3:0,0:0:0:0:
107,278,64778,2,0,P|144:261|185:252,1,82.5,8|0,0:0|3:0,0:0:0:0:
256,320,65100,2,0,P|218:337|178:345,1,82.5,2|8,3:0|0:0,0:0:0:0:
306,236,65423,2,0,P|346:239|386:252,1,82.5,8|0,0:0|3:0,0:0:0:0:
460,352,65745,6,0,B|468:304|468:304|489:275|489:275|479:241|479:241|487:194,2,165,4|8|2,3:2|0:0|3:0,0:0:0:0:
386,252,66552,1,2,3:0:0:0:
405,139,66713,1,8,0:0:0:0:
405,139,67036,6,0,P|351:131|315:127,1,82.5,8|0,0:0|0:0,0:0:0:0:
305,104,67278,2,0,P|251:96|215:92,1,82.5,8|0,0:0|0:0,0:0:0:0:
204,69,67520,2,0,L|252:66,1,41.25,8|0,0:0|0:0,0:0:0:0:
409,34,67681,1,8,0:0:0:0:
237,225,68326,6,0,P|174:225|137:250,1,94.8750018095971,4|0,3:2|0:0,0:0:0:0:
122,265,68568,2,0,P|153:210|151:168,1,94.8750018095971,4|0,3:2|0:0,0:0:0:0:
72,196,68810,1,4,3:2:0:0:
74,338,68971,2,0,B|144:373|162:308|253:357,1,142.312502714396,12|0,0:1|0:0,0:0:0:0:
246,353,69294,2,0,L|258:299,3,47.4375009047985,8|8|8|8,0:0|0:0|0:0|0:0,0:0:0:0:
320,248,69616,6,0,B|341:298|341:298|328:356,1,94.8750018095971,4|0,3:2|0:0,0:0:0:0:
350,359,69858,2,0,B|382:315|382:315|433:296,1,94.8750018095971,4|0,3:2|0:0,0:0:0:0:
436,380,70100,1,4,3:2:0:0:
246,353,70261,2,0,B|261:301|261:301|216:179,1,142.312502714396,12|0,0:1|3:0,0:0:0:0:
223,202,70584,1,8,0:0:0:0:
288,129,70745,1,0,3:0:0:0:
288,129,70907,6,0,B|309:179|309:179|329:198|356:207,1,94.8750018095971,4|0,3:2|0:0,0:0:0:0:
361,201,71149,2,0,B|375:184|383:157|383:157|375:107,1,94.8750018095971,4|0,3:2|0:0,0:0:0:0:
321,57,71391,1,4,3:2:0:0:
275,144,71552,2,0,B|193:152|220:68|120:86,2,142.312502714396,12|0|0,0:1|3:0|3:0,0:0:0:0:
118,13,72197,6,0,P|127:93|136:210,1,189.750003619194,4|0,3:2|0:0,0:0:0:0:
87,283,72681,1,2,3:0:0:0:
203,271,72842,1,12,0:1:0:0:
194,278,72922,1,8,3:0:0:0:
186,287,73003,1,4,3:0:0:0:
179,297,73083,1,0,3:0:0:0:
173,307,73165,6,0,B|222:304|222:304|262:331,1,92.812503540516,12|0,0:1|0:0,0:0:0:0:
278,337,73487,6,0,P|332:327|369:278,1,94.8750018095971,4|0,3:2|0:0,0:0:0:0:
373,279,73729,2,0,P|354:330|378:387,1,94.8750018095971,4|0,3:2|0:0,0:0:0:0:
435,329,73971,1,4,3:2:0:0:
304,237,74132,2,0,P|345:202|438:234,1,142.312502714396,12|0,0:1|0:0,0:0:0:0:
439,236,74455,2,0,L|447:181,3,47.4375009047985,8|8|8|8,0:0|0:0|0:0|0:0,0:0:0:0:
450,112,74778,6,0,B|399:115|399:115|349:94,1,94.8750018095971,4|0,3:2|0:0,0:0:0:0:
338,84,75020,2,0,B|366:126|366:126|372:180,1,94.8750018095971,4|0,3:2|0:0,0:0:0:0:
291,151,75261,1,4,3:2:0:0:
402,34,75423,2,0,B|363:2|363:2|284:10,1,94.8750018095971,12|0,0:1|3:0,0:0:0:0:
298,13,75665,1,0,3:0:0:0:
298,13,75745,1,8,0:0:0:0:
291,151,75907,1,0,3:0:0:0:
208,148,76068,6,0,B|177:145|177:145|139:158|139:158|108:139|108:139|73:136,2,142.312502714396,4|0|2,0:0|3:0|3:2,0:0:0:0:
291,151,76713,1,8,0:0:0:0:
253,77,76874,1,0,0:0:0:0:
179,241,77036,2,0,B|210:244|210:244|248:231|248:231|279:250|279:250|314:253,2,142.312502714396,2|0|2,0:0|0:0|0:0,0:0:0:0:
179,241,77842,1,0,3:0:0:0:
247,335,78003,6,0,L|299:340,3,47.4375009047985,8|0|8|4,3:1|3:0|3:0|3:0,0:0:0:0:
323,343,78326,1,8,3:1:0:0:
352,346,78406,1,8,0:0:0:0:
390,349,78487,1,8,0:0:0:0:
426,355,78567,1,8,0:0:0:0:
452,357,78649,6,0,P|456:262|460:197,1,142.312502714396,4|0,3:2|3:0,0:0:0:0:
461,195,78971,2,0,P|411:173|360:184,1,94.8750018095971,8|0,0:0|3:0,0:0:0:0:
349,187,79213,1,0,3:0:0:0:
349,187,79294,1,0,3:0:0:0:
275,251,79455,1,0,3:0:0:0:
163,190,79616,2,0,P|165:142|170:95,1,94.8750018095971,8|0,0:0|3:0,0:0:0:0:
36,211,79939,6,0,P|114:184|171:234,1,142.312502714396,4|0,0:0|3:0,0:0:0:0:
161,232,80261,2,0,P|158:279|153:326,1,94.8750018095971,8|0,0:0|3:0,0:0:0:0:
151,346,80503,1,0,3:0:0:0:
151,346,80584,1,2,3:0:0:0:
260,362,80745,1,0,3:0:0:0:
275,251,80907,2,0,P|277:203|282:156,1,94.8750018095971,8|0,0:0|3:0,0:0:0:0:
408,116,81229,6,0,B|338:135|343:62|257:79,1,142.312502714396,4|0,0:0|3:0,0:0:0:0:
251,85,81552,2,0,P|196:90|150:76,1,94.8750018095971,8|0,0:0|3:0,0:0:0:0:
140,66,81794,1,0,3:0:0:0:
140,66,81874,1,0,3:0:0:0:
210,0,82036,1,0,3:0:0:0:
46,15,82197,2,0,P|51:80|55:138,1,94.8750018095971,8|0,0:0|3:0,0:0:0:0:
204,171,82520,6,0,P|164:116|48:143,1,189.750003619194,4|8,0:0|0:0,0:0:0:0:
111,220,83003,1,2,3:2:0:0:
115,203,83083,1,8,3:0:0:0:
119,186,83164,1,6,3:0:0:0:
171,347,83326,1,8,0:0:0:0:
171,347,83649,6,0,B|245:316|251:371|331:335,1,129.937496034622,4|0,0:0|0:0,0:0:0:0:
318,340,83971,1,0,3:0:0:0:
278,265,84132,2,0,P|273:212|271:172,1,86.6249973564149,8|0,0:0|0:0,0:0:0:0:
364,88,84455,1,2,3:0:0:0:
364,88,84616,2,0,P|361:131|357:174,1,86.6249973564149,0|8,3:0|0:0,0:0:0:0:
371,268,84939,6,0,P|453:247|496:316,1,173.24999471283,2|0,3:0|3:0,0:0:0:0:
318,340,85423,2,0,P|267:330|215:337,1,86.6249973564149,8|0,0:0|3:0,0:0:0:0:
218,344,85665,1,0,0:0:0:0:
208,356,85746,1,8,0:0:0:0:
187,180,85907,1,12,0:0:0:0:
187,180,86229,6,0,B|235:182|235:182|264:206|264:206|325:207,1,123.75,12|0,3:1|0:0,0:0:0:0:
321,207,86552,1,0,3:0:0:0:
308,127,86713,2,0,P|313:83|317:32,1,82.5,8|0,0:1|3:0,0:0:0:0:
392,158,87036,2,0,P|397:114|401:63,1,82.5,8|0,0:1|3:0,0:0:0:0:
402,56,87278,1,0,3:0:0:0:
402,56,87358,1,8,0:1:0:0:
479,177,87520,5,0,3:0:0:0:
479,177,87600,1,0,3:0:0:0:
479,177,87681,2,0,P|482:218|487:259,1,82.5,8|0,0:1|3:0,0:0:0:0:
392,158,88003,2,0,P|395:199|400:240,1,82.5,8|0,0:1|3:0,0:0:0:0:
405,262,88245,1,0,3:0:0:0:
405,262,88326,1,8,3:1:0:0:
234,294,88487,1,8,3:1:0:0:
234,294,88810,6,0,B|185:285|165:285|165:285|148:299|116:317|89:300,1,123.75,12|0,3:1|0:0,0:0:0:0:
93,307,89132,1,0,3:0:0:0:
11,211,89294,2,0,P|15:257|16:299,1,82.5,8|0,0:1|3:0,0:0:0:0:
99,133,89616,2,0,P|103:179|104:221,1,82.5,8|0,0:1|3:0,0:0:0:0:
103,232,89858,1,0,3:0:0:0:
103,232,89939,1,8,0:1:0:0:
198,130,90100,5,0,3:0:0:0:
198,130,90181,1,0,3:0:0:0:
198,130,90261,2,0,P|199:88|203:47,1,82.5,8|0,0:1|3:0,0:0:0:0:
285,187,90584,2,0,P|286:145|290:104,1,82.5,8|0,0:1|3:0,0:0:0:0:
459,125,90907,1,8,0:1:0:0:
445,126,90987,1,8,0:1:0:0:
431,127,91068,2,0,L|378:128,3,41.25,0|8|8|8,3:0|0:1|0:1|0:1,0:0:0:0:
368,128,91391,6,0,B|360:172|386:204|386:204|392:238|378:266,1,123.75,12|0,3:1|0:0,0:0:0:0:
382,265,91713,1,0,3:0:0:0:
383,350,91874,2,0,P|442:346|483:347,1,82.5,8|0,0:1|3:0,0:0:0:0:
299,268,92197,2,0,P|358:264|399:265,1,82.5,8|0,0:1|3:0,0:0:0:0:
404,265,92439,1,0,3:0:0:0:
404,265,92520,1,8,0:1:0:0:
285,187,92681,5,0,3:0:0:0:
285,187,92761,1,0,3:0:0:0:
285,187,92842,2,0,P|243:186|202:183,1,82.5,8|0,0:1|3:0,0:0:0:0:
369,105,93165,2,0,P|327:104|286:101,1,82.5,8|0,0:1|3:0,0:0:0:0:
268,100,93407,1,0,3:0:0:0:
268,100,93487,1,8,3:1:0:0:
133,22,93649,1,8,3:1:0:0:
133,22,93971,6,0,P|140:82|98:132,1,123.75,12|0,3:1|0:0,0:0:0:0:
89,137,94294,1,0,3:0:0:0:
32,224,94455,2,0,P|80:217|124:215,1,82.5,8|0,0:1|3:0,0:0:0:0:
196,166,94778,2,0,P|244:173|288:175,1,82.5,0|0,3:0|3:0,0:0:0:0:
295,177,95020,1,0,3:0:0:0:
295,177,95100,1,8,0:1:0:0:
388,215,95261,6,0,P|306:208|266:286,1,165,0|0,3:0|3:0,0:0:0:0:
267,293,95665,1,0,3:0:0:0:
267,293,95745,2,0,L|273:352,3,41.25,8|8|8|8,0:0|0:0|0:0|0:0,0:0:0:0:
296,351,96068,5,8,0:1:0:0:
270,341,96148,1,8,0:1:0:0:
243,338,96229,1,8,0:1:0:0:
216,343,96309,1,8,0:1:0:0:
189,350,96390,1,8,3:1:0:0:
162,352,96471,1,8,3:1:0:0:
134,348,96552,6,0,B|145:317|145:287|145:287|130:267|122:242|122:242|131:214|131:176,1,154.6875,4|0,0:0|0:0,0:0:0:0:
133,182,96875,1,0,3:0:0:0:
222,228,97036,2,0,B|259:213|292:221|292:221|326:214,1,103.125,2|0,0:3|3:0,0:0:0:0:
435,207,97358,1,2,0:3:0:0:
470,115,97520,1,0,3:0:0:0:
368,139,97681,2,0,B|331:124|298:132|298:132|264:125,1,103.125,2|0,1:3|3:0,0:0:0:0:
133,91,98003,6,0,B|162:78|162:78|193:79|193:79|214:59|237:49,1,103.125,0|0,3:0|3:0,0:0:0:0:
362,0,98326,1,8,0:0:0:0:
372,102,98487,1,0,3:0:0:0:
470,115,98649,2,0,B|456:165|456:165|459:217,1,103.125,0|8,3:0|0:0,0:0:0:0:
462,235,98891,1,0,0:0:0:0:
462,235,98971,1,0,3:0:0:0:
402,329,99132,6,0,B|351:314|351:314|301:324|264:305|232:303,1,154.6875,4|0,0:0|0:0,0:0:0:0:
227,302,99455,1,0,3:0:0:0:
211,214,99616,2,0,B|256:216|256:216|283:233|326:229,1,103.125,2|0,0:3|3:0,0:0:0:0:
307,146,99939,1,2,0:3:0:0:
225,120,100100,1,0,3:0:0:0:
132,173,100261,2,0,B|89:180|89:180|11:171,1,103.125,2|0,1:3|3:0,0:0:0:0:
0,265,100584,6,0,B|43:258|43:258|121:267,1,103.125,0|0,3:0|3:0,0:0:0:0:
214,342,100907,2,0,P|200:290|200:237,1,103.125,8|0,0:0|3:0,0:0:0:0:
211,214,101149,1,0,3:0:0:0:
211,214,101230,1,8,3:2:0:0:
29,173,101391,1,8,3:2:0:0:
29,173,101713,6,0,P|51:108|135:81,1,154.6875,4|0,0:0|0:0,0:0:0:0:
149,82,102036,1,0,3:0:0:0:
233,182,102197,2,0,B|189:172|189:172|157:177|157:177|115:170,1,103.125,2|0,0:3|3:0,0:0:0:0:
85,271,102520,2,0,B|129:261|129:261|161:266|161:266|203:259,1,103.125,2|0,0:3|3:0,0:0:0:0:
289,291,102842,1,2,1:3:0:0:
240,361,103003,2,0,B|196:351|196:351|164:356|164:356|138:351,1,103.125,0|0,3:0|3:0,0:0:0:0:
186,261,103326,2,0,B|207:208|207:208|207:148,2,103.125,0|8|0,3:0|0:0|3:0,0:0:0:0:
85,271,103810,5,0,3:0:0:0:
131,172,103971,1,8,0:0:0:0:
89,86,104133,1,0,3:0:0:0:
54,96,104294,6,0,B|80:107|80:107|106:87|143:88|143:88|179:104|236:88,1,154.6875,4|0,0:0|0:0,0:0:0:0:
224,91,104617,1,0,3:0:0:0:
325,80,104778,2,0,B|305:51|305:51|301:-5,1,86.6249973564149,2|0,0:3|3:0,0:0:0:0:
394,26,105100,2,0,B|414:55|414:55|418:111,1,86.6249973564149,2|0,0:3|3:0,0:0:0:0:
284,195,105423,5,2,1:3:0:0:
279,176,105584,1,0,3:0:0:0:
367,256,105745,5,0,3:0:0:0:
353,269,105906,1,0,3:0:0:0:
267,304,106068,6,0,P|230:281|183:276,1,86.6249973564149,8|0,0:0|3:0,0:0:0:0:
168,277,106310,1,0,3:0:0:0:
148,280,106391,6,0,B|112:288|96:304|96:304|56:328|60:384|112:352|96:304|96:304|100:280|80:232,1,239.250007301331,8|2,3:2|0:3,0:0:0:0:
84,244,107036,5,2,3:2:0:0:
23,149,107197,2,0,L|34:58,1,90.7500027694703,0|2,0:0|3:2,0:0:0:0:
133,64,107681,2,0,L|127:109,1,45.3750013847352,8|0,0:0|0:0,0:0:0:0:
191,195,108003,1,0,3:0:0:0:
191,195,108165,2,0,P|242:183|291:203,1,90.7500027694703,2|0,3:2|3:0,0:0:0:0:
348,255,108649,1,2,3:2:0:0:
416,84,108971,5,2,0:0:0:0:
348,255,109294,1,2,0:0:0:0:
470,318,109616,5,2,3:2:0:0:
360,384,109778,2,0,L|236:367,1,115.49999647522,0|2,0:0|3:2,0:0:0:0:
191,231,110261,2,0,L|253:240,1,57.7499982376099,8|0,0:0|0:0,0:0:0:0:
348,135,110584,1,0,3:0:0:0:
348,135,110745,2,0,L|290:126,1,57.7499982376099,2|0,3:2|0:0,0:0:0:0:
189,38,111068,1,0,3:0:0:0:
189,38,111229,2,0,L|169:121,1,57.7499982376099,2|0,3:2|0:0,0:0:0:0:
84,178,111552,5,8,0:0:0:0:
70,173,111632,1,8,0:3:0:0:
70,159,111713,1,8,0:3:0:0:
84,154,111794,1,0,3:0:0:0:
92,166,111874,2,0,L|118:180,3,28.874999118805,8|8|4|4,0:3|0:3|0:3|0:3,0:0:0:0:
136,190,112197,6,0,P|181:193|220:178,2,86.6249973564149,2|2|2,3:2|3:2|3:2,0:0:0:0:
268,277,112842,1,8,0:0:0:0:
268,277,113165,2,0,P|223:274|184:289,2,86.6249973564149,2|2|2,3:2|3:2|3:2,0:0:0:0:
136,190,113810,1,2,3:0:0:0:
304,59,114132,6,0,L|296:125,1,57.7499982376099,10|0,0:0|0:0,0:0:0:0:
379,209,114455,2,0,L|385:151,1,57.7499982376099,2|0,3:2|0:0,0:0:0:0:
477,31,114778,1,2,0:3:0:0:
256,192,114939,12,2,116391,0:1:0:0:
168,179,116713,6,0,L|159:118,3,57.7499982376099,2|2|2|2,0:1|0:1|0:1|0:1,0:0:0:0:
71,103,117358,6,0,L|261:75,1,165,4|2,3:2|1:3,0:0:0:0:
318,33,117842,1,0,3:0:0:0:
318,33,117923,1,0,3:0:0:0:
318,33,118003,2,0,P|329:83|322:117,1,82.5,2|0,3:0|3:0,0:0:0:0:
250,180,118326,2,0,P|287:145|320:134,1,82.5,2|0,1:3|3:0,0:0:0:0:
483,204,118649,6,0,B|412:258|398:181|319:222,1,165,2|2,3:0|1:3,0:0:0:0:
297,312,119132,1,0,3:0:0:0:
297,312,119213,1,0,3:0:0:0:
297,312,119294,2,0,P|347:309|385:291,1,82.5,2|0,3:0|3:0,0:0:0:0:
326,218,119616,2,0,P|276:221|238:239,1,82.5,2|0,1:3|3:0,0:0:0:0:
210,331,119939,6,0,B|218:266|218:266|206:217|206:217|212:148,1,165,4|2,3:2|1:3,0:0:0:0:
130,118,120423,1,0,3:0:0:0:
130,118,120503,1,0,3:0:0:0:
130,118,120584,2,0,L|120:208,1,82.5,2|0,3:0|3:0,0:0:0:0:
41,151,120907,2,0,L|50:69,1,82.5,2|0,1:3|3:0,0:0:0:0:
172,10,121229,6,0,P|106:82|35:55,1,165,2|2,3:0|1:3,0:0:0:0:
41,151,121713,1,0,3:0:0:0:
41,151,121794,1,0,3:0:0:0:
41,151,121874,2,0,L|45:198,3,41.25,2|0|0|0,3:0|0:0|3:0|3:0,0:0:0:0:
44,227,122197,2,0,L|40:274,3,41.25,0|0|0|0,3:0|3:0|3:0|3:0,0:0:0:0:
41,307,122520,6,0,P|90:302|134:321,1,82.5,4|0,0:0|3:0,0:0:0:0:
141,326,122761,1,2,0:0:0:0:
141,326,122842,1,2,1:3:0:0:
227,351,123003,2,0,P|199:253|168:238,2,82.5,0|0|0,3:0|3:0|3:0,0:0:0:0:
248,155,123487,6,0,P|199:160|155:141,1,82.5,2|0,1:3|3:0,0:0:0:0:
151,135,123729,1,0,3:0:0:0:
151,135,123810,1,2,3:0:0:0:
102,58,123971,2,0,B|186:20|187:86|289:52,1,165,0|0,3:0|3:0,0:0:0:0:
349,105,124455,2,0,P|344:58|343:15,1,82.5,2|0,3:0|3:0,0:0:0:0:
426,162,124778,2,0,P|431:115|432:72,1,82.5,2|0,1:3|3:0,0:0:0:0:
338,197,125100,5,4,0:1:0:0:
338,197,125261,2,0,B|362:227|362:227|432:241,1,82.5,0|2,3:0|1:3,0:0:0:0:
266,147,125584,5,0,3:0:0:0:
266,147,125745,2,0,B|252:182|252:182|274:250,1,82.5,2|0,3:0|3:0,0:0:0:0:
310,303,126068,1,2,1:3:0:0:
211,353,126229,5,0,3:0:0:0:
211,353,126310,1,0,3:0:0:0:
211,353,126391,2,0,P|164:352|112:362,1,82.5,2|0,3:2|3:0,0:0:0:0:
60,264,126713,2,0,P|100:269|141:268,1,82.5,10|0,1:2|3:0,0:0:0:0:
165,265,126955,1,0,3:0:0:0:
165,265,127036,2,0,P|191:263|223:265,3,41.25,10|8|8|0,1:2|0:3|0:3|3:0,0:0:0:0:
232,265,127358,1,10,1:2:0:0:
211,181,127520,1,8,0:3:0:0:
62,175,127681,5,12,0:1:0:0:
62,175,127842,1,0,3:0:0:0:
145,53,128165,5,2,3:1:0:0:
145,53,128326,1,2,1:0:0:0:
62,175,128649,5,0,3:0:0:0:
62,175,128810,1,0,3:0:0:0:
211,181,129132,6,0,L|218:134,1,41.25,2|0,0:3|0:0,0:0:0:0:
245,122,129294,2,0,L|238:162,1,41.25,2|0,0:3|0:0,0:0:0:0:
232,260,129455,1,8,0:1:0:0:
232,260,129536,1,8,0:1:0:0:
232,260,129616,2,0,P|283:262|333:266,1,82.5,8|2,0:1|3:2,0:0:0:0:
417,178,129939,2,0,P|375:180|334:182,1,82.5,2|8,1:2|0:1,0:0:0:0:
314,179,130181,1,8,0:1:0:0:
314,179,130261,5,8,0:1:0:0:
322,299,130423,1,0,3:0:0:0:
322,299,130907,5,8,0:1:0:0:
314,179,131069,1,0,3:0:0:0:
117,171,131552,5,0,3:0:0:0:
99,306,131714,1,0,3:0:0:0:
99,306,132198,5,8,0:0:0:0:
117,171,132358,1,0,3:0:0:0:
379,91,132842,5,8,0:1:0:0:
410,218,133004,1,0,3:0:0:0:
410,218,133488,5,8,0:1:0:0:
379,91,133650,1,0,3:0:0:0:
243,14,134132,5,2,3:0:0:0:
212,141,134294,1,2,3:2:0:0:
212,141,134778,5,10,0:0:0:0:
243,14,134940,1,0,3:0:0:0:
212,141,135100,5,10,0:0:0:0:
243,14,135262,1,2,3:2:0:0:
42,85,135423,6,0,P|47:125|45:153,3,61.875002360344,2|2|2|2,3:2|3:2|3:1|3:2,0:0:0:0:
136,163,136068,2,0,P|131:193|132:224,3,61.875002360344,8|2|2|2,3:2|3:1|0:3|3:2,0:0:0:0:
39,236,136713,2,0,B|47:271|47:271|42:304,3,61.875002360344,2|2|2|2,3:2|3:2|3:1|3:2,0:0:0:0:
133,314,137358,2,0,B|124:347|124:347|129:375,3,61.875002360344,8|2|2|2,3:2|3:1|0:3|3:2,0:0:0:0:
231,350,138003,6,0,P|275:342|309:338,1,70.1250013375282,6|2,3:2|3:2,0:0:0:0:
404,266,138326,2,0,P|360:258|326:254,1,70.1250013375282,2|2,3:1|3:2,0:0:0:0:
212,180,138649,2,0,P|256:172|290:168,1,70.1250013375282,8|2,3:2|3:1,0:0:0:0:
411,97,138971,2,0,P|367:89|333:85,1,70.1250013375282,2|2,0:3|3:2,0:0:0:0:
200,31,139294,6,0,B|203:61|203:61|196:89|196:89|199:122,1,70.1250013375282,8|0,0:0|0:0,0:0:0:0:
215,121,139536,2,0,B|218:151|218:151|211:179|211:179|214:212,1,70.1250013375282,8|0,0:0|0:0,0:0:0:0:
231,214,139778,2,0,L|241:170,1,35.0625006687641,8|0,0:0|0:0,0:0:0:0:
305,81,139939,2,0,L|318:35,3,35.0625006687641,10|8|0|4,3:2|3:0|3:0|3:0,0:0:0:0:
325,24,140261,5,8,0:0:0:0:
350,17,140341,1,8,0:0:0:0:
376,16,140422,1,8,0:0:0:0:
402,20,140502,1,8,0:0:0:0:
429,31,140584,6,0,P|432:84|433:118,1,70.1250013375282,4|2,3:2|0:1,0:0:0:0:
494,155,140907,1,2,0:1:0:0:
424,220,141068,5,2,0:1:0:0:
424,220,141149,1,0,0:0:0:0:
424,220,141229,2,0,B|375:208|375:208|321:212,1,94.8750018095971,8|6,0:0|3:3,0:0:0:0:
360,328,141552,6,0,P|391:293|369:300,1,142.312502714396,8|0,3:1|0:0,0:0:0:0:
349,299,141874,6,0,B|287:302|287:302|231:279,1,94.8750018095971,4|0,3:2|0:0,0:0:0:0:
179,318,142116,2,0,B|241:315|241:315|297:338,1,94.8750018095971,4|0,3:2|0:0,0:0:0:0:
332,384,142358,1,4,3:2:0:0:
256,289,142520,2,0,P|285:231|366:213,1,142.312502714396,12|0,0:1|0:0,0:0:0:0:
375,211,142842,2,0,L|426:224,3,47.4375009047985,8|8|8|8,0:0|0:0|0:0|0:0,0:0:0:0:
451,233,143165,6,0,P|424:178|425:126,1,94.8750018095971,4|0,3:2|0:0,0:0:0:0:
428,100,143407,2,0,P|422:146|398:187,1,94.8750018095971,4|0,3:2|0:0,0:0:0:0:
338,119,143649,1,4,3:2:0:0:
375,211,143810,2,0,B|313:225|298:166|235:196,1,142.312502714396,12|0,0:1|3:0,0:0:0:0:
221,206,144132,1,8,0:0:0:0:
180,103,144294,5,0,3:0:0:0:
180,103,144455,2,0,B|221:108|221:108|250:100|286:100,1,94.8750018095971,4|0,3:2|0:0,0:0:0:0:
352,76,144697,2,0,B|328:75|299:68|299:68|258:73,1,94.8750018095971,4|0,3:2|0:0,0:0:0:0:
191,21,144939,1,4,3:2:0:0:
131,171,145100,2,0,P|95:96|137:28,2,142.312502714396,12|0|0,0:1|3:0|3:0,0:0:0:0:
290,170,145745,6,0,B|324:123|283:69|227:95|227:95|179:114|136:88,1,189.750003619194,4|0,3:2|0:0,0:0:0:0:
115,45,146229,1,2,3:0:0:0:
194,13,146391,1,12,0:1:0:0:
199,35,146471,1,8,3:0:0:0:
198,59,146552,1,4,3:0:0:0:
191,82,146632,1,0,3:0:0:0:
179,102,146713,6,0,B|160:107|160:107|119:135|71:109,1,92.812503540516,12|0,0:1|0:0,0:0:0:0:
60,108,147036,6,0,P|78:161|71:214,1,94.8750018095971,4|0,3:2|0:0,0:0:0:0:
57,241,147278,2,0,P|79:199|124:177,1,94.8750018095971,4|0,3:2|0:0,0:0:0:0:
204,174,147520,1,4,3:2:0:0:
145,258,147681,2,0,B|205:287|236:241|289:266,1,142.312502714396,12|0,0:1|0:0,0:0:0:0:
302,276,148003,2,0,L|311:327,3,47.4375009047985,8|8|8|8,0:0|0:0|0:0|0:0,0:0:0:0:
307,353,148326,6,0,B|318:318|318:318|374:290,1,94.8750018095971,4|0,3:2|0:0,0:0:0:0:
458,243,148568,2,0,B|447:278|447:278|391:306,1,94.8750018095971,4|0,3:2|0:0,0:0:0:0:
375,215,148810,1,4,3:2:0:0:
302,276,148971,2,0,L|291:178,1,94.8750018095971,12|0,0:1|3:0,0:0:0:0:
289,164,149213,1,0,3:0:0:0:
289,164,149294,1,8,0:0:0:0:
374,126,149455,1,0,3:0:0:0:
294,78,149616,6,0,B|322:43|347:48|347:48|358:45|358:45|361:56|361:56|377:75|361:121,2,142.312502714396,4|0|2,0:0|3:0|3:2,0:0:0:0:
298,257,150261,1,8,0:0:0:0:
363,213,150423,1,0,0:0:0:0:
201,128,150584,2,0,B|166:134|158:158|158:158|150:166|150:166|158:174|158:174|166:198|211:206,2,142.312502714396,2|0|2,0:0|0:0|0:0,0:0:0:0:
201,128,151391,1,0,3:0:0:0:
294,78,151552,6,0,L|287:27,3,47.4375009047985,8|0|8|4,3:1|3:0|3:0|3:0,0:0:0:0:
276,11,151874,1,8,3:1:0:0:
252,16,151954,1,8,0:0:0:0:
229,19,152035,1,8,0:0:0:0:
205,20,152115,1,8,0:0:0:0:
181,19,152197,6,0,L|198:161,1,142.312502714396,4|0,3:2|3:0,0:0:0:0:
201,176,152520,2,0,P|147:191|96:185,1,94.8750018095971,8|0,0:0|3:0,0:0:0:0:
91,181,152761,1,0,3:0:0:0:
91,181,152842,1,0,3:0:0:0:
14,235,153003,1,0,3:0:0:0:
71,302,153165,2,0,P|125:287|176:293,1,94.8750018095971,8|0,0:0|3:0,0:0:0:0:
245,384,153487,6,0,L|262:242,1,142.312502714396,4|0,0:0|3:0,0:0:0:0:
266,222,153810,2,0,P|322:216|366:238,1,94.8750018095971,8|0,0:0|3:0,0:0:0:0:
371,245,154052,1,0,3:0:0:0:
371,245,154132,1,2,3:0:0:0:
364,335,154294,1,0,3:0:0:0:
455,348,154455,2,0,L|465:248,1,94.8750018095971,8|0,0:0|3:0,0:0:0:0:
493,156,154778,6,0,P|424:176|363:133,1,142.312502714396,4|0,0:0|3:0,0:0:0:0:
363,123,155100,2,0,P|369:70|375:25,1,94.8750018095971,8|0,0:0|3:0,0:0:0:0:
380,6,155342,1,0,3:0:0:0:
380,6,155423,1,0,3:0:0:0:
442,83,155584,1,0,3:0:0:0:
335,127,155745,2,0,P|281:122|232:115,1,94.8750018095971,8|0,0:0|3:0,0:0:0:0:
175,262,156068,6,0,P|233:229|224:96,1,189.750003619194,4|8,0:0|0:0,0:0:0:0:
131,161,156552,1,2,3:2:0:0:
148,165,156632,1,8,3:0:0:0:
165,169,156713,1,6,3:0:0:0:
41,281,156875,1,8,0:0:0:0:
41,281,157197,6,0,B|99:266|100:358|188:338,1,142.312502714396,4|0,0:0|0:0,0:0:0:0:
183,341,157520,1,0,3:0:0:0:
175,262,157681,2,0,P|166:207|166:159,1,94.8750018095971,8|0,0:0|0:0,0:0:0:0:
83,100,158003,1,2,3:0:0:0:
83,100,158165,2,0,P|81:147|73:194,1,94.8750018095971,0|8,3:0|0:0,0:0:0:0:
259,183,158487,6,0,P|236:89|145:79,1,189.750003619194,2|0,3:0|3:0,0:0:0:0:
192,232,158971,2,0,P|243:224|304:220,1,94.8750018095971,8|0,0:0|3:0,0:0:0:0:
391,213,159294,1,8,0:0:0:0:
340,298,159455,1,12,0:0:0:0:
340,298,159616,1,0,3:0:0:0:
442,128,159939,5,6,0:0:0:0:
121,173,162520,6,0,B|108:140|120:109|120:109|111:77|80:64,2,123.75,4|2|2,3:2|3:0|3:0,0:0:0:0:
189,232,163165,2,0,B|166:259|134:264|134:264|110:288|115:322,2,123.75,8|2|2,0:1|3:0|3:0,0:0:0:0:
205,143,163810,2,0,B|240:148|260:174|260:174|293:182|319:161,2,123.75,4|2|2,3:2|3:0|3:0,0:0:0:0:
121,173,164455,5,8,0:1:0:0:
211,0,164697,5,2,3:0:0:0:
316,164,164939,5,2,3:0:0:0:
305,67,165100,6,0,P|355:78|390:104,1,82.5,4|0,3:2|0:0,0:0:0:0:
397,115,165342,1,2,3:0:0:0:
343,273,165584,1,2,3:0:0:0:
321,268,165745,6,0,P|305:219|310:175,1,82.5,8|0,0:1|0:0,0:0:0:0:
316,164,165987,1,2,3:0:0:0:
495,130,166229,1,2,3:0:0:0:
447,190,166391,6,0,P|469:174|488:154,2,55,4|8|8,3:2|0:3|0:3,0:0:0:0:
443,270,166713,2,0,P|415:264|388:250,2,55,0|8|8,3:0|0:3|0:3,0:0:0:0:
506,346,167036,6,0,L|445:355,1,55,8|8,0:1|0:1,0:0:0:0:
361,342,167251,1,0,0:0:0:0:
361,342,167358,2,0,L|300:333,1,55,0|0,0:0|0:0,0:0:0:0:
212,358,167573,1,8,0:1:0:0:
212,358,167681,6,0,B|207:309|229:280|229:280|208:242,2,110,4|2|2,3:2|3:0|1:3,0:0:0:0:
243,162,168326,2,0,B|287:182|302:215|302:215|345:216,2,110,2|2|2,3:0|3:0|3:0,0:0:0:0:
397,285,168971,2,0,B|357:313|320:309|320:309|298:346,2,110,2|2|2,1:3|3:0|3:0,0:0:0:0:
212,358,169616,5,2,3:0:0:0:
161,196,169831,5,2,1:3:0:0:
110,34,170046,5,2,3:0:0:0:
284,73,170261,5,2,3:0:0:0:
287,76,170342,1,8,0:3:0:0:
290,79,170423,1,8,0:3:0:0:
293,82,170503,1,8,0:3:0:0:
296,85,170584,2,0,L|393:69,1,82.5,8|0,0:1|3:0,0:0:0:0:
406,67,170826,1,0,3:0:0:0:
406,67,170907,2,0,B|413:112|413:112|401:146,1,82.5,8|0,0:1|0:0,0:0:0:0:
391,164,171149,1,8,0:1:0:0:
206,47,171391,6,0,B|207:66|207:66|215:84|215:84|216:106|216:106|226:120|226:120|229:143,1,98.9999969787599,4|0,3:1|0:0,0:0:0:0:
136,142,171713,5,0,3:0:0:0:
136,142,171874,2,0,P|146:187|151:225,1,66,2|0,3:2|3:0,0:0:0:0:
229,141,172197,2,0,P|234:108|241:76,1,66,8|0,0:1|3:0,0:0:0:0:
367,47,172520,1,8,0:1:0:0:
367,47,172842,6,0,L|372:79,2,33,4|0|0,3:2|0:0|0:0,0:0:0:0:
390,105,173084,2,0,L|385:137,2,33,4|0|0,3:2|0:0|0:0,0:0:0:0:
372,152,173326,2,0,L|377:184,1,33,4|0,3:2|0:0,0:0:0:0:
408,279,173487,6,0,L|377:267,2,33,4|0|0,3:2|0:0|0:0,0:0:0:0:
346,269,173729,2,0,L|320:248,2,33,4|0|0,3:2|0:0|0:0,0:0:0:0:
314,230,173971,2,0,L|283:218,1,33,4|0,3:2|0:0,0:0:0:0:
187,199,174132,6,0,L|212:178,2,33,4|0|0,3:2|0:0|0:0,0:0:0:0:
226,150,174374,2,0,L|256:138,2,33,4|2|0,3:2|0:2|0:0,0:0:0:0:
276,142,174616,2,0,L|301:121,1,33,4|0,3:2|0:0,0:0:0:0:
331,97,174778,5,2,3:1:0:0:
333,80,174858,1,8,0:3:0:0:
331,64,174939,1,8,0:3:0:0:
324,49,175019,1,2,3:1:0:0:
312,38,175100,2,0,L|258:28,3,33,8|8|2|0,0:3|0:3|3:1|0:0,0:0:0:0:
250,47,175423,6,0,L|217:53,7,33,4|8|8|4|4|4|2|8,3:1|0:3|0:3|3:1|0:3|0:3|3:0|0:3,0:0:0:0:
189,58,176068,2,0,L|156:51,7,33,8|0|0|0|0|0|2|2,0:3|3:0|3:0|3:0|3:0|3:0|3:2|3:2,0:0:0:0:
128,43,176713,1,8,0:1:0:0:
53,216,178003,6,0,P|99:210|139:206,1,74.2499977340699,0|0,3:0|3:0,0:0:0:0:
172,304,178326,2,0,P|135:300|98:295,1,74.2499977340699,8|2,0:1|0:3,0:0:0:0:
75,292,178568,1,2,0:3:0:0:
75,292,178649,2,0,L|83:373,1,74.2499977340699,0|2,3:0|3:0,0:0:0:0:
172,304,178971,2,0,L|164:230,1,74.2499977340699,12|8,0:2|0:1,0:0:0:0:
250,144,179294,6,0,L|257:217,1,74.2499977340699,0|0,3:0|3:0,0:0:0:0:
340,189,179616,2,0,L|332:262,1,74.2499977340699,8|8,0:1|0:1,0:0:0:0:
418,123,179939,2,0,L|425:196,1,74.2499977340699,0|2,3:0|0:3,0:0:0:0:
512,157,180261,2,0,L|504:230,1,74.2499977340699,2|8,3:2|0:1,0:0:0:0:
343,92,180584,6,0,P|363:62|395:44,2,74.2499977340699,4|0|0,3:1|0:0|0:0,0:0:0:0:
348,167,181068,1,0,0:0:0:0:
280,135,181229,1,0,0:0:0:0:
418,123,181391,1,2,3:2:0:0:
418,123,181552,2,0,L|425:196,1,74.2499977340699,8|0,0:1|3:0,0:0:0:0:
388,278,181874,6,0,P|356:261|314:255,1,74.2499977340699,8|0,0:1|0:0,0:0:0:0:
317,226,182116,2,0,P|285:243|243:249,1,74.2499977340699,8|0,0:1|0:0,0:0:0:0:
220,261,182358,2,0,P|240:263|265:279,1,37.1249988670349,8|0,0:1|0:0,0:0:0:0:
316,336,182520,6,0,L|323:373,3,37.1249988670349,8|8|8|8,0:1|0:3|0:3|0:3,0:0:0:0:
346,374,182842,1,8,0:1:0:0:
372,364,182922,1,8,0:1:0:0:
399,360,183003,1,8,0:1:0:0:
427,361,183083,1,8,0:1:0:0:
454,368,183165,6,0,L|466:287,1,74.2499977340699,2|2,3:2|0:0,0:0:0:0:
474,193,183487,1,2,0:0:0:0:
385,220,183702,5,0,3:0:0:0:
385,220,183756,1,0,0:0:0:0:
385,220,183810,2,0,B|382:184|389:165|389:165|386:119,1,74.2499977340699,8|4,0:0|0:3,0:0:0:0:
402,58,184132,5,8,0:0:0:0:
392,58,184212,1,8,0:0:0:0:
383,59,184293,1,8,0:0:0:0:
374,60,184373,1,8,0:0:0:0:
365,61,184455,2,0,L|321:82,3,37.1249988670349,8|8|0|0,0:3|0:3|3:0|3:0,0:0:0:0:
294,95,184778,2,0,L|249:74,3,37.1249988670349,4|4|0|0,0:3|0:3|3:0|3:0,0:0:0:0:
230,76,185100,2,0,L|185:96,3,37.1249988670349,8|8|8|8,0:3|0:3|3:3|3:3,0:0:0:0:
173,92,185423,1,8,0:0:0:0:
45,280,185745,6,0,P|160:188|139:350,1,396,4|0,3:1|0:0,0:0:0:0:
128,266,187036,2,0,B|243:230|233:324|386:272|386:272|339:265|311:245|311:245|342:234|362:197,1,396,4|0,3:1|0:0,0:0:0:0:
263,62,188326,6,0,B|313:34|313:34|281:176,1,198,4|0,3:1|0:0,0:0:0:0:
402,185,188971,2,0,B|352:213|352:213|384:71,1,198,4|0,3:1|0:0,0:0:0:0:
465,1,189616,6,0,L|481:81,1,66,4|0,3:1|0:0,0:0:0:0:
507,193,189939,1,0,3:0:0:0:
396,213,190100,1,0,3:0:0:0:
396,213,190181,1,0,3:0:0:0:
396,213,190261,2,0,L|403:246,3,33,8|8|8|4,0:0|0:3|0:3|0:3,0:0:0:0:
412,266,190584,6,0,P|369:273|321:278,1,74.2499977340699,4|0,1:3|0:0,0:0:0:0:
315,278,190907,6,0,P|318:320|323:355,1,66,8|8,3:2|3:2,0:0:0:0:
235,240,191229,2,0,P|239:207|241:174,1,66,8|8,3:2|3:2,0:0:0:0:
235,326,191552,5,8,3:1:0:0:
153,290,191713,1,8,3:1:0:0:
235,240,191874,1,8,3:1:0:0:
155,202,192035,1,8,3:1:0:0:
151,378,192197,6,0,P|109:381|74:386,1,66,4|8,3:2|3:2,0:0:0:0:
235,240,192519,2,0,P|267:244|300:246,1,66,8|8,3:2|3:2,0:0:0:0:
508,262,192842,5,8,3:1:0:0:
407,256,193003,1,8,3:1:0:0:
462,171,193165,1,8,3:1:0:0:
453,347,193326,1,8,3:1:0:0:
256,192,193487,12,2,195584,0:0:0:0:
85,208,196068,6,0,P|177:187|241:174,1,142.312502714396,4|0,3:2|3:0,0:0:0:0:
251,172,196390,2,0,P|259:225|235:272,1,94.8750018095971,8|0,0:0|3:0,0:0:0:0:
230,282,196632,1,0,3:0:0:0:
230,282,196713,1,0,3:0:0:0:
147,315,196874,1,0,3:0:0:0:
227,369,197035,2,0,P|274:362|321:359,1,94.8750018095971,8|0,0:0|3:0,0:0:0:0:
468,259,197358,6,0,P|399:212|331:246,1,142.312502714396,4|0,0:0|3:0,0:0:0:0:
341,246,197680,2,0,P|331:292|324:338,1,94.8750018095971,8|0,0:0|3:0,0:0:0:0:
321,359,197922,1,0,3:0:0:0:
321,359,198003,1,2,3:0:0:0:
234,299,198164,1,0,3:0:0:0:
263,220,198326,2,0,P|255:173|246:126,1,94.8750018095971,8|0,0:0|3:0,0:0:0:0:
124,84,198649,6,0,B|197:101|194:31|261:47,1,142.312502714396,4|0,0:0|3:0,0:0:0:0:
281,53,198971,2,0,P|336:58|382:44,1,94.8750018095971,8|0,0:0|3:0,0:0:0:0:
392,34,199213,1,0,3:0:0:0:
392,34,199293,1,0,3:0:0:0:
458,96,199455,1,0,3:0:0:0:
370,129,199616,2,0,P|365:194|361:252,1,94.8750018095971,8|0,0:0|3:0,0:0:0:0:
511,260,199939,6,0,P|471:205|355:232,1,189.750003619194,4|8,0:0|0:0,0:0:0:0:
420,312,200422,1,2,3:2:0:0:
424,295,200502,1,8,3:0:0:0:
428,278,200583,1,6,3:0:0:0:
244,253,200745,1,8,0:0:0:0:
244,253,201068,6,0,B|177:247|186:293|106:277,1,129.937496034622,4|0,0:0|0:0,0:0:0:0:
97,278,201391,1,0,3:0:0:0:
134,200,201552,2,0,P|123:151|110:110,1,86.6249973564149,8|0,0:0|0:0,0:0:0:0:
42,34,201874,1,2,3:0:0:0:
42,34,202036,2,0,P|29:75|20:117,1,86.6249973564149,0|8,3:0|0:0,0:0:0:0:
134,200,202358,6,0,P|224:184|339:171,1,173.24999471283,2|0,3:0|3:0,0:0:0:0:
416,110,202842,2,0,P|373:102|330:94,1,86.6249973564149,8|0,0:0|3:0,0:0:0:0:
329,75,203084,1,0,0:0:0:0:
329,75,203165,1,8,0:0:0:0:
365,235,203326,1,8,0:0:0:0:
365,235,203649,6,0,B|329:248|301:243|301:243|284:251|274:265|274:265|244:277|217:269,1,154.6875,4|0,0:1|0:0,0:0:0:0:
200,268,203971,1,0,3:0:0:0:
165,354,204132,2,0,B|201:345|201:345|243:354|288:344,1,103.125,2|0,0:3|3:0,0:0:0:0:
353,319,204455,1,2,0:3:0:0:
421,359,204616,1,0,3:0:0:0:
472,281,204778,2,0,B|466:239|466:239|474:209|474:209|469:168,1,103.125,2|0,1:3|3:0,0:0:0:0:
386,100,205100,6,0,B|389:129|389:129|381:159|381:159|387:201,1,103.125,0|0,3:0|3:0,0:0:0:0:
470,179,205423,1,8,0:0:0:0:
481,91,205584,1,0,3:0:0:0:
392,53,205745,2,0,B|340:65|340:65|276:58,1,103.125,0|8,3:0|0:0,0:0:0:0:
271,52,205987,1,0,0:0:0:0:
271,52,206068,1,0,3:0:0:0:
242,146,206229,6,0,B|282:157|311:146|311:146|319:164|319:164|360:152|405:168,1,154.6875,4|0,0:0|0:0,0:0:0:0:
402,165,206552,1,0,3:0:0:0:
376,241,206713,2,0,B|374:283|374:283|393:309|387:350,1,103.125,2|0,0:3|3:0,0:0:0:0:
301,333,207036,1,2,0:3:0:0:
240,269,207197,1,0,3:0:0:0:
158,323,207358,2,0,P|102:308|56:299,1,103.125,2|0,1:3|3:0,0:0:0:0:
162,200,207681,6,0,P|212:189|262:176,1,103.125,0|0,3:0|3:0,0:0:0:0:
104,111,208003,2,0,P|87:159|74:209,1,103.125,8|0,0:0|3:0,0:0:0:0:
73,228,208245,1,0,3:0:0:0:
73,228,208326,1,8,3:2:0:0:
30,72,208487,1,8,3:2:0:0:
30,72,208810,6,0,P|104:27|163:52,1,154.6875,4|0,0:0|0:0,0:0:0:0:
174,65,209132,1,0,3:0:0:0:
255,10,209294,2,0,B|267:64|267:64|268:125,1,103.125,2|0,0:3|3:0,0:0:0:0:
360,159,209616,2,0,B|360:111|360:111|372:57,1,103.125,2|0,0:3|3:0,0:0:0:0:
452,156,209939,1,2,1:3:0:0:
397,235,210100,2,0,B|357:253|315:232|315:232|284:235,1,103.125,0|0,3:0|3:0,0:0:0:0:
188,322,210423,2,0,B|228:304|270:325|270:325|301:322,2,103.125,0|8|0,3:0|0:0|3:0,0:0:0:0:
113,378,210907,5,0,3:0:0:0:
100,285,211068,1,8,0:0:0:0:
87,192,211229,1,0,3:0:0:0:
45,173,211391,6,0,L|201:152,1,154.6875,4|0,0:0|0:0,0:0:0:0:
221,150,211713,1,0,3:0:0:0:
309,187,211874,2,0,P|275:226|227:243,1,103.125,2|0,0:3|3:0,0:0:0:0:
220,369,212197,2,0,P|254:330|302:313,1,103.125,2|0,0:3|3:0,0:0:0:0:
445,342,212520,5,2,1:3:0:0:
427,343,212681,1,0,3:0:0:0:
380,251,212842,5,0,3:0:0:0:
394,239,213003,1,0,3:0:0:0:
496,243,213165,6,0,P|503:180|518:123,1,103.125,8|0,0:0|3:0,0:0:0:0:
512,123,213407,1,0,3:0:0:0:
512,123,213487,1,8,3:2:0:0:
326,101,213649,1,2,0:3:0:0:
326,101,213971,6,0,B|267:103|267:103|228:128|228:128|170:129,1,154.6875,4|0,0:0|0:0,0:0:0:0:
160,128,214294,1,2,0:2:0:0:
84,202,214455,1,2,0:2:0:0:
86,225,214616,1,2,0:2:0:0:
188,217,214778,1,2,0:2:0:0:
61,117,214939,1,2,0:2:0:0:
50,105,215100,1,2,0:2:0:0:
121,40,215261,5,2,0:1:0:0:
121,40,215315,1,0,0:0:0:0:
121,40,215369,1,0,0:0:0:0:
121,40,215423,2,0,P|183:31|231:19,1,103.125,8|0,0:0|3:0,0:0:0:0:
355,124,215745,2,0,P|304:112|253:105,1,103.125,0|8,3:0|0:0,0:0:0:0:
160,128,216068,1,4,0:0:0:0:
