osu file format v14

[General]
AudioFilename: audio.mp3
AudioLeadIn: 0
PreviewTime: 67197
Countdown: 0
SampleSet: Soft
StackLeniency: 0.5
Mode: 0
LetterboxInBreaks: 0
WidescreenStoryboard: 0

[Editor]
Bookmarks: 11391,21713,32036,45100,55423,67036,68003,68084,68165,68245,68326,68407,68487,68568,68649,78649,85907,85987,86068,86149,86229,86310,86391,86471,86552,96552,107036,117358,127681,141552,141632,141713,141794,141874,141955,142036,142116,142197,152197,159616,159697,159778,159858,159939,160020,160100,160181,160261,162520,165100,167681,170261,172842,178003,185423,185503,185584,185665,185745,185826,185907,185987,186068,195745,195826,195907,195987,196068,196149,196229,196310,196391,203649,213810,213891,213971,214052,214132,214213,214294,214374,214455,216068
DistanceSpacing: 0.8
BeatDivisor: 8
GridSize: 32
TimelineZoom: 3.399999

[Metadata]
Title:KUUKAN<=>Formation
TitleUnicode:空閒⇔Formation
Artist:YAIRI
ArtistUnicode:やいり
Creator:Net0
Version:Enerugi's Extra
Source:
Tags:Room⇔Formation 2013 AKIAKANE ROOM Japanese Rock Vocaloid Kalindraz Enerugi HowRengar Rensia AlextroIIPsy K4L1
BeatmapID:2160544
BeatmapSetID:1033379

[Difficulty]
HPDrainRate:5
CircleSize:4
OverallDifficulty:8
ApproachRate:9.3
SliderMultiplier:1.7
SliderTickRate:1

[Events]
//Background and Video events
0,0,"gumipresamusicafoda.jpg",0,0
//Break Periods
2,107236,116804
//Storyboard Layer 0 (Background)
//Storyboard Layer 1 (Fail)
//Storyboard Layer 2 (Pass)
//Storyboard Layer 3 (Foreground)
//Storyboard Layer 4 (Overlay)
//Storyboard Sound Samples

[TimingPoints]
10262,322.58064516129,4,2,0,60,1,0
10262,-90.9090909090909,4,2,0,40,0,0
10826,-90.9090909090909,4,2,0,5,0,0
10907,-90.9090909090909,4,2,0,40,0,0
21713,-90.9090909090909,4,2,0,40,0,0
32036,-100,4,2,0,40,0,0
34778,-111.111111111111,4,2,0,40,0,0
40503,-111.111111111111,4,2,0,5,0,0
40584,-111.111111111111,4,2,0,40,0,0
45100,-100,4,2,0,40,0,0
57923,-100,4,2,0,5,0,0
58003,-100,4,2,0,40,0,0
62116,-100,4,2,0,5,0,0
62197,-100,4,2,0,40,0,0
62439,-100,4,2,0,5,0,0
62520,-100,4,2,0,40,0,0
62761,-100,4,2,0,5,0,0
62842,-100,4,2,0,40,0,0
68326,-83.3333333333333,4,2,0,60,0,1
86229,-100,4,2,0,40,0,0
96552,-90.9090909090909,4,2,0,40,0,0
106391,-111.111111111111,4,2,0,40,0,0
117358,-100,4,2,0,40,0,0
123084,-100,4,2,0,5,0,0
123165,-100,4,2,0,40,0,0
123649,-100,4,2,0,5,0,0
123729,-100,4,2,0,40,0,0
123891,-100,4,2,0,5,0,0
123971,-100,4,2,0,40,0,0
134374,-100,4,2,0,5,0,0
134455,-100,4,2,0,40,0,0
134697,-100,4,2,0,5,0,0
134778,-100,4,2,0,40,0,0
135020,-100,4,2,0,5,0,0
135100,-100,4,2,0,40,0,0
141874,-83.3333333333333,4,2,0,60,0,1
159939,-90.9090909090909,4,2,0,40,0,0
160423,-62.5,4,2,0,40,0,0
162520,-80,4,2,0,40,0,0
162681,-80,4,2,0,5,0,0
162761,-80,4,2,0,40,0,0
162923,-80,4,2,0,5,0,0
163003,-80,4,2,0,40,0,0
163084,-80,4,2,0,5,0,0
163165,-80,4,2,0,40,0,0
163326,-80,4,2,0,5,0,0
163407,-80,4,2,0,40,0,0
163568,-80,4,2,0,5,0,0
163649,-80,4,2,0,40,0,0
163729,-80,4,2,0,5,0,0
163810,-80,4,2,0,40,0,0
163971,-80,4,2,0,5,0,0
164052,-80,4,2,0,40,0,0
164213,-80,4,2,0,5,0,0
164294,-80,4,2,0,40,0,0
164374,-80,4,2,0,5,0,0
164455,-80,4,2,0,40,0,0
164616,-80,4,2,0,5,0,0
164697,-80,4,2,0,40,0,0
164858,-80,4,2,0,5,0,0
164939,-80,4,2,0,40,0,0
165020,-80,4,2,0,5,0,0
165100,-80,4,2,0,40,0,0
165261,-80,4,2,0,5,0,0
165342,-80,4,2,0,40,0,0
165503,-80,4,2,0,5,0,0
165584,-80,4,2,0,40,0,0
165665,-80,4,2,0,5,0,0
165745,-80,4,2,0,40,0,0
165907,-80,4,2,0,5,0,0
165987,-80,4,2,0,40,0,0
166149,-80,4,2,0,5,0,0
166229,-80,4,2,0,40,0,0
166310,-80,4,2,0,5,0,0
166391,-90.9090909090909,4,2,0,40,0,0
167681,-90.9090909090909,4,2,0,40,0,0
167788,-90.9090909090909,4,2,0,5,0,0
167896,-90.9090909090909,4,2,0,40,0,0
172842,-100,4,2,0,40,0,0
173003,-100,4,2,0,5,0,0
173084,-100,4,2,0,40,0,0
173245,-100,4,2,0,5,0,0
173326,-100,4,2,0,40,0,0
173407,-100,4,2,0,5,0,0
173487,-100,4,2,0,40,0,0
173649,-100,4,2,0,5,0,0
173729,-100,4,2,0,40,0,0
173891,-100,4,2,0,5,0,0
173971,-100,4,2,0,40,0,0
174052,-100,4,2,0,5,0,0
174132,-100,4,2,0,40,0,0
174294,-100,4,2,0,5,0,0
174374,-100,4,2,0,40,0,0
174536,-100,4,2,0,5,0,0
174616,-100,4,2,0,40,0,0
174697,-100,4,2,0,5,0,0
174778,-100,4,2,0,40,0,0
182036,-100,4,2,0,5,0,0
182116,-100,4,2,0,40,0,0
182278,-100,4,2,0,5,0,0
182358,-100,4,2,0,40,0,0
185745,-138.888888888889,4,2,0,40,0,0
186955,-129.87012987013,4,2,0,5,0,0
187036,-151.515151515152,4,2,0,40,0,0
188245,-129.87012987013,4,2,0,5,0,0
188326,-133.333333333333,4,2,0,40,0,0
188891,-133.333333333333,4,2,0,5,0,0
188971,-133.333333333333,4,2,0,40,0,0
189536,-133.333333333333,4,2,0,5,0,0
189616,-133.333333333333,4,2,0,40,0,0
189858,-133.333333333333,4,2,0,5,0,0
189939,-111.111111111111,4,2,0,40,0,0
195261,-111.111111111111,4,2,0,5,0,0
196068,-83.3333333333333,4,2,0,60,0,1
216068,-83.3333333333333,4,2,0,40,0,0

[Colours]
Combo1 : 192,92,203
Combo2 : 192,192,192
Combo3 : 128,128,128
Combo4 : 0,255,64
Combo5 : 0,193,0
Combo6 : 128,0,255

[HitObjects]
246,280,10584,6,0,B|227:334|214:341|214:341|181:297|183:255,1,140.25000428009,0|0,0:0|0:0,0:0:0:0:
192,226,10907,5,8,0:1:0:0:
331,103,11068,1,8,0:1:0:0:
332,291,11229,1,8,0:1:0:0:
141,123,11391,2,0,P|99:158|100:294,1,187.000005706787,12|0,3:1|3:0,0:0:0:0:
191,347,11874,5,8,0:1:0:0:
262,291,12036,1,0,3:0:0:0:
333,347,12197,1,8,0:1:0:0:
404,291,12358,1,0,3:0:0:0:
404,291,12439,1,0,3:0:0:0:
404,291,12520,2,0,L|409:188,1,93.5000028533936,8|0,0:1|3:0,0:0:0:0:
432,157,12762,1,0,3:0:0:0:
432,157,12843,5,8,0:1:0:0:
395,74,13003,1,0,3:0:0:0:
312,109,13165,1,8,0:1:0:0:
229,74,13326,2,0,L|236:0,2,46.7500014266968,0|0|8,3:0|3:0|3:1,0:0:0:0:
220,201,13649,1,8,3:1:0:0:
229,214,13971,6,0,B|173:248|173:248|39:231,1,187.000005706787,12|0,3:1|3:0,0:0:0:0:
1,94,14455,1,8,0:1:0:0:
70,150,14616,1,0,3:0:0:0:
129,83,14778,1,8,0:1:0:0:
199,139,14939,1,0,3:0:0:0:
199,139,15019,1,0,3:0:0:0:
199,139,15100,1,8,0:1:0:0:
259,72,15262,1,0,3:0:0:0:
259,72,15342,1,0,3:0:0:0:
259,72,15423,5,8,0:1:0:0:
270,193,15584,1,0,3:0:0:0:
329,126,15745,1,8,0:1:0:0:
394,208,15907,1,0,3:0:0:0:
394,208,15987,1,0,3:0:0:0:
394,208,16068,2,0,L|388:268,3,46.7500014266968,8|8|0|8,0:1|0:1|3:0|0:1,0:0:0:0:
376,298,16391,1,8,0:1:0:0:
376,298,16471,1,8,0:1:0:0:
376,298,16552,6,0,B|300:301|300:301|260:327|260:327|196:330,1,187.000005706787,12|0,3:1|3:0,0:0:0:0:
85,333,17036,1,8,0:1:0:0:
137,252,17197,1,0,3:0:0:0:
70,181,17358,1,8,0:1:0:0:
171,159,17520,1,0,3:0:0:0:
171,159,17600,1,0,3:0:0:0:
171,159,17681,2,0,L|270:162,1,93.5000028533936,8|0,0:1|3:0,0:0:0:0:
309,184,17923,1,0,3:0:0:0:
309,184,18003,5,8,0:1:0:0:
400,233,18165,1,0,3:0:0:0:
372,121,18326,1,8,0:1:0:0:
327,292,18487,1,0,3:0:0:0:
327,292,18568,1,0,3:0:0:0:
327,292,18649,1,8,3:1:0:0:
465,156,18810,1,8,3:1:0:0:
369,376,19132,6,0,P|269:361|230:271,1,187.000005706787,12|0,3:1|3:0,0:0:0:0:
253,144,19616,1,8,0:1:0:0:
327,292,19778,1,0,3:0:0:0:
160,203,19939,1,0,3:0:0:0:
362,152,20100,1,0,3:0:0:0:
362,152,20181,1,0,3:0:0:0:
362,152,20261,1,8,0:1:0:0:
230,65,20423,6,0,B|183:52|126:70|147:72|91:96|47:77,1,187.000005706787,0|0,3:0|3:0,0:0:0:0:
12,42,20826,1,0,3:0:0:0:
12,42,20906,1,8,0:0:0:0:
28,169,21068,1,8,0:0:0:0:
28,169,21149,1,8,0:0:0:0:
28,169,21229,1,8,0:1:0:0:
28,169,21310,1,8,0:1:0:0:
28,169,21391,1,8,0:1:0:0:
59,175,21471,1,8,0:1:0:0:
91,177,21552,1,8,3:1:0:0:
123,173,21632,1,8,3:1:0:0:
154,164,21713,6,0,B|221:142|221:142|353:187,1,187.000005706787,4|0,0:0|3:0,0:0:0:0:
441,227,22197,1,2,0:3:0:0:
372,359,22358,1,0,3:0:0:0:
372,359,22439,1,0,3:0:0:0:
372,359,22520,2,0,L|362:263,1,93.5000028533936,2|0,0:3|3:0,0:0:0:0:
348,153,22842,1,2,1:3:0:0:
245,305,23003,1,0,3:0:0:0:
245,305,23084,1,0,3:0:0:0:
245,305,23165,6,0,L|235:209,1,93.5000028533936,0|0,3:0|3:0,0:0:0:0:
221,98,23487,1,8,0:0:0:0:
112,212,23649,2,0,L|117:258,2,46.7500014266968,0|0|0,3:0|3:0|3:0,0:0:0:0:
97,69,23971,1,8,0:0:0:0:
9,236,24132,1,0,3:0:0:0:
15,27,24294,6,0,P|92:-17|174:19,1,187.000005706787,4|0,0:0|3:0,0:0:0:0:
206,136,24778,1,2,0:3:0:0:
350,67,24939,1,0,3:0:0:0:
350,67,25020,1,0,3:0:0:0:
350,67,25100,2,0,L|248:59,1,93.5000028533936,2|0,0:3|3:0,0:0:0:0:
287,228,25423,1,2,1:3:0:0:
431,159,25584,1,0,3:0:0:0:
431,159,25665,1,0,3:0:0:0:
431,159,25745,6,0,L|329:151,1,93.5000028533936,0|0,3:0|3:0,0:0:0:0:
368,320,26068,1,8,0:0:0:0:
465,247,26229,2,0,L|512:251,2,46.7500014266968,0|0|8,3:0|3:0|3:2,0:0:0:0:
287,228,26552,1,8,3:2:0:0:
295,241,26874,6,0,B|256:276|204:250|214:249|170:224|114:258,1,187.000005706787,4|0,0:0|3:0,0:0:0:0:
169,341,27358,1,2,0:3:0:0:
250,172,27520,1,0,3:0:0:0:
250,172,27600,1,0,3:0:0:0:
250,172,27681,2,0,P|259:108|249:69,1,93.5000028533936,2|0,0:3|3:0,0:0:0:0:
124,22,28003,1,2,1:3:0:0:
76,118,28165,1,0,3:0:0:0:
76,118,28245,1,0,3:0:0:0:
76,118,28326,6,0,P|140:127|179:117,1,93.5000028533936,0|0,3:0|3:0,0:0:0:0:
354,76,28649,1,8,0:0:0:0:
278,8,28810,2,0,P|214:-1|193:1,2,46.7500014266968,0|0|0,3:0|3:0|3:0,0:0:0:0:
415,142,29132,1,8,0:0:0:0:
371,0,29294,1,0,3:0:0:0:
275,127,29455,6,0,B|251:192|251:192|256:243|256:243|235:309,1,187.000005706787,4|0,0:0|3:0,0:0:0:0:
130,347,29939,1,2,0:3:0:0:
79,228,30100,1,0,3:0:0:0:
79,228,30181,1,0,3:0:0:0:
79,228,30261,2,0,L|192:232,1,93.5000028533936,2|0,0:3|3:0,0:0:0:0:
327,290,30584,1,2,1:3:0:0:
378,171,30745,1,0,3:0:0:0:
378,171,30826,1,0,3:0:0:0:
378,171,30906,6,0,L|265:175,1,93.5000028533936,0|0,3:0|3:0,0:0:0:0:
150,231,31229,1,8,0:0:0:0:
166,78,31390,1,0,3:0:0:0:
166,78,31471,1,0,3:0:0:0:
166,78,31552,1,8,3:2:0:0:
284,174,31713,1,8,3:2:0:0:
290,190,32036,5,4,0:0:0:0:
260,307,33366,5,0,0:0:0:0:
260,307,33427,1,0,0:0:0:0:
260,307,33487,1,4,3:2:0:0:
182,216,33649,1,0,3:0:0:0:
156,362,33810,1,0,3:0:0:0:
264,166,33971,1,8,0:1:0:0:
333,340,34132,5,8,0:1:0:0:
111,286,34294,1,8,0:1:0:0:
360,230,34455,1,10,0:1:0:0:
377,249,34778,6,0,P|430:238|458:214,1,76.4999976654053,2|0,3:2|0:0,0:0:0:0:
471,242,35020,2,0,P|491:191|487:155,1,76.4999976654053,2|0,3:2|0:0,0:0:0:0:
512,139,35261,2,0,P|482:93|450:75,1,76.4999976654053,2|8,3:2|0:0,0:0:0:0:
355,127,35584,1,0,0:0:0:0:
238,41,35745,1,0,3:0:0:0:
238,41,35907,2,0,L|323:37,1,76.4999976654053,2|0,3:2|0:0,0:0:0:0:
183,124,36229,5,0,3:0:0:0:
183,124,36391,2,0,L|98:120,1,76.4999976654053,2|0,3:2|0:0,0:0:0:0:
236,213,36713,2,0,L|321:209,1,76.4999976654053,8|0,0:0|0:0,0:0:0:0:
360,218,36955,2,0,P|371:254|367:291,1,76.4999976654053,0|0,3:0|0:0,0:0:0:0:
334,333,37197,1,0,3:0:0:0:
237,361,37358,6,0,P|184:350|156:326,1,76.4999976654053,2|0,3:2|0:0,0:0:0:0:
143,354,37600,2,0,P|123:303|127:267,1,76.4999976654053,2|0,3:2|0:0,0:0:0:0:
102,251,37841,2,0,P|132:205|164:187,1,76.4999976654053,2|8,3:2|0:0,0:0:0:0:
250,157,38165,1,0,0:0:0:0:
163,102,38326,1,0,3:0:0:0:
163,102,38487,2,0,L|67:98,1,76.4999976654053,2|0,3:2|0:0,0:0:0:0:
0,12,38810,5,0,3:0:0:0:
0,12,38971,2,0,L|96:8,1,76.4999976654053,2|0,3:2|0:0,0:0:0:0:
191,4,39294,1,8,0:0:0:0:
223,30,39374,1,8,0:3:0:0:
248,63,39455,1,8,0:3:0:0:
254,105,39536,1,0,3:0:0:0:
247,146,39616,1,8,0:3:0:0:
227,183,39697,1,8,0:3:0:0:
207,220,39778,1,4,0:3:0:0:
200,261,39858,1,4,0:3:0:0:
207,302,39939,6,0,L|305:307,1,76.4999976654053,2|0,3:2|0:0,0:0:0:0:
312,336,40181,2,0,L|390:276,1,76.4999976654053,2|0,3:2|0:0,0:0:0:0:
414,294,40423,2,0,L|424:246,1,38.2499988327027,2|0,3:2|0:0,0:0:0:0:
447,129,40584,1,8,0:0:0:0:
453,104,40907,6,0,P|418:90|380:90,1,76.4999976654053,2|0,3:2|0:0,0:0:0:0:
471,122,41149,2,0,P|501:98|520:65,1,76.4999976654053,2|0,3:2|0:0,0:0:0:0:
447,129,41391,2,0,P|452:166|471:199,1,76.4999976654053,2|2,3:2|3:0,0:0:0:0:
512,280,41713,1,0,0:0:0:0:
401,257,41874,2,0,L|324:254,1,76.4999976654053,10|0,0:0|0:0,0:0:0:0:
294,272,42116,1,2,3:2:0:0:
294,272,42197,2,0,L|217:275,1,76.4999976654053,0|2,0:0|3:2,0:0:0:0:
135,354,42520,6,0,L|63:286,1,76.4999976654053,2|0,0:3|0:0,0:0:0:0:
39,298,42762,2,0,L|28:200,1,76.4999976654053,2|0,0:3|0:0,0:0:0:0:
0,197,43004,2,0,L|54:114,1,76.4999976654053,2|10,0:3|0:0,0:0:0:0:
113,46,43326,1,0,0:0:0:0:
215,92,43487,1,0,3:0:0:0:
215,92,43649,2,0,P|231:127|231:167,1,76.4999976654053,2|0,3:2|0:0,0:0:0:0:
151,292,43971,5,2,3:2:0:0:
151,292,44132,2,0,P|136:257|136:220,1,76.4999976654053,2|0,3:0|0:0,0:0:0:0:
158,109,44455,1,8,0:0:0:0:
186,97,44535,1,8,0:3:0:0:
216,93,44616,1,8,0:3:0:0:
245,99,44696,1,0,3:0:0:0:
272,113,44777,1,8,0:3:0:0:
300,125,44858,1,8,0:3:0:0:
330,129,44939,1,0,3:0:0:0:
359,123,45019,1,0,3:0:0:0:
386,109,45100,6,0,L|392:16,1,85,4|0,3:2|3:0,0:0:0:0:
473,153,45423,1,2,1:3:0:0:
443,252,45584,1,0,3:0:0:0:
443,252,45665,1,0,3:0:0:0:
443,252,45745,2,0,L|448:336,1,85,2|0,3:0|3:0,0:0:0:0:
339,251,46068,1,2,1:3:0:0:
293,341,46229,1,0,3:0:0:0:
293,341,46310,1,0,3:0:0:0:
293,341,46390,6,0,L|208:346,1,85,2|0,3:0|3:0,0:0:0:0:
68,358,46713,1,2,1:3:0:0:
137,289,46874,1,0,3:0:0:0:
137,289,46955,1,0,3:0:0:0:
137,289,47035,6,0,L|131:204,1,85,2|0,3:0|3:0,0:0:0:0:
121,45,47358,1,2,1:3:0:0:
31,178,47520,1,0,3:0:0:0:
211,128,47681,2,0,L|302:133,1,85,4|0,3:2|3:0,0:0:0:0:
438,142,48003,1,2,1:3:0:0:
365,36,48165,1,0,3:0:0:0:
365,36,48246,1,0,3:0:0:0:
365,36,48326,6,0,L|280:41,1,85,2|0,3:0|3:0,0:0:0:0:
121,45,48649,1,2,1:3:0:0:
211,128,48810,1,0,3:0:0:0:
211,128,48891,1,0,3:0:0:0:
211,128,48971,6,0,L|213:212,1,85,2|0,3:0|3:0,0:0:0:0:
221,345,49294,1,2,1:3:0:0:
125,285,49455,2,0,L|78:290,2,42.5,0|0|2,3:0|3:0|3:0,0:0:0:0:
290,275,49778,1,0,3:0:0:0:
323,272,49858,1,0,3:0:0:0:
356,269,49939,1,0,3:0:0:0:
389,266,50020,1,0,3:0:0:0:
422,263,50100,1,0,3:0:0:0:
455,260,50181,1,0,3:0:0:0:
488,257,50261,6,0,B|496:226|496:226|480:163,1,85,4|0,0:0|3:0,0:0:0:0:
450,71,50584,1,2,1:3:0:0:
315,153,50745,1,0,3:0:0:0:
315,153,50826,1,0,3:0:0:0:
315,153,50907,2,0,B|399:143,1,85,2|0,3:0|3:0,0:0:0:0:
303,0,51229,1,2,1:3:0:0:
196,66,51391,1,0,3:0:0:0:
196,66,51472,1,0,3:0:0:0:
196,66,51553,2,0,B|280:76,1,85,2|0,3:0|3:0,0:0:0:0:
121,0,51874,5,2,1:3:0:0:
55,74,52036,1,0,3:0:0:0:
55,74,52117,1,0,3:0:0:0:
55,74,52198,2,0,B|52:158,1,85,2|0,3:0|3:0,0:0:0:0:
22,276,52520,1,2,1:3:0:0:
143,166,52681,1,0,3:0:0:0:
187,332,52842,6,0,B|101:301,1,85,4|0,0:1|3:0,0:0:0:0:
251,230,53165,1,8,0:1:0:0:
315,341,53326,1,0,3:0:0:0:
315,341,53407,1,0,3:0:0:0:
315,341,53487,2,0,B|401:310,1,85,0|0,3:0|3:0,0:0:0:0:
512,263,53810,1,8,0:1:0:0:
390,147,53971,1,0,3:0:0:0:
390,147,54052,1,0,3:0:0:0:
390,147,54132,6,0,B|423:225,1,85,2|0,3:2|3:0,0:0:0:0:
503,130,54455,1,10,1:2:0:0:
437,45,54616,1,0,3:0:0:0:
437,45,54697,1,0,3:0:0:0:
437,45,54778,2,0,L|369:52,3,42.5,10|8|8|0,1:2|0:3|0:3|3:0,0:0:0:0:
324,88,55100,2,0,L|281:83,3,42.5,10|8|8|8,1:2|0:3|0:3|0:1,0:0:0:0:
209,51,55423,5,12,0:1:0:0:
178,190,55584,1,0,3:0:0:0:
172,225,55907,1,2,3:1:0:0:
62,90,56068,1,2,1:0:0:0:
66,73,56391,1,0,3:0:0:0:
27,270,56552,1,0,3:0:0:0:
34,284,56874,1,2,0:3:0:0:
118,149,57036,1,2,0:3:0:0:
176,342,57197,1,2,1:1:0:0:
115,249,57358,5,8,3:0:0:0:
330,193,58003,5,0,3:0:0:0:
334,100,58165,2,0,P|292:106|258:131,1,85,0|8,3:0|0:1,0:0:0:0:
331,285,58487,1,0,0:0:0:0:
403,225,58649,2,0,P|370:198|329:192,1,85,0|0,3:0|3:0,0:0:0:0:
236,231,58971,1,8,0:1:0:0:
334,100,59132,1,0,0:0:0:0:
246,134,59294,6,0,P|238:93|253:54,1,85,0|0,3:0|3:0,0:0:0:0:
331,285,59616,1,8,0:1:0:0:
465,167,59778,1,0,0:0:0:0:
236,231,59939,1,0,3:0:0:0:
420,319,60100,1,8,0:1:0:0:
248,344,60261,1,8,0:1:0:0:
398,213,60423,5,0,0:0:0:0:
339,373,60584,1,4,3:2:0:0:
318,184,60745,2,0,L|310:93,1,85,0|8,3:0|0:1,0:0:0:0:
303,3,61068,1,0,0:0:0:0:
202,143,61229,1,0,3:0:0:0:
149,64,61391,2,0,L|240:56,1,85,0|8,3:0|0:1,0:0:0:0:
318,184,61713,1,0,0:0:0:0:
236,231,61874,6,0,P|176:236|114:164,1,127.5,2|8,0:3|0:1,0:0:0:0:
55,142,62197,2,0,P|89:191|57:281,1,127.5,2|0,0:3|0:0,0:0:0:0:
69,344,62520,2,0,P|94:289|188:271,1,127.5,2|0,0:3|0:0,0:0:0:0:
154,350,62842,1,2,0:3:0:0:
269,314,63003,1,0,3:0:0:0:
269,314,63084,1,0,3:0:0:0:
269,314,63165,6,0,P|318:303|363:316,1,85,4|0,3:2|3:0,0:0:0:0:
501,352,63487,1,8,0:0:0:0:
512,257,63649,1,0,3:0:0:0:
512,257,63730,1,0,0:0:0:0:
512,257,63811,2,0,P|470:261|433:283,1,85,2|0,3:0|3:0,0:0:0:0:
313,384,64132,1,8,0:0:0:0:
331,280,64294,1,0,3:0:0:0:
331,280,64374,1,0,0:0:0:0:
331,280,64455,6,0,L|330:175,1,85,2|0,3:0|3:0,0:0:0:0:
333,26,64778,1,8,0:0:0:0:
237,115,64939,1,0,3:0:0:0:
237,115,65020,1,0,0:0:0:0:
237,115,65100,1,2,3:0:0:0:
405,142,65261,1,8,0:0:0:0:
246,21,65423,1,8,0:0:0:0:
238,213,65584,1,0,3:0:0:0:
320,115,65745,5,4,3:2:0:0:
145,126,65907,2,0,L|65:130,2,42.5,2|2|8,3:0|0:3|0:0,0:0:0:0:
329,197,66229,1,0,3:0:0:0:
362,45,66391,2,0,P|333:74|320:115,1,85,2|2,3:0|3:0,0:0:0:0:
496,119,66713,2,0,P|482:78|453:49,1,85,8|0,0:0|3:0,0:0:0:0:
444,208,67036,6,0,L|453:296,1,85,8|0,0:0|0:0,0:0:0:0:
491,365,67278,2,0,L|413:330,1,85,8|0,0:0|0:0,0:0:0:0:
331,327,67520,2,0,L|377:292,1,42.5,8|0,0:0|0:0,0:0:0:0:
399,276,67681,1,8,0:0:0:0:
113,201,68326,5,4,3:2:0:0:
279,88,68568,5,4,3:2:0:0:
99,1,68810,5,4,3:2:0:0:
218,157,68971,1,12,0:1:0:0:
156,84,69132,1,0,0:0:0:0:
201,261,69294,1,8,0:0:0:0:
201,261,69374,1,8,0:0:0:0:
201,261,69455,1,8,0:0:0:0:
201,261,69536,1,8,0:0:0:0:
201,261,69616,5,4,3:2:0:0:
340,149,69858,5,4,3:2:0:0:
368,326,70100,5,4,3:2:0:0:
441,187,70261,1,12,0:1:0:0:
512,274,70423,1,0,3:0:0:0:
512,274,70503,1,0,3:0:0:0:
512,274,70584,1,8,0:0:0:0:
354,240,70745,1,0,3:0:0:0:
446,178,70907,6,0,B|459:129|459:129|453:78,1,101.999996887207,4|0,3:2|0:0,0:0:0:0:
397,15,71149,2,0,B|346:9|346:9|297:22,1,101.999996887207,4|0,3:2|0:0,0:0:0:0:
226,55,71391,1,4,3:2:0:0:
186,184,71552,2,0,L|195:295,1,101.999996887207,12|0,0:1|0:0,0:0:0:0:
233,287,71794,1,0,3:0:0:0:
233,287,71874,2,0,L|242:398,1,101.999996887207,2|0,0:0|3:0,0:0:0:0:
111,382,72197,6,0,B|100:312|100:312|108:271,1,101.999996887207,4|0,3:2|0:0,0:0:0:0:
159,219,72439,2,0,B|170:149|170:149|162:108,1,101.999996887207,0|0,3:0|0:0,0:0:0:0:
117,53,72681,1,2,3:0:0:0:
237,50,72842,2,0,L|299:47,3,50.9999984436036,12|8|4|0,0:1|3:0|3:0|3:0,0:0:0:0:
368,42,73165,1,12,0:1:0:0:
384,31,73487,6,0,B|372:73|372:73|388:161,1,101.999996887207,4|0,3:2|0:0,0:0:0:0:
425,198,73729,2,0,B|383:186|383:186|295:202,1,101.999996887207,4|0,3:2|0:0,0:0:0:0:
258,239,73971,2,0,B|270:197|270:197|254:109,1,101.999996887207,4|12,3:2|0:1,0:0:0:0:
206,19,74294,1,0,0:0:0:0:
141,120,74455,1,8,0:0:0:0:
145,124,74536,1,8,0:0:0:0:
149,128,74616,1,8,0:0:0:0:
153,132,74697,1,8,0:0:0:0:
157,136,74778,6,0,B|278:140,1,101.999996887207,4|0,3:2|0:0,0:0:0:0:
334,94,75020,2,0,B|455:90,1,101.999996887207,4|0,3:2|0:0,0:0:0:0:
503,144,75261,2,0,B|521:176|521:176|512:241,1,101.999996887207,4|12,3:2|0:1,0:0:0:0:
496,353,75584,1,0,3:0:0:0:
496,353,75665,1,0,3:0:0:0:
496,353,75745,1,8,0:0:0:0:
428,194,75907,1,0,3:0:0:0:
354,274,76068,5,4,0:0:0:0:
334,94,76310,5,0,3:0:0:0:
189,202,76552,5,2,3:2:0:0:
292,190,76713,1,8,0:0:0:0:
126,117,76955,5,0,3:0:0:0:
149,299,77197,5,0,3:0:0:0:
189,202,77358,1,2,3:0:0:0:
44,310,77600,5,0,3:0:0:0:
209,382,77842,5,0,3:0:0:0:
290,279,78003,1,8,3:1:0:0:
290,279,78084,1,0,3:0:0:0:
290,279,78165,1,8,3:0:0:0:
290,279,78245,1,4,3:0:0:0:
303,240,78326,1,8,3:1:0:0:
311,199,78407,1,8,0:0:0:0:
302,159,78487,1,8,0:0:0:0:
276,127,78568,1,8,0:0:0:0:
244,101,78649,6,0,L|136:96,1,101.999996887207,4|0,3:2|0:0,0:0:0:0:
108,120,78891,1,0,3:0:0:0:
108,120,78971,1,8,0:0:0:0:
24,61,79132,2,0,L|29:-7,2,50.9999984436036,0|0|0,3:0|3:0|3:0,0:0:0:0:
21,173,79455,1,0,3:0:0:0:
109,38,79616,1,8,0:0:0:0:
182,186,79778,1,0,3:0:0:0:
182,186,79858,1,0,3:0:0:0:
182,186,79939,6,0,B|191:235|191:235|171:291,1,101.999996887207,4|0,0:0|0:0,0:0:0:0:
139,307,80181,1,0,3:0:0:0:
139,307,80261,1,8,0:0:0:0:
50,340,80423,2,0,L|-1:336,2,50.9999984436036,0|0|2,3:0|3:0|3:0,0:0:0:0:
210,357,80745,1,0,3:0:0:0:
69,228,80907,1,8,0:0:0:0:
128,384,81068,1,0,3:0:0:0:
220,242,81229,6,0,L|322:238,1,101.999996887207,4|0,0:0|0:0,0:0:0:0:
366,256,81471,1,0,3:0:0:0:
366,256,81552,1,8,0:0:0:0:
439,325,81713,2,0,L|443:378,2,50.9999984436036,0|0|0,3:0|3:0|3:0,0:0:0:0:
429,193,82036,1,0,3:0:0:0:
355,337,82197,1,8,0:0:0:0:
512,250,82358,1,0,3:0:0:0:
512,250,82439,1,0,3:0:0:0:
512,250,82520,6,0,L|511:143,1,101.999996887207,4|0,0:0|0:0,0:0:0:0:
491,111,82761,1,0,3:0:0:0:
491,111,82842,2,0,L|420:105,3,50.9999984436036,8|0|2|8,0:0|3:0|3:2|3:0,0:0:0:0:
397,133,83165,1,6,3:0:0:0:
251,75,83326,1,8,0:0:0:0:
262,95,83649,6,0,P|268:158|255:206,1,101.999996887207,4|0,0:0|0:0,0:0:0:0:
187,268,83971,1,0,3:0:0:0:
187,268,84052,1,0,3:0:0:0:
187,268,84132,2,0,L|68:264,1,101.999996887207,8|0,0:0|0:0,0:0:0:0:
18,200,84455,2,0,P|14:177|13:142,3,50.9999984436036,2|0|0|0,3:0|0:0|3:0|0:0,0:0:0:0:
31,103,84778,1,8,0:0:0:0:
31,103,84858,1,0,0:0:0:0:
31,103,84939,6,0,L|39:0,1,101.999996887207,2|0,3:0|0:0,0:0:0:0:
191,78,85261,1,0,3:0:0:0:
114,148,85423,1,8,0:0:0:0:
227,0,85584,1,0,3:0:0:0:
298,186,85745,1,8,0:0:0:0:
108,65,85907,1,12,0:0:0:0:
432,75,86229,6,0,B|438:129|438:129|419:182|419:182|426:254,1,170,12|0,3:1|3:0,0:0:0:0:
437,337,86712,5,8,0:1:0:0:
348,301,86874,1,0,3:0:0:0:
424,241,87035,1,8,0:1:0:0:
339,209,87196,1,0,3:0:0:0:
339,209,87277,1,0,3:0:0:0:
339,209,87358,2,0,L|236:214,1,85,8|0,0:1|0:0,0:0:0:0:
206,241,87600,1,0,3:0:0:0:
206,241,87681,5,8,0:1:0:0:
146,165,87841,1,0,3:0:0:0:
110,254,88003,1,8,0:1:0:0:
50,178,88164,2,0,L|43:104,2,42.5,0|0|8,3:0|3:0|3:1,0:0:0:0:
54,333,88487,1,8,3:1:0:0:
45,346,88809,6,0,B|101:380|101:380|232:362,1,170,12|0,3:1|3:0,0:0:0:0:
298,349,89293,1,8,0:1:0:0:
238,274,89454,1,0,3:0:0:0:
332,258,89616,1,8,0:1:0:0:
272,183,89777,1,0,3:0:0:0:
272,183,89857,1,0,3:0:0:0:
272,183,89938,1,8,0:1:0:0:
398,177,90100,1,0,3:0:0:0:
398,177,90180,1,0,3:0:0:0:
398,177,90261,5,8,0:1:0:0:
325,102,90422,1,0,3:0:0:0:
392,41,90583,1,8,0:1:0:0:
469,103,90746,1,0,3:0:0:0:
469,103,90826,1,0,3:0:0:0:
469,103,90907,2,0,L|475:163,3,42.5,8|8|0|8,0:1|0:1|3:0|0:1,0:0:0:0:
483,201,91229,1,8,0:1:0:0:
483,201,91310,1,8,0:1:0:0:
483,201,91391,6,0,B|413:203|413:203|377:227|377:227|319:230,1,170,12|0,3:1|3:0,0:0:0:0:
252,298,91874,1,8,0:1:0:0:
181,234,92035,1,0,3:0:0:0:
116,305,92196,1,8,0:1:0:0:
52,238,92358,1,0,3:0:0:0:
52,238,92438,1,0,3:0:0:0:
52,238,92519,2,0,L|48:142,1,85,8|0,0:1|3:0,0:0:0:0:
66,112,92761,1,0,3:0:0:0:
66,112,92841,5,8,0:1:0:0:
166,0,93003,1,0,3:0:0:0:
175,149,93164,1,8,0:1:0:0:
62,7,93325,1,0,3:0:0:0:
62,7,93406,1,0,3:0:0:0:
62,7,93487,1,8,3:1:0:0:
257,62,93649,1,8,3:1:0:0:
291,327,93971,6,0,P|259:250|294:175,1,170,12|0,3:1|3:0,0:0:0:0:
413,117,94455,1,8,0:1:0:0:
372,254,94616,1,0,3:0:0:0:
330,98,94778,1,0,3:0:0:0:
494,166,94939,1,0,3:0:0:0:
494,166,95020,1,0,3:0:0:0:
494,166,95100,1,8,0:1:0:0:
362,275,95261,2,0,L|341:334,2,42.5,0|0|0,3:0|0:0|0:0,0:0:0:0:
413,117,95584,5,0,3:0:0:0:
461,275,95745,1,8,0:0:0:0:
312,173,95907,1,8,0:0:0:0:
312,173,95987,1,8,0:0:0:0:
312,173,96068,1,8,0:1:0:0:
280,160,96149,1,8,0:1:0:0:
246,158,96229,1,8,0:1:0:0:
212,165,96310,1,8,0:1:0:0:
180,177,96391,1,8,3:1:0:0:
147,185,96471,1,8,3:1:0:0:
109,178,96552,6,0,P|63:147|77:22,1,187.000005706787,4|0,0:0|3:0,0:0:0:0:
165,0,97036,1,2,0:3:0:0:
231,79,97197,1,0,3:0:0:0:
231,79,97278,1,0,3:0:0:0:
231,79,97358,2,0,L|134:89,1,93.5000028533936,2|0,0:3|3:0,0:0:0:0:
336,69,97681,1,2,1:3:0:0:
386,159,97842,1,0,3:0:0:0:
386,159,97923,1,0,3:0:0:0:
386,159,98003,6,0,L|288:150,1,93.5000028533936,0|0,3:0|3:0,0:0:0:0:
481,167,98326,1,8,0:0:0:0:
425,246,98487,2,0,L|418:303,2,46.7500014266968,0|0|0,3:0|3:0|3:0,0:0:0:0:
443,85,98810,1,8,0:0:0:0:
337,234,98971,1,0,3:0:0:0:
365,42,99132,6,0,P|462:3|532:70,1,187.000005706787,4|0,0:0|3:0,0:0:0:0:
512,148,99616,1,2,0:3:0:0:
430,177,99778,1,0,3:0:0:0:
430,177,99858,1,0,3:0:0:0:
430,177,99939,2,0,L|443:84,1,93.5000028533936,2|0,0:3|3:0,0:0:0:0:
349,122,100261,1,2,1:3:0:0:
260,170,100423,1,0,3:0:0:0:
260,170,100503,1,0,3:0:0:0:
260,170,100584,6,0,L|247:77,1,93.5000028533936,0|0,3:0|3:0,0:0:0:0:
153,115,100907,1,8,0:0:0:0:
64,163,101068,2,0,L|58:210,2,46.7500014266968,0|0|8,3:0|3:0|3:2,0:0:0:0:
82,38,101391,1,8,3:2:0:0:
74,25,101713,6,0,B|113:-10|165:16|155:17|199:42|255:8,1,187.000005706787,4|0,0:0|3:0,0:0:0:0:
329,67,102197,1,2,0:3:0:0:
274,145,102358,1,0,3:0:0:0:
274,145,102439,1,0,3:0:0:0:
274,145,102520,2,0,P|261:202|270:250,1,93.5000028533936,2|0,0:3|3:0,0:0:0:0:
387,298,102842,1,2,1:3:0:0:
445,207,103003,1,0,3:0:0:0:
445,207,103084,1,0,3:0:0:0:
445,207,103165,6,0,P|388:194|340:203,1,93.5000028533936,0|0,3:0|3:0,0:0:0:0:
265,236,103487,1,8,0:0:0:0:
191,321,103649,2,0,P|184:343|184:366,2,46.7500014266968,0|0|0,3:0|3:0|3:0,0:0:0:0:
274,145,103971,1,8,0:0:0:0:
324,326,104132,1,0,3:0:0:0:
183,191,104294,6,0,B|116:183|116:183|72:206|72:206|0:197,1,187.000005706787,4|0,0:0|3:0,0:0:0:0:
20,35,104778,1,2,0:3:0:0:
103,91,104939,1,0,3:0:0:0:
103,91,105020,1,0,3:0:0:0:
103,91,105100,2,0,L|198:100,1,93.5000028533936,2|0,0:3|3:0,0:0:0:0:
417,116,105423,1,2,1:3:0:0:
334,172,105584,1,0,3:0:0:0:
334,172,105665,1,0,3:0:0:0:
334,172,105745,6,0,L|239:181,1,93.5000028533936,0|0,3:0|3:0,0:0:0:0:
20,197,106068,1,8,0:0:0:0:
103,253,106229,1,0,3:0:0:0:
103,253,106310,1,0,3:0:0:0:
103,253,106391,6,0,B|152:269|203:248|203:248|199:268|199:268|264:238|326:274,1,229.499992996216,8|4,3:2|0:0,0:0:0:0:
398,318,107036,5,2,3:2:0:0:
83,137,117358,6,0,B|39:146|39:146|0:138,1,85,4|0,3:2|3:0,0:0:0:0:
130,50,117681,1,2,1:3:0:0:
214,124,117842,1,0,3:0:0:0:
214,124,117923,1,0,3:0:0:0:
214,124,118003,2,0,B|223:168|223:168|215:207,1,85,2|0,3:0|3:0,0:0:0:0:
178,358,118326,1,2,1:3:0:0:
254,298,118487,1,0,3:0:0:0:
254,298,118568,1,0,3:0:0:0:
254,298,118648,6,0,B|298:289|298:289|337:297,1,85,2|0,3:0|3:0,0:0:0:0:
479,327,118971,1,2,1:3:0:0:
423,250,119132,1,0,3:0:0:0:
423,250,119213,1,0,3:0:0:0:
423,250,119293,2,0,B|414:206|414:206|422:167,1,85,2|0,3:0|3:0,0:0:0:0:
487,51,119616,1,2,1:3:0:0:
512,205,119778,1,0,3:0:0:0:
394,76,119939,6,0,B|351:69|351:69|310:79,1,85,4|0,3:2|3:0,0:0:0:0:
160,155,120261,1,2,1:3:0:0:
257,244,120423,1,0,3:0:0:0:
257,244,120504,1,0,3:0:0:0:
257,244,120584,2,0,L|258:158,1,85,2|0,3:0|3:0,0:0:0:0:
48,173,120907,1,2,1:3:0:0:
145,262,121069,1,0,3:0:0:0:
145,262,121150,1,0,3:0:0:0:
145,262,121230,6,0,L|144:177,1,85,2|0,3:0|3:0,0:0:0:0:
65,318,121552,1,2,1:3:0:0:
220,315,121713,2,0,L|276:319,2,42.5,0|0|2,3:0|3:0|3:0,0:0:0:0:
67,236,122036,1,0,3:0:0:0:
44,210,122116,1,0,3:0:0:0:
33,177,122197,1,0,3:0:0:0:
35,141,122278,1,0,3:0:0:0:
50,111,122358,1,0,3:0:0:0:
74,87,122439,1,0,3:0:0:0:
107,81,122519,6,0,B|150:90|150:90|204:83,1,85,4|0,0:0|3:0,0:0:0:0:
267,67,122761,2,0,B|310:58|310:58|364:65,1,85,2|0,0:0|0:0,0:0:0:0:
420,105,123003,2,0,B|472:102,1,42.5,0|0,3:0|3:0,0:0:0:0:
512,41,123165,1,2,3:0:0:0:
501,174,123326,1,0,3:0:0:0:
436,253,123487,6,0,B|393:262|393:262|339:255,1,85,2|0,1:3|3:0,0:0:0:0:
276,239,123729,2,0,B|233:230|233:230|179:237,1,85,0|0,3:0|0:0,0:0:0:0:
117,255,123971,2,0,B|74:264|74:264|20:257,1,85,0|2,3:0|1:3,0:0:0:0:
111,113,124294,1,0,3:0:0:0:
111,113,124375,1,0,3:0:0:0:
111,113,124455,1,2,3:0:0:0:
68,185,124616,1,0,3:0:0:0:
165,35,124778,1,2,1:3:0:0:
211,184,124939,1,0,3:0:0:0:
72,23,125100,6,0,B|-12:21,1,85,4|0,0:1|3:0,0:0:0:0:
111,113,125423,1,2,1:3:0:0:
173,43,125584,1,0,3:0:0:0:
173,43,125665,1,0,3:0:0:0:
173,43,125745,2,0,B|257:41,1,85,2|0,3:0|3:0,0:0:0:0:
402,36,126068,1,2,1:3:0:0:
336,118,126229,1,0,3:0:0:0:
336,118,126310,1,0,3:0:0:0:
336,118,126390,6,0,B|342:205,1,85,2|0,3:2|3:0,0:0:0:0:
348,314,126713,1,10,1:2:0:0:
438,256,126874,1,0,3:0:0:0:
438,256,126955,1,0,3:0:0:0:
438,256,127036,2,0,L|445:188,3,42.5,10|8|8|0,1:2|0:3|0:3|3:0,0:0:0:0:
422,143,127358,2,0,L|417:100,3,42.5,10|8|8|8,1:2|0:3|0:3|0:1,0:0:0:0:
390,28,127681,5,12,0:1:0:0:
322,212,127842,1,0,3:0:0:0:
328,227,128165,1,2,3:1:0:0:
241,71,128326,1,2,1:0:0:0:
239,54,128649,1,0,3:0:0:0:
202,263,128810,1,0,3:0:0:0:
209,278,129132,5,2,0:3:0:0:
139,96,129294,1,2,0:3:0:0:
116,207,129455,1,8,0:1:0:0:
229,166,129616,1,8,0:1:0:0:
60,138,129778,1,2,3:2:0:0:
229,78,129939,1,2,1:2:0:0:
129,291,130100,1,8,0:1:0:0:
68,54,130261,5,8,0:1:0:0:
279,230,130423,1,0,3:0:0:0:
286,246,130745,1,2,0:0:0:0:
447,146,130907,1,8,0:1:0:0:
400,245,131068,1,0,3:0:0:0:
399,261,131391,5,2,0:0:0:0:
322,143,131552,1,0,3:0:0:0:
281,336,131713,1,0,3:0:0:0:
291,351,132036,1,2,0:0:0:0:
157,273,132197,1,8,0:0:0:0:
318,224,132358,1,0,3:0:0:0:
331,238,132681,5,2,3:2:0:0:
308,73,132842,1,8,0:1:0:0:
211,191,133003,1,0,3:0:0:0:
221,207,133326,1,2,0:0:0:0:
49,122,133487,1,8,0:1:0:0:
101,226,133649,1,0,3:0:0:0:
95,243,133971,5,2,0:0:0:0:
164,106,134132,2,0,P|221:68|287:55,1,127.5,2|0,3:0|0:0,0:0:0:0:
325,56,134455,2,0,P|329:124|307:188,1,127.5,2|2,0:3|0:0,0:0:0:0:
287,220,134778,2,0,P|225:189|181:138,1,127.5,10|0,0:0|0:0,0:0:0:0:
164,106,135100,1,10,0:0:0:0:
203,7,135261,1,2,3:2:0:0:
121,191,135423,6,0,P|119:263|124:296,1,85,2|2,3:2|3:2,0:0:0:0:
6,119,135745,2,0,P|9:161|6:203,1,85,2|2,3:1|3:2,0:0:0:0:
245,147,136068,2,0,P|243:219|248:252,1,85,8|2,3:2|3:1,0:0:0:0:
364,90,136390,2,0,P|367:132|364:174,1,85,2|2,0:3|3:2,0:0:0:0:
236,298,136713,6,0,P|234:226|239:193,1,85,2|2,3:2|3:2,0:0:0:0:
114,380,137035,2,0,P|117:337|114:295,1,85,2|2,3:1|3:2,0:0:0:0:
364,336,137358,2,0,P|362:264|367:231,1,85,8|2,3:2|3:1,0:0:0:0:
490,384,137680,2,0,P|493:341|490:299,1,85,2|2,0:3|3:2,0:0:0:0:
343,136,138003,6,0,P|339:178|342:220,1,85,6|2,3:2|3:2,0:0:0:0:
363,251,138245,1,2,0:3:0:0:
363,251,138326,1,2,3:1:0:0:
454,212,138487,1,2,3:2:0:0:
512,117,138649,2,0,P|477:92|439:74,1,85,8|2,3:2|3:1,0:0:0:0:
288,43,138971,2,0,P|326:25|361:1,1,85,2|2,0:3|3:2,0:0:0:0:
178,38,139294,5,8,0:0:0:0:
204,218,139536,5,8,0:0:0:0:
35,150,139778,5,8,0:0:0:0:
139,135,139939,1,10,3:2:0:0:
173,131,140020,1,8,3:0:0:0:
206,126,140100,1,0,3:0:0:0:
239,121,140181,1,4,3:0:0:0:
272,117,140261,1,8,0:0:0:0:
305,141,140342,1,8,0:0:0:0:
322,179,140423,1,8,0:0:0:0:
325,221,140503,1,8,0:0:0:0:
313,262,140584,5,4,3:2:0:0:
221,210,141068,5,2,0:1:0:0:
221,210,141149,1,0,0:0:0:0:
221,210,141229,2,0,L|164:200,3,42.5,8|0|6|0,0:0|0:0|3:3|0:0,0:0:0:0:
2,225,141552,1,8,3:1:0:0:
2,225,141874,5,4,3:2:0:0:
120,62,142116,5,4,3:2:0:0:
203,247,142358,5,4,3:2:0:0:
108,178,142520,1,12,0:1:0:0:
215,130,142681,1,0,0:0:0:0:
218,262,142843,1,8,0:0:0:0:
218,262,142923,1,8,0:0:0:0:
218,262,143004,1,8,0:0:0:0:
218,262,143085,1,8,0:0:0:0:
218,262,143165,5,4,3:2:0:0:
383,177,143407,5,4,3:2:0:0:
381,369,143649,5,4,3:2:0:0:
283,185,143810,1,12,0:1:0:0:
337,271,143971,1,0,3:0:0:0:
337,271,144052,1,0,3:0:0:0:
337,271,144132,1,8,0:0:0:0:
446,257,144294,1,0,3:0:0:0:
383,177,144456,6,0,B|329:170|329:170|283:185,1,101.999996887207,4|0,3:2|0:0,0:0:0:0:
209,213,144697,2,0,B|154:220|154:220|108:205,1,101.999996887207,4|0,3:2|0:0,0:0:0:0:
44,158,144940,1,4,3:2:0:0:
118,54,145101,2,0,L|229:50,1,101.999996887207,12|0,0:1|0:0,0:0:0:0:
271,35,145343,1,0,3:0:0:0:
271,35,145423,2,0,L|382:31,1,101.999996887207,2|0,0:0|3:0,0:0:0:0:
507,36,145746,6,0,B|518:106|518:106|510:147,1,101.999996887207,4|0,3:2|0:0,0:0:0:0:
463,199,145988,2,0,B|452:269|452:269|460:310,1,101.999996887207,0|0,3:0|0:0,0:0:0:0:
501,365,146230,1,2,3:0:0:0:
366,358,146391,2,0,L|304:355,3,50.9999984436036,12|8|4|0,0:1|3:0|3:0|3:0,0:0:0:0:
236,347,146713,1,12,0:1:0:0:
223,356,147036,6,0,B|235:314|235:314|219:226,1,101.999996887207,4|0,3:2|0:0,0:0:0:0:
182,189,147278,2,0,B|220:167|220:167|271:94,1,101.999996887207,4|0,3:2|0:0,0:0:0:0:
271,41,147520,2,0,B|313:53|313:53|401:37,1,101.999996887207,4|12,3:2|0:1,0:0:0:0:
486,18,147843,1,0,0:0:0:0:
458,111,148004,1,8,0:0:0:0:
458,111,148085,1,8,0:0:0:0:
458,111,148165,1,8,0:0:0:0:
458,111,148246,1,8,0:0:0:0:
458,111,148327,6,0,B|454:232,1,101.999996887207,4|0,3:2|0:0,0:0:0:0:
419,282,148569,2,0,B|378:297|378:297|298:286,1,101.999996887207,4|0,3:2|0:0,0:0:0:0:
241,278,148810,2,0,B|183:270|183:270|142:285,1,101.999996887207,4|12,3:2|0:1,0:0:0:0:
27,339,149133,1,0,3:0:0:0:
27,339,149214,1,0,3:0:0:0:
27,339,149294,1,8,0:0:0:0:
71,169,149456,1,0,3:0:0:0:
175,248,149617,5,4,0:0:0:0:
190,77,149859,1,0,3:0:0:0:
330,175,150101,1,2,3:2:0:0:
231,167,150261,5,8,0:0:0:0:
386,94,150503,1,0,3:0:0:0:
371,265,150745,1,0,3:0:0:0:
330,175,150907,5,2,3:0:0:0:
470,273,151149,1,0,3:0:0:0:
315,346,151391,1,0,3:0:0:0:
269,255,151552,5,8,3:1:0:0:
269,255,151633,1,0,3:0:0:0:
269,255,151714,1,8,3:0:0:0:
269,255,151794,1,4,3:0:0:0:
236,215,151875,1,8,3:1:0:0:
232,163,151956,1,8,0:0:0:0:
252,116,152036,1,8,0:0:0:0:
294,87,152117,1,8,0:0:0:0:
344,79,152198,6,0,L|456:83,1,101.999996887207,4|0,3:2|0:0,0:0:0:0:
483,115,152440,1,0,3:0:0:0:
483,115,152520,1,8,0:0:0:0:
512,201,152681,2,0,L|512:266,2,50.9999984436036,0|0|0,3:0|3:0|3:0,0:0:0:0:
512,32,153004,1,0,3:0:0:0:
391,161,153165,1,8,0:0:0:0:
356,6,153327,1,0,3:0:0:0:
356,6,153407,1,0,3:0:0:0:
356,6,153488,6,0,B|309:-10|309:-10|250:0,1,101.999996887207,4|0,0:0|0:0,0:0:0:0:
224,23,153730,1,0,3:0:0:0:
224,23,153810,1,8,0:0:0:0:
179,120,153972,2,0,L|183:172,2,50.9999984436036,0|0|2,3:0|3:0|3:0,0:0:0:0:
138,18,154294,1,0,3:0:0:0:
78,153,154456,1,8,0:0:0:0:
273,98,154617,1,0,3:0:0:0:
213,336,154778,6,0,P|230:288|218:240,1,101.999996887207,4|0,0:0|0:0,0:0:0:0:
199,216,155020,1,0,3:0:0:0:
199,216,155101,1,8,0:0:0:0:
51,156,155262,2,0,L|-11:162,2,50.9999984436036,0|0|0,3:0|3:0|3:0,0:0:0:0:
158,138,155585,1,0,3:0:0:0:
92,275,155746,1,8,0:0:0:0:
41,62,155907,1,0,3:0:0:0:
41,62,155988,1,0,3:0:0:0:
41,62,156069,6,0,L|147:45,1,101.999996887207,4|0,0:0|0:0,0:0:0:0:
194,42,156310,1,0,3:0:0:0:
194,42,156391,2,0,L|265:48,3,50.9999984436036,8|0|2|8,0:0|3:0|3:2|3:0,0:0:0:0:
291,70,156714,1,6,3:0:0:0:
448,11,156875,1,8,0:0:0:0:
433,27,157198,6,0,P|427:90|440:138,1,101.999996887207,4|0,0:0|0:0,0:0:0:0:
512,225,157520,1,0,3:0:0:0:
512,225,157601,1,0,3:0:0:0:
512,225,157681,2,0,L|393:221,1,101.999996887207,8|0,0:0|0:0,0:0:0:0:
279,178,158004,2,0,P|275:201|274:236,3,50.9999984436036,2|0|0|0,3:0|0:0|3:0|0:0,0:0:0:0:
292,275,158327,1,8,0:0:0:0:
292,275,158407,1,0,0:0:0:0:
292,275,158488,6,0,L|300:378,1,101.999996887207,2|0,3:0|0:0,0:0:0:0:
178,286,158810,1,0,3:0:0:0:
101,372,158972,1,8,0:0:0:0:
194,172,159133,1,0,3:0:0:0:
253,353,159294,1,8,0:0:0:0:
77,270,159456,1,12,0:0:0:0:
20,202,159616,1,0,3:0:0:0:
50,119,159777,1,2,0:0:0:0:
137,103,159939,5,6,0:0:0:0:
157,129,160181,5,2,0:0:0:0:
176,155,160423,6,0,L|224:151,3,45.3333333333333,2|2|2|2,0:3|0:3|0:3|0:3,0:0:0:0:
129,226,160826,5,2,0:0:0:0:
110,252,161068,6,0,L|62:248,3,45.3333333333333,2|2|2|2,0:3|0:3|0:3|0:3,0:0:0:0:
157,323,161471,5,2,0:0:0:0:
176,349,161713,6,0,L|224:345,3,45.3333333333333,2|2|2|2,0:3|0:3|0:3|0:3,0:0:0:0:
466,345,162520,6,0,B|470:310|470:310|461:275|461:275|474:259|474:259|473:236,1,106.25,4|0,3:2|0:0,0:0:0:0:
424,180,162761,2,0,B|418:156|418:156|424:145|424:145|407:127|407:127|406:98|406:98|391:69,1,106.25,2|0,3:0|0:0,0:0:0:0:
461,2,163003,2,0,B|439:-4|439:-4|431:3|431:3|382:-3,1,53.125,2|0,3:0|0:0,0:0:0:0:
300,0,163166,2,0,B|287:25|287:25|283:40|283:40|282:57|282:57|270:64|270:64|274:74|274:74|266:88|266:88|259:113,1,106.25,8|0,0:1|0:0,0:0:0:0:
321,185,163407,2,0,B|281:195|281:195|267:182|267:182|241:187|241:187|226:184|226:184|209:189,1,106.25,2|0,3:0|0:0,0:0:0:0:
157,140,163649,2,0,B|136:136|136:136|121:130|121:130|112:131|112:131|97:131,1,53.125,2|0,3:0|0:0,0:0:0:0:
21,201,163810,6,0,B|31:227|31:227|35:240|35:240|32:244|32:244|35:250|35:250|48:266|48:266|50:291|50:291|69:322,1,106.25,4|0,3:2|0:0,0:0:0:0:
68,384,164052,2,0,B|77:378|77:378|100:377|100:377|111:362|111:362|124:351|124:351|137:355|137:355|160:343,1,106.25,2|0,3:0|3:0,3:0:0:0:
209,281,164294,2,0,B|223:281|223:281|244:288|244:288|253:286|253:286|273:298,1,53.125,2|0,3:0|0:0,0:0:0:0:
369,314,164455,2,0,B|372:293|372:293|380:278|380:278|381:256|381:256|403:240|403:240|400:222|400:222|404:213,1,106.25,8|0,0:1|0:0,0:0:0:0:
480,178,164697,2,0,B|483:197|483:197|495:223|495:223|488:231|488:231|498:248|498:248|493:281|493:281|497:304,1,106.25,2|0,3:0|0:0,0:0:0:0:
485,354,164939,2,0,B|465:355|465:355|451:363|451:363|440:363|440:363|426:369|426:369|403:368,1,53.125,2|0,3:0|0:0,0:0:0:0:
332,384,165100,6,0,B|306:382|306:382|291:369|291:369|269:377|269:377|228:360|228:360|223:349,1,106.25,4|0,3:2|0:0,0:0:0:0:
152,384,165342,2,0,B|150:366|150:366|134:350|134:350|142:323|142:323|128:301|128:301|124:260,1,106.25,2|0,3:0|0:0,0:0:0:0:
172,219,165584,2,0,B|180:202|180:202|182:190|182:190|192:181|192:181|194:168,1,53.125,2|0,3:0|0:0,0:0:0:0:
157,78,165745,2,0,B|173:70|173:70|183:69|183:69|196:56|196:56|218:54|218:54|243:56|243:56|259:44,1,106.25,8|0,0:1|0:0,0:0:0:0:
323,4,165987,2,0,B|354:31|354:31|351:49|351:49|370:68|370:68|376:82|376:82|390:93,1,106.25,2|0,3:0|0:0,0:0:0:0:
387,165,166229,2,0,B|362:174|362:174|354:168|354:168|341:170|341:170|327:172,1,53.125,2|0,3:0|0:0,0:0:0:0:
223,171,166391,5,4,3:2:0:0:
172,219,166498,5,8,0:3:0:0:
175,289,166606,5,8,0:3:0:0:
210,349,166713,5,0,3:0:0:0:
278,367,166821,5,8,0:3:0:0:
345,349,166928,5,8,0:3:0:0:
403,308,167036,5,8,0:1:0:0:
403,308,167143,6,0,L|459:301,1,31.1666676177979,8|0,0:1|3:0,0:0:0:0:
352,220,167305,5,8,0:1:0:0:
352,220,167412,5,8,0:1:0:0:
295,130,167573,5,8,0:1:0:0:
295,130,167681,6,0,L|365:123,1,62.3333352355958,4|0,3:2|0:0,0:0:0:0:
455,115,167896,1,2,3:0:0:0:
338,31,168111,1,2,1:3:0:0:
243,217,168326,1,2,3:0:0:0:
197,4,168541,1,2,3:0:0:0:
132,159,168756,1,2,3:0:0:0:
294,129,168971,5,2,1:3:0:0:
102,54,169186,1,2,3:0:0:0:
149,255,169401,1,2,3:0:0:0:
204,96,169616,1,2,3:0:0:0:
35,135,169831,1,2,1:3:0:0:
155,284,170046,1,2,3:0:0:0:
294,129,170261,5,2,3:0:0:0:
336,126,170342,1,8,0:3:0:0:
378,123,170423,1,8,0:3:0:0:
420,120,170503,1,8,0:3:0:0:
462,117,170584,2,0,B|477:148|477:148|470:211,1,93.5000028533936,8|0,0:1|3:0,0:0:0:0:
457,286,170826,1,0,3:0:0:0:
457,286,170907,5,8,0:1:0:0:
294,129,171149,5,8,0:1:0:0:
277,152,171391,6,0,B|251:205|275:261|274:222|303:286|270:342,1,187.000005706787,4|0,3:1|3:0,0:0:0:0:
219,389,171794,1,0,3:0:0:0:
219,389,171874,1,2,3:2:0:0:
157,304,172036,2,0,P|177:292|199:286,2,46.7500014266968,0|0|8,3:0|3:0|0:1,0:0:0:0:
91,377,172358,1,0,3:0:0:0:
91,377,172439,1,0,3:0:0:0:
91,377,172520,1,8,0:1:0:0:
114,211,172681,1,2,0:0:0:0:
41,280,172842,6,0,P|18:222|26:165,1,85,4|0,3:2|0:0,0:0:0:0:
76,133,173084,2,0,P|99:75|91:18,1,85,4|0,3:2|0:0,0:0:0:0:
167,0,173326,2,0,P|191:4|219:4,1,42.5,4|0,3:2|0:0,0:0:0:0:
307,11,173487,2,0,P|314:51|302:99,1,85,4|0,3:2|0:0,0:0:0:0:
243,154,173729,2,0,P|235:194|247:242,1,85,4|0,3:2|0:0,0:0:0:0:
299,301,173971,2,0,P|324:310|354:307,1,42.5,4|0,3:2|0:0,0:0:0:0:
429,284,174132,6,0,P|446:243|432:199,1,85,4|0,3:2|0:0,0:0:0:0:
395,131,174374,2,0,P|385:90|402:52,1,85,4|0,3:2|0:0,0:0:0:0:
475,18,174616,2,0,P|504:15|520:18,1,42.5,4|0,3:2|0:0,0:0:0:0:
495,97,174778,2,0,L|498:146,3,42.5,2|8|8|2,3:1|0:3|0:3|3:1,0:0:0:0:
512,214,175100,2,0,L|509:263,3,42.5,8|8|2|0,0:3|0:3|3:1|0:0,0:0:0:0:
487,337,175423,5,4,3:1:0:0:
452,345,175504,1,8,0:3:0:0:
416,341,175584,1,8,0:3:0:0:
382,328,175665,1,4,3:1:0:0:
349,312,175746,1,4,0:3:0:0:
314,304,175826,1,4,0:3:0:0:
278,308,175907,1,2,3:0:0:0:
245,323,175987,1,8,0:3:0:0:
202,338,176068,5,8,0:3:0:0:
161,304,176148,1,0,3:0:0:0:
138,257,176229,1,0,3:0:0:0:
137,204,176309,1,0,3:0:0:0:
159,156,176390,1,0,3:0:0:0:
199,121,176471,1,0,3:0:0:0:
250,107,176551,1,2,3:2:0:0:
302,115,176632,1,2,3:2:0:0:
345,145,176713,5,8,0:1:0:0:
345,145,178003,5,0,3:0:0:0:
272,2,178165,1,0,3:0:0:0:
247,160,178326,1,8,0:1:0:0:
360,46,178487,2,0,L|438:32,2,42.5,2|2|0,0:3|0:3|3:0,0:0:0:0:
202,73,178810,1,2,3:0:0:0:
309,227,178971,1,12,0:2:0:0:
285,85,179132,1,8,0:1:0:0:
167,153,179294,5,0,3:0:0:0:
167,153,179374,1,0,3:0:0:0:
167,153,179455,1,0,3:0:0:0:
373,164,179616,1,8,0:1:0:0:
392,197,179697,1,8,0:1:0:0:
397,234,179778,1,8,0:1:0:0:
390,271,179858,1,8,0:1:0:0:
365,300,179939,1,0,3:0:0:0:
266,227,180100,2,0,L|309:227,2,42.5,2|0|2,0:3|3:0|3:2,0:0:0:0:
190,292,180423,1,8,0:1:0:0:
112,232,180584,6,0,P|76:216|29:215,1,85,4|8,3:1|0:1,0:0:0:0:
0,240,180826,1,0,0:0:0:0:
0,240,180907,1,8,0:1:0:0:
50,329,181068,1,2,3:2:0:0:
185,195,181229,2,0,P|144:205|110:231,1,85,2|2,3:2|3:2,0:0:0:0:
295,174,181552,2,0,P|277:135|246:107,1,85,8|0,0:1|3:0,0:0:0:0:
388,221,181874,6,0,B|422:197|422:197|445:161,1,85,8|0,0:1|0:0,0:0:0:0:
451,90,182116,2,0,B|435:50|435:50|404:21,1,85,8|0,0:1|0:0,0:0:0:0:
336,0,182358,1,8,0:1:0:0:
259,63,182520,1,8,0:1:0:0:
218,75,182600,1,8,0:3:0:0:
177,68,182681,1,8,0:3:0:0:
143,43,182761,1,8,0:3:0:0:
124,5,182842,2,0,L|76:10,3,42.5,8|8|8|8,0:1|0:1|0:1|0:1,0:0:0:0:
6,20,183165,5,2,3:2:0:0:
48,154,183702,1,0,3:2:0:0:
48,154,183756,1,0,0:0:0:0:
48,154,183810,2,0,L|102:159,3,42.5,8|0|4|0,0:0|0:0|0:3|0:0,0:0:0:0:
153,212,184132,2,0,L|207:207,3,42.5,8|8|8|8,0:0|0:0|0:0|0:0,0:0:0:0:
287,162,184455,6,0,L|282:216,1,42.5,8|8,0:3|0:3,0:0:0:0:
378,197,184616,2,0,L|381:239,1,42.5,0|0,3:0|3:0,0:0:0:0:
264,286,184778,2,0,L|259:340,1,42.5,4|4,0:3|0:3,0:0:0:0:
396,320,184939,2,0,L|399:362,1,42.5,0|0,3:0|3:0,0:0:0:0:
499,295,185100,1,8,0:3:0:0:
496,256,185181,1,8,0:3:0:0:
493,217,185261,1,8,3:3:0:0:
490,178,185342,1,8,3:3:0:0:
487,139,185423,5,8,0:0:0:0:
290,70,185745,6,0,P|125:108|292:158,1,459.000011206055,4|0,3:1|0:0,0:0:0:0:
213,116,187036,6,0,B|160:187|204:254|206:232|231:294|200:368|200:368|120:323|40:368,1,420.749998715973,4|0,3:1|0:0,0:0:0:0:
0,295,188326,6,0,B|-28:241|-28:241|16:70,1,223.125008511544,4|0,3:1|0:0,0:0:0:0:
39,7,188971,2,0,B|127:2|127:2|184:43|184:43|271:36,1,223.125008511544,4|0,3:1|0:0,0:0:0:0:
331,28,189616,6,0,P|354:85|336:140,1,95.6250036478044,4|0,3:1|0:0,0:0:0:0:
297,180,189939,1,0,3:0:0:0:
194,110,190100,1,0,3:0:0:0:
165,130,190181,1,0,3:0:0:0:
136,150,190261,1,8,0:0:0:0:
101,148,190342,1,8,0:3:0:0:
66,146,190423,1,8,0:3:0:0:
31,144,190503,1,4,0:3:0:0:
0,142,190584,5,4,1:3:0:0:
89,375,190907,5,8,3:2:0:0:
152,257,191068,1,8,3:2:0:0:
201,359,191229,1,8,3:2:0:0:
164,165,191391,1,8,3:2:0:0:
68,287,191552,1,8,3:1:0:0:
86,119,191713,1,8,3:1:0:0:
232,224,191874,1,8,3:1:0:0:
170,37,192036,1,8,3:1:0:0:
62,202,192197,5,4,3:2:0:0:
268,97,192358,1,8,3:2:0:0:
153,260,192520,1,8,3:2:0:0:
77,34,192681,1,8,3:2:0:0:
314,180,192842,1,8,3:1:0:0:
25,112,193003,1,8,3:1:0:0:
252,6,193165,1,8,3:1:0:0:
153,260,193326,1,8,3:1:0:0:
256,192,193971,12,2,195261,0:0:0:0:
413,335,196068,6,0,B|423:286|423:286|404:223,1,101.999996887207,4|0,3:2|0:0,0:0:0:0:
383,198,196310,1,0,3:0:0:0:
383,198,196391,1,8,0:0:0:0:
275,126,196552,2,0,L|218:128,2,50.9999984436036,0|0|0,3:0|3:0|3:0,0:0:0:0:
383,91,196874,1,0,3:0:0:0:
285,215,197036,1,8,0:0:0:0:
206,43,197197,1,0,3:0:0:0:
206,43,197278,1,0,3:0:0:0:
206,43,197358,6,0,L|66:38,1,101.999996887207,4|0,0:0|0:0,0:0:0:0:
53,61,197600,1,0,3:0:0:0:
53,61,197681,1,8,0:0:0:0:
116,170,197842,2,0,L|119:113,2,50.9999984436036,0|0|2,3:0|3:0|3:0,0:0:0:0:
110,355,198165,1,0,3:0:0:0:
194,218,198326,1,8,0:0:0:0:
31,306,198487,1,0,3:0:0:0:
191,311,198649,6,0,P|265:316|333:343,1,101.999996887207,4|0,0:0|0:0,0:0:0:0:
335,357,198891,1,0,3:0:0:0:
335,357,198971,1,8,0:0:0:0:
439,338,199132,2,0,L|437:391,2,50.9999984436036,0|0|0,3:0|3:0|3:0,0:0:0:0:
446,177,199455,1,0,3:0:0:0:
512,290,199616,1,8,0:0:0:0:
356,232,199778,1,0,3:0:0:0:
356,232,199858,1,0,3:0:0:0:
356,232,199939,6,0,L|248:226,1,101.999996887207,4|0,0:0|0:0,0:0:0:0:
195,222,200181,1,0,3:0:0:0:
195,222,200261,2,0,L|190:150,3,50.9999984436036,8|0|2|8,0:0|3:0|3:2|3:0,0:0:0:0:
171,119,200584,1,6,3:0:0:0:
373,62,200745,1,8,0:0:0:0:
389,78,201068,6,0,B|404:135|404:135|384:194,1,101.999996887207,4|0,0:0|0:0,0:0:0:0:
327,248,201391,1,0,3:0:0:0:
327,248,201471,1,0,3:0:0:0:
327,248,201552,2,0,L|212:249,1,101.999996887207,8|0,0:0|0:0,0:0:0:0:
96,285,201874,1,2,3:0:0:0:
76,248,201955,1,0,0:0:0:0:
98,214,202036,1,0,3:0:0:0:
78,177,202116,1,0,0:0:0:0:
100,143,202197,1,8,0:0:0:0:
80,106,202278,1,0,0:0:0:0:
102,72,202358,6,0,P|153:57|218:72,1,101.999996887207,2|0,3:0|0:0,0:0:0:0:
353,136,202681,1,0,3:0:0:0:
246,165,202842,1,8,0:0:0:0:
391,44,203003,1,0,3:0:0:0:
391,44,203084,1,0,0:0:0:0:
391,44,203165,1,8,0:0:0:0:
421,218,203326,1,8,0:0:0:0:
431,238,203649,6,0,B|358:244|358:244|307:278|307:278|237:284,1,203.999993774414,4|0,0:1|3:0,0:0:0:0:
73,296,204132,1,2,0:3:0:0:
149,230,204294,1,0,3:0:0:0:
149,230,204374,1,0,3:0:0:0:
149,230,204455,2,0,B|156:170|156:170|138:122,1,101.999996887207,2|0,0:3|3:0,0:0:0:0:
73,51,204778,1,2,1:3:0:0:
181,40,204939,1,0,3:0:0:0:
181,40,205020,1,0,3:0:0:0:
181,40,205100,6,0,B|233:42|233:42|280:28,1,101.999996887207,0|0,3:0|3:0,0:0:0:0:
375,2,205423,1,8,0:0:0:0:
367,132,205584,2,0,L|347:75,2,50.9999984436036,0|0|0,3:0|3:0|3:0,0:0:0:0:
428,294,205907,1,8,0:0:0:0:
469,126,206068,1,0,3:0:0:0:
358,342,206229,6,0,P|449:374|512:302,1,203.999993774414,4|0,0:0|3:0,0:0:0:0:
480,216,206713,1,2,0:3:0:0:
387,208,206874,1,0,3:0:0:0:
387,208,206955,1,0,3:0:0:0:
387,208,207036,2,0,L|279:220,1,101.999996887207,2|0,0:3|3:0,0:0:0:0:
172,308,207358,1,2,1:3:0:0:
195,209,207520,1,0,3:0:0:0:
195,209,207601,1,0,3:0:0:0:
195,209,207682,6,0,L|183:101,1,101.999996887207,0|0,3:0|3:0,0:0:0:0:
172,0,208003,1,8,0:0:0:0:
68,64,208165,2,0,L|3:68,2,50.9999984436036,0|0|8,3:0|3:0|3:2,0:0:0:0:
286,54,208487,1,8,3:2:0:0:
308,69,208810,6,0,B|333:126|303:189|296:161|267:224|290:266,1,203.999993774414,4|0,0:0|3:0,0:0:0:0:
369,230,209294,1,2,0:3:0:0:
202,185,209455,1,0,3:0:0:0:
202,185,209536,1,0,3:0:0:0:
202,185,209616,2,0,P|193:237|212:306,1,101.999996887207,2|0,0:3|3:0,0:0:0:0:
300,353,209939,1,2,1:3:0:0:
376,237,210100,1,0,3:0:0:0:
376,237,210181,1,0,3:0:0:0:
376,237,210261,6,0,P|324:228|255:247,1,101.999996887207,0|0,3:0|3:0,0:0:0:0:
194,317,210584,1,8,0:0:0:0:
127,235,210745,2,0,P|125:196|137:158,2,50.9999984436036,0|0|0,3:0|3:0|3:0,0:0:0:0:
204,388,211068,1,8,0:0:0:0:
217,186,211229,1,0,3:0:0:0:
96,327,211391,6,0,P|32:261|98:142,1,203.999993774414,4|0,0:0|3:0,0:0:0:0:
150,106,211874,1,2,0:3:0:0:
217,186,212036,1,0,3:0:0:0:
217,186,212116,1,0,3:0:0:0:
217,186,212197,2,0,L|336:193,1,101.999996887207,2|0,0:3|3:0,0:0:0:0:
446,16,212520,1,2,1:3:0:0:
379,96,212682,1,0,3:0:0:0:
379,96,212762,1,0,3:0:0:0:
379,96,212843,6,0,L|260:103,1,101.999996887207,0|0,3:0|3:0,0:0:0:0:
133,0,213165,1,8,0:0:0:0:
136,155,213326,1,0,3:0:0:0:
136,155,213407,1,0,3:0:0:0:
136,155,213487,1,8,3:2:0:0:
242,0,213649,1,2,0:3:0:0:
253,17,213971,5,4,0:0:0:0:
257,195,215261,5,2,0:1:0:0:
257,195,215342,1,0,0:0:0:0:
257,195,215423,1,8,0:0:0:0:
328,261,215584,1,0,3:0:0:0:
222,109,215745,1,0,3:0:0:0:
158,252,215907,1,8,0:0:0:0:
352,123,216068,5,4,0:0:0:0:
