osu file format v14

[General]
AudioFilename: audio.mp3
AudioLeadIn: 0
PreviewTime: 104397
Countdown: 0
SampleSet: Normal
StackLeniency: 0.7
Mode: 1
LetterboxInBreaks: 0
WidescreenStoryboard: 0

[Editor]
Bookmarks: 21981,48648,69981,91314,104647,133981,155314,176647,208647,229981,243314,269981,291314,307314,333981,355314,365981,376647,387314,397981
DistanceSpacing: 0.8
BeatDivisor: 4
GridSize: 32
TimelineZoom: 2

[Metadata]
Title:Shiny Happy Days (nenpulse bootleg remix)
TitleUnicode:Shiny Happy Days (nenpulse bootleg remix)
Artist:Yagi Yuki, Saeki Iori, Izawa Shiori, Itou Miku, Noguchi Yuri, Mizutani Marin
ArtistUnicode:八木侑紀,佐伯伊織,井澤詩織,伊藤美来,のぐちゆり,水谷麻鈴
Creator:[R]
Version:Neko Days
Source:ネコぱら
Tags:ron nekopara chocola vanilla azuki cinnamon coconut maple ショコラ バニラ アズキ メイプル シナモン ココナツ itō neko works anime op opening japanese electronic jpop j-pop catgirl cat girl
BeatmapID:2466833
BeatmapSetID:1183251

[Difficulty]
HPDrainRate:4
CircleSize:5
OverallDifficulty:7
ApproachRate:5
SliderMultiplier:1.4
SliderTickRate:1

[Events]
//Background and Video events
0,0,"1.jpg",0,40
//Break Periods
2,180647,184781
//Storyboard Layer 0 (Background)
//Storyboard Layer 1 (Fail)
//Storyboard Layer 2 (Pass)
//Storyboard Layer 3 (Foreground)
//Storyboard Layer 4 (Overlay)
//Storyboard Sound Samples

[TimingPoints]
648,333.333333333333,4,1,0,70,1,0
22064,-100,4,1,0,60,0,0
23981,-100,4,1,0,65,0,0
24564,-100,4,1,0,70,0,0
48647,-100,4,1,0,80,0,0
99481,-100,4,1,0,70,0,0
101897,-100,4,1,0,80,0,0
104647,-100,4,1,0,90,0,1
115314,-100,4,1,0,90,0,0
115647,-100,4,1,0,90,0,1
131314,-100,4,1,0,80,0,0
176731,-100,4,1,0,70,0,0
177314,-100,4,1,0,60,0,0
177981,-100,4,1,0,50,0,0
178647,-100,4,1,0,40,0,0
179314,-100,4,1,0,30,0,0
185814,-100,4,1,0,70,0,0
187147,-100,4,1,0,80,0,0
238147,-100,4,1,0,70,0,0
240564,-100,4,1,0,80,0,0
243314,-100,4,1,0,90,0,1
253981,-100,4,1,0,90,0,0
254314,-100,4,1,0,90,0,1
269981,-100,4,1,0,80,0,0
291314,-100,4,1,0,70,0,0
296647,-100,4,1,0,80,0,0
300814,-100,4,1,0,70,0,0
303231,-100,4,1,0,80,0,0
309981,-100,4,1,0,90,0,1
317981,-100,4,1,0,90,0,0
318314,-100,4,1,0,90,0,1
333981,-100,4,1,0,80,0,0
365981,-100,4,1,0,75,0,0
376647,-100,4,1,0,70,0,0
387314,-100,4,1,0,65,0,0
397981,-100,4,1,0,60,0,0
398647,-100,4,1,0,50,0,0
399314,-100,4,1,0,40,0,0
399981,-100,4,1,0,30,0,0

[HitObjects]
256,192,648,5,12,0:0:0:0:
256,192,981,1,0,0:0:0:0:
256,192,1314,1,0,0:0:0:0:
256,192,1647,1,0,0:0:0:0:
256,192,1981,1,0,0:0:0:0:
256,192,2314,1,0,0:0:0:0:
256,192,2647,1,0,0:0:0:0:
256,192,2981,1,0,0:0:0:0:
256,192,3147,1,8,0:0:0:0:
256,192,3314,1,0,0:0:0:0:
256,192,3647,1,0,0:0:0:0:
256,192,3981,1,0,0:0:0:0:
256,192,4314,1,0,0:0:0:0:
256,192,4647,1,0,0:0:0:0:
256,192,4981,1,0,0:0:0:0:
256,192,5314,1,0,0:0:0:0:
256,192,5481,1,8,0:0:0:0:
256,192,5647,1,0,0:0:0:0:
256,192,5814,1,8,0:0:0:0:
256,192,5981,1,0,0:0:0:0:
256,192,6314,1,0,0:0:0:0:
256,192,6647,1,0,0:0:0:0:
256,192,6981,1,0,0:0:0:0:
256,192,7314,1,0,0:0:0:0:
256,192,7647,1,0,0:0:0:0:
256,192,7981,1,0,0:0:0:0:
256,192,8314,1,0,0:0:0:0:
256,192,8481,1,8,0:0:0:0:
256,192,8647,1,0,0:0:0:0:
256,192,8981,1,0,0:0:0:0:
256,192,9314,1,0,0:0:0:0:
256,192,9647,1,0,0:0:0:0:
256,192,9981,1,0,0:0:0:0:
256,192,10147,1,8,0:0:0:0:
256,192,10481,1,8,0:0:0:0:
256,192,10814,1,8,0:0:0:0:
256,192,11147,1,0,0:0:0:0:
256,192,11314,1,12,0:0:0:0:
256,192,11647,1,8,0:0:0:0:
256,192,11981,1,0,0:0:0:0:
256,192,12314,1,8,0:0:0:0:
256,192,12647,1,0,0:0:0:0:
256,192,12981,1,8,0:0:0:0:
256,192,13314,1,0,0:0:0:0:
256,192,13647,1,8,0:0:0:0:
256,192,13814,1,8,0:0:0:0:
256,192,13981,1,0,0:0:0:0:
256,192,14314,1,8,0:0:0:0:
256,192,14647,1,0,0:0:0:0:
256,192,14981,1,8,0:0:0:0:
256,192,15314,1,0,0:0:0:0:
256,192,15647,1,8,0:0:0:0:
256,192,15981,1,0,0:0:0:0:
256,192,16147,1,0,0:0:0:0:
256,192,16314,1,8,0:0:0:0:
256,192,16481,1,8,0:0:0:0:
256,192,16647,1,0,0:0:0:0:
256,192,16981,1,8,0:0:0:0:
256,192,17314,1,0,0:0:0:0:
256,192,17647,1,8,0:0:0:0:
256,192,17981,1,0,0:0:0:0:
256,192,18314,1,8,0:0:0:0:
256,192,18647,1,0,0:0:0:0:
256,192,18981,1,8,0:0:0:0:
256,192,19147,1,8,0:0:0:0:
256,192,19314,1,0,0:0:0:0:
256,192,19647,1,8,0:0:0:0:
256,192,19981,1,0,0:0:0:0:
256,192,20314,1,8,0:0:0:0:
256,192,20647,1,4,0:0:0:0:
256,192,20814,8,0,21314,0:0:0:0:
256,192,21481,5,0,0:0:0:0:
256,192,21564,1,0,0:0:0:0:
256,192,21647,1,8,0:0:0:0:
256,192,21981,1,4,0:0:0:0:
256,192,22314,1,8,0:0:0:0:
256,192,22481,1,0,0:0:0:0:
256,192,22647,1,8,0:0:0:0:
256,192,22731,1,8,0:0:0:0:
256,192,22814,1,0,0:0:0:0:
256,192,22981,1,8,0:0:0:0:
256,192,23147,1,8,0:0:0:0:
256,192,23314,1,0,0:0:0:0:
256,192,23397,1,0,0:0:0:0:
256,192,23481,1,0,0:0:0:0:
256,192,23647,1,8,0:0:0:0:
256,192,23814,1,0,0:0:0:0:
256,192,24147,1,0,0:0:0:0:
256,192,24314,1,8,0:0:0:0:
256,192,24481,1,0,0:0:0:0:
256,192,24647,1,0,0:0:0:0:
256,192,24814,1,0,0:0:0:0:
256,192,24897,1,0,0:0:0:0:
256,192,24981,1,8,0:0:0:0:
256,192,25147,1,0,0:0:0:0:
256,192,25314,1,8,0:0:0:0:
256,192,25397,1,0,0:0:0:0:
256,192,25481,1,8,0:0:0:0:
256,192,25647,1,8,0:0:0:0:
256,192,25814,1,0,0:0:0:0:
256,192,25981,1,0,0:0:0:0:
256,192,26147,1,8,0:0:0:0:
256,192,26231,1,8,0:0:0:0:
256,192,26314,1,8,0:0:0:0:
256,192,26481,1,0,0:0:0:0:
256,192,26814,1,0,0:0:0:0:
256,192,26981,1,8,0:0:0:0:
256,192,27147,1,8,0:0:0:0:
256,192,27314,1,0,0:0:0:0:
256,192,27481,1,8,0:0:0:0:
256,192,27564,1,0,0:0:0:0:
256,192,27647,1,8,0:0:0:0:
256,192,27814,1,0,0:0:0:0:
256,192,27981,1,8,0:0:0:0:
256,192,28064,1,8,0:0:0:0:
256,192,28147,1,0,0:0:0:0:
256,192,28314,1,8,0:0:0:0:
256,192,28481,1,0,0:0:0:0:
256,192,28647,1,0,0:0:0:0:
256,192,28731,1,0,0:0:0:0:
256,192,28814,1,8,0:0:0:0:
256,192,28981,1,8,0:0:0:0:
256,192,29147,1,0,0:0:0:0:
256,192,29481,1,0,0:0:0:0:
256,192,29564,1,0,0:0:0:0:
256,192,29647,1,8,0:0:0:0:
256,192,29814,1,8,0:0:0:0:
256,192,29981,1,0,0:0:0:0:
256,192,30147,1,0,0:0:0:0:
256,192,30231,1,0,0:0:0:0:
256,192,30314,1,8,0:0:0:0:
256,192,30481,1,0,0:0:0:0:
256,192,30647,1,8,0:0:0:0:
256,192,30814,1,8,0:0:0:0:
256,192,30897,1,0,0:0:0:0:
256,192,30981,1,8,0:0:0:0:
256,192,31147,1,0,0:0:0:0:
256,192,32397,1,8,0:0:0:0:
256,192,32481,1,8,0:0:0:0:
256,192,32564,1,8,0:0:0:0:
256,192,32647,1,4,0:0:0:0:
256,192,32981,1,8,0:0:0:0:
256,192,33147,1,0,0:0:0:0:
256,192,33314,1,8,0:0:0:0:
256,192,33397,1,8,0:0:0:0:
256,192,33481,1,0,0:0:0:0:
256,192,33647,1,8,0:0:0:0:
256,192,33814,1,0,0:0:0:0:
256,192,33981,1,0,0:0:0:0:
256,192,34064,1,0,0:0:0:0:
256,192,34147,1,0,0:0:0:0:
256,192,34314,1,8,0:0:0:0:
256,192,34481,1,0,0:0:0:0:
256,192,34814,1,0,0:0:0:0:
256,192,34981,1,8,0:0:0:0:
256,192,35147,1,0,0:0:0:0:
256,192,35314,1,0,0:0:0:0:
256,192,35481,1,0,0:0:0:0:
256,192,35564,1,0,0:0:0:0:
256,192,35647,1,8,0:0:0:0:
256,192,35814,1,0,0:0:0:0:
256,192,35981,1,8,0:0:0:0:
256,192,36064,1,0,0:0:0:0:
256,192,36147,1,8,0:0:0:0:
256,192,36314,1,8,0:0:0:0:
256,192,36481,1,0,0:0:0:0:
256,192,36647,1,0,0:0:0:0:
256,192,36814,1,8,0:0:0:0:
256,192,36897,1,8,0:0:0:0:
256,192,36981,1,8,0:0:0:0:
256,192,37147,1,0,0:0:0:0:
256,192,37481,1,0,0:0:0:0:
256,192,37647,1,8,0:0:0:0:
256,192,37814,1,8,0:0:0:0:
256,192,37981,1,0,0:0:0:0:
256,192,38147,1,8,0:0:0:0:
256,192,38231,1,0,0:0:0:0:
256,192,38314,1,8,0:0:0:0:
256,192,38481,1,0,0:0:0:0:
256,192,38647,1,8,0:0:0:0:
256,192,38731,1,8,0:0:0:0:
256,192,38814,1,0,0:0:0:0:
256,192,38981,1,8,0:0:0:0:
256,192,39147,1,0,0:0:0:0:
256,192,39314,1,0,0:0:0:0:
256,192,39397,1,0,0:0:0:0:
256,192,39481,1,8,0:0:0:0:
256,192,39647,1,8,0:0:0:0:
256,192,39814,1,0,0:0:0:0:
256,192,39981,1,8,0:0:0:0:
256,192,40064,1,8,0:0:0:0:
256,192,40147,1,0,0:0:0:0:
256,192,40231,1,0,0:0:0:0:
256,192,40314,1,8,0:0:0:0:
256,192,40481,1,8,0:0:0:0:
256,192,40647,1,0,0:0:0:0:
256,192,40731,1,0,0:0:0:0:
256,192,40814,1,8,0:0:0:0:
256,192,40897,1,0,0:0:0:0:
256,192,40981,1,8,0:0:0:0:
256,192,41064,1,0,0:0:0:0:
256,192,41147,1,0,0:0:0:0:
256,192,41231,1,0,0:0:0:0:
256,192,41314,1,8,0:0:0:0:
256,192,41397,1,0,0:0:0:0:
256,192,41481,1,8,0:0:0:0:
256,192,41564,1,0,0:0:0:0:
256,192,41647,1,8,0:0:0:0:
256,192,41703,1,8,0:0:0:0:
256,192,41759,1,8,0:0:0:0:
256,192,41814,1,8,0:0:0:0:
256,192,41870,1,8,0:0:0:0:
256,192,41925,1,8,0:0:0:0:
256,192,41981,1,0,0:0:0:0:
256,192,42147,8,0,43147,0:0:0:0:
256,192,43314,5,12,0:0:0:0:
256,192,46731,2,0,L|320:192,5,35
256,192,47314,1,8,0:0:0:0:
256,192,47397,1,8,0:0:0:0:
256,192,47481,1,8,0:0:0:0:
256,192,47564,1,8,0:0:0:0:
256,192,47647,1,0,0:0:0:0:
256,192,47731,1,0,0:0:0:0:
256,192,47814,1,0,0:0:0:0:
256,192,47897,1,0,0:0:0:0:
256,192,47981,1,8,0:0:0:0:
256,192,48064,1,8,0:0:0:0:
256,192,48147,1,0,0:0:0:0:
256,192,48203,1,0,0:0:0:0:
256,192,48259,1,0,0:0:0:0:
256,192,48314,1,8,0:0:0:0:
256,192,48397,1,8,0:0:0:0:
256,192,48481,1,8,0:0:0:0:
256,192,48647,1,4,0:0:0:0:
256,192,48814,1,0,0:0:0:0:
256,192,48897,1,0,0:0:0:0:
256,192,48981,1,8,0:0:0:0:
256,192,49147,1,8,0:0:0:0:
256,192,49231,1,0,0:0:0:0:
256,192,49314,1,8,0:0:0:0:
256,192,49397,1,0,0:0:0:0:
256,192,49481,1,8,0:0:0:0:
256,192,49647,1,0,0:0:0:0:
256,192,49814,1,8,0:0:0:0:
256,192,49897,1,8,0:0:0:0:
256,192,49981,1,0,0:0:0:0:
256,192,50036,1,0,0:0:0:0:
256,192,50092,1,0,0:0:0:0:
256,192,50147,1,8,0:0:0:0:
256,192,50314,1,0,0:0:0:0:
256,192,50397,1,8,0:0:0:0:
256,192,50481,1,0,0:0:0:0:
256,192,50647,1,12,0:0:0:0:
256,192,50814,1,12,0:0:0:0:
256,192,50981,1,12,0:0:0:0:
256,192,51147,1,0,0:0:0:0:
256,192,51314,1,0,0:0:0:0:
256,192,51397,1,8,0:0:0:0:
256,192,51481,1,0,0:0:0:0:
256,192,51564,1,0,0:0:0:0:
256,192,51647,1,8,0:0:0:0:
256,192,51814,1,0,0:0:0:0:
256,192,51981,1,8,0:0:0:0:
256,192,52036,1,0,0:0:0:0:
256,192,52092,1,0,0:0:0:0:
256,192,52147,1,8,0:0:0:0:
256,192,52231,1,8,0:0:0:0:
256,192,52314,1,0,0:0:0:0:
256,192,52481,1,8,0:0:0:0:
256,192,52647,1,0,0:0:0:0:
256,192,52703,1,0,0:0:0:0:
256,192,52759,1,0,0:0:0:0:
256,192,52814,1,8,0:0:0:0:
256,192,52897,1,8,0:0:0:0:
256,192,52981,1,0,0:0:0:0:
256,192,53147,1,0,0:0:0:0:
256,192,53231,1,0,0:0:0:0:
256,192,53314,1,8,0:0:0:0:
256,192,53481,1,0,0:0:0:0:
256,192,53647,1,8,0:0:0:0:
256,192,53814,1,8,0:0:0:0:
256,192,53897,1,8,0:0:0:0:
256,192,53981,1,0,0:0:0:0:
256,192,54064,1,0,0:0:0:0:
256,192,54147,1,0,0:0:0:0:
256,192,54231,1,0,0:0:0:0:
256,192,54314,1,8,0:0:0:0:
256,192,54481,1,8,0:0:0:0:
256,192,54564,1,0,0:0:0:0:
256,192,54647,1,8,0:0:0:0:
256,192,54731,1,0,0:0:0:0:
256,192,54814,1,8,0:0:0:0:
256,192,54981,1,0,0:0:0:0:
256,192,55147,1,8,0:0:0:0:
256,192,55231,1,8,0:0:0:0:
256,192,55314,1,0,0:0:0:0:
256,192,55370,1,0,0:0:0:0:
256,192,55425,1,0,0:0:0:0:
256,192,55481,1,8,0:0:0:0:
256,192,55647,1,0,0:0:0:0:
256,192,55731,1,8,0:0:0:0:
256,192,55814,1,0,0:0:0:0:
256,192,55981,1,12,0:0:0:0:
256,192,56147,1,12,0:0:0:0:
256,192,56314,1,12,0:0:0:0:
256,192,56481,1,0,0:0:0:0:
256,192,56647,1,0,0:0:0:0:
256,192,56731,1,8,0:0:0:0:
256,192,56814,1,0,0:0:0:0:
256,192,56897,1,0,0:0:0:0:
256,192,56981,1,8,0:0:0:0:
256,192,57147,1,0,0:0:0:0:
256,192,57314,1,0,0:0:0:0:
256,192,57397,1,0,0:0:0:0:
256,192,57481,1,0,0:0:0:0:
256,192,57564,1,0,0:0:0:0:
256,192,57647,1,8,0:0:0:0:
256,192,57731,1,0,0:0:0:0:
256,192,57814,1,8,0:0:0:0:
256,192,57981,1,0,0:0:0:0:
256,192,58064,1,0,0:0:0:0:
256,192,58147,1,8,0:0:0:0:
256,192,58314,1,0,0:0:0:0:
256,192,58481,1,8,0:0:0:0:
256,192,58564,1,8,0:0:0:0:
256,192,58647,1,0,0:0:0:0:
256,192,58814,1,0,0:0:0:0:
256,192,58981,1,8,0:0:0:0:
256,192,59064,1,0,0:0:0:0:
256,192,59147,1,8,0:0:0:0:
256,192,59231,1,8,0:0:0:0:
256,192,59314,1,0,0:0:0:0:
256,192,59397,1,0,0:0:0:0:
256,192,59481,1,0,0:0:0:0:
256,192,59564,1,0,0:0:0:0:
256,192,59647,1,8,0:0:0:0:
256,192,59814,1,8,0:0:0:0:
256,192,59897,1,0,0:0:0:0:
256,192,59981,1,8,0:0:0:0:
256,192,60064,1,0,0:0:0:0:
256,192,60147,1,8,0:0:0:0:
256,192,60231,1,8,0:0:0:0:
256,192,60314,1,0,0:0:0:0:
256,192,60481,1,8,0:0:0:0:
256,192,60564,1,8,0:0:0:0:
256,192,60647,1,0,0:0:0:0:
256,192,60703,1,0,0:0:0:0:
256,192,60759,1,0,0:0:0:0:
256,192,60814,1,8,0:0:0:0:
256,192,60897,1,8,0:0:0:0:
256,192,60981,1,0,0:0:0:0:
256,192,61147,1,0,0:0:0:0:
256,192,61314,1,12,0:0:0:0:
256,192,61481,1,12,0:0:0:0:
256,192,61647,1,12,0:0:0:0:
256,192,61814,1,8,0:0:0:0:
256,192,61897,1,8,0:0:0:0:
256,192,61981,1,0,0:0:0:0:
256,192,62064,1,8,0:0:0:0:
256,192,62147,1,0,0:0:0:0:
256,192,62231,1,0,0:0:0:0:
256,192,62314,1,8,0:0:0:0:
256,192,62481,1,0,0:0:0:0:
256,192,62647,1,8,0:0:0:0:
256,192,62703,1,0,0:0:0:0:
256,192,62759,1,0,0:0:0:0:
256,192,62814,1,8,0:0:0:0:
256,192,62897,1,8,0:0:0:0:
256,192,62981,1,0,0:0:0:0:
256,192,63147,1,8,0:0:0:0:
256,192,63314,1,0,0:0:0:0:
256,192,63370,1,0,0:0:0:0:
256,192,63425,1,0,0:0:0:0:
256,192,63481,1,8,0:0:0:0:
256,192,63564,1,0,0:0:0:0:
256,192,63647,1,8,0:0:0:0:
256,192,63731,1,8,0:0:0:0:
256,192,63814,1,0,0:0:0:0:
256,192,63897,1,0,0:0:0:0:
256,192,63981,1,8,0:0:0:0:
256,192,64147,1,0,0:0:0:0:
256,192,64314,1,8,0:0:0:0:
256,192,64397,1,0,0:0:0:0:
256,192,64481,1,8,0:0:0:0:
256,192,64564,1,8,0:0:0:0:
256,192,64647,1,0,0:0:0:0:
256,192,64731,1,0,0:0:0:0:
256,192,64814,1,0,0:0:0:0:
256,192,64897,1,0,0:0:0:0:
256,192,64981,1,8,0:0:0:0:
256,192,65147,1,8,0:0:0:0:
256,192,65231,1,0,0:0:0:0:
256,192,65314,1,8,0:0:0:0:
256,192,65397,1,0,0:0:0:0:
256,192,65481,1,8,0:0:0:0:
256,192,65564,1,8,0:0:0:0:
256,192,65647,1,0,0:0:0:0:
256,192,65814,1,8,0:0:0:0:
256,192,65897,1,8,0:0:0:0:
256,192,65981,1,0,0:0:0:0:
256,192,66036,1,0,0:0:0:0:
256,192,66092,1,0,0:0:0:0:
256,192,66147,1,8,0:0:0:0:
256,192,66231,1,8,0:0:0:0:
256,192,66314,1,0,0:0:0:0:
256,192,66481,1,0,0:0:0:0:
256,192,66647,1,12,0:0:0:0:
256,192,66814,1,12,0:0:0:0:
256,192,66981,1,12,0:0:0:0:
256,192,67147,1,8,0:0:0:0:
256,192,67231,1,8,0:0:0:0:
256,192,67314,1,0,0:0:0:0:
256,192,67397,1,8,0:0:0:0:
256,192,67481,1,0,0:0:0:0:
256,192,67564,1,0,0:0:0:0:
256,192,67647,1,8,0:0:0:0:
256,192,67731,1,8,0:0:0:0:
256,192,67814,1,8,0:0:0:0:
256,192,67897,1,8,0:0:0:0:
256,192,67981,1,0,0:0:0:0:
256,192,68064,1,8,0:0:0:0:
256,192,68147,1,0,0:0:0:0:
256,192,68231,1,0,0:0:0:0:
256,192,68314,1,8,0:0:0:0:
256,192,68370,1,8,0:0:0:0:
256,192,68425,1,8,0:0:0:0:
256,192,68481,1,8,0:0:0:0:
256,192,68536,1,8,0:0:0:0:
256,192,68592,1,8,0:0:0:0:
256,192,68647,1,0,0:0:0:0:
256,192,69147,1,12,0:0:0:0:
256,192,69481,1,0,0:0:0:0:
256,192,69647,1,12,0:0:0:0:
256,192,69981,1,4,0:0:0:0:
256,192,70147,1,8,0:0:0:0:
256,192,70231,1,8,0:0:0:0:
256,192,70314,1,0,0:0:0:0:
256,192,70481,1,8,0:0:0:0:
256,192,70647,1,0,0:0:0:0:
256,192,70814,1,8,0:0:0:0:
256,192,70897,1,0,0:0:0:0:
256,192,70981,1,8,0:0:0:0:
256,192,71147,1,0,0:0:0:0:
256,192,71314,1,8,0:0:0:0:
256,192,71481,1,0,0:0:0:0:
256,192,71564,1,0,0:0:0:0:
256,192,71647,1,8,0:0:0:0:
256,192,71814,1,0,0:0:0:0:
256,192,71981,1,0,0:0:0:0:
256,192,72064,1,8,0:0:0:0:
256,192,72147,1,0,0:0:0:0:
256,192,72314,1,8,0:0:0:0:
256,192,72647,1,8,0:0:0:0:
256,192,72814,1,0,0:0:0:0:
256,192,72897,1,0,0:0:0:0:
256,192,72981,1,8,0:0:0:0:
256,192,73147,1,8,0:0:0:0:
256,192,73314,1,0,0:0:0:0:
256,192,73481,1,8,0:0:0:0:
256,192,73564,1,8,0:0:0:0:
256,192,73647,1,0,0:0:0:0:
256,192,73814,1,0,0:0:0:0:
256,192,73981,1,8,0:0:0:0:
256,192,74147,1,0,0:0:0:0:
256,192,74231,1,0,0:0:0:0:
256,192,74314,1,8,0:0:0:0:
256,192,74481,1,0,0:0:0:0:
256,192,74647,1,8,0:0:0:0:
256,192,74731,1,8,0:0:0:0:
256,192,74814,1,0,0:0:0:0:
256,192,74981,1,8,0:0:0:0:
256,192,75147,1,8,0:0:0:0:
256,192,75314,1,0,0:0:0:0:
256,192,75564,1,0,0:0:0:0:
256,192,75647,1,8,0:0:0:0:
256,192,75814,1,0,0:0:0:0:
256,192,75981,1,0,0:0:0:0:
256,192,76064,1,8,0:0:0:0:
256,192,76147,1,0,0:0:0:0:
256,192,76314,1,8,0:0:0:0:
256,192,76481,1,0,0:0:0:0:
256,192,76647,1,0,0:0:0:0:
256,192,76897,1,0,0:0:0:0:
256,192,76981,1,8,0:0:0:0:
256,192,77147,1,0,0:0:0:0:
256,192,77314,1,8,0:0:0:0:
256,192,77397,1,8,0:0:0:0:
256,192,77481,1,0,0:0:0:0:
256,192,77647,1,8,0:0:0:0:
256,192,77814,1,8,0:0:0:0:
256,192,77981,1,0,0:0:0:0:
256,192,78147,1,0,0:0:0:0:
256,192,78231,1,0,0:0:0:0:
256,192,78314,1,8,0:0:0:0:
256,192,78481,1,0,0:0:0:0:
256,192,78647,1,8,0:0:0:0:
256,192,78814,1,0,0:0:0:0:
256,192,78981,1,8,0:0:0:0:
256,192,79064,1,8,0:0:0:0:
256,192,79147,1,8,0:0:0:0:
256,192,79314,1,4,0:0:0:0:
256,192,79981,1,8,0:0:0:0:
256,192,80147,1,0,0:0:0:0:
256,192,80203,1,0,0:0:0:0:
256,192,80259,1,0,0:0:0:0:
256,192,80314,1,8,0:0:0:0:
256,192,80647,1,4,0:0:0:0:
256,192,80814,1,8,0:0:0:0:
256,192,80897,1,8,0:0:0:0:
256,192,80981,1,0,0:0:0:0:
256,192,81064,1,0,0:0:0:0:
256,192,81147,1,8,0:0:0:0:
256,192,81314,1,0,0:0:0:0:
256,192,81481,1,8,0:0:0:0:
256,192,81564,1,0,0:0:0:0:
256,192,81647,1,8,0:0:0:0:
256,192,81814,1,0,0:0:0:0:
256,192,81981,1,8,0:0:0:0:
256,192,82147,1,0,0:0:0:0:
256,192,82231,1,0,0:0:0:0:
256,192,82314,1,8,0:0:0:0:
256,192,82481,1,8,0:0:0:0:
256,192,82564,1,8,0:0:0:0:
256,192,82647,1,0,0:0:0:0:
256,192,82731,1,0,0:0:0:0:
256,192,82814,1,8,0:0:0:0:
256,192,82981,1,0,0:0:0:0:
256,192,83314,1,8,0:0:0:0:
256,192,83481,1,0,0:0:0:0:
256,192,83564,1,0,0:0:0:0:
256,192,83647,1,8,0:0:0:0:
256,192,83814,1,8,0:0:0:0:
256,192,83897,1,8,0:0:0:0:
256,192,83981,1,8,0:0:0:0:
256,192,84064,1,8,0:0:0:0:
256,192,84147,1,0,0:0:0:0:
256,192,84314,1,8,0:0:0:0:
256,192,84397,1,0,0:0:0:0:
256,192,84481,1,8,0:0:0:0:
256,192,84647,1,0,0:0:0:0:
256,192,84814,1,8,0:0:0:0:
256,192,84897,1,8,0:0:0:0:
256,192,84981,1,0,0:0:0:0:
256,192,85147,1,0,0:0:0:0:
256,192,85231,1,8,0:0:0:0:
256,192,85314,1,0,0:0:0:0:
256,192,85397,1,0,0:0:0:0:
256,192,85481,1,8,0:0:0:0:
256,192,85564,1,8,0:0:0:0:
256,192,85647,1,0,0:0:0:0:
256,192,85814,1,8,0:0:0:0:
256,192,85981,1,4,0:0:0:0:
256,192,86231,1,0,0:0:0:0:
256,192,86314,1,8,0:0:0:0:
256,192,86481,1,0,0:0:0:0:
256,192,86647,1,0,0:0:0:0:
256,192,86731,1,8,0:0:0:0:
256,192,86814,1,0,0:0:0:0:
256,192,86897,1,0,0:0:0:0:
256,192,86981,1,8,0:0:0:0:
256,192,87147,1,0,0:0:0:0:
256,192,87314,1,4,0:0:0:0:
256,192,87564,1,0,0:0:0:0:
256,192,87647,1,8,0:0:0:0:
256,192,87814,1,0,0:0:0:0:
256,192,87981,1,8,0:0:0:0:
256,192,88064,1,8,0:0:0:0:
256,192,88147,1,0,0:0:0:0:
256,192,88231,1,0,0:0:0:0:
256,192,88314,1,8,0:0:0:0:
256,192,88481,1,8,0:0:0:0:
256,192,88647,1,4,0:0:0:0:
256,192,88981,1,8,0:0:0:0:
256,192,89147,1,4,0:0:0:0:
256,192,89314,1,4,0:0:0:0:
256,192,89647,1,8,0:0:0:0:
256,192,89814,1,4,0:0:0:0:
256,192,90147,1,4,0:0:0:0:
256,192,90481,1,4,0:0:0:0:
256,192,90647,1,12,0:0:0:0:
256,192,90814,1,0,0:0:0:0:
256,192,90870,1,0,0:0:0:0:
256,192,90925,1,0,0:0:0:0:
256,192,90981,1,8,0:0:0:0:
256,192,91314,1,4,0:0:0:0:
256,192,91481,1,8,0:0:0:0:
256,192,91647,1,8,0:0:0:0:
256,192,91814,1,4,0:0:0:0:
256,192,92147,1,8,0:0:0:0:
256,192,92314,1,4,0:0:0:0:
256,192,92481,1,4,0:0:0:0:
256,192,92814,1,8,0:0:0:0:
256,192,92981,1,0,0:0:0:0:
256,192,93064,1,0,0:0:0:0:
256,192,93147,1,8,0:0:0:0:
256,192,93231,1,8,0:0:0:0:
256,192,93314,1,0,0:0:0:0:
256,192,93397,1,0,0:0:0:0:
256,192,93481,1,0,0:0:0:0:
256,192,93647,1,12,0:0:0:0:
256,192,93981,1,12,0:0:0:0:
256,192,94147,1,0,0:0:0:0:
256,192,94314,1,0,0:0:0:0:
256,192,94481,1,12,0:0:0:0:
256,192,94814,1,0,0:0:0:0:
256,192,94981,1,12,0:0:0:0:
256,192,95147,1,12,0:0:0:0:
256,192,95481,1,0,0:0:0:0:
256,192,95647,1,8,0:0:0:0:
256,192,95731,1,0,0:0:0:0:
256,192,95814,1,0,0:0:0:0:
256,192,95897,1,0,0:0:0:0:
256,192,95981,1,8,0:0:0:0:
256,192,96064,1,8,0:0:0:0:
256,192,96147,1,0,0:0:0:0:
256,192,96314,1,12,0:0:0:0:
256,192,96647,1,4,0:0:0:0:
256,192,96814,1,8,0:0:0:0:
256,192,96981,1,8,0:0:0:0:
256,192,97147,1,4,0:0:0:0:
256,192,97481,1,0,0:0:0:0:
256,192,97647,1,8,0:0:0:0:
256,192,97981,1,12,0:0:0:0:
256,192,98147,1,0,0:0:0:0:
256,192,98314,1,0,0:0:0:0:
256,192,98481,1,12,0:0:0:0:
256,192,98814,1,8,0:0:0:0:
256,192,98981,1,0,0:0:0:0:
256,192,99314,1,4,0:0:0:0:
256,192,99647,1,8,0:0:0:0:
256,192,99981,1,8,0:0:0:0:
256,192,100314,1,8,0:0:0:0:
256,192,100647,1,0,0:0:0:0:
256,192,100814,1,0,0:0:0:0:
256,192,100981,1,8,0:0:0:0:
256,192,101147,1,0,0:0:0:0:
256,192,101314,1,8,0:0:0:0:
256,192,101397,1,8,0:0:0:0:
256,192,101481,1,0,0:0:0:0:
256,192,101564,1,0,0:0:0:0:
256,192,101647,1,8,0:0:0:0:
256,192,101703,1,8,0:0:0:0:
256,192,101759,1,8,0:0:0:0:
256,192,101814,1,8,0:0:0:0:
256,192,101981,1,4,0:0:0:0:
256,192,102147,1,4,0:0:0:0:
256,192,102314,1,8,0:0:0:0:
256,192,102481,1,4,0:0:0:0:
256,192,102647,1,4,0:0:0:0:
256,192,102814,1,8,0:0:0:0:
256,192,102981,1,12,0:0:0:0:
256,192,103147,1,12,0:0:0:0:
256,192,103314,1,0,0:0:0:0:
256,192,103481,1,12,0:0:0:0:
256,192,103647,1,12,0:0:0:0:
256,192,103814,1,0,0:0:0:0:
256,192,103981,1,12,0:0:0:0:
256,192,104147,1,0,0:0:0:0:
256,192,104203,1,0,0:0:0:0:
256,192,104259,1,0,0:0:0:0:
256,192,104314,1,8,0:0:0:0:
256,192,104481,1,8,0:0:0:0:
256,192,104647,1,4,0:0:0:0:
256,192,104981,1,8,0:0:0:0:
256,192,105147,1,8,0:0:0:0:
256,192,105231,1,8,0:0:0:0:
256,192,105314,1,0,0:0:0:0:
256,192,105397,1,0,0:0:0:0:
256,192,105481,1,8,0:0:0:0:
256,192,105647,1,0,0:0:0:0:
256,192,105814,1,8,0:0:0:0:
256,192,105981,1,0,0:0:0:0:
256,192,106064,1,0,0:0:0:0:
256,192,106147,1,8,0:0:0:0:
256,192,106231,1,0,0:0:0:0:
256,192,106314,1,8,0:0:0:0:
256,192,106481,1,0,0:0:0:0:
256,192,106647,1,8,0:0:0:0:
256,192,106731,1,0,0:0:0:0:
256,192,106814,1,8,0:0:0:0:
256,192,106897,1,8,0:0:0:0:
256,192,106981,1,0,0:0:0:0:
256,192,107147,1,0,0:0:0:0:
256,192,107231,1,8,0:0:0:0:
256,192,107314,1,0,0:0:0:0:
256,192,107481,1,0,0:0:0:0:
256,192,107647,1,8,0:0:0:0:
256,192,107731,1,0,0:0:0:0:
256,192,107814,1,8,0:0:0:0:
256,192,107897,1,0,0:0:0:0:
256,192,107981,1,0,0:0:0:0:
256,192,108064,1,0,0:0:0:0:
256,192,108147,1,8,0:0:0:0:
256,192,108314,1,0,0:0:0:0:
256,192,108481,1,8,0:0:0:0:
256,192,108564,1,8,0:0:0:0:
256,192,108647,1,0,0:0:0:0:
256,192,108814,1,0,0:0:0:0:
256,192,108897,1,0,0:0:0:0:
256,192,108981,1,8,0:0:0:0:
256,192,109064,1,8,0:0:0:0:
256,192,109147,1,0,0:0:0:0:
256,192,109314,1,0,0:0:0:0:
256,192,109397,1,0,0:0:0:0:
256,192,109481,1,8,0:0:0:0:
256,192,109564,1,0,0:0:0:0:
256,192,109647,1,8,0:0:0:0:
256,192,109731,1,8,0:0:0:0:
256,192,109814,1,0,0:0:0:0:
256,192,109981,1,8,0:0:0:0:
256,192,110147,1,0,0:0:0:0:
256,192,110231,1,0,0:0:0:0:
256,192,110314,1,0,0:0:0:0:
256,192,110481,1,8,0:0:0:0:
256,192,110647,1,0,0:0:0:0:
256,192,110731,1,0,0:0:0:0:
256,192,110814,1,8,0:0:0:0:
256,192,110897,1,8,0:0:0:0:
256,192,110981,1,0,0:0:0:0:
256,192,111147,1,8,0:0:0:0:
256,192,111314,1,0,0:0:0:0:
256,192,111397,1,8,0:0:0:0:
256,192,111481,1,0,0:0:0:0:
256,192,111564,1,0,0:0:0:0:
256,192,111647,1,8,0:0:0:0:
256,192,111731,1,8,0:0:0:0:
256,192,111814,1,0,0:0:0:0:
256,192,111981,1,8,0:0:0:0:
256,192,112147,1,0,0:0:0:0:
256,192,112231,1,0,0:0:0:0:
256,192,112314,1,8,0:0:0:0:
256,192,112397,1,8,0:0:0:0:
256,192,112481,1,8,0:0:0:0:
256,192,112647,1,0,0:0:0:0:
256,192,112981,1,12,0:0:0:0:
256,192,113147,1,0,0:0:0:0:
256,192,113231,1,0,0:0:0:0:
256,192,113314,1,8,0:0:0:0:
256,192,113397,1,8,0:0:0:0:
256,192,113481,1,0,0:0:0:0:
256,192,113647,1,12,0:0:0:0:
256,192,113814,1,0,0:0:0:0:
256,192,113981,1,12,0:0:0:0:
256,192,114314,1,12,0:0:0:0:
256,192,114647,1,12,0:0:0:0:
256,192,114981,1,0,0:0:0:0:
256,192,115147,1,8,0:0:0:0:
256,192,115314,1,0,0:0:0:0:
256,192,115647,1,12,0:0:0:0:
256,192,115814,1,8,0:0:0:0:
256,192,115897,1,0,0:0:0:0:
256,192,115981,1,0,0:0:0:0:
256,192,116064,1,0,0:0:0:0:
256,192,116147,1,8,0:0:0:0:
256,192,116314,1,0,0:0:0:0:
256,192,116481,1,8,0:0:0:0:
256,192,116647,1,0,0:0:0:0:
256,192,116731,1,8,0:0:0:0:
256,192,116814,1,0,0:0:0:0:
256,192,116897,1,0,0:0:0:0:
256,192,116981,1,8,0:0:0:0:
256,192,117147,1,0,0:0:0:0:
256,192,117314,1,8,0:0:0:0:
256,192,117397,1,0,0:0:0:0:
256,192,117481,1,8,0:0:0:0:
256,192,117564,1,0,0:0:0:0:
256,192,117647,1,8,0:0:0:0:
256,192,117814,1,8,0:0:0:0:
256,192,117897,1,8,0:0:0:0:
256,192,117981,1,0,0:0:0:0:
256,192,118147,1,0,0:0:0:0:
256,192,118314,1,8,0:0:0:0:
256,192,118397,1,0,0:0:0:0:
256,192,118481,1,8,0:0:0:0:
256,192,118564,1,8,0:0:0:0:
256,192,118647,1,0,0:0:0:0:
256,192,118731,1,0,0:0:0:0:
256,192,118814,1,8,0:0:0:0:
256,192,118981,1,0,0:0:0:0:
256,192,119147,1,8,0:0:0:0:
256,192,119231,1,8,0:0:0:0:
256,192,119314,1,0,0:0:0:0:
256,192,119481,1,0,0:0:0:0:
256,192,119564,1,0,0:0:0:0:
256,192,119647,1,8,0:0:0:0:
256,192,119814,1,0,0:0:0:0:
256,192,119981,1,8,0:0:0:0:
256,192,120064,1,0,0:0:0:0:
256,192,120147,1,8,0:0:0:0:
256,192,120231,1,8,0:0:0:0:
256,192,120314,1,0,0:0:0:0:
256,192,120397,1,8,0:0:0:0:
256,192,120481,1,0,0:0:0:0:
256,192,120647,1,8,0:0:0:0:
256,192,120814,1,0,0:0:0:0:
256,192,120897,1,0,0:0:0:0:
256,192,120981,1,0,0:0:0:0:
256,192,121147,1,8,0:0:0:0:
256,192,121314,1,0,0:0:0:0:
256,192,121397,1,0,0:0:0:0:
256,192,121481,1,8,0:0:0:0:
256,192,121564,1,8,0:0:0:0:
256,192,121647,1,0,0:0:0:0:
256,192,121814,1,8,0:0:0:0:
256,192,121981,1,0,0:0:0:0:
256,192,122064,1,8,0:0:0:0:
256,192,122147,1,0,0:0:0:0:
256,192,122231,1,0,0:0:0:0:
256,192,122314,1,8,0:0:0:0:
256,192,122481,1,0,0:0:0:0:
256,192,122647,1,8,0:0:0:0:
256,192,122731,1,8,0:0:0:0:
256,192,122814,1,0,0:0:0:0:
256,192,122897,1,0,0:0:0:0:
256,192,122981,1,8,0:0:0:0:
256,192,123147,1,0,0:0:0:0:
256,192,123314,1,0,0:0:0:0:
256,192,123397,1,0,0:0:0:0:
256,192,123481,1,0,0:0:0:0:
256,192,123564,1,0,0:0:0:0:
256,192,123647,1,8,0:0:0:0:
256,192,123731,1,0,0:0:0:0:
256,192,123814,1,8,0:0:0:0:
256,192,123897,1,0,0:0:0:0:
256,192,123981,1,8,0:0:0:0:
256,192,124064,1,8,0:0:0:0:
256,192,124147,1,0,0:0:0:0:
256,192,124231,1,0,0:0:0:0:
256,192,124314,1,8,0:0:0:0:
256,192,124370,1,8,0:0:0:0:
256,192,124425,1,8,0:0:0:0:
256,192,124481,1,8,0:0:0:0:
256,192,124536,1,8,0:0:0:0:
256,192,124592,1,8,0:0:0:0:
256,192,124647,1,0,0:0:0:0:
256,192,124897,1,8,0:0:0:0:
256,192,124981,1,8,0:0:0:0:
256,192,125147,1,0,0:0:0:0:
256,192,125231,1,8,0:0:0:0:
256,192,125314,1,0,0:0:0:0:
256,192,125397,1,0,0:0:0:0:
256,192,125481,1,8,0:0:0:0:
256,192,125536,1,8,0:0:0:0:
256,192,125592,1,0,0:0:0:0:
256,192,125647,1,8,0:0:0:0:
256,192,125814,1,8,0:0:0:0:
256,192,125981,1,4,0:0:0:0:
256,192,126314,1,8,0:0:0:0:
256,192,126647,1,4,0:0:0:0:
256,192,126981,1,8,0:0:0:0:
256,192,127147,1,4,0:0:0:0:
256,192,127481,1,4,0:0:0:0:
256,192,127814,1,4,0:0:0:0:
256,192,128147,1,8,0:0:0:0:
256,192,128203,1,0,0:0:0:0:
256,192,128259,1,0,0:0:0:0:
256,192,128314,1,8,0:0:0:0:
256,192,128481,1,0,0:0:0:0:
256,192,128814,1,4,0:0:0:0:
256,192,128981,1,4,0:0:0:0:
256,192,129481,1,12,0:0:0:0:
256,192,129647,1,12,0:0:0:0:
256,192,129981,1,4,0:0:0:0:
256,192,130147,1,4,0:0:0:0:
256,192,130314,1,12,0:0:0:0:
256,192,130481,1,12,0:0:0:0:
256,192,130814,1,0,0:0:0:0:
256,192,130870,1,0,0:0:0:0:
256,192,130925,1,0,0:0:0:0:
256,192,130981,1,8,0:0:0:0:
256,192,131314,1,0,0:0:0:0:
256,192,131481,1,8,0:0:0:0:
256,192,131647,1,0,0:0:0:0:
256,192,131814,1,8,0:0:0:0:
256,192,131981,1,0,0:0:0:0:
256,192,132147,1,8,0:0:0:0:
256,192,132314,1,0,0:0:0:0:
256,192,132481,1,8,0:0:0:0:
256,192,132647,1,0,0:0:0:0:
256,192,132731,1,0,0:0:0:0:
256,192,132814,1,8,0:0:0:0:
256,192,132897,1,8,0:0:0:0:
256,192,132981,1,0,0:0:0:0:
256,192,133147,1,0,0:0:0:0:
256,192,133231,1,0,0:0:0:0:
256,192,133314,1,8,0:0:0:0:
256,192,133481,1,0,0:0:0:0:
256,192,133647,1,12,0:0:0:0:
256,192,133981,1,4,0:0:0:0:
256,192,134231,1,0,0:0:0:0:
256,192,134314,1,8,0:0:0:0:
256,192,134481,1,0,0:0:0:0:
256,192,134647,1,8,0:0:0:0:
256,192,134814,1,0,0:0:0:0:
256,192,134981,1,0,0:0:0:0:
256,192,135064,1,8,0:0:0:0:
256,192,135147,1,0,0:0:0:0:
256,192,135231,1,0,0:0:0:0:
256,192,135314,1,8,0:0:0:0:
256,192,135564,1,0,0:0:0:0:
256,192,135647,1,8,0:0:0:0:
256,192,135814,1,8,0:0:0:0:
256,192,135981,1,0,0:0:0:0:
256,192,136147,1,8,0:0:0:0:
256,192,136231,1,8,0:0:0:0:
256,192,136314,1,0,0:0:0:0:
256,192,136397,1,8,0:0:0:0:
256,192,136481,1,8,0:0:0:0:
256,192,136564,1,8,0:0:0:0:
256,192,136647,1,0,0:0:0:0:
256,192,136897,1,0,0:0:0:0:
256,192,136981,1,8,0:0:0:0:
256,192,137147,1,0,0:0:0:0:
256,192,137314,1,8,0:0:0:0:
256,192,137481,1,0,0:0:0:0:
256,192,137647,1,8,0:0:0:0:
256,192,137731,1,8,0:0:0:0:
256,192,137814,1,0,0:0:0:0:
256,192,137897,1,0,0:0:0:0:
256,192,137981,1,8,0:0:0:0:
256,192,138231,1,0,0:0:0:0:
256,192,138314,1,8,0:0:0:0:
256,192,138481,1,8,0:0:0:0:
256,192,138647,1,0,0:0:0:0:
256,192,138814,1,0,0:0:0:0:
256,192,138897,1,8,0:0:0:0:
256,192,138981,1,0,0:0:0:0:
256,192,139064,1,0,0:0:0:0:
256,192,139147,1,8,0:0:0:0:
256,192,139231,1,8,0:0:0:0:
256,192,139314,1,0,0:0:0:0:
256,192,139564,1,8,0:0:0:0:
256,192,139647,1,0,0:0:0:0:
256,192,139814,1,0,0:0:0:0:
256,192,139981,1,8,0:0:0:0:
256,192,140147,1,0,0:0:0:0:
256,192,140314,1,0,0:0:0:0:
256,192,140397,1,0,0:0:0:0:
256,192,140481,1,8,0:0:0:0:
256,192,140564,1,0,0:0:0:0:
256,192,140647,1,8,0:0:0:0:
256,192,140897,1,8,0:0:0:0:
256,192,140981,1,0,0:0:0:0:
256,192,141147,1,8,0:0:0:0:
256,192,141314,1,0,0:0:0:0:
256,192,141481,1,8,0:0:0:0:
256,192,141564,1,8,0:0:0:0:
256,192,141647,1,0,0:0:0:0:
256,192,141731,1,0,0:0:0:0:
256,192,141814,1,8,0:0:0:0:
256,192,141897,1,8,0:0:0:0:
256,192,141981,1,0,0:0:0:0:
256,192,142231,1,8,0:0:0:0:
256,192,142314,1,0,0:0:0:0:
256,192,142481,1,0,0:0:0:0:
256,192,142647,1,8,0:0:0:0:
256,192,142814,1,0,0:0:0:0:
256,192,142981,1,8,0:0:0:0:
256,192,143064,1,0,0:0:0:0:
256,192,143147,1,0,0:0:0:0:
256,192,143231,1,0,0:0:0:0:
256,192,143314,1,8,0:0:0:0:
256,192,143564,1,8,0:0:0:0:
256,192,143647,1,0,0:0:0:0:
256,192,143814,1,8,0:0:0:0:
256,192,143981,1,0,0:0:0:0:
256,192,144147,1,0,0:0:0:0:
256,192,144231,1,8,0:0:0:0:
256,192,144314,1,0,0:0:0:0:
256,192,144397,1,8,0:0:0:0:
256,192,144481,1,8,0:0:0:0:
256,192,144564,1,8,0:0:0:0:
256,192,144647,1,0,0:0:0:0:
256,192,144814,1,0,0:0:0:0:
256,192,144897,1,0,0:0:0:0:
256,192,144981,1,8,0:0:0:0:
256,192,145147,1,0,0:0:0:0:
256,192,145314,1,8,0:0:0:0:
256,192,145397,1,8,0:0:0:0:
256,192,145481,1,0,0:0:0:0:
256,192,145647,1,0,0:0:0:0:
256,192,145731,1,8,0:0:0:0:
256,192,145814,1,0,0:0:0:0:
256,192,145897,1,0,0:0:0:0:
256,192,145981,1,8,0:0:0:0:
256,192,146231,1,0,0:0:0:0:
256,192,146314,1,8,0:0:0:0:
256,192,146481,1,8,0:0:0:0:
256,192,146647,1,0,0:0:0:0:
256,192,146814,1,8,0:0:0:0:
256,192,146897,1,8,0:0:0:0:
256,192,146981,1,0,0:0:0:0:
256,192,147064,1,8,0:0:0:0:
256,192,147147,1,8,0:0:0:0:
256,192,147231,1,8,0:0:0:0:
256,192,147314,1,0,0:0:0:0:
256,192,147481,1,0,0:0:0:0:
256,192,147564,1,0,0:0:0:0:
256,192,147647,1,8,0:0:0:0:
256,192,147731,1,8,0:0:0:0:
256,192,147814,1,0,0:0:0:0:
256,192,147981,1,8,0:0:0:0:
256,192,148147,1,0,0:0:0:0:
256,192,148314,1,8,0:0:0:0:
256,192,148397,1,8,0:0:0:0:
256,192,148481,1,0,0:0:0:0:
256,192,148564,1,0,0:0:0:0:
256,192,148647,1,8,0:0:0:0:
256,192,148897,1,0,0:0:0:0:
256,192,148981,1,8,0:0:0:0:
256,192,149147,1,8,0:0:0:0:
256,192,149314,1,0,0:0:0:0:
256,192,149481,1,0,0:0:0:0:
256,192,149564,1,8,0:0:0:0:
256,192,149647,1,0,0:0:0:0:
256,192,149731,1,0,0:0:0:0:
256,192,149814,1,8,0:0:0:0:
256,192,149897,1,8,0:0:0:0:
256,192,149981,1,0,0:0:0:0:
256,192,150147,1,0,0:0:0:0:
256,192,150231,1,8,0:0:0:0:
256,192,150314,1,0,0:0:0:0:
256,192,150481,1,0,0:0:0:0:
256,192,150647,1,8,0:0:0:0:
256,192,150731,1,8,0:0:0:0:
256,192,150814,1,0,0:0:0:0:
256,192,150981,1,0,0:0:0:0:
256,192,151064,1,0,0:0:0:0:
256,192,151147,1,8,0:0:0:0:
256,192,151231,1,0,0:0:0:0:
256,192,151314,1,8,0:0:0:0:
256,192,151564,1,8,0:0:0:0:
256,192,151647,1,0,0:0:0:0:
256,192,151814,1,8,0:0:0:0:
256,192,151981,1,0,0:0:0:0:
256,192,152147,1,8,0:0:0:0:
256,192,152231,1,8,0:0:0:0:
256,192,152314,1,0,0:0:0:0:
256,192,152397,1,0,0:0:0:0:
256,192,152481,1,8,0:0:0:0:
256,192,152564,1,8,0:0:0:0:
256,192,152647,1,0,0:0:0:0:
256,192,152897,1,0,0:0:0:0:
256,192,152981,1,8,0:0:0:0:
256,192,153147,1,0,0:0:0:0:
256,192,153481,1,0,0:0:0:0:
256,192,153731,1,8,0:0:0:0:
256,192,153814,1,0,0:0:0:0:
256,192,153897,1,0,0:0:0:0:
256,192,153981,1,8,0:0:0:0:
256,192,154231,1,0,0:0:0:0:
256,192,154314,1,8,0:0:0:0:
256,192,154481,1,0,0:0:0:0:
256,192,154814,1,0,0:0:0:0:
256,192,154897,1,8,0:0:0:0:
256,192,154981,1,0,0:0:0:0:
256,192,155064,1,8,0:0:0:0:
256,192,155147,1,8,0:0:0:0:
256,192,155231,1,8,0:0:0:0:
256,192,155314,1,0,0:0:0:0:
256,192,155564,1,0,0:0:0:0:
256,192,155647,1,8,0:0:0:0:
256,192,155814,1,0,0:0:0:0:
256,192,155981,1,8,0:0:0:0:
256,192,156064,1,8,0:0:0:0:
256,192,156147,1,0,0:0:0:0:
256,192,156314,1,0,0:0:0:0:
256,192,156397,1,8,0:0:0:0:
256,192,156481,1,0,0:0:0:0:
256,192,156564,1,0,0:0:0:0:
256,192,156647,1,8,0:0:0:0:
256,192,156731,1,0,0:0:0:0:
256,192,156897,1,0,0:0:0:0:
256,192,156981,1,8,0:0:0:0:
256,192,157147,1,8,0:0:0:0:
256,192,157314,1,0,0:0:0:0:
256,192,157481,1,8,0:0:0:0:
256,192,157564,1,8,0:0:0:0:
256,192,157647,1,0,0:0:0:0:
256,192,157731,1,8,0:0:0:0:
256,192,157814,1,8,0:0:0:0:
256,192,157897,1,8,0:0:0:0:
256,192,157981,1,0,0:0:0:0:
256,192,158231,1,0,0:0:0:0:
256,192,158314,1,8,0:0:0:0:
256,192,158481,1,0,0:0:0:0:
256,192,158647,1,8,0:0:0:0:
256,192,158731,1,0,0:0:0:0:
256,192,158897,1,0,0:0:0:0:
256,192,158981,1,8,0:0:0:0:
256,192,159064,1,8,0:0:0:0:
256,192,159147,1,0,0:0:0:0:
256,192,159231,1,0,0:0:0:0:
256,192,159314,1,8,0:0:0:0:
256,192,159481,1,8,0:0:0:0:
256,192,159564,1,0,0:0:0:0:
256,192,159647,1,8,0:0:0:0:
256,192,159814,1,8,0:0:0:0:
256,192,159981,1,0,0:0:0:0:
256,192,160147,1,0,0:0:0:0:
256,192,160231,1,8,0:0:0:0:
256,192,160314,1,0,0:0:0:0:
256,192,160397,1,0,0:0:0:0:
256,192,160481,1,8,0:0:0:0:
256,192,160564,1,8,0:0:0:0:
256,192,160647,1,0,0:0:0:0:
256,192,160897,1,8,0:0:0:0:
256,192,160981,1,0,0:0:0:0:
256,192,161147,1,0,0:0:0:0:
256,192,161231,1,0,0:0:0:0:
256,192,161314,1,8,0:0:0:0:
256,192,161481,1,0,0:0:0:0:
256,192,161647,1,8,0:0:0:0:
256,192,161731,1,0,0:0:0:0:
256,192,161814,1,8,0:0:0:0:
256,192,161897,1,0,0:0:0:0:
256,192,161981,1,8,0:0:0:0:
256,192,162064,1,8,0:0:0:0:
256,192,162231,1,8,0:0:0:0:
256,192,162314,1,0,0:0:0:0:
256,192,162481,1,8,0:0:0:0:
256,192,162647,1,0,0:0:0:0:
256,192,162814,1,8,0:0:0:0:
256,192,162897,1,8,0:0:0:0:
256,192,162981,1,0,0:0:0:0:
256,192,163064,1,0,0:0:0:0:
256,192,163147,1,8,0:0:0:0:
256,192,163231,1,8,0:0:0:0:
256,192,163314,1,0,0:0:0:0:
256,192,163564,1,8,0:0:0:0:
256,192,163647,1,0,0:0:0:0:
256,192,163814,1,0,0:0:0:0:
256,192,163981,1,8,0:0:0:0:
256,192,164064,1,0,0:0:0:0:
256,192,164231,1,0,0:0:0:0:
256,192,164314,1,8,0:0:0:0:
256,192,164397,1,8,0:0:0:0:
256,192,164481,1,0,0:0:0:0:
256,192,164564,1,0,0:0:0:0:
256,192,164647,1,8,0:0:0:0:
256,192,164814,1,8,0:0:0:0:
256,192,164897,1,8,0:0:0:0:
256,192,164981,1,0,0:0:0:0:
256,192,165147,1,8,0:0:0:0:
256,192,165314,1,0,0:0:0:0:
256,192,165481,1,0,0:0:0:0:
256,192,165564,1,8,0:0:0:0:
256,192,165647,1,0,0:0:0:0:
256,192,165731,1,8,0:0:0:0:
256,192,165814,1,8,0:0:0:0:
256,192,165897,1,8,0:0:0:0:
256,192,165981,1,0,0:0:0:0:
256,192,166147,1,0,0:0:0:0:
256,192,166231,1,0,0:0:0:0:
256,192,166314,1,8,0:0:0:0:
256,192,166481,1,0,0:0:0:0:
256,192,166647,1,8,0:0:0:0:
256,192,166731,1,8,0:0:0:0:
256,192,166814,1,0,0:0:0:0:
256,192,166981,1,0,0:0:0:0:
256,192,167064,1,8,0:0:0:0:
256,192,167147,1,0,0:0:0:0:
256,192,167231,1,0,0:0:0:0:
256,192,167314,1,8,0:0:0:0:
256,192,167397,1,0,0:0:0:0:
256,192,167564,1,0,0:0:0:0:
256,192,167647,1,8,0:0:0:0:
256,192,167814,1,8,0:0:0:0:
256,192,167981,1,0,0:0:0:0:
256,192,168147,1,8,0:0:0:0:
256,192,168231,1,8,0:0:0:0:
256,192,168314,1,0,0:0:0:0:
256,192,168397,1,8,0:0:0:0:
256,192,168481,1,8,0:0:0:0:
256,192,168564,1,8,0:0:0:0:
256,192,168647,1,0,0:0:0:0:
256,192,168814,1,0,0:0:0:0:
256,192,168897,1,0,0:0:0:0:
256,192,168981,1,8,0:0:0:0:
256,192,169147,1,0,0:0:0:0:
256,192,169314,1,8,0:0:0:0:
256,192,169397,1,0,0:0:0:0:
256,192,169564,1,0,0:0:0:0:
256,192,169647,1,8,0:0:0:0:
256,192,169731,1,8,0:0:0:0:
256,192,169814,1,0,0:0:0:0:
256,192,169897,1,0,0:0:0:0:
256,192,169981,1,8,0:0:0:0:
256,192,170147,1,8,0:0:0:0:
256,192,170231,1,0,0:0:0:0:
256,192,170314,1,8,0:0:0:0:
256,192,170481,1,8,0:0:0:0:
256,192,170647,1,0,0:0:0:0:
256,192,170814,1,0,0:0:0:0:
256,192,170897,1,8,0:0:0:0:
256,192,170981,1,0,0:0:0:0:
256,192,171064,1,0,0:0:0:0:
256,192,171147,1,8,0:0:0:0:
256,192,171231,1,8,0:0:0:0:
256,192,171314,1,0,0:0:0:0:
256,192,171481,1,0,0:0:0:0:
256,192,171564,1,8,0:0:0:0:
256,192,171647,1,0,0:0:0:0:
256,192,171814,1,0,0:0:0:0:
256,192,171897,1,0,0:0:0:0:
256,192,171981,1,8,0:0:0:0:
256,192,172147,1,0,0:0:0:0:
256,192,172314,1,8,0:0:0:0:
256,192,172397,1,0,0:0:0:0:
256,192,172481,1,8,0:0:0:0:
256,192,172564,1,0,0:0:0:0:
256,192,172647,1,8,0:0:0:0:
256,192,172731,1,8,0:0:0:0:
256,192,172897,1,8,0:0:0:0:
256,192,172981,1,0,0:0:0:0:
256,192,173147,1,8,0:0:0:0:
256,192,173314,1,0,0:0:0:0:
256,192,173481,1,8,0:0:0:0:
256,192,173564,1,8,0:0:0:0:
256,192,173647,1,0,0:0:0:0:
256,192,173731,1,0,0:0:0:0:
256,192,173814,1,8,0:0:0:0:
256,192,173897,1,8,0:0:0:0:
256,192,173981,1,0,0:0:0:0:
256,192,174147,1,0,0:0:0:0:
256,192,174231,1,8,0:0:0:0:
256,192,174314,1,0,0:0:0:0:
256,192,174481,1,0,0:0:0:0:
256,192,174647,1,8,0:0:0:0:
256,192,174731,1,0,0:0:0:0:
256,192,174897,1,0,0:0:0:0:
256,192,174981,1,8,0:0:0:0:
256,192,175064,1,8,0:0:0:0:
256,192,175147,1,0,0:0:0:0:
256,192,175231,1,0,0:0:0:0:
256,192,175314,1,8,0:0:0:0:
256,192,175481,1,8,0:0:0:0:
256,192,175564,1,8,0:0:0:0:
256,192,175647,1,0,0:0:0:0:
256,192,175814,1,8,0:0:0:0:
256,192,175981,1,0,0:0:0:0:
256,192,176147,1,0,0:0:0:0:
256,192,176231,1,8,0:0:0:0:
256,192,176314,1,0,0:0:0:0:
256,192,176397,1,8,0:0:0:0:
256,192,176481,1,8,0:0:0:0:
256,192,176564,1,8,0:0:0:0:
256,192,176647,1,0,0:0:0:0:
256,192,176814,8,0,179981,0:0:0:0:
256,192,185981,5,8,0:0:0:0:
256,192,186314,1,8,0:0:0:0:
256,192,186647,1,8,0:0:0:0:
256,192,186814,1,0,0:0:0:0:
256,192,186870,1,0,0:0:0:0:
256,192,186925,1,0,0:0:0:0:
256,192,186981,1,8,0:0:0:0:
256,192,187314,1,4,0:0:0:0:
256,192,187481,1,0,0:0:0:0:
256,192,187564,1,0,0:0:0:0:
256,192,187647,1,8,0:0:0:0:
256,192,187814,1,8,0:0:0:0:
256,192,187897,1,0,0:0:0:0:
256,192,187981,1,8,0:0:0:0:
256,192,188064,1,0,0:0:0:0:
256,192,188147,1,8,0:0:0:0:
256,192,188314,1,0,0:0:0:0:
256,192,188481,1,8,0:0:0:0:
256,192,188564,1,8,0:0:0:0:
256,192,188647,1,0,0:0:0:0:
256,192,188703,1,0,0:0:0:0:
256,192,188759,1,0,0:0:0:0:
256,192,188814,1,8,0:0:0:0:
256,192,188981,1,0,0:0:0:0:
256,192,189064,1,8,0:0:0:0:
256,192,189147,1,0,0:0:0:0:
256,192,189314,1,12,0:0:0:0:
256,192,189481,1,12,0:0:0:0:
256,192,189647,1,12,0:0:0:0:
256,192,189814,1,0,0:0:0:0:
256,192,189981,1,0,0:0:0:0:
256,192,190064,1,8,0:0:0:0:
256,192,190147,1,0,0:0:0:0:
256,192,190231,1,0,0:0:0:0:
256,192,190314,1,8,0:0:0:0:
256,192,190481,1,0,0:0:0:0:
256,192,190647,1,8,0:0:0:0:
256,192,190703,1,0,0:0:0:0:
256,192,190759,1,0,0:0:0:0:
256,192,190814,1,8,0:0:0:0:
256,192,190897,1,8,0:0:0:0:
256,192,190981,1,0,0:0:0:0:
256,192,191147,1,8,0:0:0:0:
256,192,191314,1,0,0:0:0:0:
256,192,191370,1,0,0:0:0:0:
256,192,191425,1,0,0:0:0:0:
256,192,191481,1,8,0:0:0:0:
256,192,191564,1,8,0:0:0:0:
256,192,191647,1,0,0:0:0:0:
256,192,191814,1,0,0:0:0:0:
256,192,191897,1,0,0:0:0:0:
256,192,191981,1,8,0:0:0:0:
256,192,192147,1,0,0:0:0:0:
256,192,192314,1,8,0:0:0:0:
256,192,192481,1,8,0:0:0:0:
256,192,192564,1,8,0:0:0:0:
256,192,192647,1,0,0:0:0:0:
256,192,192731,1,0,0:0:0:0:
256,192,192814,1,0,0:0:0:0:
256,192,192897,1,0,0:0:0:0:
256,192,192981,1,8,0:0:0:0:
256,192,193147,1,8,0:0:0:0:
256,192,193231,1,0,0:0:0:0:
256,192,193314,1,8,0:0:0:0:
256,192,193397,1,0,0:0:0:0:
256,192,193481,1,8,0:0:0:0:
256,192,193647,1,0,0:0:0:0:
256,192,193814,1,8,0:0:0:0:
256,192,193897,1,8,0:0:0:0:
256,192,193981,1,0,0:0:0:0:
256,192,194036,1,0,0:0:0:0:
256,192,194092,1,0,0:0:0:0:
256,192,194147,1,8,0:0:0:0:
256,192,194314,1,0,0:0:0:0:
256,192,194397,1,8,0:0:0:0:
256,192,194481,1,0,0:0:0:0:
256,192,194647,1,12,0:0:0:0:
256,192,194814,1,12,0:0:0:0:
256,192,194981,1,12,0:0:0:0:
256,192,195147,1,0,0:0:0:0:
256,192,195314,1,0,0:0:0:0:
256,192,195397,1,8,0:0:0:0:
256,192,195481,1,0,0:0:0:0:
256,192,195564,1,0,0:0:0:0:
256,192,195647,1,8,0:0:0:0:
256,192,195814,1,0,0:0:0:0:
256,192,195981,1,0,0:0:0:0:
256,192,196064,1,0,0:0:0:0:
256,192,196147,1,0,0:0:0:0:
256,192,196231,1,0,0:0:0:0:
256,192,196314,1,8,0:0:0:0:
256,192,196397,1,0,0:0:0:0:
256,192,196481,1,8,0:0:0:0:
256,192,196647,1,0,0:0:0:0:
256,192,196731,1,0,0:0:0:0:
256,192,196814,1,8,0:0:0:0:
256,192,196981,1,0,0:0:0:0:
256,192,197147,1,8,0:0:0:0:
256,192,197231,1,8,0:0:0:0:
256,192,197314,1,0,0:0:0:0:
256,192,197481,1,0,0:0:0:0:
256,192,197647,1,8,0:0:0:0:
256,192,197731,1,0,0:0:0:0:
256,192,197814,1,8,0:0:0:0:
256,192,197897,1,8,0:0:0:0:
256,192,197981,1,0,0:0:0:0:
256,192,198064,1,0,0:0:0:0:
256,192,198147,1,0,0:0:0:0:
256,192,198231,1,0,0:0:0:0:
256,192,198314,1,8,0:0:0:0:
256,192,198481,1,8,0:0:0:0:
256,192,198564,1,0,0:0:0:0:
256,192,198647,1,8,0:0:0:0:
256,192,198731,1,0,0:0:0:0:
256,192,198814,1,8,0:0:0:0:
256,192,198897,1,8,0:0:0:0:
256,192,198981,1,0,0:0:0:0:
256,192,199147,1,8,0:0:0:0:
256,192,199231,1,8,0:0:0:0:
256,192,199314,1,0,0:0:0:0:
256,192,199370,1,0,0:0:0:0:
256,192,199425,1,0,0:0:0:0:
256,192,199481,1,8,0:0:0:0:
256,192,199564,1,8,0:0:0:0:
256,192,199647,1,0,0:0:0:0:
256,192,199814,1,0,0:0:0:0:
256,192,199981,1,12,0:0:0:0:
256,192,200147,1,12,0:0:0:0:
256,192,200314,1,12,0:0:0:0:
256,192,200481,1,8,0:0:0:0:
256,192,200564,1,8,0:0:0:0:
256,192,200647,1,0,0:0:0:0:
256,192,200731,1,8,0:0:0:0:
256,192,200814,1,0,0:0:0:0:
256,192,200897,1,0,0:0:0:0:
256,192,200981,1,8,0:0:0:0:
256,192,201147,1,0,0:0:0:0:
256,192,201314,1,8,0:0:0:0:
256,192,201370,1,0,0:0:0:0:
256,192,201425,1,0,0:0:0:0:
256,192,201481,1,8,0:0:0:0:
256,192,201564,1,8,0:0:0:0:
256,192,201647,1,0,0:0:0:0:
256,192,201814,1,8,0:0:0:0:
256,192,201981,1,0,0:0:0:0:
256,192,202036,1,0,0:0:0:0:
256,192,202092,1,0,0:0:0:0:
256,192,202147,1,8,0:0:0:0:
256,192,202231,1,0,0:0:0:0:
256,192,202314,1,8,0:0:0:0:
256,192,202397,1,8,0:0:0:0:
256,192,202481,1,0,0:0:0:0:
256,192,202564,1,0,0:0:0:0:
256,192,202647,1,8,0:0:0:0:
256,192,202814,1,0,0:0:0:0:
256,192,202981,1,8,0:0:0:0:
256,192,203064,1,0,0:0:0:0:
256,192,203147,1,8,0:0:0:0:
256,192,203231,1,8,0:0:0:0:
256,192,203314,1,0,0:0:0:0:
256,192,203397,1,0,0:0:0:0:
256,192,203481,1,0,0:0:0:0:
256,192,203564,1,0,0:0:0:0:
256,192,203647,1,8,0:0:0:0:
256,192,203814,1,8,0:0:0:0:
256,192,203897,1,0,0:0:0:0:
256,192,203981,1,8,0:0:0:0:
256,192,204064,1,0,0:0:0:0:
256,192,204147,1,8,0:0:0:0:
256,192,204231,1,8,0:0:0:0:
256,192,204314,1,0,0:0:0:0:
256,192,204481,1,8,0:0:0:0:
256,192,204564,1,8,0:0:0:0:
256,192,204647,1,0,0:0:0:0:
256,192,204703,1,0,0:0:0:0:
256,192,204759,1,0,0:0:0:0:
256,192,204814,1,8,0:0:0:0:
256,192,204897,1,8,0:0:0:0:
256,192,204981,1,0,0:0:0:0:
256,192,205147,1,0,0:0:0:0:
256,192,205314,1,12,0:0:0:0:
256,192,205481,1,12,0:0:0:0:
256,192,205647,1,12,0:0:0:0:
256,192,205814,1,8,0:0:0:0:
256,192,205897,1,8,0:0:0:0:
256,192,205981,1,0,0:0:0:0:
256,192,206064,1,8,0:0:0:0:
256,192,206147,1,0,0:0:0:0:
256,192,206231,1,0,0:0:0:0:
256,192,206314,1,8,0:0:0:0:
256,192,206397,1,8,0:0:0:0:
256,192,206481,1,8,0:0:0:0:
256,192,206564,1,8,0:0:0:0:
256,192,206647,1,0,0:0:0:0:
256,192,206731,1,8,0:0:0:0:
256,192,206814,1,0,0:0:0:0:
256,192,206897,1,0,0:0:0:0:
256,192,206981,1,8,0:0:0:0:
256,192,207036,1,8,0:0:0:0:
256,192,207092,1,8,0:0:0:0:
256,192,207147,1,8,0:0:0:0:
256,192,207203,1,8,0:0:0:0:
256,192,207259,1,8,0:0:0:0:
256,192,207314,1,0,0:0:0:0:
256,192,207814,1,12,0:0:0:0:
256,192,208147,1,0,0:0:0:0:
256,192,208314,1,12,0:0:0:0:
256,192,208647,1,4,0:0:0:0:
256,192,208814,1,8,0:0:0:0:
256,192,208897,1,8,0:0:0:0:
256,192,208981,1,0,0:0:0:0:
256,192,209147,1,8,0:0:0:0:
256,192,209314,1,0,0:0:0:0:
256,192,209481,1,8,0:0:0:0:
256,192,209564,1,0,0:0:0:0:
256,192,209647,1,8,0:0:0:0:
256,192,209814,1,0,0:0:0:0:
256,192,209981,1,8,0:0:0:0:
256,192,210147,1,0,0:0:0:0:
256,192,210231,1,0,0:0:0:0:
256,192,210314,1,8,0:0:0:0:
256,192,210481,1,0,0:0:0:0:
256,192,210647,1,0,0:0:0:0:
256,192,210731,1,8,0:0:0:0:
256,192,210814,1,0,0:0:0:0:
256,192,210981,1,8,0:0:0:0:
256,192,211314,1,8,0:0:0:0:
256,192,211481,1,0,0:0:0:0:
256,192,211564,1,0,0:0:0:0:
256,192,211647,1,8,0:0:0:0:
256,192,211814,1,8,0:0:0:0:
256,192,211981,1,0,0:0:0:0:
256,192,212147,1,8,0:0:0:0:
256,192,212231,1,8,0:0:0:0:
256,192,212314,1,0,0:0:0:0:
256,192,212481,1,0,0:0:0:0:
256,192,212647,1,8,0:0:0:0:
256,192,212814,1,0,0:0:0:0:
256,192,212897,1,0,0:0:0:0:
256,192,212981,1,8,0:0:0:0:
256,192,213147,1,0,0:0:0:0:
256,192,213314,1,8,0:0:0:0:
256,192,213397,1,8,0:0:0:0:
256,192,213481,1,0,0:0:0:0:
256,192,213647,1,8,0:0:0:0:
256,192,213814,1,8,0:0:0:0:
256,192,213981,1,0,0:0:0:0:
256,192,214231,1,0,0:0:0:0:
256,192,214314,1,8,0:0:0:0:
256,192,214481,1,0,0:0:0:0:
256,192,214647,1,0,0:0:0:0:
256,192,214731,1,8,0:0:0:0:
256,192,214814,1,0,0:0:0:0:
256,192,214981,1,8,0:0:0:0:
256,192,215147,1,0,0:0:0:0:
256,192,215314,1,0,0:0:0:0:
256,192,215564,1,0,0:0:0:0:
256,192,215647,1,8,0:0:0:0:
256,192,215814,1,0,0:0:0:0:
256,192,215981,1,8,0:0:0:0:
256,192,216064,1,8,0:0:0:0:
256,192,216147,1,0,0:0:0:0:
256,192,216314,1,8,0:0:0:0:
256,192,216481,1,8,0:0:0:0:
256,192,216647,1,0,0:0:0:0:
256,192,216814,1,0,0:0:0:0:
256,192,216897,1,0,0:0:0:0:
256,192,216981,1,8,0:0:0:0:
256,192,217147,1,0,0:0:0:0:
256,192,217314,1,8,0:0:0:0:
256,192,217481,1,0,0:0:0:0:
256,192,217647,1,8,0:0:0:0:
256,192,217731,1,8,0:0:0:0:
256,192,217814,1,8,0:0:0:0:
256,192,217981,1,4,0:0:0:0:
256,192,218647,1,8,0:0:0:0:
256,192,218814,1,0,0:0:0:0:
256,192,218870,1,0,0:0:0:0:
256,192,218925,1,0,0:0:0:0:
256,192,218981,1,8,0:0:0:0:
256,192,219314,1,4,0:0:0:0:
256,192,219481,1,8,0:0:0:0:
256,192,219564,1,8,0:0:0:0:
256,192,219647,1,0,0:0:0:0:
256,192,219731,1,0,0:0:0:0:
256,192,219814,1,8,0:0:0:0:
256,192,219981,1,0,0:0:0:0:
256,192,220147,1,8,0:0:0:0:
256,192,220231,1,0,0:0:0:0:
256,192,220314,1,8,0:0:0:0:
256,192,220481,1,0,0:0:0:0:
256,192,220647,1,8,0:0:0:0:
256,192,220814,1,0,0:0:0:0:
256,192,220897,1,0,0:0:0:0:
256,192,220981,1,8,0:0:0:0:
256,192,221147,1,8,0:0:0:0:
256,192,221231,1,8,0:0:0:0:
256,192,221314,1,0,0:0:0:0:
256,192,221397,1,0,0:0:0:0:
256,192,221481,1,8,0:0:0:0:
256,192,221647,1,0,0:0:0:0:
256,192,221981,1,8,0:0:0:0:
256,192,222147,1,0,0:0:0:0:
256,192,222231,1,0,0:0:0:0:
256,192,222314,1,8,0:0:0:0:
256,192,222481,1,8,0:0:0:0:
256,192,222564,1,8,0:0:0:0:
256,192,222647,1,8,0:0:0:0:
256,192,222731,1,8,0:0:0:0:
256,192,222814,1,0,0:0:0:0:
256,192,222981,1,8,0:0:0:0:
256,192,223064,1,0,0:0:0:0:
256,192,223147,1,8,0:0:0:0:
256,192,223314,1,0,0:0:0:0:
256,192,223481,1,8,0:0:0:0:
256,192,223564,1,8,0:0:0:0:
256,192,223647,1,0,0:0:0:0:
256,192,223814,1,0,0:0:0:0:
256,192,223897,1,8,0:0:0:0:
256,192,223981,1,0,0:0:0:0:
256,192,224064,1,0,0:0:0:0:
256,192,224147,1,8,0:0:0:0:
256,192,224231,1,8,0:0:0:0:
256,192,224314,1,0,0:0:0:0:
256,192,224481,1,8,0:0:0:0:
256,192,224647,1,4,0:0:0:0:
256,192,224897,1,0,0:0:0:0:
256,192,224981,1,8,0:0:0:0:
256,192,225147,1,0,0:0:0:0:
256,192,225314,1,0,0:0:0:0:
256,192,225397,1,8,0:0:0:0:
256,192,225481,1,0,0:0:0:0:
256,192,225564,1,0,0:0:0:0:
256,192,225647,1,8,0:0:0:0:
256,192,225814,1,0,0:0:0:0:
256,192,225981,1,4,0:0:0:0:
256,192,226231,1,0,0:0:0:0:
256,192,226314,1,8,0:0:0:0:
256,192,226481,1,0,0:0:0:0:
256,192,226647,1,8,0:0:0:0:
256,192,226731,1,8,0:0:0:0:
256,192,226814,1,0,0:0:0:0:
256,192,226897,1,0,0:0:0:0:
256,192,226981,1,8,0:0:0:0:
256,192,227147,1,8,0:0:0:0:
256,192,227314,1,4,0:0:0:0:
256,192,227647,1,8,0:0:0:0:
256,192,227814,1,4,0:0:0:0:
256,192,227981,1,4,0:0:0:0:
256,192,228314,1,8,0:0:0:0:
256,192,228481,1,4,0:0:0:0:
256,192,228814,1,4,0:0:0:0:
256,192,229147,1,4,0:0:0:0:
256,192,229314,1,12,0:0:0:0:
256,192,229481,1,0,0:0:0:0:
256,192,229536,1,0,0:0:0:0:
256,192,229592,1,0,0:0:0:0:
256,192,229647,1,8,0:0:0:0:
256,192,229981,1,4,0:0:0:0:
256,192,230147,1,8,0:0:0:0:
256,192,230314,1,8,0:0:0:0:
256,192,230481,1,4,0:0:0:0:
256,192,230814,1,8,0:0:0:0:
256,192,230981,1,4,0:0:0:0:
256,192,231147,1,4,0:0:0:0:
256,192,231481,1,8,0:0:0:0:
256,192,231647,1,0,0:0:0:0:
256,192,231731,1,0,0:0:0:0:
256,192,231814,1,8,0:0:0:0:
256,192,231897,1,8,0:0:0:0:
256,192,231981,1,0,0:0:0:0:
256,192,232064,1,0,0:0:0:0:
256,192,232147,1,0,0:0:0:0:
256,192,232231,1,0,0:0:0:0:
256,192,232314,1,8,0:0:0:0:
256,192,232647,1,12,0:0:0:0:
256,192,232814,1,0,0:0:0:0:
256,192,232981,1,0,0:0:0:0:
256,192,233147,1,12,0:0:0:0:
256,192,233481,1,0,0:0:0:0:
256,192,233647,1,12,0:0:0:0:
256,192,233814,1,12,0:0:0:0:
256,192,234147,1,0,0:0:0:0:
256,192,234314,1,8,0:0:0:0:
256,192,234397,1,0,0:0:0:0:
256,192,234481,1,0,0:0:0:0:
256,192,234564,1,0,0:0:0:0:
256,192,234647,1,8,0:0:0:0:
256,192,234731,1,8,0:0:0:0:
256,192,234814,1,0,0:0:0:0:
256,192,234981,1,12,0:0:0:0:
256,192,235314,1,4,0:0:0:0:
256,192,235481,1,8,0:0:0:0:
256,192,235647,1,8,0:0:0:0:
256,192,235814,1,4,0:0:0:0:
256,192,236147,1,0,0:0:0:0:
256,192,236314,1,8,0:0:0:0:
256,192,236647,1,12,0:0:0:0:
256,192,236814,1,0,0:0:0:0:
256,192,236981,1,0,0:0:0:0:
256,192,237147,1,12,0:0:0:0:
256,192,237481,1,8,0:0:0:0:
256,192,237647,1,0,0:0:0:0:
256,192,237981,1,4,0:0:0:0:
256,192,238314,1,8,0:0:0:0:
256,192,238647,1,8,0:0:0:0:
256,192,238981,1,8,0:0:0:0:
256,192,239314,1,0,0:0:0:0:
256,192,239481,1,0,0:0:0:0:
256,192,239647,1,8,0:0:0:0:
256,192,239814,1,0,0:0:0:0:
256,192,239981,1,8,0:0:0:0:
256,192,240064,1,8,0:0:0:0:
256,192,240147,1,0,0:0:0:0:
256,192,240231,1,0,0:0:0:0:
256,192,240314,1,8,0:0:0:0:
256,192,240370,1,8,0:0:0:0:
256,192,240425,1,8,0:0:0:0:
256,192,240481,1,8,0:0:0:0:
256,192,240647,1,4,0:0:0:0:
256,192,240814,1,4,0:0:0:0:
256,192,240981,1,8,0:0:0:0:
256,192,241147,1,4,0:0:0:0:
256,192,241314,1,4,0:0:0:0:
256,192,241481,1,8,0:0:0:0:
256,192,241647,1,12,0:0:0:0:
256,192,241814,1,12,0:0:0:0:
256,192,241981,1,0,0:0:0:0:
256,192,242147,1,12,0:0:0:0:
256,192,242314,1,12,0:0:0:0:
256,192,242481,1,0,0:0:0:0:
256,192,242647,1,12,0:0:0:0:
256,192,242814,1,0,0:0:0:0:
256,192,242870,1,0,0:0:0:0:
256,192,242925,1,0,0:0:0:0:
256,192,242981,1,8,0:0:0:0:
256,192,243147,1,8,0:0:0:0:
256,192,243314,1,4,0:0:0:0:
256,192,243647,1,8,0:0:0:0:
256,192,243814,1,8,0:0:0:0:
256,192,243897,1,8,0:0:0:0:
256,192,243981,1,0,0:0:0:0:
256,192,244064,1,0,0:0:0:0:
256,192,244147,1,8,0:0:0:0:
256,192,244314,1,0,0:0:0:0:
256,192,244481,1,8,0:0:0:0:
256,192,244647,1,0,0:0:0:0:
256,192,244731,1,0,0:0:0:0:
256,192,244814,1,8,0:0:0:0:
256,192,244897,1,0,0:0:0:0:
256,192,244981,1,8,0:0:0:0:
256,192,245147,1,0,0:0:0:0:
256,192,245314,1,8,0:0:0:0:
256,192,245397,1,0,0:0:0:0:
256,192,245481,1,8,0:0:0:0:
256,192,245564,1,8,0:0:0:0:
256,192,245647,1,0,0:0:0:0:
256,192,245814,1,0,0:0:0:0:
256,192,245897,1,8,0:0:0:0:
256,192,245981,1,0,0:0:0:0:
256,192,246147,1,0,0:0:0:0:
256,192,246314,1,8,0:0:0:0:
256,192,246397,1,0,0:0:0:0:
256,192,246481,1,8,0:0:0:0:
256,192,246564,1,0,0:0:0:0:
256,192,246647,1,0,0:0:0:0:
256,192,246731,1,0,0:0:0:0:
256,192,246814,1,8,0:0:0:0:
256,192,246981,1,0,0:0:0:0:
256,192,247147,1,8,0:0:0:0:
256,192,247231,1,8,0:0:0:0:
256,192,247314,1,0,0:0:0:0:
256,192,247481,1,0,0:0:0:0:
256,192,247564,1,0,0:0:0:0:
256,192,247647,1,8,0:0:0:0:
256,192,247731,1,8,0:0:0:0:
256,192,247814,1,0,0:0:0:0:
256,192,247981,1,0,0:0:0:0:
256,192,248064,1,0,0:0:0:0:
256,192,248147,1,8,0:0:0:0:
256,192,248231,1,0,0:0:0:0:
256,192,248314,1,8,0:0:0:0:
256,192,248397,1,8,0:0:0:0:
256,192,248481,1,0,0:0:0:0:
256,192,248647,1,8,0:0:0:0:
256,192,248814,1,0,0:0:0:0:
256,192,248897,1,0,0:0:0:0:
256,192,248981,1,0,0:0:0:0:
256,192,249147,1,8,0:0:0:0:
256,192,249314,1,0,0:0:0:0:
256,192,249397,1,0,0:0:0:0:
256,192,249481,1,8,0:0:0:0:
256,192,249564,1,8,0:0:0:0:
256,192,249647,1,0,0:0:0:0:
256,192,249814,1,8,0:0:0:0:
256,192,249981,1,0,0:0:0:0:
256,192,250064,1,8,0:0:0:0:
256,192,250147,1,0,0:0:0:0:
256,192,250231,1,0,0:0:0:0:
256,192,250314,1,8,0:0:0:0:
256,192,250397,1,8,0:0:0:0:
256,192,250481,1,0,0:0:0:0:
256,192,250647,1,8,0:0:0:0:
256,192,250814,1,0,0:0:0:0:
256,192,250897,1,0,0:0:0:0:
256,192,250981,1,8,0:0:0:0:
256,192,251064,1,8,0:0:0:0:
256,192,251147,1,8,0:0:0:0:
256,192,251314,1,0,0:0:0:0:
256,192,251647,1,12,0:0:0:0:
256,192,251814,1,0,0:0:0:0:
256,192,251897,1,0,0:0:0:0:
256,192,251981,1,8,0:0:0:0:
256,192,252064,1,8,0:0:0:0:
256,192,252147,1,0,0:0:0:0:
256,192,252314,1,12,0:0:0:0:
256,192,252481,1,0,0:0:0:0:
256,192,252647,1,12,0:0:0:0:
256,192,252981,1,12,0:0:0:0:
256,192,253314,1,12,0:0:0:0:
256,192,253647,1,0,0:0:0:0:
256,192,253814,1,8,0:0:0:0:
256,192,253981,1,0,0:0:0:0:
256,192,254314,1,12,0:0:0:0:
256,192,254481,1,8,0:0:0:0:
256,192,254564,1,0,0:0:0:0:
256,192,254647,1,0,0:0:0:0:
256,192,254731,1,0,0:0:0:0:
256,192,254814,1,8,0:0:0:0:
256,192,254981,1,0,0:0:0:0:
256,192,255147,1,8,0:0:0:0:
256,192,255314,1,0,0:0:0:0:
256,192,255397,1,8,0:0:0:0:
256,192,255481,1,0,0:0:0:0:
256,192,255564,1,0,0:0:0:0:
256,192,255647,1,8,0:0:0:0:
256,192,255814,1,0,0:0:0:0:
256,192,255981,1,8,0:0:0:0:
256,192,256064,1,0,0:0:0:0:
256,192,256147,1,8,0:0:0:0:
256,192,256231,1,0,0:0:0:0:
256,192,256314,1,8,0:0:0:0:
256,192,256481,1,8,0:0:0:0:
256,192,256564,1,8,0:0:0:0:
256,192,256647,1,0,0:0:0:0:
256,192,256814,1,0,0:0:0:0:
256,192,256981,1,8,0:0:0:0:
256,192,257064,1,0,0:0:0:0:
256,192,257147,1,8,0:0:0:0:
256,192,257231,1,8,0:0:0:0:
256,192,257314,1,0,0:0:0:0:
256,192,257397,1,0,0:0:0:0:
256,192,257481,1,8,0:0:0:0:
256,192,257647,1,0,0:0:0:0:
256,192,257814,1,8,0:0:0:0:
256,192,257897,1,8,0:0:0:0:
256,192,257981,1,0,0:0:0:0:
256,192,258147,1,0,0:0:0:0:
256,192,258231,1,0,0:0:0:0:
256,192,258314,1,8,0:0:0:0:
256,192,258481,1,0,0:0:0:0:
256,192,258647,1,8,0:0:0:0:
256,192,258731,1,0,0:0:0:0:
256,192,258814,1,8,0:0:0:0:
256,192,258897,1,8,0:0:0:0:
256,192,258981,1,0,0:0:0:0:
256,192,259064,1,8,0:0:0:0:
256,192,259147,1,0,0:0:0:0:
256,192,259314,1,8,0:0:0:0:
256,192,259481,1,0,0:0:0:0:
256,192,259564,1,0,0:0:0:0:
256,192,259647,1,0,0:0:0:0:
256,192,259814,1,8,0:0:0:0:
256,192,259981,1,0,0:0:0:0:
256,192,260064,1,0,0:0:0:0:
256,192,260147,1,8,0:0:0:0:
256,192,260231,1,8,0:0:0:0:
256,192,260314,1,0,0:0:0:0:
256,192,260481,1,8,0:0:0:0:
256,192,260647,1,0,0:0:0:0:
256,192,260731,1,8,0:0:0:0:
256,192,260814,1,0,0:0:0:0:
256,192,260897,1,0,0:0:0:0:
256,192,260981,1,8,0:0:0:0:
256,192,261147,1,0,0:0:0:0:
256,192,261314,1,8,0:0:0:0:
256,192,261397,1,8,0:0:0:0:
256,192,261481,1,0,0:0:0:0:
256,192,261564,1,0,0:0:0:0:
256,192,261647,1,8,0:0:0:0:
256,192,261814,1,0,0:0:0:0:
256,192,261981,1,0,0:0:0:0:
256,192,262064,1,0,0:0:0:0:
256,192,262147,1,0,0:0:0:0:
256,192,262231,1,0,0:0:0:0:
256,192,262314,1,8,0:0:0:0:
256,192,262397,1,0,0:0:0:0:
256,192,262481,1,8,0:0:0:0:
256,192,262564,1,0,0:0:0:0:
256,192,262647,1,8,0:0:0:0:
256,192,262731,1,8,0:0:0:0:
256,192,262814,1,0,0:0:0:0:
256,192,262897,1,0,0:0:0:0:
256,192,262981,1,8,0:0:0:0:
256,192,263036,1,8,0:0:0:0:
256,192,263092,1,8,0:0:0:0:
256,192,263147,1,8,0:0:0:0:
256,192,263203,1,8,0:0:0:0:
256,192,263259,1,8,0:0:0:0:
256,192,263314,1,0,0:0:0:0:
256,192,263564,1,8,0:0:0:0:
256,192,263647,1,8,0:0:0:0:
256,192,263814,1,0,0:0:0:0:
256,192,263897,1,8,0:0:0:0:
256,192,263981,1,0,0:0:0:0:
256,192,264064,1,0,0:0:0:0:
256,192,264147,1,8,0:0:0:0:
256,192,264203,1,8,0:0:0:0:
256,192,264259,1,0,0:0:0:0:
256,192,264314,1,8,0:0:0:0:
256,192,264481,1,8,0:0:0:0:
256,192,264647,1,4,0:0:0:0:
256,192,264981,1,8,0:0:0:0:
256,192,265314,1,4,0:0:0:0:
256,192,265647,1,8,0:0:0:0:
256,192,265814,1,4,0:0:0:0:
256,192,266147,1,4,0:0:0:0:
256,192,266481,1,4,0:0:0:0:
256,192,266814,1,8,0:0:0:0:
256,192,266870,1,0,0:0:0:0:
256,192,266925,1,0,0:0:0:0:
256,192,266981,1,8,0:0:0:0:
256,192,267147,1,0,0:0:0:0:
256,192,267481,1,4,0:0:0:0:
256,192,267647,1,4,0:0:0:0:
256,192,268147,1,12,0:0:0:0:
256,192,268314,1,12,0:0:0:0:
256,192,268647,1,4,0:0:0:0:
256,192,268814,1,4,0:0:0:0:
256,192,268981,1,12,0:0:0:0:
256,192,269147,1,12,0:0:0:0:
256,192,269481,1,0,0:0:0:0:
256,192,269536,1,0,0:0:0:0:
256,192,269592,1,0,0:0:0:0:
256,192,269647,1,8,0:0:0:0:
256,192,269981,1,4,0:0:0:0:
256,192,270147,1,0,0:0:0:0:
256,192,270231,1,0,0:0:0:0:
256,192,270314,1,8,0:0:0:0:
256,192,270481,1,8,0:0:0:0:
256,192,270564,1,8,0:0:0:0:
256,192,270647,1,0,0:0:0:0:
256,192,270731,1,0,0:0:0:0:
256,192,270814,1,8,0:0:0:0:
256,192,270981,1,0,0:0:0:0:
256,192,271147,1,8,0:0:0:0:
256,192,271314,1,0,0:0:0:0:
256,192,271481,1,8,0:0:0:0:
256,192,271564,1,0,0:0:0:0:
256,192,271647,1,8,0:0:0:0:
256,192,271814,1,0,0:0:0:0:
256,192,271981,1,0,0:0:0:0:
256,192,272064,1,0,0:0:0:0:
256,192,272147,1,8,0:0:0:0:
256,192,272231,1,0,0:0:0:0:
256,192,272314,1,8,0:0:0:0:
256,192,272481,1,0,0:0:0:0:
256,192,272647,1,0,0:0:0:0:
256,192,272731,1,0,0:0:0:0:
256,192,272814,1,8,0:0:0:0:
256,192,272981,1,8,0:0:0:0:
256,192,273147,1,0,0:0:0:0:
256,192,273231,1,8,0:0:0:0:
256,192,273314,1,0,0:0:0:0:
256,192,273397,1,0,0:0:0:0:
256,192,273481,1,8,0:0:0:0:
256,192,273647,1,0,0:0:0:0:
256,192,273814,1,8,0:0:0:0:
256,192,273897,1,8,0:0:0:0:
256,192,273981,1,0,0:0:0:0:
256,192,274064,1,0,0:0:0:0:
256,192,274147,1,8,0:0:0:0:
256,192,274314,1,0,0:0:0:0:
256,192,274481,1,8,0:0:0:0:
256,192,274647,1,0,0:0:0:0:
256,192,274731,1,0,0:0:0:0:
256,192,274814,1,8,0:0:0:0:
256,192,274897,1,0,0:0:0:0:
256,192,274981,1,8,0:0:0:0:
256,192,275064,1,8,0:0:0:0:
256,192,275147,1,0,0:0:0:0:
256,192,275314,1,8,0:0:0:0:
256,192,275481,1,0,0:0:0:0:
256,192,275564,1,0,0:0:0:0:
256,192,275647,1,0,0:0:0:0:
256,192,275814,1,8,0:0:0:0:
256,192,275981,1,0,0:0:0:0:
256,192,276147,1,8,0:0:0:0:
256,192,276231,1,8,0:0:0:0:
256,192,276314,1,0,0:0:0:0:
256,192,276397,1,0,0:0:0:0:
256,192,276481,1,8,0:0:0:0:
256,192,276647,1,0,0:0:0:0:
256,192,276814,1,8,0:0:0:0:
256,192,276897,1,0,0:0:0:0:
256,192,276981,1,8,0:0:0:0:
256,192,277147,1,0,0:0:0:0:
256,192,277314,1,0,0:0:0:0:
256,192,277397,1,8,0:0:0:0:
256,192,277481,1,8,0:0:0:0:
256,192,277564,1,0,0:0:0:0:
256,192,277647,1,8,0:0:0:0:
256,192,277814,1,0,0:0:0:0:
256,192,278147,1,0,0:0:0:0:
256,192,278314,1,12,0:0:0:0:
256,192,278481,1,8,0:0:0:0:
256,192,278564,1,0,0:0:0:0:
256,192,278647,1,0,0:0:0:0:
256,192,278731,1,8,0:0:0:0:
256,192,278814,1,0,0:0:0:0:
256,192,278897,1,0,0:0:0:0:
256,192,278981,1,8,0:0:0:0:
256,192,279036,1,8,0:0:0:0:
256,192,279092,1,8,0:0:0:0:
256,192,279147,1,0,0:0:0:0:
256,192,279314,1,4,0:0:0:0:
256,192,279647,1,4,0:0:0:0:
256,192,279981,1,4,0:0:0:0:
256,192,280147,1,0,0:0:0:0:
256,192,280314,1,12,0:0:0:0:
256,192,280481,1,0,0:0:0:0:
256,192,280647,1,4,0:0:0:0:
256,192,280814,1,0,0:0:0:0:
256,192,280897,1,0,0:0:0:0:
256,192,280981,1,8,0:0:0:0:
256,192,281147,1,8,0:0:0:0:
256,192,281231,1,8,0:0:0:0:
256,192,281314,1,0,0:0:0:0:
256,192,281397,1,0,0:0:0:0:
256,192,281481,1,8,0:0:0:0:
256,192,281647,1,0,0:0:0:0:
256,192,281814,1,8,0:0:0:0:
256,192,281981,1,0,0:0:0:0:
256,192,282064,1,8,0:0:0:0:
256,192,282147,1,0,0:0:0:0:
256,192,282314,1,8,0:0:0:0:
256,192,282481,1,0,0:0:0:0:
256,192,282564,1,0,0:0:0:0:
256,192,282647,1,8,0:0:0:0:
256,192,282731,1,8,0:0:0:0:
256,192,282814,1,0,0:0:0:0:
256,192,282981,1,8,0:0:0:0:
256,192,283147,1,0,0:0:0:0:
256,192,283231,1,0,0:0:0:0:
256,192,283314,1,8,0:0:0:0:
256,192,283481,1,8,0:0:0:0:
256,192,283647,1,0,0:0:0:0:
256,192,283814,1,8,0:0:0:0:
256,192,283897,1,0,0:0:0:0:
256,192,283981,1,0,0:0:0:0:
256,192,284064,1,0,0:0:0:0:
256,192,284147,1,8,0:0:0:0:
256,192,284314,1,0,0:0:0:0:
256,192,284481,1,8,0:0:0:0:
256,192,284647,1,0,0:0:0:0:
256,192,284731,1,0,0:0:0:0:
256,192,284814,1,8,0:0:0:0:
256,192,284981,1,0,0:0:0:0:
256,192,285147,1,8,0:0:0:0:
256,192,285314,1,0,0:0:0:0:
256,192,285397,1,0,0:0:0:0:
256,192,285481,1,8,0:0:0:0:
256,192,285564,1,0,0:0:0:0:
256,192,285647,1,8,0:0:0:0:
256,192,285731,1,8,0:0:0:0:
256,192,285814,1,0,0:0:0:0:
256,192,285981,1,8,0:0:0:0:
256,192,286147,1,0,0:0:0:0:
256,192,286231,1,0,0:0:0:0:
256,192,286314,1,0,0:0:0:0:
256,192,286481,1,8,0:0:0:0:
256,192,286647,1,0,0:0:0:0:
256,192,286814,1,8,0:0:0:0:
256,192,286897,1,8,0:0:0:0:
256,192,286981,1,0,0:0:0:0:
256,192,287064,1,0,0:0:0:0:
256,192,287147,1,8,0:0:0:0:
256,192,287314,1,0,0:0:0:0:
256,192,287481,1,8,0:0:0:0:
256,192,287564,1,0,0:0:0:0:
256,192,287647,1,8,0:0:0:0:
256,192,287814,1,0,0:0:0:0:
256,192,287981,1,0,0:0:0:0:
256,192,288064,1,8,0:0:0:0:
256,192,288147,1,8,0:0:0:0:
256,192,288231,1,0,0:0:0:0:
256,192,288314,1,8,0:0:0:0:
256,192,288481,1,0,0:0:0:0:
256,192,288647,1,0,0:0:0:0:
256,192,288731,1,8,0:0:0:0:
256,192,288814,1,0,0:0:0:0:
256,192,288897,1,0,0:0:0:0:
256,192,288981,1,8,0:0:0:0:
256,192,289064,1,8,0:0:0:0:
256,192,289147,1,0,0:0:0:0:
256,192,289231,1,0,0:0:0:0:
256,192,289314,1,8,0:0:0:0:
256,192,289397,1,0,0:0:0:0:
256,192,289481,1,0,0:0:0:0:
256,192,289564,1,0,0:0:0:0:
256,192,289647,1,8,0:0:0:0:
256,192,289703,1,8,0:0:0:0:
256,192,289759,1,8,0:0:0:0:
256,192,289814,1,8,0:0:0:0:
256,192,289870,1,8,0:0:0:0:
256,192,289925,1,8,0:0:0:0:
256,192,289981,1,0,0:0:0:0:
256,192,290147,1,8,0:0:0:0:
256,192,290481,1,8,0:0:0:0:
256,192,290814,1,0,0:0:0:0:
256,192,290981,1,12,0:0:0:0:
256,192,291314,1,0,0:0:0:0:
256,192,292647,1,8,0:0:0:0:
256,192,293981,1,8,0:0:0:0:
256,192,295314,1,8,0:0:0:0:
256,192,296647,1,8,0:0:0:0:
256,192,296981,1,8,0:0:0:0:
256,192,297314,1,8,0:0:0:0:
256,192,297397,1,8,0:0:0:0:
256,192,297481,1,0,0:0:0:0:
256,192,297564,1,0,0:0:0:0:
256,192,297647,1,8,0:0:0:0:
256,192,297981,1,4,0:0:0:0:
256,192,298147,1,8,0:0:0:0:
256,192,298314,1,8,0:0:0:0:
256,192,298481,1,4,0:0:0:0:
256,192,298814,1,0,0:0:0:0:
256,192,298981,1,8,0:0:0:0:
256,192,299314,1,12,0:0:0:0:
256,192,299481,1,0,0:0:0:0:
256,192,299647,1,0,0:0:0:0:
256,192,299814,1,12,0:0:0:0:
256,192,300147,1,8,0:0:0:0:
256,192,300314,1,0,0:0:0:0:
256,192,300647,1,4,0:0:0:0:
256,192,300981,1,8,0:0:0:0:
256,192,301314,1,8,0:0:0:0:
256,192,301647,1,8,0:0:0:0:
256,192,301981,1,0,0:0:0:0:
256,192,302147,1,8,0:0:0:0:
256,192,302314,1,0,0:0:0:0:
256,192,302481,1,0,0:0:0:0:
256,192,302647,1,8,0:0:0:0:
256,192,302731,1,8,0:0:0:0:
256,192,302814,1,0,0:0:0:0:
256,192,302897,1,0,0:0:0:0:
256,192,302981,1,8,0:0:0:0:
256,192,303036,1,8,0:0:0:0:
256,192,303092,1,8,0:0:0:0:
256,192,303147,1,8,0:0:0:0:
256,192,303314,1,4,0:0:0:0:
256,192,303481,1,4,0:0:0:0:
256,192,303647,1,8,0:0:0:0:
256,192,303814,1,4,0:0:0:0:
256,192,303981,1,4,0:0:0:0:
256,192,304147,1,8,0:0:0:0:
256,192,304314,1,12,0:0:0:0:
256,192,304481,1,12,0:0:0:0:
256,192,304647,1,0,0:0:0:0:
256,192,304814,1,12,0:0:0:0:
256,192,304981,1,12,0:0:0:0:
256,192,305147,1,0,0:0:0:0:
256,192,305314,1,12,0:0:0:0:
256,192,305981,5,8,0:0:0:0:
256,192,306147,1,0,0:0:0:0:
256,192,306231,1,0,0:0:0:0:
256,192,306314,1,8,0:0:0:0:
256,192,306397,1,0,0:0:0:0:
256,192,306481,1,0,0:0:0:0:
256,192,306564,1,0,0:0:0:0:
256,192,306647,1,8,0:0:0:0:
256,192,306731,1,8,0:0:0:0:
256,192,306814,1,0,0:0:0:0:
256,192,306870,1,0,0:0:0:0:
256,192,306925,1,0,0:0:0:0:
256,192,306981,1,8,0:0:0:0:
256,192,307147,1,8,0:0:0:0:
256,192,307314,1,4,0:0:0:0:
256,192,307647,1,8,0:0:0:0:
256,192,307814,1,0,0:0:0:0:
256,192,308147,1,8,0:0:0:0:
256,192,308481,1,0,0:0:0:0:
256,192,308814,1,0,0:0:0:0:
256,192,308981,1,8,0:0:0:0:
256,192,309147,1,8,0:0:0:0:
256,192,309314,1,0,0:0:0:0:
256,192,309397,1,8,0:0:0:0:
256,192,309481,1,0,0:0:0:0:
256,192,309536,1,0,0:0:0:0:
256,192,309592,1,0,0:0:0:0:
256,192,309647,1,8,0:0:0:0:
256,192,309814,1,8,0:0:0:0:
256,192,309981,1,4,0:0:0:0:
256,192,310314,1,8,0:0:0:0:
256,192,310481,1,8,0:0:0:0:
256,192,310564,1,0,0:0:0:0:
256,192,310647,1,0,0:0:0:0:
256,192,310731,1,0,0:0:0:0:
256,192,310814,1,8,0:0:0:0:
256,192,310981,1,0,0:0:0:0:
256,192,311147,1,8,0:0:0:0:
256,192,311231,1,8,0:0:0:0:
256,192,311314,1,0,0:0:0:0:
256,192,311481,1,0,0:0:0:0:
256,192,311564,1,0,0:0:0:0:
256,192,311647,1,8,0:0:0:0:
256,192,311731,1,8,0:0:0:0:
256,192,311814,1,0,0:0:0:0:
256,192,311981,1,0,0:0:0:0:
256,192,312064,1,0,0:0:0:0:
256,192,312147,1,8,0:0:0:0:
256,192,312231,1,0,0:0:0:0:
256,192,312314,1,8,0:0:0:0:
256,192,312397,1,8,0:0:0:0:
256,192,312481,1,0,0:0:0:0:
256,192,312647,1,8,0:0:0:0:
256,192,312814,1,0,0:0:0:0:
256,192,312897,1,0,0:0:0:0:
256,192,312981,1,0,0:0:0:0:
256,192,313147,1,8,0:0:0:0:
256,192,313314,1,0,0:0:0:0:
256,192,313397,1,0,0:0:0:0:
256,192,313481,1,8,0:0:0:0:
256,192,313564,1,8,0:0:0:0:
256,192,313647,1,0,0:0:0:0:
256,192,313814,1,8,0:0:0:0:
256,192,313981,1,0,0:0:0:0:
256,192,314064,1,8,0:0:0:0:
256,192,314147,1,0,0:0:0:0:
256,192,314231,1,0,0:0:0:0:
256,192,314314,1,8,0:0:0:0:
256,192,314397,1,8,0:0:0:0:
256,192,314481,1,0,0:0:0:0:
256,192,314647,1,8,0:0:0:0:
256,192,314814,1,0,0:0:0:0:
256,192,314897,1,0,0:0:0:0:
256,192,314981,1,8,0:0:0:0:
256,192,315064,1,8,0:0:0:0:
256,192,315147,1,8,0:0:0:0:
256,192,315314,1,0,0:0:0:0:
256,192,315647,1,12,0:0:0:0:
256,192,315814,1,0,0:0:0:0:
256,192,315897,1,0,0:0:0:0:
256,192,315981,1,8,0:0:0:0:
256,192,316064,1,8,0:0:0:0:
256,192,316147,1,0,0:0:0:0:
256,192,316314,1,12,0:0:0:0:
256,192,316481,1,0,0:0:0:0:
256,192,316647,1,12,0:0:0:0:
256,192,316981,1,12,0:0:0:0:
256,192,317314,1,12,0:0:0:0:
256,192,317647,1,0,0:0:0:0:
256,192,317814,1,8,0:0:0:0:
256,192,317981,1,0,0:0:0:0:
256,192,318314,1,12,0:0:0:0:
256,192,318481,1,8,0:0:0:0:
256,192,318564,1,0,0:0:0:0:
256,192,318647,1,0,0:0:0:0:
256,192,318731,1,0,0:0:0:0:
256,192,318814,1,8,0:0:0:0:
256,192,318981,1,0,0:0:0:0:
256,192,319147,1,8,0:0:0:0:
256,192,319314,1,0,0:0:0:0:
256,192,319397,1,8,0:0:0:0:
256,192,319481,1,0,0:0:0:0:
256,192,319564,1,0,0:0:0:0:
256,192,319647,1,8,0:0:0:0:
256,192,319814,1,0,0:0:0:0:
256,192,319981,1,8,0:0:0:0:
256,192,320064,1,0,0:0:0:0:
256,192,320147,1,8,0:0:0:0:
256,192,320231,1,0,0:0:0:0:
256,192,320314,1,8,0:0:0:0:
256,192,320481,1,8,0:0:0:0:
256,192,320564,1,8,0:0:0:0:
256,192,320647,1,0,0:0:0:0:
256,192,320814,1,0,0:0:0:0:
256,192,320981,1,8,0:0:0:0:
256,192,321064,1,0,0:0:0:0:
256,192,321147,1,8,0:0:0:0:
256,192,321231,1,8,0:0:0:0:
256,192,321314,1,0,0:0:0:0:
256,192,321397,1,0,0:0:0:0:
256,192,321481,1,8,0:0:0:0:
256,192,321647,1,0,0:0:0:0:
256,192,321814,1,8,0:0:0:0:
256,192,321897,1,8,0:0:0:0:
256,192,321981,1,0,0:0:0:0:
256,192,322147,1,0,0:0:0:0:
256,192,322231,1,0,0:0:0:0:
256,192,322314,1,8,0:0:0:0:
256,192,322481,1,0,0:0:0:0:
256,192,322647,1,8,0:0:0:0:
256,192,322731,1,0,0:0:0:0:
256,192,322814,1,8,0:0:0:0:
256,192,322897,1,8,0:0:0:0:
256,192,322981,1,0,0:0:0:0:
256,192,323064,1,8,0:0:0:0:
256,192,323147,1,0,0:0:0:0:
256,192,323314,1,8,0:0:0:0:
256,192,323481,1,0,0:0:0:0:
256,192,323564,1,0,0:0:0:0:
256,192,323647,1,0,0:0:0:0:
256,192,323814,1,8,0:0:0:0:
256,192,323981,1,0,0:0:0:0:
256,192,324064,1,0,0:0:0:0:
256,192,324147,1,8,0:0:0:0:
256,192,324231,1,8,0:0:0:0:
256,192,324314,1,0,0:0:0:0:
256,192,324481,1,8,0:0:0:0:
256,192,324647,1,0,0:0:0:0:
256,192,324731,1,8,0:0:0:0:
256,192,324814,1,0,0:0:0:0:
256,192,324897,1,0,0:0:0:0:
256,192,324981,1,8,0:0:0:0:
256,192,325147,1,0,0:0:0:0:
256,192,325314,1,8,0:0:0:0:
256,192,325397,1,8,0:0:0:0:
256,192,325481,1,0,0:0:0:0:
256,192,325564,1,0,0:0:0:0:
256,192,325647,1,8,0:0:0:0:
256,192,325814,1,0,0:0:0:0:
256,192,325981,1,0,0:0:0:0:
256,192,326064,1,0,0:0:0:0:
256,192,326147,1,0,0:0:0:0:
256,192,326231,1,0,0:0:0:0:
256,192,326314,1,8,0:0:0:0:
256,192,326397,1,0,0:0:0:0:
256,192,326481,1,8,0:0:0:0:
256,192,326564,1,0,0:0:0:0:
256,192,326647,1,8,0:0:0:0:
256,192,326731,1,8,0:0:0:0:
256,192,326814,1,0,0:0:0:0:
256,192,326897,1,0,0:0:0:0:
256,192,326981,1,8,0:0:0:0:
256,192,327036,1,8,0:0:0:0:
256,192,327092,1,8,0:0:0:0:
256,192,327147,1,8,0:0:0:0:
256,192,327203,1,8,0:0:0:0:
256,192,327259,1,8,0:0:0:0:
256,192,327314,1,0,0:0:0:0:
256,192,327564,1,8,0:0:0:0:
256,192,327647,1,8,0:0:0:0:
256,192,327814,1,0,0:0:0:0:
256,192,327897,1,8,0:0:0:0:
256,192,327981,1,0,0:0:0:0:
256,192,328064,1,0,0:0:0:0:
256,192,328147,1,8,0:0:0:0:
256,192,328203,1,8,0:0:0:0:
256,192,328259,1,0,0:0:0:0:
256,192,328314,1,8,0:0:0:0:
256,192,328481,1,8,0:0:0:0:
256,192,328647,1,4,0:0:0:0:
256,192,328981,1,8,0:0:0:0:
256,192,329314,1,4,0:0:0:0:
256,192,329647,1,8,0:0:0:0:
256,192,329814,1,4,0:0:0:0:
256,192,330147,1,4,0:0:0:0:
256,192,330481,1,4,0:0:0:0:
256,192,330814,1,8,0:0:0:0:
256,192,330870,1,0,0:0:0:0:
256,192,330925,1,0,0:0:0:0:
256,192,330981,1,8,0:0:0:0:
256,192,331147,1,0,0:0:0:0:
256,192,331481,1,4,0:0:0:0:
256,192,331647,1,4,0:0:0:0:
256,192,332147,1,12,0:0:0:0:
256,192,332314,1,12,0:0:0:0:
256,192,332647,1,4,0:0:0:0:
256,192,332814,1,4,0:0:0:0:
256,192,332981,1,12,0:0:0:0:
256,192,333147,1,12,0:0:0:0:
256,192,333481,1,0,0:0:0:0:
256,192,333536,1,0,0:0:0:0:
256,192,333592,1,0,0:0:0:0:
256,192,333647,1,8,0:0:0:0:
256,192,333981,1,4,0:0:0:0:
256,192,334147,1,0,0:0:0:0:
256,192,334231,1,0,0:0:0:0:
256,192,334314,1,8,0:0:0:0:
256,192,334481,1,8,0:0:0:0:
256,192,334564,1,0,0:0:0:0:
256,192,334647,1,8,0:0:0:0:
256,192,334731,1,0,0:0:0:0:
256,192,334814,1,8,0:0:0:0:
256,192,334981,1,0,0:0:0:0:
256,192,335147,1,8,0:0:0:0:
256,192,335231,1,8,0:0:0:0:
256,192,335314,1,0,0:0:0:0:
256,192,335370,1,0,0:0:0:0:
256,192,335425,1,0,0:0:0:0:
256,192,335481,1,8,0:0:0:0:
256,192,335647,1,0,0:0:0:0:
256,192,335731,1,8,0:0:0:0:
256,192,335814,1,0,0:0:0:0:
256,192,335981,1,12,0:0:0:0:
256,192,336147,1,12,0:0:0:0:
256,192,336314,1,12,0:0:0:0:
256,192,336481,1,0,0:0:0:0:
256,192,336647,1,0,0:0:0:0:
256,192,336731,1,8,0:0:0:0:
256,192,336814,1,0,0:0:0:0:
256,192,336897,1,0,0:0:0:0:
256,192,336981,1,8,0:0:0:0:
256,192,337147,1,0,0:0:0:0:
256,192,337314,1,8,0:0:0:0:
256,192,337370,1,0,0:0:0:0:
256,192,337425,1,0,0:0:0:0:
256,192,337481,1,8,0:0:0:0:
256,192,337564,1,8,0:0:0:0:
256,192,337647,1,0,0:0:0:0:
256,192,337814,1,8,0:0:0:0:
256,192,337981,1,0,0:0:0:0:
256,192,338036,1,0,0:0:0:0:
256,192,338092,1,0,0:0:0:0:
256,192,338147,1,8,0:0:0:0:
256,192,338231,1,8,0:0:0:0:
256,192,338314,1,0,0:0:0:0:
256,192,338481,1,0,0:0:0:0:
256,192,338564,1,0,0:0:0:0:
256,192,338647,1,8,0:0:0:0:
256,192,338814,1,0,0:0:0:0:
256,192,338981,1,8,0:0:0:0:
256,192,339147,1,8,0:0:0:0:
256,192,339231,1,8,0:0:0:0:
256,192,339314,1,0,0:0:0:0:
256,192,339397,1,0,0:0:0:0:
256,192,339481,1,0,0:0:0:0:
256,192,339564,1,0,0:0:0:0:
256,192,339647,1,8,0:0:0:0:
256,192,339814,1,8,0:0:0:0:
256,192,339897,1,0,0:0:0:0:
256,192,339981,1,8,0:0:0:0:
256,192,340064,1,0,0:0:0:0:
256,192,340147,1,8,0:0:0:0:
256,192,340314,1,0,0:0:0:0:
256,192,340481,1,8,0:0:0:0:
256,192,340564,1,8,0:0:0:0:
256,192,340647,1,0,0:0:0:0:
256,192,340703,1,0,0:0:0:0:
256,192,340759,1,0,0:0:0:0:
256,192,340814,1,8,0:0:0:0:
256,192,340981,1,0,0:0:0:0:
256,192,341064,1,8,0:0:0:0:
256,192,341147,1,0,0:0:0:0:
256,192,341314,1,12,0:0:0:0:
256,192,341481,1,12,0:0:0:0:
256,192,341647,1,12,0:0:0:0:
256,192,341814,1,0,0:0:0:0:
256,192,341981,1,0,0:0:0:0:
256,192,342064,1,8,0:0:0:0:
256,192,342147,1,0,0:0:0:0:
256,192,342231,1,0,0:0:0:0:
256,192,342314,1,8,0:0:0:0:
256,192,342481,1,0,0:0:0:0:
256,192,342647,1,0,0:0:0:0:
256,192,342731,1,0,0:0:0:0:
256,192,342814,1,0,0:0:0:0:
256,192,342897,1,0,0:0:0:0:
256,192,342981,1,8,0:0:0:0:
256,192,343064,1,0,0:0:0:0:
256,192,343147,1,8,0:0:0:0:
256,192,343314,1,0,0:0:0:0:
256,192,343397,1,0,0:0:0:0:
256,192,343481,1,8,0:0:0:0:
256,192,343647,1,0,0:0:0:0:
256,192,343814,1,8,0:0:0:0:
256,192,343897,1,8,0:0:0:0:
256,192,343981,1,0,0:0:0:0:
256,192,344147,1,0,0:0:0:0:
256,192,344314,1,8,0:0:0:0:
256,192,344397,1,0,0:0:0:0:
256,192,344481,1,8,0:0:0:0:
256,192,344564,1,8,0:0:0:0:
256,192,344647,1,0,0:0:0:0:
256,192,344731,1,0,0:0:0:0:
256,192,344814,1,0,0:0:0:0:
256,192,344897,1,0,0:0:0:0:
256,192,344981,1,8,0:0:0:0:
256,192,345147,1,8,0:0:0:0:
256,192,345231,1,0,0:0:0:0:
256,192,345314,1,8,0:0:0:0:
256,192,345397,1,0,0:0:0:0:
256,192,345481,1,8,0:0:0:0:
256,192,345564,1,8,0:0:0:0:
256,192,345647,1,0,0:0:0:0:
256,192,345814,1,8,0:0:0:0:
256,192,345897,1,8,0:0:0:0:
256,192,345981,1,0,0:0:0:0:
256,192,346036,1,0,0:0:0:0:
256,192,346092,1,0,0:0:0:0:
256,192,346147,1,8,0:0:0:0:
256,192,346231,1,8,0:0:0:0:
256,192,346314,1,0,0:0:0:0:
256,192,346481,1,0,0:0:0:0:
256,192,346647,1,12,0:0:0:0:
256,192,346814,1,12,0:0:0:0:
256,192,346981,1,12,0:0:0:0:
256,192,347147,1,8,0:0:0:0:
256,192,347231,1,8,0:0:0:0:
256,192,347314,1,0,0:0:0:0:
256,192,347397,1,8,0:0:0:0:
256,192,347481,1,0,0:0:0:0:
256,192,347564,1,0,0:0:0:0:
256,192,347647,1,8,0:0:0:0:
256,192,347814,1,0,0:0:0:0:
256,192,347981,1,8,0:0:0:0:
256,192,348036,1,0,0:0:0:0:
256,192,348092,1,0,0:0:0:0:
256,192,348147,1,8,0:0:0:0:
256,192,348231,1,8,0:0:0:0:
256,192,348314,1,0,0:0:0:0:
256,192,348481,1,8,0:0:0:0:
256,192,348647,1,0,0:0:0:0:
256,192,348703,1,0,0:0:0:0:
256,192,348759,1,0,0:0:0:0:
256,192,348814,1,8,0:0:0:0:
256,192,348897,1,0,0:0:0:0:
256,192,348981,1,8,0:0:0:0:
256,192,349064,1,8,0:0:0:0:
256,192,349147,1,0,0:0:0:0:
256,192,349231,1,0,0:0:0:0:
256,192,349314,1,8,0:0:0:0:
256,192,349481,1,0,0:0:0:0:
256,192,349647,1,8,0:0:0:0:
256,192,349731,1,0,0:0:0:0:
256,192,349814,1,8,0:0:0:0:
256,192,349897,1,8,0:0:0:0:
256,192,349981,1,0,0:0:0:0:
256,192,350064,1,0,0:0:0:0:
256,192,350147,1,0,0:0:0:0:
256,192,350231,1,0,0:0:0:0:
256,192,350314,1,8,0:0:0:0:
256,192,350481,1,8,0:0:0:0:
256,192,350564,1,0,0:0:0:0:
256,192,350647,1,8,0:0:0:0:
256,192,350731,1,0,0:0:0:0:
256,192,350814,1,8,0:0:0:0:
256,192,350897,1,8,0:0:0:0:
256,192,350981,1,0,0:0:0:0:
256,192,351147,1,8,0:0:0:0:
256,192,351231,1,8,0:0:0:0:
256,192,351314,1,0,0:0:0:0:
256,192,351370,1,0,0:0:0:0:
256,192,351425,1,0,0:0:0:0:
256,192,351481,1,8,0:0:0:0:
256,192,351564,1,8,0:0:0:0:
256,192,351647,1,0,0:0:0:0:
256,192,351814,1,0,0:0:0:0:
256,192,351981,1,12,0:0:0:0:
256,192,352147,1,12,0:0:0:0:
256,192,352314,1,12,0:0:0:0:
256,192,352481,1,8,0:0:0:0:
256,192,352564,1,8,0:0:0:0:
256,192,352647,1,0,0:0:0:0:
256,192,352731,1,8,0:0:0:0:
256,192,352814,1,0,0:0:0:0:
256,192,352897,1,0,0:0:0:0:
256,192,352981,1,8,0:0:0:0:
256,192,353064,1,8,0:0:0:0:
256,192,353147,1,8,0:0:0:0:
256,192,353231,1,8,0:0:0:0:
256,192,353314,1,0,0:0:0:0:
256,192,353397,1,8,0:0:0:0:
256,192,353481,1,0,0:0:0:0:
256,192,353564,1,0,0:0:0:0:
256,192,353647,1,8,0:0:0:0:
256,192,353703,1,8,0:0:0:0:
256,192,353759,1,8,0:0:0:0:
256,192,353814,1,8,0:0:0:0:
256,192,353870,1,8,0:0:0:0:
256,192,353925,1,8,0:0:0:0:
256,192,353981,1,0,0:0:0:0:
256,192,354481,1,12,0:0:0:0:
256,192,354814,1,0,0:0:0:0:
256,192,354981,1,12,0:0:0:0:
256,192,355314,1,4,0:0:0:0:
256,192,355647,1,8,0:0:0:0:
256,192,355814,1,0,0:0:0:0:
256,192,355981,1,0,0:0:0:0:
256,192,356147,1,0,0:0:0:0:
256,192,356314,1,8,0:0:0:0:
256,192,356647,1,0,0:0:0:0:
256,192,356981,1,8,0:0:0:0:
256,192,357147,1,0,0:0:0:0:
256,192,357314,1,0,0:0:0:0:
256,192,357481,1,0,0:0:0:0:
256,192,357647,1,8,0:0:0:0:
256,192,357814,1,8,0:0:0:0:
256,192,357981,1,0,0:0:0:0:
256,192,358314,1,8,0:0:0:0:
256,192,358481,1,8,0:0:0:0:
256,192,358647,1,0,0:0:0:0:
256,192,358814,1,0,0:0:0:0:
256,192,358981,1,8,0:0:0:0:
256,192,359314,1,0,0:0:0:0:
256,192,359647,1,8,0:0:0:0:
256,192,359814,1,8,0:0:0:0:
256,192,359981,1,0,0:0:0:0:
256,192,360147,1,0,0:0:0:0:
256,192,360314,1,8,0:0:0:0:
256,192,360481,1,8,0:0:0:0:
256,192,360647,1,0,0:0:0:0:
256,192,360981,1,8,0:0:0:0:
256,192,361147,1,0,0:0:0:0:
256,192,361314,1,0,0:0:0:0:
256,192,361481,1,0,0:0:0:0:
256,192,361647,1,8,0:0:0:0:
256,192,361981,1,0,0:0:0:0:
256,192,362314,1,8,0:0:0:0:
256,192,362481,1,0,0:0:0:0:
256,192,362647,1,0,0:0:0:0:
256,192,362814,1,0,0:0:0:0:
256,192,362981,1,8,0:0:0:0:
256,192,363147,1,8,0:0:0:0:
256,192,363314,1,0,0:0:0:0:
256,192,363647,1,8,0:0:0:0:
256,192,363814,1,8,0:0:0:0:
256,192,363981,1,0,0:0:0:0:
256,192,364147,1,0,0:0:0:0:
256,192,364314,1,8,0:0:0:0:
256,192,364647,1,0,0:0:0:0:
256,192,364814,1,0,0:0:0:0:
256,192,364981,1,8,0:0:0:0:
256,192,365147,1,0,0:0:0:0:
256,192,365481,1,0,0:0:0:0:
256,192,365647,1,8,0:0:0:0:
256,192,365981,1,4,0:0:0:0:
256,192,366314,1,8,0:0:0:0:
256,192,366647,1,0,0:0:0:0:
256,192,366814,1,0,0:0:0:0:
256,192,366981,1,8,0:0:0:0:
256,192,367314,1,0,0:0:0:0:
256,192,367647,1,8,0:0:0:0:
256,192,367981,1,0,0:0:0:0:
256,192,368147,1,0,0:0:0:0:
256,192,368314,1,8,0:0:0:0:
256,192,368481,1,8,0:0:0:0:
256,192,368647,1,0,0:0:0:0:
256,192,368981,1,8,0:0:0:0:
256,192,369314,1,0,0:0:0:0:
256,192,369481,1,0,0:0:0:0:
256,192,369647,1,8,0:0:0:0:
256,192,369981,1,0,0:0:0:0:
256,192,370314,1,8,0:0:0:0:
256,192,370481,1,0,0:0:0:0:
256,192,370647,1,0,0:0:0:0:
256,192,370814,1,0,0:0:0:0:
256,192,370981,1,8,0:0:0:0:
256,192,371314,1,0,0:0:0:0:
256,192,371647,1,8,0:0:0:0:
256,192,371981,1,0,0:0:0:0:
256,192,372147,1,0,0:0:0:0:
256,192,372314,1,8,0:0:0:0:
256,192,372647,1,0,0:0:0:0:
256,192,372981,1,8,0:0:0:0:
256,192,373314,1,0,0:0:0:0:
256,192,373481,1,0,0:0:0:0:
256,192,373647,1,8,0:0:0:0:
256,192,373814,1,8,0:0:0:0:
256,192,373981,1,0,0:0:0:0:
256,192,374314,1,8,0:0:0:0:
256,192,374647,1,0,0:0:0:0:
256,192,374814,1,0,0:0:0:0:
256,192,374981,1,8,0:0:0:0:
256,192,375314,1,4,0:0:0:0:
256,192,375481,8,0,375981,0:0:0:0:
256,192,376147,5,0,0:0:0:0:
256,192,376231,1,0,0:0:0:0:
256,192,376314,1,8,0:0:0:0:
256,192,376647,1,4,0:0:0:0:
256,192,376981,1,8,0:0:0:0:
256,192,377314,1,0,0:0:0:0:
256,192,377481,1,0,0:0:0:0:
256,192,377647,1,8,0:0:0:0:
256,192,377981,1,0,0:0:0:0:
256,192,378314,1,8,0:0:0:0:
256,192,378647,1,0,0:0:0:0:
256,192,378981,1,8,0:0:0:0:
256,192,379147,1,8,0:0:0:0:
256,192,379314,1,0,0:0:0:0:
256,192,379647,1,8,0:0:0:0:
256,192,379981,1,0,0:0:0:0:
256,192,380147,1,0,0:0:0:0:
256,192,380314,1,8,0:0:0:0:
256,192,380647,1,0,0:0:0:0:
256,192,380981,1,8,0:0:0:0:
256,192,381314,1,0,0:0:0:0:
256,192,381647,1,8,0:0:0:0:
256,192,381814,1,8,0:0:0:0:
256,192,381981,1,0,0:0:0:0:
256,192,382314,1,8,0:0:0:0:
256,192,382647,1,0,0:0:0:0:
256,192,382814,1,0,0:0:0:0:
256,192,382981,1,8,0:0:0:0:
256,192,383314,1,0,0:0:0:0:
256,192,383647,1,8,0:0:0:0:
256,192,383981,1,0,0:0:0:0:
256,192,384314,1,8,0:0:0:0:
256,192,384481,1,8,0:0:0:0:
256,192,384647,1,0,0:0:0:0:
256,192,384981,1,8,0:0:0:0:
256,192,385314,1,0,0:0:0:0:
256,192,385481,1,0,0:0:0:0:
256,192,385647,1,8,0:0:0:0:
256,192,385981,1,0,0:0:0:0:
256,192,386314,1,8,0:0:0:0:
256,192,386981,1,8,0:0:0:0:
256,192,387314,1,4,0:0:0:0:
256,192,387647,1,8,0:0:0:0:
256,192,387981,1,0,0:0:0:0:
256,192,388314,1,8,0:0:0:0:
256,192,388647,1,0,0:0:0:0:
256,192,388981,1,8,0:0:0:0:
256,192,389314,1,0,0:0:0:0:
256,192,389647,1,8,0:0:0:0:
256,192,389814,1,8,0:0:0:0:
256,192,389981,1,0,0:0:0:0:
256,192,390314,1,8,0:0:0:0:
256,192,390647,1,0,0:0:0:0:
256,192,390981,1,8,0:0:0:0:
256,192,391314,1,0,0:0:0:0:
256,192,391647,1,8,0:0:0:0:
256,192,391981,1,0,0:0:0:0:
256,192,392147,1,0,0:0:0:0:
256,192,392314,1,8,0:0:0:0:
256,192,392647,1,0,0:0:0:0:
256,192,392981,1,8,0:0:0:0:
256,192,393314,1,0,0:0:0:0:
256,192,393647,1,8,0:0:0:0:
256,192,393981,1,0,0:0:0:0:
256,192,394314,1,8,0:0:0:0:
256,192,394647,1,0,0:0:0:0:
256,192,394981,1,8,0:0:0:0:
256,192,395147,1,8,0:0:0:0:
256,192,395314,1,0,0:0:0:0:
256,192,395647,1,8,0:0:0:0:
256,192,395981,1,0,0:0:0:0:
256,192,396314,1,8,0:0:0:0:
256,192,396647,1,4,0:0:0:0:
256,192,396814,8,0,397314,0:0:0:0:
256,192,397481,5,0,0:0:0:0:
256,192,397564,1,0,0:0:0:0:
256,192,397647,1,8,0:0:0:0:
256,192,397981,1,4,0:0:0:0:
256,192,398147,8,0,400647,0:0:0:0:
