osu file format v14

[General]
AudioFilename: audio.mp3
AudioLeadIn: 0
PreviewTime: 53271
Countdown: 0
SampleSet: Soft
StackLeniency: 0.3
Mode: 2
LetterboxInBreaks: 0
WidescreenStoryboard: 1

[Editor]
DistanceSpacing: 1.7
BeatDivisor: 4
GridSize: 8
TimelineZoom: 2.899999

[Metadata]
Title:Shiny Happy Days (TV Size)
TitleUnicode:Shiny Happy Days (TV Size)
Artist:Yagi Yuki, Saeki Iori, Izawa Shiori, Itou Miku, Noguchi Yuri, Mizutani Marin
ArtistUnicode:八木侑紀,佐伯伊織,井澤詩織,伊藤美来,のぐちゆり,水谷麻鈴
Creator:Riana
Version:Platter
Source:ネコぱら
Tags:Nekopara opening op anime japanese catgirl neko works nekomimi chocola vanilla azuki maple cinnamon coconut ショコラ バニラ アズキ メイプル シナモン ココナツ pop jpop j-pop
BeatmapID:2639562
BeatmapSetID:1220688

[Difficulty]
HPDrainRate:4
CircleSize:3.5
OverallDifficulty:8
ApproachRate:8
SliderMultiplier:1.5999999666214
SliderTickRate:1

[Events]
//Background and Video events
0,0,"bg.jpg",0,0
//Break Periods
//Storyboard Layer 0 (Background)
//Storyboard Layer 1 (Fail)
//Storyboard Layer 2 (Pass)
//Storyboard Layer 3 (Foreground)
//Storyboard Layer 4 (Overlay)
//Storyboard Sound Samples

[TimingPoints]
10107,319.148936170213,4,2,1,80,1,0
10107,-100,4,2,1,80,0,0
18724,-100,4,2,1,60,0,0
19362,-100,4,2,1,40,0,0
19682,-100,4,2,1,40,0,0
20320,-125,4,2,1,40,0,0
28298,-125,4,2,1,50,0,0
28936,-125,4,2,1,60,0,0
29255,-83.3333333333333,4,2,1,60,0,0
29575,-125,4,2,1,70,0,0
29894,-100,4,2,1,70,0,0
30533,-100,4,2,1,70,0,0
39787,-100,4,2,1,50,0,0
40745,-111.111111111111,4,2,1,50,0,0
44894,-111.111111111111,4,2,1,60,0,0
45851,-100,4,2,1,60,0,0
50000,-100,4,2,1,75,0,0
50959,-100,4,2,1,75,0,0
52553,-100,4,2,1,90,0,0
53511,-100,4,2,1,90,0,1
73936,-100,4,2,1,90,0,0
74096,-100,4,2,1,85,0,0
74575,-100,4,2,1,85,0,0
75054,-100,4,2,1,85,0,0
77766,-100,4,2,1,80,0,0
78723,-100,4,2,1,80,0,0
88219,-100,4,2,1,80,0,0
88299,-100,4,2,1,80,0,0

[Colours]
Combo1 : 255,205,149
Combo2 : 255,255,128
Combo3 : 255,149,149

[HitObjects]
256,192,6277,12,0,8830,0:0:0:0:
344,185,9787,5,10,0:2:0:0:
432,186,9947,1,2,0:2:0:0:
197,211,10106,6,0,L|202:304,1,79.99999833107,6|0,3:2|0:2,0:0:0:0:
288,135,10426,2,0,L|285:237,1,79.99999833107,10|0,0:2|0:2,0:0:0:0:
119,290,10745,1,2,3:2:0:0:
31,199,10904,2,0,L|140:184,1,79.99999833107,2|8,0:2|0:2,0:0:0:0:
353,58,11224,6,0,L|534:78,1,159.99999666214,2|2,0:2|0:2,0:0:0:0:
341,193,11702,2,0,L|184:105,1,159.99999666214,10|2,0:2|3:2,0:0:0:0:
41,168,12341,1,10,0:2:0:0:
134,178,12500,1,2,0:2:0:0:
378,194,12660,6,0,L|492:208,1,79.99999833107,2|0,3:2|0:2,0:0:0:0:
371,323,12979,2,0,L|264:312,1,79.99999833107,10|0,0:2|0:2,0:0:0:0:
125,343,13298,1,2,3:2:0:0:
43,302,13458,2,0,L|159:288,1,79.99999833107,2|8,0:2|0:2,0:0:0:0:
263,284,13777,6,0,L|158:264,1,79.99999833107,2|0,3:2|0:2,0:0:0:0:
195,163,14096,1,2,3:2:0:0:
363,139,14255,2,0,L|462:136,1,79.99999833107,10|0,0:2|0:2,0:0:0:0:
214,124,14575,2,0,L|41:136,1,159.99999666214,2|10,3:2|0:2,0:0:0:0:
102,235,15053,1,2,0:2:0:0:
348,190,15213,6,0,L|351:88,1,79.99999833107,6|0,3:2|0:2,0:0:0:0:
267,93,15532,2,0,L|259:5,1,79.99999833107,10|0,0:2|0:2,0:0:0:0:
428,29,15851,1,2,3:2:0:0:
489,138,16011,2,0,L|395:144,1,79.99999833107,2|8,0:2|0:2,0:0:0:0:
169,146,16330,6,0,P|121:212|190:252,1,159.99999666214,2|2,0:2|0:2,0:0:0:0:
331,322,16809,1,10,0:2:0:0:
171,309,17128,2,0,P|108:306|170:299,1,159.99999666214,2|10,3:2|3:2,0:0:0:0:
245,289,17607,1,8,0:2:0:0:
402,83,17766,6,0,P|455:140|381:176,1,159.99999666214,6|10,3:2|0:2,0:0:0:0:
323,171,18245,1,2,0:2:0:0:
149,163,18404,2,0,P|96:220|170:256,1,159.99999666214,6|10,3:2|0:2,0:0:0:0:
231,282,18883,1,2,0:2:0:0:
461,205,19043,6,0,L|273:185,1,159.99999666214,6|10,3:2|0:2,0:0:0:0:
217,142,19521,1,10,0:2:0:0:
144,196,19681,2,0,L|105:194,2,39.999999165535,2|2|2,0:2|0:2|0:2,0:0:0:0:
308,219,20000,1,10,0:2:0:0:
392,216,20159,1,2,3:2:0:0:
217,222,20318,5,2,3:2:0:0:
130,214,20479,2,0,L|69:168,2,63.999998664856,2|2|2,0:2|3:2|0:2,0:0:0:0:
282,215,21117,2,0,L|343:169,2,63.999998664856,2|2|2,0:2|3:2|0:2,0:0:0:0:
124,319,21596,6,0,L|273:310,1,127.999997329712,2|2,3:2|3:2,0:0:0:0:
189,260,22075,2,0,L|44:255,1,127.999997329712,2|2,0:2|0:2,0:0:0:0:
61,188,22553,2,0,L|63:116,1,63.999998664856,2|2,3:2|0:2,0:0:0:0:
225,192,22872,5,0,3:2:0:0:
304,204,23032,2,0,L|364:237,2,63.999998664856,2|2|2,0:2|3:2|0:2,0:0:0:0:
138,229,23670,2,0,L|71:262,2,63.999998664856,2|2|2,0:2|3:2|0:2,0:0:0:0:
295,206,24149,6,0,L|159:283,1,127.999997329712,2|2,3:2|3:2,0:0:0:0:
257,285,24628,1,2,0:2:0:0:
413,284,24947,1,2,0:2:0:0:
335,286,25107,2,0,L|253:279,1,63.999998664856,2|2,3:2|0:2,0:0:0:0:
47,200,25426,6,0,P|28:143|101:113,1,127.999997329712,2|2,3:2|3:2,0:0:0:0:
158,131,25904,1,2,0:2:0:0:
311,98,26064,2,0,P|330:41|257:11,1,127.999997329712,2|2,3:2|3:2,0:0:0:0:
201,36,26542,1,2,0:2:0:0:
375,154,26702,6,0,L|530:143,1,127.999997329712,2|2,3:2|3:2,0:0:0:0:
440,215,27181,1,2,0:2:0:0:
277,271,27341,2,0,L|122:260,1,127.999997329712,2|2,3:2|3:2,0:0:0:0:
227,315,27820,1,0,0:2:0:0:
395,269,27979,6,0,L|256:255,1,127.999997329712,2|2,3:2|3:2,0:0:0:0:
52,172,28617,2,0,L|185:133,1,127.999997329712,2|2,3:2|3:2,0:0:0:0:
425,158,29255,6,0,P|388:261|306:282,1,191.999990135193,10|2,0:2|0:1,0:0:0:0:
109,159,29894,2,0,L|15:175,2,79.99999833107,2|2|2,3:2|3:2|3:2,0:0:0:0:
192,111,30372,1,2,3:2:0:0:
430,128,30532,5,4,3:2:0:0:
489,201,30692,1,2,0:2:0:0:
410,211,30851,1,10,0:2:0:0:
327,230,31011,2,0,L|234:232,1,79.99999833107,2|0,0:2|3:2,0:0:0:0:
79,188,31330,1,2,0:2:0:0:
0,221,31489,1,10,0:2:0:0:
79,268,31649,1,2,0:2:0:0:
324,266,31809,6,0,P|384:234|319:182,1,159.99999666214,2|10,3:2|0:2,0:0:0:0:
265,116,32287,2,0,L|457:101,1,159.99999666214,2|10,0:2|0:2,0:0:0:0:
249,36,32766,2,0,L|155:37,1,79.99999833107,10|0,0:2|0:2,0:0:0:0:
108,107,33085,5,0,3:2:0:0:
284,138,33245,1,2,0:2:0:0:
358,188,33404,1,10,0:2:0:0:
430,253,33564,2,0,L|333:262,1,79.99999833107,2|0,0:2|3:2,0:0:0:0:
187,308,33883,1,2,0:2:0:0:
266,325,34042,1,10,0:2:0:0:
349,338,34202,1,2,0:2:0:0:
99,315,34362,6,0,P|40:299|24:194,1,159.99999666214,2|10,3:2|0:2,0:0:0:0:
104,211,34840,2,0,L|296:196,1,159.99999666214,2|10,0:2|0:2,0:0:0:0:
438,226,35319,2,0,L|436:321,1,79.99999833107,10|0,0:2|0:2,0:0:0:0:
269,212,35638,6,0,L|247:35,1,159.99999666214,2|10,3:2|0:2,0:0:0:0:
315,3,36117,1,2,0:2:0:0:
483,81,36277,2,0,L|324:95,1,159.99999666214,2|10,3:2|0:2,0:0:0:0:
256,41,36755,1,2,0:2:0:0:
423,139,36915,6,0,L|235:151,1,159.99999666214,2|10,3:2|0:2,0:0:0:0:
180,162,37394,1,2,0:2:0:0:
24,230,37553,2,0,L|206:205,1,159.99999666214,2|10,3:2|0:2,0:0:0:0:
264,155,38032,1,2,0:2:0:0:
24,230,38192,5,6,3:2:0:0:
148,283,38511,1,10,0:2:0:0:
431,186,38830,1,6,3:2:0:0:
344,168,38989,1,2,0:2:0:0:
431,186,39149,1,10,0:2:0:0:
258,153,39309,6,0,L|92:168,1,159.99999666214,10|10,0:2|0:2,0:0:0:0:
265,159,39787,1,10,0:2:0:0:
394,190,40107,1,10,0:2:0:0:
223,197,40426,1,10,0:2:0:0:
484,234,40745,6,0,P|479:128|388:93,1,215.999988902092,6|2,3:2|3:2,0:0:0:0:
242,92,41543,1,2,0:2:0:0:
16,202,41862,6,0,L|264:219,1,215.999988902092,10|10,0:2|0:2,0:0:0:0:
381,167,42660,1,2,3:2:0:0:
302,157,42819,1,10,0:2:0:0:
143,131,42979,2,0,L|141:215,1,71.9999963006975,10|2,0:2|0:2,0:0:0:0:
298,199,43298,6,0,P|369:139|292:70,1,215.999988902092,4|2,3:2|3:2,0:0:0:0:
462,100,44096,1,2,0:2:0:0:
216,237,44415,6,0,L|-16:215,1,215.999988902092,10|10,0:2|0:2,0:0:0:0:
152,186,45213,1,2,3:2:0:0:
236,170,45372,1,10,0:2:0:0:
407,140,45532,2,0,L|497:93,1,71.9999963006975,10|0,0:2|0:0,0:0:0:0:
236,170,45851,6,0,P|184:121|255:89,1,159.99999666214,6|10,3:2|0:2,0:0:0:0:
323,210,46330,2,0,L|162:233,1,159.99999666214,6|2,3:2|3:2,0:0:0:0:
84,189,46809,1,10,0:2:0:0:
356,160,47128,6,0,P|402:129|338:60,1,159.99999666214,6|10,3:2|0:2,0:0:0:0:
271,176,47607,2,0,L|436:189,1,159.99999666214,6|2,3:2|3:2,0:0:0:0:
349,235,48085,1,10,0:2:0:0:
89,170,48404,5,4,3:2:0:0:
89,70,48724,2,0,L|256:2,2,159.99999666214,10|10|10,0:2|0:2|0:2,0:0:0:0:
243,136,49681,6,0,L|407:163,3,159.99999666214,10|10|10|10,0:2|0:2|0:2|0:2,0:0:0:0:
403,288,50958,5,10,0:2:0:0:
242,260,51117,1,10,0:2:0:0:
163,152,51436,1,10,0:2:0:0:
323,134,51595,1,10,0:2:0:0:
400,40,51915,5,10,0:2:0:0:
240,22,52074,1,10,0:2:0:0:
317,144,52394,1,10,0:2:0:0:
477,101,52553,1,10,0:2:0:0:
227,167,52872,6,0,P|178:96|228:58,1,159.99999666214,10|8,0:2|0:2,0:0:0:0:
311,64,53351,1,2,0:2:0:0:
80,132,53511,6,0,P|54:224|100:230,1,159.99999666214,6|10,3:2|0:2,0:0:0:0:
258,242,53989,2,0,P|338:207|328:142,1,159.99999666214,2|2,0:2|0:2,0:0:0:0:
247,143,54468,1,8,0:2:0:0:
473,50,54628,6,0,P|481:129|413:148,1,159.99999666214,2|2,0:2|0:2,0:0:0:0:
320,133,55106,2,0,L|313:230,1,79.99999833107,10|2,0:2|3:2,0:0:0:0:
140,235,55426,2,0,L|54:234,1,79.99999833107,2|2,3:2|3:2,0:0:0:0:
59,158,55745,2,0,L|142:160,1,79.99999833107,10|2,0:2|3:2,0:0:0:0:
368,280,56064,6,0,P|357:353|273:350,1,159.99999666214,2|10,3:2|0:2,0:0:0:0:
125,279,56542,2,0,L|38:263,1,79.99999833107,2|0,0:2|3:2,0:0:0:0:
136,182,56862,2,0,L|220:166,1,79.99999833107,2|8,0:2|0:2,0:0:0:0:
459,58,57181,6,0,P|455:136|379:170,1,159.99999666214,2|0,0:2|0:2,0:0:0:0:
316,208,57659,2,0,L|215:221,1,79.99999833107,10|0,0:2|3:2,0:0:0:0:
75,338,57979,1,2,3:2:0:0:
6,325,58138,1,0,3:2:0:0:
7,296,58298,1,10,0:2:0:0:
81,245,58457,1,0,3:2:0:0:
324,157,58617,6,0,P|361:106|283:80,1,159.99999666214,6|10,3:2|0:2,0:0:0:0:
121,98,59096,2,0,L|124:188,1,79.99999833107,2|0,0:2|3:2,0:0:0:0:
209,175,59415,2,0,L|294:173,1,79.99999833107,2|8,0:2|0:2,0:0:0:0:
117,33,59734,6,0,P|63:82|131:106,1,159.99999666214,2|0,0:2|0:2,0:0:0:0:
292,125,60213,2,0,L|442:65,2,159.99999666214,10|2|10,0:2|3:2|0:2,0:0:0:0:
215,99,61011,1,0,3:2:0:0:
451,154,61170,6,0,P|448:207|346:264,1,159.99999666214,2|8,3:2|0:2,0:0:0:0:
293,226,61649,1,2,0:2:0:0:
124,191,61809,1,2,3:2:0:0:
52,165,61968,1,2,0:2:0:0:
57,87,62128,1,10,0:2:0:0:
132,46,62287,1,2,0:2:0:0:
366,140,62447,5,2,3:2:0:0:
395,151,62766,1,2,3:2:0:0:
181,169,63085,1,2,3:2:0:0:
181,169,63245,1,10,0:2:0:0:
93,282,63404,1,10,0:2:0:0:
62,291,63484,1,0,3:2:0:0:
93,282,63564,1,2,3:2:0:0:
324,317,63724,6,0,P|369:270|315:197,1,159.99999666214,6|10,3:2|0:2,0:0:0:0:
166,178,64202,2,0,L|354:148,1,159.99999666214,2|2,0:2|0:2,0:0:0:0:
402,98,64681,1,8,0:2:0:0:
175,19,64840,6,0,L|-8:44,1,159.99999666214,2|2,0:2|0:2,0:0:0:0:
16,123,65319,2,0,L|116:119,1,79.99999833107,10|2,0:2|3:2,0:0:0:0:
270,96,65638,2,0,L|454:129,1,159.99999666214,2|10,3:2|0:2,0:0:0:0:
354,174,66117,1,0,3:2:0:0:
124,251,66276,6,0,P|110:300|213:322,1,159.99999666214,2|10,3:2|0:2,0:0:0:0:
352,332,66755,2,0,P|355:257|284:235,1,159.99999666214,2|2,0:2|0:2,0:0:0:0:
206,261,67233,1,8,0:2:0:0:
435,109,67393,6,0,P|501:137|476:229,1,159.99999666214,2|2,0:2|0:2,0:0:0:0:
424,271,67872,2,0,L|333:281,1,79.99999833107,10|0,0:2|3:2,0:0:0:0:
186,323,68192,1,2,3:2:0:0:
103,287,68351,1,2,0:2:0:0:
17,312,68511,1,10,0:2:0:0:
103,287,68670,1,2,3:2:0:0:
362,203,68830,6,0,P|409:149|339:132,1,159.99999666214,6|10,3:2|0:2,0:0:0:0:
179,145,69309,2,0,L|78:134,1,79.99999833107,2|0,0:2|3:2,0:0:0:0:
19,122,69628,2,0,L|12:5,1,79.99999833107,2|8,0:2|0:2,0:0:0:0:
190,86,69947,6,0,L|378:123,1,159.99999666214,2|0,0:2|0:2,0:0:0:0:
269,161,70425,2,0,L|169:153,1,79.99999833107,10|2,0:2|0:2,0:0:0:0:
369,43,70745,2,0,L|453:40,1,79.99999833107,2|0,3:2|0:2,0:0:0:0:
512,129,71064,2,0,L|420:129,1,79.99999833107,10|2,0:2|3:2,0:0:0:0:
195,269,71383,6,0,P|190:341|279:356,1,159.99999666214,2|8,3:2|0:2,0:0:0:0:
343,348,71862,1,2,0:2:0:0:
177,275,72021,2,0,L|81:270,1,79.99999833107,2|0,3:2|0:2,0:0:0:0:
179,139,72340,2,0,L|272:121,1,79.99999833107,10|0,0:2|0:2,0:0:0:0:
425,65,72660,5,6,3:2:0:0:
497,99,72819,1,2,3:2:0:0:
497,189,72979,1,2,3:2:0:0:
418,209,73138,1,10,0:2:0:0:
248,218,73298,1,2,3:2:0:0:
164,215,73458,1,10,0:2:0:0:
83,124,73617,1,0,0:0:0:0:
154,12,73777,1,0,0:0:0:0:
397,66,73936,6,0,P|449:83|391:78,1,159.99999666214,6|2,3:2|0:0,0:0:0:0:
123,187,74574,1,10,0:2:0:0:
207,159,74734,1,10,0:2:0:0:
439,284,75053,6,0,L|243:267,1,159.99999666214,14|0,0:2|3:2,0:0:0:0:
108,190,75532,1,10,0:2:0:0:
196,164,75691,1,2,3:2:0:0:
283,140,75851,2,0,L|281:49,1,79.99999833107,2|0,0:2|3:2,0:0:0:0:
195,49,76170,2,0,L|96:33,1,79.99999833107,8|2,0:2|3:2,0:0:0:0:
293,44,76489,5,14,0:2:0:0:
144,106,76809,2,0,L|169:210,1,79.99999833107,2|2,0:2|0:2,0:0:0:0:
399,250,77128,2,0,P|395:338|306:338,1,159.99999666214,10|2,0:2|3:2,0:0:0:0:
62,227,77766,5,6,3:2:0:0:
208,195,78085,1,8,0:2:0:0:
47,227,78245,1,4,3:2:0:0:
175,76,78723,1,10,0:2:0:0:
87,87,78883,1,2,0:2:0:0:
326,181,79042,6,0,L|431:182,1,79.99999833107,6|0,3:2|0:2,0:0:0:0:
323,217,79362,2,0,L|330:328,1,79.99999833107,10|0,0:2|0:2,0:0:0:0:
486,226,79681,1,2,3:2:0:0:
417,177,79840,2,0,L|325:169,1,79.99999833107,2|8,0:2|0:2,0:0:0:0:
99,43,80160,6,0,P|101:119|185:139,1,159.99999666214,2|2,0:2|0:2,0:0:0:0:
327,172,80638,2,0,P|399:129|387:46,1,159.99999666214,10|2,0:2|3:2,0:0:0:0:
247,122,81277,1,10,0:2:0:0:
318,155,81436,1,2,0:2:0:0:
78,213,81596,6,0,L|115:316,1,79.99999833107,2|0,3:2|0:2,0:0:0:0:
198,304,81915,2,0,L|302:301,1,79.99999833107,10|0,0:2|0:2,0:0:0:0:
114,308,82234,1,2,3:2:0:0:
31,303,82394,2,0,L|28:203,1,79.99999833107,2|8,0:2|0:2,0:0:0:0:
198,170,82713,6,0,L|291:163,1,79.99999833107,2|0,3:2|0:2,0:0:0:0:
289,97,83032,1,2,3:2:0:0:
126,113,83191,2,0,L|123:22,1,79.99999833107,10|0,0:2|0:2,0:0:0:0:
351,201,83511,2,0,P|437:178|466:89,1,159.99999666214,2|10,3:2|0:2,0:0:0:0:
401,67,83989,1,2,0:2:0:0:
170,171,84149,6,0,L|74:165,1,79.99999833107,6|0,3:2|0:2,0:0:0:0:
168,254,84468,2,0,L|285:250,1,79.99999833107,10|0,0:2|0:2,0:0:0:0:
415,124,84787,1,2,3:2:0:0:
488,169,84947,2,0,L|492:264,1,79.99999833107,2|8,0:2|0:2,0:0:0:0:
256,191,85266,6,0,P|208:257|277:297,1,159.99999666214,2|2,0:2|0:2,0:0:0:0:
333,341,85745,1,10,0:2:0:0:
164,297,86064,2,0,P|101:291|73:195,1,159.99999666214,2|10,3:2|3:2,0:0:0:0:
156,186,86543,1,8,0:2:0:0:
333,51,86702,6,0,P|386:108|312:144,1,159.99999666214,6|10,3:2|0:2,0:0:0:0:
255,166,87181,1,2,0:2:0:0:
88,182,87341,2,0,P|35:239|109:275,1,159.99999666214,6|10,3:2|0:2,0:0:0:0:
169,289,87819,1,0,3:2:0:0:
410,258,87979,6,0,P|433:326|351:341,1,159.99999666214,6|0,3:2|0:0,0:0:0:0:
