osu file format v14

[General]
AudioFilename: audio.mp3
AudioLeadIn: 0
PreviewTime: 53271
Countdown: 0
SampleSet: Soft
StackLeniency: 0.3
Mode: 2
LetterboxInBreaks: 0
WidescreenStoryboard: 1

[Editor]
DistanceSpacing: 1.7
BeatDivisor: 4
GridSize: 8
TimelineZoom: 2.899999

[Metadata]
Title:Shiny Happy Days (TV Size)
TitleUnicode:Shiny Happy Days (TV Size)
Artist:Yagi Yuki, Saeki Iori, Izawa Shiori, Itou Miku, Noguchi Yuri, Mizutani Marin
ArtistUnicode:八木侑紀,佐伯伊織,井澤詩織,伊藤美来,のぐちゆり,水谷麻鈴
Creator:Riana
Version:Nekodose
Source:ネコぱら
Tags:Nekopara opening op anime japanese catgirl neko works nekomimi chocola vanilla azuki maple cinnamon coconut ショコラ バニラ アズキ メイプル シナモン ココナツ pop jpop j-pop
BeatmapID:2639561
BeatmapSetID:1220688

[Difficulty]
HPDrainRate:6
CircleSize:4
OverallDifficulty:9.3
ApproachRate:9.3
SliderMultiplier:1.9999999666214
SliderTickRate:2

[Events]
//Background and Video events
0,0,"bg.jpg",0,0
//Break Periods
//Storyboard Layer 0 (Background)
//Storyboard Layer 1 (Fail)
//Storyboard Layer 2 (Pass)
//Storyboard Layer 3 (Foreground)
//Storyboard Layer 4 (Overlay)
//Storyboard Sound Samples

[TimingPoints]
10107,319.148936170213,4,2,1,80,1,0
10107,-100,4,2,1,80,0,0
18724,-100,4,2,1,60,0,0
19362,-100,4,2,1,40,0,0
19682,-100,4,2,1,40,0,0
20320,-125,4,2,1,40,0,0
28298,-125,4,2,1,50,0,0
28936,-125,4,2,1,60,0,0
29256,-125,4,2,1,60,0,0
29575,-125,4,2,1,70,0,0
29894,-100,4,2,1,70,0,0
30533,-100,4,2,1,70,0,0
39787,-100,4,2,1,50,0,0
40746,-111.111111111111,4,2,1,50,0,0
44894,-111.111111111111,4,2,1,60,0,0
45851,-100,4,2,1,60,0,0
50000,-100,4,2,1,75,0,0
50959,-90.9090909090909,4,2,1,75,0,0
52553,-90.9090909090909,4,2,1,90,0,0
53511,-83.3333333333333,4,2,1,90,0,1
73936,-83.3333333333333,4,2,1,90,0,0
74096,-83.3333333333333,4,2,1,85,0,0
74575,-83.3333333333333,4,2,1,85,0,0
75054,-83.3333333333333,4,2,1,85,0,0
77766,-83.3333333333333,4,2,1,80,0,0
78723,-100,4,2,1,80,0,0
88219,-100,4,2,1,80,0,0
88299,-100,4,2,1,80,0,0

[Colours]
Combo1 : 255,205,149
Combo2 : 255,255,128
Combo3 : 255,149,149

[HitObjects]
256,192,6277,12,0,8830,0:0:0:0:
261,306,9787,5,10,0:2:0:0:
494,219,9947,2,0,L|446:234,1,49.999999165535,2|2,0:2|0:2,0:0:0:0:
275,154,10106,6,0,P|218:146|260:73,1,149.999997496605,6|0,3:2|0:0,0:0:0:0:
325,45,10426,2,0,L|447:42,1,99.99999833107,10|0,0:2|0:2,0:0:0:0:
178,94,10745,1,2,3:2:0:0:
41,195,10904,2,0,L|47:313,1,99.99999833107,2|8,0:2|0:2,0:0:0:0:
330,131,11223,6,0,L|230:129,1,99.99999833107,2|0,0:2|3:2,0:0:0:0:
85,187,11543,1,2,0:2:0:0:
234,253,11702,2,0,L|334:256,1,99.99999833107,10|0,0:2|0:2,0:0:0:0:
492,150,12021,2,0,L|393:156,1,99.99999833107,2|0,3:2|0:2,0:0:0:0:
148,187,12340,1,10,0:2:0:0:
277,147,12500,2,0,L|347:141,1,49.999999165535,2|2,0:2|0:2,0:0:0:0:
113,28,12660,6,0,P|39:65|107:108,1,149.999997496605,2|0,3:2|0:0,0:0:0:0:
166,113,12979,2,0,L|307:110,1,99.99999833107,10|0,0:2|0:2,0:0:0:0:
31,218,13298,1,2,3:2:0:0:
161,309,13458,2,0,L|274:305,1,99.99999833107,2|8,0:2|0:2,0:0:0:0:
489,60,13777,6,0,L|485:170,1,99.99999833107,2|0,3:2|0:2,0:0:0:0:
251,211,14096,1,2,3:2:0:0:
483,203,14255,2,0,L|478:313,1,99.99999833107,10|0,0:2|0:2,0:0:0:0:
98,210,14575,2,0,P|111:147|196:124,1,149.999997496605,2|0,3:2|0:2,0:0:0:0:
384,14,14894,2,0,L|290:12,1,49.999999165535,10|2,0:2|0:2,0:0:0:0:
185,68,15053,2,0,L|110:74,1,49.999999165535,2|2,0:2|0:2,0:0:0:0:
389,188,15213,6,0,P|450:205|425:274,1,149.999997496605,6|0,3:2|0:0,0:0:0:0:
336,274,15532,2,0,L|435:273,1,99.99999833107,10|0,0:2|0:2,0:0:0:0:
155,84,15851,1,2,3:2:0:0:
27,100,16011,2,0,L|27:219,1,99.99999833107,2|8,0:2|0:2,0:0:0:0:
372,111,16330,6,0,L|261:112,1,99.99999833107,2|0,0:2|3:0,0:0:0:0:
421,197,16649,1,2,0:2:0:0:
270,286,16809,2,0,L|138:285,1,99.99999833107,10|0,0:2|0:2,0:0:0:0:
414,254,17128,2,0,L|413:375,1,99.99999833107,2|2,3:2|0:2,0:0:0:0:
246,315,17447,1,10,3:2:0:0:
413,353,17606,2,0,L|355:345,1,49.999999165535,8|8,0:2|0:2,0:0:0:0:
140,78,17766,6,0,L|36:1,3,99.99999833107,6|2|10|2,3:2|0:2|0:2|0:2,0:0:0:0:
344,90,18404,2,0,L|241:94,3,99.99999833107,6|2|10|2,3:2|0:2|0:2|0:2,0:0:0:0:
483,253,19043,5,6,3:2:0:0:
483,253,19202,1,2,0:2:0:0:
181,178,19362,1,10,0:2:0:0:
279,246,19521,1,10,0:2:0:0:
181,178,19681,2,0,L|103:180,1,49.999999165535,2|2,0:2|0:2,0:0:0:0:
131,179,19840,2,0,L|181:178,1,49.999999165535,2|0,0:2|0:0,0:0:0:0:
378,24,20000,2,0,L|446:40,1,49.999999165535,10|2,0:2|3:2,0:0:0:0:
429,109,20160,2,0,L|361:125,1,49.999999165535,2|2,3:2|3:2,0:0:0:0:
286,332,20319,5,2,3:2:0:0:
454,278,20479,1,2,0:2:0:0:
370,264,20638,1,2,3:2:0:0:
283,250,20798,2,0,L|283:165,1,79.999998664856,2|0,0:2|3:2,0:0:0:0:
417,270,21117,1,2,0:2:0:0:
333,256,21277,1,2,3:2:0:0:
246,242,21436,1,2,0:2:0:0:
24,203,21596,6,0,L|214:229,1,159.999997329712,2|2,3:2|3:2,0:0:0:0:
49,353,22075,2,0,P|16:294|65:199,1,159.999997329712,2|2,0:2|0:2,0:0:0:0:
266,256,22553,1,2,3:2:0:0:
352,254,22713,1,2,0:2:0:0:
266,256,22872,5,0,3:2:0:0:
98,202,23032,1,2,0:2:0:0:
182,188,23191,1,2,3:2:0:0:
269,174,23351,2,0,L|269:89,1,79.999998664856,2|0,0:2|3:2,0:0:0:0:
135,194,23670,1,2,0:2:0:0:
219,180,23830,1,2,3:2:0:0:
306,166,23989,1,2,0:2:0:0:
82,84,24149,6,0,P|28:119|94:165,1,159.999997329712,2|2,3:2|3:2,0:0:0:0:
258,258,24628,2,0,L|337:267,1,79.999998664856,2|0,0:2|3:2,0:0:0:0:
337,267,24946,1,2,0:2:0:0:
113,276,25106,1,2,3:2:0:0:
26,272,25266,1,2,0:2:0:0:
246,125,25426,6,0,P|301:144|249:147,1,159.999997329712,2|2,3:2|3:2,0:0:0:0:
162,134,25904,1,2,0:2:0:0:
390,122,26064,2,0,P|437:120|386:130,1,159.999997329712,2|2,3:2|3:2,0:0:0:0:
298,128,26543,1,2,0:2:0:0:
78,262,26702,6,0,L|272:235,1,159.999997329712,2|2,3:2|3:2,0:0:0:0:
153,204,27181,1,2,0:2:0:0:
307,140,27340,2,0,L|133:122,1,159.999997329712,2|2,3:2|3:2,0:0:0:0:
237,88,27819,1,0,0:2:0:0:
477,274,27979,6,0,L|465:163,1,79.999998664856,2|0,3:2|0:2,0:0:0:0:
313,135,28298,2,0,L|325:24,1,79.999998664856,2|0,3:2|0:2,0:0:0:0:
477,274,28617,2,0,L|465:163,1,79.999998664856,2|0,3:2|0:2,0:0:0:0:
313,135,28936,2,0,L|417:128,1,79.999998664856,2|0,3:2|0:2,0:0:0:0:
349,132,29176,1,0,0:0:0:0:
165,89,29255,5,10,0:2:0:0:
377,138,29575,1,2,0:1:0:0:
81,283,29894,2,0,L|32:287,1,49.999999165535,2|0,3:2|3:2,0:0:0:0:
32,218,30053,2,0,L|111:211,1,49.999999165535,2|0,3:2|3:2,0:0:0:0:
257,214,30213,2,0,L|307:212,1,49.999999165535,2|0,3:2|3:2,0:0:0:0:
308,137,30372,2,0,L|252:138,1,49.999999165535,2|0,3:2|3:2,0:0:0:0:
76,70,30532,5,4,3:2:0:0:
205,42,30692,2,0,L|308:44,2,99.99999833107,2|10|2,0:2|0:2|0:2,0:0:0:0:
163,148,31090,1,0,0:0:0:0:
196,173,31170,1,0,3:2:0:0:
356,231,31330,2,0,L|455:232,2,99.99999833107,2|10|2,0:2|0:2|0:2,0:0:0:0:
123,313,31809,6,0,P|71:272|148:260,1,149.999997496605,2|0,3:2|0:0,0:0:0:0:
202,221,32128,1,10,0:2:0:0:
356,231,32287,2,0,L|487:244,1,99.99999833107,2|0,0:2|3:2,0:0:0:0:
203,202,32606,1,10,0:2:0:0:
461,157,32766,2,0,L|346:131,1,99.99999833107,10|0,0:2|0:2,0:0:0:0:
57,104,33085,5,0,3:2:0:0:
188,88,33245,2,0,L|187:197,1,99.99999833107,2|10,0:2|0:2,0:0:0:0:
95,194,33564,1,2,0:2:0:0:
55,221,33643,1,0,0:0:0:0:
97,248,33723,1,0,3:2:0:0:
250,257,33883,2,0,L|359:258,1,99.99999833107,2|10,0:2|0:2,0:0:0:0:
338,353,34202,1,2,0:2:0:0:
84,314,34362,6,0,P|32:273|109:261,1,149.999997496605,2|0,3:2|0:0,0:0:0:0:
162,257,34681,1,10,0:2:0:0:
316,257,34840,2,0,L|318:386,1,99.99999833107,2|0,0:2|3:2,0:0:0:0:
69,225,35159,1,10,0:2:0:0:
316,257,35319,2,0,L|442:241,1,99.99999833107,10|0,0:2|0:2,0:0:0:0:
65,73,35638,6,0,L|163:57,1,99.99999833107,2|0,3:2|0:2,0:0:0:0:
321,137,35958,2,0,L|420:122,1,99.99999833107,10|2,0:2|0:2,0:0:0:0:
268,160,36277,1,2,3:2:0:0:
121,99,36436,2,0,L|63:46,1,49.999999165535,2|2,0:2|0:2,0:0:0:0:
118,166,36596,2,0,L|81:125,1,49.999999165535,10|0,0:2|0:0,0:0:0:0:
121,99,36755,1,2,0:2:0:0:
376,220,36915,6,0,L|244:247,1,99.99999833107,2|0,3:2|0:2,0:0:0:0:
127,309,37234,2,0,L|251:331,1,99.99999833107,10|2,0:2|0:2,0:0:0:0:
379,290,37553,1,2,3:2:0:0:
379,290,37713,1,10,0:2:0:0:
113,306,37872,1,10,0:2:0:0:
258,312,38032,1,2,0:2:0:0:
497,86,38192,6,0,L|385:93,1,99.99999833107,6|0,3:2|0:2,0:0:0:0:
253,232,38511,2,0,L|250:366,1,99.99999833107,10|0,0:2|0:2,0:0:0:0:
493,164,38830,1,6,3:2:0:0:
374,140,38989,1,2,0:2:0:0:
248,115,39149,1,10,0:2:0:0:
16,193,39309,6,0,L|192:164,1,149.999997496605,10|0,0:2|0:0,0:0:0:0:
235,208,39628,1,10,0:2:0:0:
80,128,39787,1,10,0:2:0:0:
379,60,40106,1,10,0:2:0:0:
80,128,40426,1,10,0:2:0:0:
379,60,40745,5,6,3:2:0:0:
257,79,40904,1,2,0:2:0:0:
379,60,41064,1,2,0:2:0:0:
257,79,41223,1,2,3:2:0:0:
481,167,41543,1,2,0:2:0:0:
481,167,41702,1,0,3:2:0:0:
258,59,41862,5,10,0:2:0:0:
159,102,42021,1,2,0:0:0:0:
119,115,42101,1,2,0:0:0:0:
117,157,42181,1,2,0:2:0:0:
156,174,42261,1,2,0:2:0:0:
236,245,42340,1,10,0:2:0:0:
275,258,42420,1,2,0:2:0:0:
277,300,42500,1,2,0:2:0:0:
238,317,42580,1,2,0:2:0:0:
151,357,42660,1,2,3:2:0:0:
36,342,42819,1,10,0:2:0:0:
256,296,42979,1,10,0:2:0:0:
383,180,43138,1,2,0:2:0:0:
165,79,43298,5,4,3:2:0:0:
284,65,43458,1,2,0:2:0:0:
165,79,43617,1,2,0:2:0:0:
284,65,43777,1,2,3:2:0:0:
50,95,44096,1,2,0:2:0:0:
50,95,44255,1,0,3:2:0:0:
269,52,44415,5,10,0:2:0:0:
368,95,44575,1,2,0:0:0:0:
408,108,44654,1,2,0:0:0:0:
410,150,44734,1,2,0:2:0:0:
371,167,44814,1,2,0:2:0:0:
291,238,44894,1,10,0:2:0:0:
252,251,44973,1,2,0:2:0:0:
250,293,45053,1,2,0:2:0:0:
289,310,45133,1,2,0:2:0:0:
376,350,45213,1,2,3:2:0:0:
266,284,45372,1,10,0:2:0:0:
494,293,45532,1,10,0:2:0:0:
21,53,45851,6,0,L|257:50,1,199.99999666214,6|10,3:2|0:2,0:0:0:0:
494,230,46330,2,0,L|257:223,1,199.99999666214,6|2,3:2|3:2,0:0:0:0:
427,84,46809,1,10,0:2:0:0:
512,64,46968,1,0,0:0:0:0:
227,299,47128,6,0,L|211:172,1,99.99999833107,6|0,3:2|0:0,0:0:0:0:
332,133,47447,1,10,0:2:0:0:
88,97,47606,2,0,L|202:81,1,99.99999833107,6|0,3:2|0:0,0:0:0:0:
301,50,47926,1,2,3:2:0:0:
84,284,48085,2,0,L|71:162,1,99.99999833107,10|0,0:2|0:0,0:0:0:0:
352,84,48404,5,4,3:2:0:0:
121,111,48723,1,10,0:2:0:0:
313,218,49043,1,10,0:2:0:0:
165,240,49362,1,10,0:2:0:0:
339,217,49681,5,10,0:2:0:0:
142,114,50000,1,10,0:2:0:0:
377,79,50319,1,10,0:2:0:0:
107,0,50638,1,10,0:2:0:0:
402,71,50958,5,10,0:2:0:0:
166,149,51117,1,10,0:2:0:0:
15,215,51436,1,10,0:2:0:0:
315,329,51596,1,10,0:2:0:0:
471,108,51915,5,10,0:2:0:0:
208,155,52075,1,10,0:2:0:0:
46,239,52394,1,10,0:2:0:0:
392,351,52553,1,10,0:2:0:0:
214,127,52872,6,0,L|399:147,1,165.000002281666,10|0,0:2|0:2,0:0:0:0:
174,210,53192,2,0,L|160:361,1,110.000001521111,8|2,0:2|0:2,0:0:0:0:
433,176,53511,6,0,P|495:150|431:146,1,179.999991502762,6|0,3:2|0:0,0:0:0:0:
343,144,53830,1,10,0:2:0:0:
122,118,53989,2,0,L|-37:142,1,119.999994335175,2|0,0:2|3:2,0:0:0:0:
165,304,54308,2,0,L|183:176,1,119.999994335175,2|8,0:2|0:2,0:0:0:0:
446,59,54628,6,0,P|489:95|435:120,1,119.999994335175,2|2,0:2|3:2,0:0:0:0:
362,100,54947,1,2,0:2:0:0:
123,213,55107,1,10,0:2:0:0:
253,265,55266,2,0,L|308:219,1,59.9999971675874,2|0,3:2|0:0,0:0:0:0:
130,218,55426,1,2,3:2:0:0:
352,176,55586,1,2,3:2:0:0:
130,218,55746,2,0,L|4:199,1,119.999994335175,10|2,0:2|3:2,0:0:0:0:
382,208,56064,6,0,P|444:193|372:193,1,179.999991502762,2|0,3:2|0:0,0:0:0:0:
297,192,56383,1,10,0:2:0:0:
80,272,56543,2,0,L|60:97,1,119.999994335175,2|0,0:2|3:2,0:0:0:0:
225,139,56862,2,0,L|50:119,1,119.999994335175,2|8,0:2|0:2,0:0:0:0:
375,40,57181,6,0,L|514:46,1,119.999994335175,2|2,0:2|3:2,0:0:0:0:
387,150,57500,1,0,0:2:0:0:
159,272,57660,2,0,L|30:235,1,119.999994335175,10|0,0:2|3:2,0:0:0:0:
105,236,57899,1,0,3:2:0:0:
299,274,57979,2,0,P|342:276|301:281,1,119.999994335175,2|0,3:2|3:2,0:0:0:0:
64,106,58298,2,0,L|123:75,1,59.9999971675874,10|0,0:2|3:2,0:0:0:0:
261,104,58457,2,0,L|322:68,1,59.9999971675874,0|0,3:2|3:2,0:0:0:0:
65,243,58617,6,0,P|7:205|82:184,1,179.999991502762,6|0,3:2|0:0,0:0:0:0:
164,146,58936,1,10,0:2:0:0:
383,236,59096,2,0,L|361:100,1,119.999994335175,2|0,0:2|3:2,0:0:0:0:
110,22,59415,2,0,L|120:161,1,119.999994335175,2|8,0:2|0:2,0:0:0:0:
393,244,59734,6,0,L|533:261,1,119.999994335175,2|0,0:2|3:2,0:0:0:0:
511,137,60053,1,0,0:2:0:0:
284,88,60213,2,0,L|153:12,1,119.999994335175,10|0,0:2|3:2,0:0:0:0:
38,123,60532,2,0,L|171:61,1,119.999994335175,2|0,3:2|0:2,0:0:0:0:
296,130,60851,1,10,0:2:0:0:
313,292,61011,1,0,3:2:0:0:
264,311,61091,1,0,3:2:0:0:
101,332,61170,6,0,P|46:306|68:198,1,179.999991502762,2|0,3:2|0:0,0:0:0:0:
137,176,61489,1,8,0:2:0:0:
364,126,61649,1,2,0:2:0:0:
246,105,61808,1,2,3:2:0:0:
134,82,61968,1,2,0:2:0:0:
364,126,62127,1,10,0:2:0:0:
246,105,62287,1,2,0:2:0:0:
463,265,62447,5,2,3:2:0:0:
23,294,62766,1,2,3:2:0:0:
465,265,63085,1,2,3:2:0:0:
336,187,63245,2,0,L|267:153,1,59.9999971675874,10|0,0:2|0:0,0:0:0:0:
482,22,63404,2,0,L|433:56,1,59.9999971675874,10|0,0:2|3:2,0:0:0:0:
278,90,63564,2,0,L|202:54,1,59.9999971675874,2|0,3:2|3:2,0:0:0:0:
35,75,63723,6,0,P|53:184|122:189,1,179.999991502762,6|0,3:2|0:0,0:0:0:0:
184,201,64042,1,10,0:2:0:0:
427,128,64202,2,0,L|268:152,1,119.999994335175,2|0,0:2|3:2,0:0:0:0:
157,304,64521,2,0,L|183:163,1,119.999994335175,2|8,0:2|0:2,0:0:0:0:
479,82,64840,6,0,L|472:219,1,119.999994335175,2|2,0:2|3:2,0:0:0:0:
332,185,65159,1,2,0:2:0:0:
114,211,65319,1,10,0:2:0:0:
253,265,65479,2,0,L|305:218,1,59.9999971675874,2|0,3:2|0:0,0:0:0:0:
130,218,65638,1,2,3:2:0:0:
352,176,65798,1,0,3:2:0:0:
130,218,65958,2,0,L|4:199,1,119.999994335175,10|0,0:2|3:2,0:0:0:0:
308,282,66276,6,0,P|431:245|453:197,1,179.999991502762,2|0,3:2|0:0,0:0:0:0:
384,131,66596,1,10,0:2:0:0:
162,77,66755,2,0,L|169:209,1,119.999994335175,2|0,0:2|3:2,0:0:0:0:
49,205,67075,2,0,L|195:196,1,119.999994335175,2|8,0:2|0:2,0:0:0:0:
440,151,67394,6,0,L|281:144,1,119.999994335175,2|2,0:2|3:2,0:0:0:0:
437,127,67713,1,2,0:2:0:0:
166,333,67872,2,0,L|281:270,1,119.999994335175,10|0,0:2|3:2,0:0:0:0:
338,299,68112,1,0,3:2:0:0:
490,185,68191,1,2,3:2:0:0:
346,162,68351,1,2,0:2:0:0:
60,84,68511,2,0,L|122:49,1,59.9999971675874,10|0,0:2|3:2,0:0:0:0:
255,24,68670,2,0,L|324:-7,1,59.9999971675874,2|0,3:2|3:2,0:0:0:0:
80,299,68830,6,0,P|19:241|100:235,1,179.999991502762,6|0,3:2|0:0,0:0:0:0:
167,204,69149,1,10,0:2:0:0:
399,309,69308,2,0,L|412:166,1,119.999994335175,2|0,0:2|3:2,0:0:0:0:
137,5,69627,2,0,L|164:138,1,119.999994335175,2|8,0:2|0:2,0:0:0:0:
459,151,69947,6,0,L|318:169,1,119.999994335175,2|0,0:2|3:2,0:0:0:0:
212,166,70266,1,0,0:2:0:0:
349,167,70425,2,0,L|357:36,1,119.999994335175,10|2,0:2|0:2,0:0:0:0:
81,213,70744,1,2,3:2:0:0:
199,184,70904,1,0,0:2:0:0:
436,304,71064,2,0,L|365:334,1,59.9999971675874,10|2,0:2|3:2,0:0:0:0:
202,293,71223,2,0,L|128:312,1,59.9999971675874,2|2,3:2|3:2,0:0:0:0:
329,218,71383,6,0,P|352:175|261:93,1,179.999991502762,2|0,3:2|0:0,0:0:0:0:
198,103,71702,1,8,0:2:0:0:
461,110,71862,1,2,0:2:0:0:
160,112,72021,2,0,L|183:256,1,119.999994335175,2|0,3:2|0:2,0:0:0:0:
423,112,72340,2,0,L|397:281,1,119.999994335175,10|0,0:2|0:2,0:0:0:0:
181,320,72659,5,6,3:2:0:0:
60,332,72819,1,2,3:2:0:0:
121,326,72899,1,0,3:2:0:0:
287,304,72979,1,2,3:2:0:0:
405,289,73138,1,10,0:2:0:0:
343,295,73218,1,0,3:2:0:0:
175,173,73298,5,2,3:2:0:0:
420,141,73458,2,0,L|506:77,1,59.9999971675874,10|0,0:2|3:2,0:0:0:0:
239,109,73617,2,0,L|175:69,1,59.9999971675874,0|0,0:0|3:2,0:0:0:0:
420,141,73777,2,0,L|504:76,1,59.9999971675874,0|0,0:0|3:2,0:0:0:0:
239,109,73936,5,6,3:2:0:0:
18,230,74255,2,0,L|45:90,1,119.999994335175,2|2,0:0|0:0,0:0:0:0:
281,55,74574,1,10,0:2:0:0:
51,115,74734,1,10,0:2:0:0:
489,275,75053,6,0,L|232:237,1,239.99998867035,14|0,0:2|3:2,0:0:0:0:
24,61,75532,1,10,0:2:0:0:
256,117,75691,1,2,3:2:0:0:
494,161,75851,1,2,0:2:0:0:
348,86,76010,1,0,3:2:0:0:
483,74,76170,2,0,L|397:91,1,59.9999971675874,8|0,0:2|3:2,0:0:0:0:
258,135,76330,2,0,L|179:146,1,59.9999971675874,2|0,3:2|3:2,0:0:0:0:
21,184,76489,6,0,L|145:183,1,119.999994335175,14|0,0:2|0:0,0:0:0:0:
259,198,76808,1,2,0:2:0:0:
117,122,76968,1,2,0:2:0:0:
356,78,77127,2,0,P|417:76|381:128,1,119.999994335175,10|0,0:2|3:2,0:0:0:0:
360,115,77367,1,0,3:2:0:0:
178,79,77447,1,2,3:2:0:0:
127,66,77526,1,0,3:2:0:0:
128,124,77606,1,0,3:2:0:0:
175,116,77686,1,0,3:2:0:0:
356,78,77766,6,0,P|417:76|357:112,1,179.999991502762,6|0,3:2|0:0,0:0:0:0:
271,122,78085,1,8,0:2:0:0:
27,86,78244,1,4,3:2:0:0:
299,345,78723,1,10,0:2:0:0:
445,236,78883,2,0,L|495:236,1,49.999999165535,2|2,0:2|0:2,0:0:0:0:
307,233,79042,6,0,L|145:233,1,149.999997496605,6|0,3:2|0:0,0:0:0:0:
70,170,79362,2,0,L|139:55,1,99.99999833107,10|0,0:2|0:2,0:0:0:0:
360,144,79681,1,2,3:2:0:0:
491,67,79840,2,0,L|374:47,1,99.99999833107,2|8,0:2|0:2,0:0:0:0:
67,148,80159,6,0,L|167:162,1,99.99999833107,2|0,0:2|3:2,0:0:0:0:
320,233,80479,1,2,0:2:0:0:
165,309,80638,2,0,L|301:331,1,99.99999833107,10|0,0:2|0:2,0:0:0:0:
488,304,80958,2,0,L|486:176,1,99.99999833107,2|0,3:2|0:2,0:0:0:0:
234,296,81276,1,10,0:2:0:0:
98,230,81436,2,0,L|164:219,1,49.999999165535,2|2,0:2|0:2,0:0:0:0:
354,16,81596,6,0,P|424:39|362:93,1,149.999997496605,2|0,3:2|0:0,0:0:0:0:
315,117,81915,2,0,L|317:-6,1,99.99999833107,10|0,0:2|0:2,0:0:0:0:
82,217,82234,1,2,3:2:0:0:
227,231,82393,2,0,L|325:255,1,99.99999833107,2|8,0:2|0:2,0:0:0:0:
46,44,82713,6,0,L|53:154,1,99.99999833107,2|0,3:2|0:2,0:0:0:0:
278,214,83032,1,2,3:2:0:0:
51,234,83191,2,0,L|44:344,1,99.99999833107,10|0,0:2|0:2,0:0:0:0:
443,220,83511,2,0,P|427:162|346:137,1,149.999997496605,2|0,3:2|0:2,0:0:0:0:
105,4,83830,2,0,L|199:2,1,49.999999165535,10|2,0:2|0:2,0:0:0:0:
297,51,83989,2,0,L|372:57,1,49.999999165535,2|2,0:2|0:2,0:0:0:0:
101,205,84149,6,0,P|32:236|79:287,1,149.999997496605,6|0,3:2|0:0,0:0:0:0:
147,322,84468,2,0,L|-1:305,1,99.99999833107,10|0,0:2|0:2,0:0:0:0:
315,61,84787,1,2,3:2:0:0:
440,116,84947,2,0,L|441:230,1,99.99999833107,2|8,0:2|0:2,0:0:0:0:
205,110,85266,6,0,L|90:108,1,99.99999833107,2|0,0:2|3:0,0:0:0:0:
259,201,85585,1,2,0:2:0:0:
108,292,85744,2,0,L|206:277,1,99.99999833107,10|0,0:2|0:2,0:0:0:0:
449,220,86064,2,0,L|452:346,1,99.99999833107,2|2,3:2|0:2,0:0:0:0:
280,321,86383,1,10,3:2:0:0:
451,319,86542,2,0,L|366:320,1,49.999999165535,8|8,0:2|0:2,0:0:0:0:
140,78,86702,6,0,L|16:47,3,99.99999833107,6|2|10|2,3:2|0:2|0:2|0:2,0:0:0:0:
297,55,87341,2,0,L|379:44,1,49.999999165535,6|0,3:2|3:0,0:0:0:0:
344,137,87500,2,0,L|262:126,1,49.999999165535,0|0,3:2|3:0,0:0:0:0:
123,179,87660,2,0,L|74:185,1,49.999999165535,10|0,0:2|3:0,0:0:0:0:
71,261,87819,2,0,L|121:267,1,49.999999165535,0|0,3:2|3:0,0:0:0:0:
444,327,87979,6,0,L|217:306,1,199.99999666214,6|0,3:2|0:0,0:0:0:0:
