osu file format v14

[General]
AudioFilename: audio.mp3
AudioLeadIn: 0
PreviewTime: 53270
Countdown: 0
SampleSet: Soft
StackLeniency: 0.4
Mode: 0
LetterboxInBreaks: 0
WidescreenStoryboard: 1

[Editor]
Bookmarks: 20681,53872,79085
DistanceSpacing: 1.2
BeatDivisor: 4
GridSize: 4
TimelineZoom: 2.799999

[Metadata]
Title:Shiny Happy Days (TV Size)
TitleUnicode:Shiny Happy Days (TV Size)
Artist:Yagi Yuki, Saeki Iori, Izawa Shiori, Itou Miku, Noguchi Yuri, Mizutani Marin
ArtistUnicode:八木侑紀,佐伯伊織,井澤詩織,伊藤美来,のぐちゆり,水谷麻鈴
Creator:Riana
Version:Neko
Source:ネコぱら
Tags:Nekopara opening op pop jpop anime animation japanese catgirl cat girl neko works felix film nekomimi chocola vanilla azuki maple cinnamon coconut ショコラ バニラ アズキ メイプル シナモン ココナツ habiholic badgames affirmation neoskylove af heilia
BeatmapID:2639545
BeatmapSetID:1270135

[Difficulty]
HPDrainRate:6
CircleSize:3.5
OverallDifficulty:8.5
ApproachRate:9.3
SliderMultiplier:1.9999999666214
SliderTickRate:1

[Events]
//Background and Video events
0,0,"timg.jpg",0,0
//Break Periods
//Storyboard Layer 0 (Background)
//Storyboard Layer 1 (Fail)
//Storyboard Layer 2 (Pass)
//Storyboard Layer 3 (Foreground)
//Storyboard Layer 4 (Overlay)
//Storyboard Sound Samples

[TimingPoints]
9786,319.148936170213,4,2,1,80,1,0
10106,319.148936170213,4,2,1,80,1,0
10106,-83.3333333333333,4,2,1,80,0,0
13776,-74.0740740740741,4,2,1,80,0,0
14574,-66.6666666666667,4,2,1,80,0,0
15212,-83.3333333333333,4,2,1,80,0,0
18723,-83.3333333333333,4,2,1,60,0,0
19361,-83.3333333333333,4,2,1,40,0,0
19681,-83.3333333333333,4,2,1,40,0,0
20319,-125,4,2,1,40,0,0
28297,-125,4,2,1,50,0,0
28935,-125,4,2,1,60,0,0
29255,-125,4,2,1,60,0,0
29574,-83.3333333333333,4,2,1,70,0,0
29894,-111.111111111111,4,2,1,70,0,0
30532,-100,4,2,1,70,0,0
39786,-100,4,2,1,50,0,0
40745,-111.111111111111,4,2,1,50,0,0
44893,-111.111111111111,4,2,1,60,0,0
45850,-100,4,2,1,60,0,0
49999,-100,4,2,1,75,0,0
50958,-90.9090909090909,4,2,1,75,0,0
52552,-90.9090909090909,4,2,1,90,0,0
53191,-80,4,2,1,90,0,0
53510,-71.4285714285714,4,2,1,90,0,0
54627,-62.5,4,2,1,90,0,0
54947,-83.3333333333333,4,2,1,90,0,0
56063,-71.4285714285714,4,2,1,90,0,0
63723,-71.4285714285714,4,2,1,90,0,0
64999,-62.5,4,2,1,90,0,0
65319,-83.3333333333333,4,2,1,90,0,0
66436,-71.4285714285714,4,2,1,90,0,0
72978,-71.4285714285714,4,2,1,60,0,0
73297,-50,4,2,1,60,0,0
73616,-50,4,2,1,70,0,0
73935,-100,4,2,1,70,0,0
74095,-100,4,2,1,85,0,0
74574,-100,4,2,1,85,0,0
75053,-100,4,2,1,85,0,0
77126,-66.6666666666667,4,2,1,85,0,0
77447,-100,4,2,1,85,0,0
77765,-100,4,2,1,80,0,0
78723,-100,4,2,1,80,0,0
79041,-83.3333333333333,4,2,1,80,0,0
82712,-74.0740740740741,4,2,1,80,0,0
83509,-66.6666666666667,4,2,1,80,0,0
84148,-83.3333333333333,4,2,1,80,0,0
87978,-50,4,2,1,80,0,0
88297,-100,4,2,1,30,0,0

[Colours]
Combo1 : 255,219,179
Combo2 : 255,255,128
Combo3 : 255,193,193

[HitObjects]
413,17,9786,5,10,0:2:0:0:
369,58,9866,1,2,0:2:0:0:
367,126,9946,1,2,0:2:0:0:
418,177,10026,1,2,0:2:0:0:
493,182,10106,6,0,P|426:135|353:135,1,119.999994335175,6|0,3:2|0:2,0:0:0:0:
347,234,10425,2,0,P|306:277|250:297,1,119.999994335175,10|0,0:2|0:2,0:0:0:0:
152,384,10744,1,2,3:2:0:0:
24,332,10903,2,0,P|7:274|17:216,1,119.999994335175,2|8,0:2|0:2,0:0:0:0:
161,13,11223,6,0,P|-5:102|-30:64,1,239.99998867035,2|2,0:2|0:2,0:0:0:0:
1,107,11621,1,2,0:2:0:0:
1,107,11701,1,10,0:2:0:0:
128,206,11861,1,0,0:2:0:0:
298,283,12020,5,2,3:2:0:0:
161,384,12180,1,0,0:2:0:0:
472,384,12340,5,10,0:2:0:0:
473,332,12420,1,2,0:2:0:0:
440,280,12500,1,2,0:2:0:0:
376,260,12580,1,2,0:2:0:0:
298,283,12659,6,0,P|345:216|345:143,1,119.999994335175,2|0,3:2|0:2,0:0:0:0:
278,124,12978,2,0,P|235:83|215:27,1,119.999994335175,10|0,0:2|0:2,0:0:0:0:
350,180,13297,1,2,3:2:0:0:
200,313,13457,2,0,P|274:278|310:215,1,119.999994335175,2|8,0:2|0:2,0:0:0:0:
214,26,13776,6,0,P|181:108|216:177,1,134.999998261929,2|0,3:2|0:2,0:0:0:0:
193,149,14095,1,2,3:2:0:0:
350,180,14254,2,0,P|383:98|348:29,1,134.999998261929,10|0,0:2|0:2,0:0:0:0:
65,155,14574,6,0,P|165:121|309:101,1,225.000004827976,2|0,3:2|0:2,0:0:0:0:
437,182,14893,1,10,0:2:0:0:
489,242,14973,1,2,0:2:0:0:
488,322,15052,1,2,0:2:0:0:
426,374,15132,1,2,0:2:0:0:
340,384,15212,6,0,P|311:331|260:303,1,119.999994335175,6|0,3:2|0:2,0:0:0:0:
167,237,15531,2,0,P|107:235|57:265,1,119.999994335175,10|0,0:2|0:2,0:0:0:0:
260,303,15850,1,2,3:2:0:0:
345,129,16010,2,0,P|316:76|265:48,1,119.999994335175,2|8,0:2|0:2,0:0:0:0:
0,134,16329,6,0,P|117:101|104:-14,1,239.99998867035,2|2,0:2|0:2,0:0:0:0:
115,0,16728,1,2,0:2:0:0:
115,0,16808,1,10,0:2:0:0:
161,176,16967,1,0,0:2:0:0:
399,200,17127,5,2,3:2:0:0:
421,70,17286,1,2,0:2:0:0:
371,82,17366,1,2,0:2:0:0:
348,128,17446,1,10,3:2:0:0:
399,200,17606,1,8,0:2:0:0:
192,99,17765,5,6,3:2:0:0:
163,255,17925,1,2,0:2:0:0:
319,284,18084,1,10,0:2:0:0:
348,128,18244,1,2,0:2:0:0:
104,119,18403,5,6,3:2:0:0:
183,342,18563,1,2,0:2:0:0:
406,263,18723,1,10,0:2:0:0:
327,40,18882,1,2,0:2:0:0:
57,214,19042,5,6,3:2:0:0:
57,214,19201,1,2,0:2:0:0:
179,23,19361,1,10,0:2:0:0:
192,99,19441,1,8,0:2:0:0:
207,175,19520,1,10,0:2:0:0:
341,331,19680,5,2,0:2:0:0:
384,318,19760,1,2,0:2:0:0:
412,284,19840,2,0,P|428:249|436:214,1,59.9999971675874,2|0,0:2|0:0,0:0:0:0:
144,256,19999,5,10,0:2:0:0:
121,326,20079,1,2,3:2:0:0:
179,373,20159,1,2,3:2:0:0:
237,330,20238,1,2,3:2:0:0:
217,259,20318,1,2,3:2:0:0:
60,185,20478,5,2,0:2:0:0:
141,103,20637,1,2,3:2:0:0:
141,103,20797,2,0,P|149:62|158:10,1,79.999998664856,2|0,0:2|3:2,0:0:0:0:
249,155,21116,5,2,0:2:0:0:
310,227,21276,1,2,3:2:0:0:
310,227,21435,1,2,0:2:0:0:
464,232,21595,6,0,P|389:258|368:344,1,159.999997329712,2|2,3:2|3:2,0:0:0:0:
510,300,22074,2,0,L|527:138,1,159.999997329712,2|2,0:2|0:2,0:0:0:0:
438,59,22552,1,2,3:2:0:0:
344,108,22712,2,0,P|292:107|251:96,1,79.999998664856,2|0,0:2|3:2,0:0:0:0:
63,144,23031,5,2,0:2:0:0:
88,229,23191,1,2,3:2:0:0:
63,144,23350,2,0,P|66:85|73:51,1,79.999998664856,2|0,0:2|3:2,0:0:0:0:
150,295,23669,5,2,0:2:0:0:
175,210,23829,1,2,3:2:0:0:
150,295,23988,1,2,0:2:0:0:
261,179,24148,6,0,P|291:225|418:231,1,159.999997329712,2|2,3:2|3:2,0:0:0:0:
485,172,24627,2,0,L|465:272,1,79.999998664856,2|0,0:2|3:2,0:0:0:0:
357,333,24946,5,2,0:2:0:0:
297,265,25106,1,2,3:2:0:0:
176,338,25265,1,2,0:2:0:0:
49,230,25425,6,0,L|73:48,1,159.999997329712,2|2,3:2|3:2,0:0:0:0:
49,230,25903,1,2,0:2:0:0:
154,179,26063,2,0,L|179:361,1,159.999997329712,2|2,3:2|3:2,0:0:0:0:
154,179,26542,1,2,0:2:0:0:
329,316,26701,6,0,P|362:247|441:224,1,159.999997329712,2|2,3:2|3:2,0:0:0:0:
437,223,27180,1,2,0:2:0:0:
259,129,27340,2,0,P|226:60|147:37,1,159.999997329712,2|2,3:2|3:2,0:0:0:0:
150,36,27818,1,0,0:2:0:0:
486,52,27978,6,0,P|416:38|309:-10,1,159.999997329712,2|2,3:2|3:2,0:0:0:0:
8,181,28616,2,0,P|78:167|185:119,1,159.999997329712,2|2,3:2|3:2,0:0:0:0:
282,352,29254,6,0,P|253:281|204:300,1,119.999997997284,10|0,0:2|0:2,0:0:0:0:
171,342,29574,2,0,L|185:171,1,119.999994335175,2|2,0:1|0:2,0:0:0:0:
477,1,29893,5,2,3:2:0:0:
507,32,29973,1,0,3:2:0:0:
512,76,30052,1,2,3:2:0:0:
489,114,30132,1,0,3:2:0:0:
448,130,30212,1,2,3:2:0:0:
407,146,30292,1,0,3:2:0:0:
384,184,30371,1,2,3:2:0:0:
389,228,30451,1,0,3:2:0:0:
419,259,30531,1,4,3:2:0:0:
310,124,30691,5,2,0:2:0:0:
242,285,30850,1,10,0:2:0:0:
88,241,31010,2,0,P|141:216|201:233,1,99.99999833107,2|0,0:2|3:2,0:0:0:0:
50,333,31329,1,2,0:2:0:0:
21,160,31488,1,10,0:2:0:0:
180,221,31648,1,2,0:2:0:0:
207,384,31808,6,0,P|255:319|371:330,1,199.99999666214,2|10,3:2|0:2,0:0:0:0:
433,265,32286,1,2,0:2:0:0:
268,267,32446,1,0,3:2:0:0:
337,61,32606,5,10,0:2:0:0:
268,267,32765,2,0,P|259:211|258:146,1,99.99999833107,10|0,0:2|0:2,0:0:0:0:
337,61,33084,1,0,3:2:0:0:
132,171,33244,5,2,0:2:0:0:
9,50,33403,1,10,0:2:0:0:
155,88,33563,2,0,P|217:146|141:254,1,199.99999666214,2|2,0:2|0:2,0:0:0:0:
36,303,34042,1,10,0:2:0:0:
132,171,34201,1,2,0:2:0:0:
215,384,34361,6,0,P|257:315|402:324,1,199.99999666214,2|10,3:2|0:2,0:0:0:0:
343,58,34840,1,2,0:2:0:0:
441,156,34999,1,0,3:2:0:0:
235,225,35159,5,10,0:2:0:0:
441,156,35318,2,0,L|320:146,1,99.99999833107,10|0,0:2|0:2,0:0:0:0:
63,45,35637,6,0,P|89:86|95:135,1,99.99999833107,2|0,3:2|0:2,0:0:0:0:
28,210,35957,1,10,0:2:0:0:
28,210,36116,1,2,0:2:0:0:
137,334,36276,5,2,3:2:0:0:
201,252,36435,1,2,0:2:0:0:
248,251,36515,1,2,0:2:0:0:
293,277,36595,1,10,0:2:0:0:
137,334,36754,1,2,0:2:0:0:
218,133,36914,6,0,P|259:159|308:165,1,99.99999833107,2|0,3:2|0:2,0:0:0:0:
384,104,37233,1,10,0:2:0:0:
384,104,37393,1,2,0:2:0:0:
511,222,37552,5,2,3:2:0:0:
437,283,37712,1,10,0:2:0:0:
428,333,37792,1,2,0:2:0:0:
445,379,37871,1,10,0:2:0:0:
511,222,38031,1,2,0:2:0:0:
384,104,38191,6,0,P|271:156|233:179,1,149.999997496605,6|0,3:2|0:2,0:0:0:0:
204,244,38510,2,0,P|215:120|214:76,1,149.999997496605,10|0,0:2|0:2,0:0:0:0:
157,26,38829,5,6,3:2:0:0:
296,55,38988,1,2,0:2:0:0:
71,12,39148,5,10,0:2:0:0:
249,169,39308,1,10,0:2:0:0:
50,361,39627,5,10,0:2:0:0:
164,159,39786,1,10,0:2:0:0:
448,191,40106,5,10,0:2:0:0:
164,159,40425,1,10,0:2:0:0:
271,18,40744,5,6,3:2:0:0:
358,18,40903,1,2,0:2:0:0:
404,93,41063,1,2,0:2:0:0:
360,170,41223,1,2,3:2:0:0:
270,171,41542,1,2,0:2:0:0:
314,326,41861,6,0,P|268:268|144:272,1,179.999991502762,10|2,0:2|0:2,0:0:0:0:
45,157,42260,1,2,0:2:0:0:
45,157,42340,2,0,L|-15:168,3,44.9999978756905,10|2|2|2,0:2|0:2|0:2|0:2,0:0:0:0:
115,108,42659,2,0,L|160:116,3,44.9999978756905,2|2|10|2,3:2|0:2|0:2|0:2,0:0:0:0:
65,41,42978,1,10,0:2:0:0:
225,173,43137,5,2,0:2:0:0:
308,148,43297,1,4,3:2:0:0:
367,211,43457,1,2,0:2:0:0:
346,295,43616,1,2,0:2:0:0:
263,319,43776,1,2,3:2:0:0:
202,257,44095,1,2,0:2:0:0:
332,378,44414,6,0,P|378:320|502:324,1,179.999991502762,10|2,0:2|0:2,0:0:0:0:
367,211,44813,1,2,0:2:0:0:
367,211,44893,2,0,L|377:151,3,44.9999978756905,10|2|2|2,0:2|0:2|0:2|0:2,0:0:0:0:
445,84,45212,2,0,L|454:129,3,44.9999978756905,2|2|10|2,3:2|0:2|0:2|0:2,0:0:0:0:
371,28,45531,1,10,0:2:0:0:
175,0,45850,6,0,P|215:70|224:186,1,149.999997496605,6|0,3:2|0:2,0:0:0:0:
227,137,46169,1,10,0:2:0:0:
76,331,46329,2,0,P|90:257|128:193,1,149.999997496605,6|0,3:2|0:2,0:0:0:0:
128,192,46648,1,2,3:2:0:0:
175,0,46808,1,10,0:2:0:0:
458,290,47127,6,0,P|388:330|272:339,1,149.999997496605,6|0,3:2|0:2,0:0:0:0:
321,343,47446,1,10,0:2:0:0:
128,192,47606,2,0,P|201:206|265:244,1,149.999997496605,6|0,3:2|0:2,0:0:0:0:
267,244,47925,1,2,3:2:0:0:
459,291,48084,1,10,0:2:0:0:
125,101,48403,5,4,3:2:0:0:
393,151,48723,1,10,0:2:0:0:
184,193,49042,1,10,0:2:0:0:
349,244,49361,1,10,0:2:0:0:
184,193,49680,5,10,0:2:0:0:
393,151,49999,1,10,0:2:0:0:
125,101,50318,1,10,0:2:0:0:
438,53,50637,1,10,0:2:0:0:
125,101,50957,5,10,0:2:0:0:
349,244,51116,2,0,L|213:220,1,110.000001521111,10|0,0:2|0:2,0:0:0:0:
432,218,51435,5,10,0:2:0:0:
179,336,51595,2,0,L|315:312,1,110.000001521111,10|0,0:2|0:2,0:0:0:0:
304,164,51914,5,10,0:2:0:0:
15,111,52074,2,0,L|136:99,1,110.000001521111,10|0,0:2|0:2,0:0:0:0:
240,224,52393,5,10,0:2:0:0:
512,324,52552,2,0,L|391:335,1,110.000001521111,10|0,0:2|0:2,0:0:0:0:
206,6,52871,6,0,P|356:50|387:29,1,165.000002281666,10|0,0:2|0:2,0:0:0:0:
415,0,53191,2,0,P|408:63|389:150,1,124.999997913837,8|2,0:2|0:2,0:0:0:0:
367,334,53510,6,0,B|354:268|428:186|442:253|508:166|493:104,1,279.999986782074,6|10,3:2|0:2,0:0:0:0:
250,209,53988,1,2,0:2:0:0:
203,205,54068,1,0,3:2:0:0:
173,169,54148,1,0,3:2:0:0:
261,361,54307,1,2,0:2:0:0:
173,169,54467,1,8,0:2:0:0:
313,0,54627,5,2,0:2:0:0:
313,0,54706,1,2,0:2:0:0:
313,0,54786,2,0,P|243:70|252:146,1,159.999997329712,2|2,3:2|0:2,0:0:0:0:
512,384,55105,1,10,0:2:0:0:
307,298,55265,1,2,0:2:0:0:
54,205,55424,5,2,3:2:0:0:
38,246,55504,1,0,3:2:0:0:
41,291,55584,1,2,3:2:0:0:
67,336,55664,1,0,3:2:0:0:
116,366,55744,1,10,0:2:0:0:
182,341,55823,1,0,3:2:0:0:
231,284,55903,1,2,3:2:0:0:
250,209,55983,1,0,3:2:0:0:
243,125,56063,6,0,B|198:137|199:184|199:184|252:228|337:187|336:79,1,279.999986782074,2|10,3:2|0:2,0:0:0:0:
111,19,56541,1,2,0:2:0:0:
96,64,56621,1,0,3:2:0:0:
125,100,56701,1,0,3:2:0:0:
32,203,56861,1,2,0:2:0:0:
125,100,57020,1,8,0:2:0:0:
26,322,57180,6,0,B|163:317|133:181|255:186,1,279.999986782074,2|0,0:2|0:2,0:0:0:0:
125,100,57658,1,10,0:2:0:0:
314,0,57818,2,0,P|309:40|304:82,1,69.9999966955186,0|0,3:2|3:2,0:0:0:0:
324,241,57978,5,2,3:2:0:0:
341,278,58057,1,0,3:2:0:0:
332,323,58137,1,0,3:2:0:0:
297,356,58217,1,0,3:2:0:0:
245,358,58297,1,10,0:2:0:0:
266,289,58377,1,0,3:2:0:0:
324,241,58456,1,0,3:2:0:0:
401,237,58536,1,0,3:2:0:0:
468,283,58616,6,0,B|494:290|490:360|490:360|393:297|487:165,1,279.999986782074,6|10,3:2|0:2,0:0:0:0:
309,161,59095,2,0,B|229:148|168:110,1,139.999993391037,2|0,0:2|3:2,0:0:0:0:
22,45,59414,1,2,0:2:0:0:
95,154,59573,1,8,0:2:0:0:
17,338,59733,6,0,P|47:202|169:216,1,279.999986782074,2|0,0:2|0:2,0:0:0:0:
327,277,60212,1,10,0:2:0:0:
380,276,60291,1,0,3:2:0:0:
419,240,60371,1,0,3:2:0:0:
451,125,60531,1,2,3:2:0:0:
369,0,60690,1,0,0:2:0:0:
451,125,60850,5,10,0:2:0:0:
495,103,60930,1,0,3:2:0:0:
487,54,61010,1,0,3:2:0:0:
439,44,61089,1,0,3:2:0:0:
414,89,61169,2,0,B|355:188|250:155|250:155|235:83|139:86,1,279.999986782074,2|8,3:2|0:2,0:0:0:0:
65,22,61648,5,2,0:2:0:0:
50,128,61807,1,2,3:2:0:0:
152,179,61967,1,2,0:2:0:0:
15,332,62127,1,10,0:2:0:0:
152,179,62286,1,2,0:2:0:0:
384,254,62446,6,0,B|318:307|247:251|247:251|146:245|128:364,2,279.999986782074,2|2|2,3:2|3:2|3:2,0:0:0:0:
142,311,63244,1,10,0:2:0:0:
321,187,63403,5,10,0:2:0:0:
319,156,63483,1,0,3:2:0:0:
295,129,63563,1,2,3:2:0:0:
256,125,63642,1,0,3:2:0:0:
321,187,63722,6,0,B|430:172|457:53|457:53|408:39|374:86,1,279.999986782074,6|10,3:2|0:2,0:0:0:0:
154,196,64201,1,2,0:2:0:0:
133,240,64281,1,0,3:2:0:0:
149,284,64361,1,0,3:2:0:0:
0,359,64520,1,2,0:2:0:0:
149,284,64680,1,8,0:2:0:0:
256,125,64839,5,2,0:2:0:0:
256,125,64919,1,2,0:2:0:0:
256,125,64999,2,0,P|213:34|139:18,1,159.999997329712,2|2,3:2|0:2,0:0:0:0:
0,194,65318,1,10,0:2:0:0:
227,235,65478,1,2,0:2:0:0:
429,290,65637,5,2,3:2:0:0:
471,278,65717,1,0,3:2:0:0:
500,242,65797,1,0,3:2:0:0:
512,191,65877,1,0,3:2:0:0:
490,132,65956,1,10,0:2:0:0:
420,133,66036,1,0,3:2:0:0:
354,169,66116,1,0,3:2:0:0:
311,233,66196,1,0,3:2:0:0:
305,311,66275,6,0,B|336:286|325:262|325:262|297:198|188:248|233:369,1,239.99998867035,2|10,3:2|0:2,0:0:0:0:
405,178,66754,1,2,0:2:0:0:
420,133,66834,1,0,0:2:0:0:
391,97,66914,1,0,3:2:0:0:
512,0,67073,1,2,0:2:0:0:
391,97,67233,1,8,0:2:0:0:
130,0,67392,6,0,B|156:119|5:122|36:250,1,279.999986782074,2|2,0:2|0:2,0:0:0:0:
29,32,67871,1,10,0:2:0:0:
137,216,68031,2,0,P|177:211|219:206,1,69.9999966955186,0|0,3:2|3:2,0:0:0:0:
332,128,68190,5,2,3:2:0:0:
353,93,68270,1,0,0:2:0:0:
351,47,68350,1,2,0:2:0:0:
320,9,68430,1,0,0:2:0:0:
269,0,68510,1,10,0:2:0:0:
280,72,68589,1,0,3:2:0:0:
332,128,68669,1,2,3:2:0:0:
407,142,68749,1,0,3:2:0:0:
482,105,68829,6,0,B|469:59|514:31|514:31|549:139|441:218,1,279.999986782074,6|10,3:2|0:2,0:0:0:0:
268,383,69307,2,0,B|216:320|153:286,1,139.999993391037,2|0,0:2|3:2,0:0:0:0:
0,202,69627,1,2,0:2:0:0:
162,291,69786,1,8,0:2:0:0:
48,0,69946,6,0,P|30:83|207:113,1,279.999986782074,2|0,0:2|0:2,0:0:0:0:
377,68,70424,1,10,0:2:0:0:
320,37,70504,1,2,0:2:0:0:
262,62,70584,1,2,0:2:0:0:
13,372,70744,6,0,P|66:283|184:312,1,209.999990086556,2|0,3:2|3:2,0:0:0:0:
233,366,71063,1,10,0:2:0:0:
392,180,71223,5,2,3:2:0:0:
392,180,71302,1,2,3:2:0:0:
392,179,71382,2,0,P|267:188|262:63,1,279.999986782074,2|8,3:2|0:2,0:0:0:0:
257,282,71861,1,2,0:2:0:0:
489,316,72020,2,0,P|520:216|492:162,1,139.999993391037,2|0,3:2|0:2,0:0:0:0:
90,151,72339,2,0,P|160:227|221:230,1,139.999993391037,10|0,0:2|0:2,0:0:0:0:
437,154,72658,5,6,3:2:0:0:
354,159,72738,1,0,3:2:0:0:
314,202,72818,1,2,3:2:0:0:
302,249,72898,1,0,3:2:0:0:
314,288,72978,1,10,0:2:0:0:
338,304,73057,1,0,3:2:0:0:
353,304,73137,1,2,3:2:0:0:
361,297,73217,1,0,3:2:0:0:
388,308,73297,6,0,P|384:258|356:218,1,99.99999833107,2|0,3:2|0:0,0:0:0:0:
152,384,73457,2,0,P|197:365|227:326,1,99.99999833107,2|0,3:2|3:2,0:0:0:0:
5,191,73616,2,0,P|36:229|83:245,1,99.99999833107,2|0,3:2|3:2,0:0:0:0:
139,0,73776,2,0,P|112:41|111:91,1,99.99999833107,2|0,3:2|3:2,0:0:0:0:
280,75,73935,1,6,3:2:0:0:
214,192,74573,5,10,0:2:0:0:
457,54,74733,1,10,0:2:0:0:
457,54,75052,6,0,P|450:150|441:235,1,149.999997496605,14|0,0:2|0:2,0:0:0:0:
395,266,75371,1,0,3:2:0:0:
109,113,75531,5,10,0:2:0:0:
319,63,75690,1,2,3:2:0:0:
324,368,75850,5,2,0:2:0:0:
73,256,76010,1,0,3:2:0:0:
215,0,76169,5,8,0:2:0:0:
274,261,76329,1,2,3:2:0:0:
274,261,76408,1,0,3:2:0:0:
274,261,76488,1,14,0:2:0:0:
23,147,77127,6,0,P|85:174|119:170,1,75.0000016093255,10|0,0:2|3:2,0:0:0:0:
154,239,77286,2,0,P|208:198|221:167,1,75.0000016093255,0|0,3:2|3:2,0:0:0:0:
215,0,77446,5,2,3:2:0:0:
181,64,77525,1,0,3:2:0:0:
233,115,77605,1,0,3:2:0:0:
296,81,77685,1,0,3:2:0:0:
286,10,77765,1,6,3:2:0:0:
286,10,78084,5,8,0:2:0:0:
84,305,78244,1,4,3:2:0:0:
99,17,78722,5,10,0:2:0:0:
143,58,78802,1,2,0:2:0:0:
145,126,78882,1,2,0:2:0:0:
94,177,78962,1,2,0:2:0:0:
16,184,79041,6,0,P|83:137|156:137,1,119.999994335175,6|0,3:2|0:2,0:0:0:0:
288,272,79361,2,0,P|232:252|191:209,1,119.999994335175,10|0,0:2|0:2,0:0:0:0:
354,118,79680,1,2,3:2:0:0:
495,216,79839,2,0,P|504:274|488:332,1,119.999994335175,2|8,0:2|0:2,0:0:0:0:
351,13,80158,6,0,P|517:102|542:64,1,239.99998867035,2|2,0:2|0:2,0:0:0:0:
511,107,80557,1,2,0:2:0:0:
511,107,80637,1,10,0:2:0:0:
328,182,80797,1,0,0:2:0:0:
487,332,80957,5,2,3:2:0:0:
307,275,81116,1,0,0:2:0:0:
40,384,81275,5,10,0:2:0:0:
39,332,81355,1,2,0:2:0:0:
72,280,81435,1,2,0:2:0:0:
136,260,81515,1,2,0:2:0:0:
214,283,81595,6,0,P|167:216|167:143,1,119.999994335175,2|0,3:2|0:2,0:0:0:0:
292,5,81914,2,0,P|272:61|228:102,1,119.999994335175,10|0,0:2|0:2,0:0:0:0:
292,4,82233,1,2,3:2:0:0:
312,313,82392,2,0,P|238:278|202:215,1,119.999994335175,2|8,0:2|0:2,0:0:0:0:
292,4,82712,6,0,P|325:86|290:155,1,134.999998261929,2|0,3:2|0:2,0:0:0:0:
313,127,83031,1,2,3:2:0:0:
156,158,83190,2,0,P|123:76|158:7,1,134.999998261929,10|0,0:2|0:2,0:0:0:0:
461,227,83510,6,0,P|361:193|217:173,1,225.000004827976,2|0,3:2|0:2,0:0:0:0:
75,182,83829,1,10,0:2:0:0:
23,242,83909,1,2,0:2:0:0:
24,322,83988,1,2,0:2:0:0:
86,374,84068,1,2,0:2:0:0:
172,384,84148,6,0,P|201:331|252:303,1,119.999994335175,6|0,3:2|0:2,0:0:0:0:
454,319,84467,2,0,P|403:350|344:347,1,119.999994335175,10|0,0:2|0:2,0:0:0:0:
145,303,84786,1,2,3:2:0:0:
72,109,84946,2,0,P|101:56|152:28,1,119.999994335175,2|8,0:2|0:2,0:0:0:0:
512,134,85265,6,0,P|395:101|408:-14,1,239.99998867035,2|2,0:2|0:2,0:0:0:0:
397,0,85664,1,2,0:2:0:0:
397,0,85744,1,10,0:2:0:0:
332,166,85903,1,0,0:2:0:0:
91,175,86063,5,2,3:2:0:0:
69,45,86222,1,2,0:2:0:0:
119,57,86302,1,2,0:2:0:0:
142,103,86382,1,10,3:2:0:0:
91,175,86542,1,8,0:2:0:0:
343,80,86701,5,6,3:2:0:0:
366,281,86861,1,2,0:2:0:0:
165,304,87020,1,10,0:2:0:0:
142,103,87180,1,2,0:2:0:0:
505,343,87339,5,6,3:2:0:0:
438,372,87419,1,0,3:0:0:0:
366,373,87499,1,0,3:2:0:0:
300,338,87579,1,0,3:0:0:0:
265,275,87658,1,10,0:2:0:0:
222,217,87738,1,0,3:0:0:0:
156,184,87818,1,0,3:2:0:0:
85,184,87898,1,0,3:0:0:0:
21,215,87978,6,0,B|137:307|282:129|144:53|144:53|133:72|147:122,1,399.99999332428,6|0,3:2|0:0,0:0:0:0:
