osu file format v14

[General]
AudioFilename: audio.mp3
AudioLeadIn: 0
PreviewTime: 53350
Countdown: 0
SampleSet: Normal
StackLeniency: 0.7
Mode: 1
LetterboxInBreaks: 0
WidescreenStoryboard: 0

[Editor]
Bookmarks: 21619,54810,80023
DistanceSpacing: 1.2
BeatDivisor: 4
GridSize: 4
TimelineZoom: 2.799999

[Metadata]
Title:Shiny Happy Days (TV Size)
TitleUnicode:Shiny Happy Days (TV Size)
Artist:Yagi Yuki, Saeki Iori, Izawa Shiori, Itou Miku, Noguchi Yuri, Mizutani Marin
ArtistUnicode:八木侑紀,佐伯伊織,井澤詩織,伊藤美来,のぐちゆり,水谷麻鈴
Creator:Riana
Version:Neko Oni
Source:ネコぱら
Tags:Nekopara opening op pop jpop j-pop anime animation japanese catgirl cat girl neko works felix film nekomimi chocola vanilla azuki maple cinnamon coconut ショコラ バニラ アズキ メイプル シナモン ココナツ itō
BeatmapID:2466575
BeatmapSetID:1167148

[Difficulty]
HPDrainRate:6
CircleSize:2
OverallDifficulty:6
ApproachRate:0
SliderMultiplier:1.4
SliderTickRate:1

[Events]
//Background and Video events
0,0,"nekos.jpg",0,20
//Break Periods
//Storyboard Layer 0 (Background)
//Storyboard Layer 1 (Fail)
//Storyboard Layer 2 (Pass)
//Storyboard Layer 3 (Foreground)
//Storyboard Layer 4 (Overlay)
//Storyboard Sound Samples

[TimingPoints]
10106,319.148936170213,4,1,0,75,1,0
20319,-100,4,1,0,50,0,0
29893,-100,4,1,0,60,0,0
30532,-100,4,1,0,70,0,0
40744,-100,4,1,0,60,0,0
45851,-100,4,1,0,70,0,0
50957,-100,4,1,0,80,0,0
53351,-100,4,1,0,80,0,0
53510,-100,4,1,0,90,0,1
62446,-100,4,1,0,80,0,0
63723,-100,4,1,0,90,0,1
73935,-100,4,1,0,80,0,0
75052,-100,4,1,0,90,0,1
78723,-100,4,1,0,75,0,0

[Colours]
Combo1 : 255,219,179
Combo2 : 255,255,128
Combo3 : 255,193,193

[HitObjects]
256,191,9787,5,0,0:0:0:0:
256,191,9867,1,0,0:0:0:0:
256,191,9947,1,0,0:0:0:0:
256,191,10026,1,0,0:0:0:0:
256,191,10106,1,12,0:0:0:0:
255,192,10425,1,0,0:0:0:0:
256,191,10584,1,0,0:0:0:0:
255,191,10664,1,0,0:0:0:0:
255,191,10744,1,8,0:0:0:0:
256,192,10903,1,8,0:0:0:0:
256,192,11063,1,0,0:0:0:0:
256,191,11223,1,8,0:0:0:0:
256,191,11302,1,8,0:0:0:0:
256,191,11382,1,0,0:0:0:0:
255,191,11542,1,0,0:0:0:0:
255,191,11621,1,0,0:0:0:0:
255,191,11701,1,8,0:0:0:0:
255,191,11861,1,8,0:0:0:0:
255,192,12020,1,0,0:0:0:0:
255,192,12180,1,0,0:0:0:0:
256,192,12340,1,0,0:0:0:0:
256,191,12419,1,0,0:0:0:0:
256,191,12499,1,0,0:0:0:0:
256,191,12579,1,0,0:0:0:0:
256,191,12659,1,8,0:0:0:0:
255,192,12978,1,0,0:0:0:0:
256,192,13137,1,0,0:0:0:0:
256,192,13217,1,0,0:0:0:0:
255,191,13297,1,8,0:0:0:0:
256,192,13457,1,8,0:0:0:0:
256,192,13616,1,0,0:0:0:0:
256,191,13776,1,8,0:0:0:0:
256,191,13856,1,8,0:0:0:0:
256,191,13935,1,0,0:0:0:0:
255,191,14095,1,8,0:0:0:0:
255,191,14175,1,0,0:0:0:0:
255,191,14254,1,8,0:0:0:0:
255,192,14574,1,8,0:0:0:0:
255,191,14653,1,8,0:0:0:0:
255,191,14733,1,8,0:0:0:0:
256,192,14893,1,0,0:0:0:0:
256,191,14973,1,0,0:0:0:0:
255,191,15052,1,8,0:0:0:0:
256,191,15132,1,0,0:0:0:0:
256,191,15212,1,12,0:0:0:0:
255,192,15531,1,0,0:0:0:0:
255,191,15691,1,0,0:0:0:0:
255,191,15770,1,0,0:0:0:0:
255,191,15850,1,8,0:0:0:0:
256,192,16010,1,8,0:0:0:0:
256,192,16169,1,0,0:0:0:0:
256,191,16329,1,8,0:0:0:0:
256,191,16409,1,8,0:0:0:0:
256,191,16488,1,0,0:0:0:0:
255,191,16648,1,0,0:0:0:0:
255,191,16728,1,0,0:0:0:0:
255,191,16808,1,8,0:0:0:0:
255,191,16967,1,8,0:0:0:0:
255,192,17127,1,0,0:0:0:0:
256,191,17286,1,8,0:0:0:0:
256,191,17366,1,8,0:0:0:0:
256,191,17446,1,0,0:0:0:0:
255,192,17606,1,0,0:0:0:0:
255,192,17685,1,0,0:0:0:0:
255,192,17765,1,12,0:0:0:0:
255,191,17925,1,8,0:0:0:0:
256,192,18084,1,0,0:0:0:0:
255,191,18244,1,0,0:0:0:0:
255,191,18324,1,0,0:0:0:0:
255,191,18403,1,12,0:0:0:0:
255,192,18563,1,0,0:0:0:0:
255,191,18643,1,0,0:0:0:0:
255,191,18723,1,8,0:0:0:0:
255,191,18882,1,0,0:0:0:0:
255,192,19042,1,12,0:0:0:0:
256,191,19201,1,0,0:0:0:0:
255,191,19281,1,8,0:0:0:0:
256,191,19361,1,8,0:0:0:0:
256,191,19520,1,0,0:0:0:0:
255,191,19680,1,0,0:0:0:0:
255,191,19760,1,0,0:0:0:0:
255,191,19840,1,0,0:0:0:0:
255,192,19999,1,8,0:0:0:0:
255,192,20079,1,8,0:0:0:0:
255,192,20159,1,0,0:0:0:0:
255,191,20318,1,0,0:0:0:0:
255,191,20478,1,0,0:0:0:0:
255,191,20637,1,8,0:0:0:0:
255,191,20797,1,8,0:0:0:0:
256,192,21116,1,8,0:0:0:0:
256,191,21276,1,0,0:0:0:0:
255,191,21435,1,0,0:0:0:0:
255,191,21595,1,8,0:0:0:0:
255,191,21914,1,0,0:0:0:0:
256,191,22074,1,0,0:0:0:0:
255,191,22393,1,0,0:0:0:0:
255,191,22552,1,8,0:0:0:0:
255,191,22632,1,8,0:0:0:0:
255,192,22712,1,8,0:0:0:0:
255,191,22871,1,0,0:0:0:0:
255,191,23031,1,8,0:0:0:0:
255,191,23191,1,0,0:0:0:0:
255,192,23350,1,0,0:0:0:0:
256,192,23669,1,8,0:0:0:0:
256,191,23829,1,0,0:0:0:0:
255,191,23988,1,0,0:0:0:0:
255,191,24148,1,8,0:0:0:0:
255,191,24467,1,8,0:0:0:0:
256,191,24627,1,0,0:0:0:0:
255,191,24946,1,0,0:0:0:0:
255,191,25106,1,8,0:0:0:0:
255,191,25185,1,8,0:0:0:0:
255,192,25265,1,8,0:0:0:0:
255,191,25425,1,0,0:0:0:0:
255,191,25744,1,8,0:0:0:0:
255,192,25903,1,0,0:0:0:0:
256,191,26063,1,0,0:0:0:0:
255,191,26223,1,8,0:0:0:0:
255,191,26302,1,8,0:0:0:0:
255,191,26382,1,8,0:0:0:0:
255,191,26542,1,0,0:0:0:0:
255,191,26701,1,8,0:0:0:0:
255,191,27020,1,0,0:0:0:0:
256,191,27180,1,0,0:0:0:0:
256,191,27340,1,8,0:0:0:0:
255,191,27499,1,0,0:0:0:0:
256,191,27579,1,0,0:0:0:0:
256,191,27659,1,0,0:0:0:0:
256,191,27818,1,0,0:0:0:0:
255,191,27978,1,8,0:0:0:0:
255,191,28297,1,0,0:0:0:0:
256,191,28616,1,0,0:0:0:0:
255,191,28935,1,8,0:0:0:0:
255,191,29254,1,12,0:0:0:0:
255,192,29574,1,8,0:0:0:0:
255,191,29653,1,0,0:0:0:0:
255,191,29733,1,0,0:0:0:0:
255,191,29893,1,8,0:0:0:0:
255,191,29973,1,0,0:0:0:0:
255,191,30052,1,8,0:0:0:0:
255,191,30132,1,0,0:0:0:0:
255,191,30212,1,8,0:0:0:0:
255,192,30371,1,8,0:0:0:0:
256,191,30531,1,4,0:0:0:0:
256,191,30691,1,8,0:0:0:0:
256,191,30770,1,8,0:0:0:0:
256,191,30850,1,0,0:0:0:0:
256,191,31010,1,0,0:0:0:0:
256,191,31169,1,0,0:0:0:0:
256,191,31329,1,8,0:0:0:0:
256,191,31409,1,8,0:0:0:0:
256,191,31488,1,0,0:0:0:0:
256,191,31648,1,0,0:0:0:0:
256,191,31808,1,8,0:0:0:0:
255,191,31887,1,8,0:0:0:0:
256,191,31967,1,8,0:0:0:0:
256,191,32127,1,0,0:0:0:0:
255,191,32286,1,0,0:0:0:0:
255,192,32446,1,8,0:0:0:0:
256,192,32606,1,0,0:0:0:0:
256,192,32685,1,0,0:0:0:0:
256,192,32765,1,8,0:0:0:0:
255,191,32925,1,0,0:0:0:0:
256,191,33084,1,0,0:0:0:0:
256,191,33244,1,0,0:0:0:0:
256,191,33324,1,0,0:0:0:0:
256,191,33403,1,8,0:0:0:0:
256,191,33563,1,8,0:0:0:0:
256,191,33723,1,0,0:0:0:0:
256,191,33882,1,0,0:0:0:0:
256,191,33962,1,0,0:0:0:0:
256,191,34042,1,8,0:0:0:0:
256,191,34201,1,8,0:0:0:0:
256,191,34361,1,8,0:0:0:0:
255,191,34441,1,8,0:0:0:0:
256,191,34520,1,0,0:0:0:0:
256,191,34680,1,0,0:0:0:0:
255,191,34840,1,8,0:0:0:0:
255,192,34999,1,0,0:0:0:0:
256,192,35159,1,8,0:0:0:0:
256,192,35238,1,8,0:0:0:0:
256,192,35318,1,0,0:0:0:0:
255,191,35478,1,8,0:0:0:0:
255,192,35637,1,0,0:0:0:0:
256,192,35957,1,8,0:0:0:0:
256,192,36116,1,0,0:0:0:0:
256,192,36196,1,8,0:0:0:0:
256,192,36276,1,8,0:0:0:0:
256,192,36435,1,8,0:0:0:0:
256,192,36595,1,0,0:0:0:0:
255,192,36675,1,0,0:0:0:0:
256,192,36754,1,8,0:0:0:0:
255,192,36914,1,0,0:0:0:0:
256,192,37233,1,8,0:0:0:0:
256,192,37393,1,8,0:0:0:0:
256,192,37473,1,0,0:0:0:0:
256,192,37552,1,0,0:0:0:0:
256,192,37712,1,0,0:0:0:0:
256,192,37871,1,8,0:0:0:0:
256,192,37951,1,8,0:0:0:0:
256,192,38031,1,0,0:0:0:0:
255,191,38191,1,4,0:0:0:0:
256,191,38510,1,8,0:0:0:0:
255,191,38829,1,4,0:0:0:0:
255,191,38988,1,0,0:0:0:0:
256,192,39148,1,0,0:0:0:0:
255,191,39228,1,0,0:0:0:0:
255,192,39308,1,12,0:0:0:0:
256,191,39627,1,8,0:0:0:0:
256,192,39786,1,0,0:0:0:0:
256,192,39866,1,0,0:0:0:0:
256,191,39946,1,0,0:0:0:0:
256,191,40106,1,8,0:0:0:0:
256,191,40425,1,8,0:0:0:0:
255,191,40744,1,0,0:0:0:0:
255,192,40903,1,0,0:0:0:0:
255,192,41063,1,0,0:0:0:0:
255,191,41223,1,8,0:0:0:0:
255,191,41542,1,8,0:0:0:0:
255,191,41701,1,0,0:0:0:0:
255,191,41861,1,8,0:0:0:0:
255,191,42180,1,0,0:0:0:0:
255,191,42260,1,0,0:0:0:0:
255,191,42340,1,8,0:0:0:0:
255,191,42659,1,8,0:0:0:0:
255,191,42818,1,0,0:0:0:0:
255,191,42898,1,0,0:0:0:0:
255,192,42978,1,8,0:0:0:0:
255,192,43137,1,0,0:0:0:0:
255,192,43297,1,8,0:0:0:0:
256,192,43457,1,8,0:0:0:0:
256,192,43616,1,0,0:0:0:0:
256,192,43776,1,0,0:0:0:0:
255,191,44095,1,0,0:0:0:0:
255,191,44254,1,0,0:0:0:0:
256,192,44414,1,8,0:0:0:0:
256,192,44733,1,0,0:0:0:0:
256,192,44813,1,0,0:0:0:0:
255,191,44893,1,8,0:0:0:0:
255,191,45212,1,8,0:0:0:0:
255,191,45371,1,0,0:0:0:0:
255,191,45451,1,0,0:0:0:0:
255,191,45531,1,8,0:0:0:0:
255,192,45850,1,4,0:0:0:0:
256,191,46010,1,8,0:0:0:0:
256,191,46090,1,8,0:0:0:0:
256,191,46169,1,0,0:0:0:0:
256,192,46329,1,12,0:0:0:0:
256,192,46648,1,0,0:0:0:0:
255,192,46728,1,0,0:0:0:0:
256,192,46808,1,8,0:0:0:0:
255,192,47127,1,4,0:0:0:0:
256,191,47286,1,8,0:0:0:0:
256,191,47366,1,8,0:0:0:0:
256,191,47446,1,0,0:0:0:0:
256,192,47606,1,12,0:0:0:0:
256,192,47925,1,0,0:0:0:0:
255,192,48004,1,0,0:0:0:0:
256,192,48084,1,8,0:0:0:0:
256,191,48403,1,0,0:0:0:0:
255,192,48723,1,8,0:0:0:0:
255,192,49042,1,8,0:0:0:0:
256,192,49361,1,0,0:0:0:0:
255,191,49520,1,0,0:0:0:0:
256,192,49680,1,8,0:0:0:0:
255,191,49999,1,8,0:0:0:0:
255,191,50318,1,8,0:0:0:0:
255,191,50637,1,8,0:0:0:0:
255,191,50957,1,4,0:0:0:0:
255,191,51116,1,4,0:0:0:0:
256,191,51435,1,4,0:0:0:0:
256,191,51595,1,4,0:0:0:0:
255,191,51914,1,12,0:0:0:0:
255,191,52074,1,12,0:0:0:0:
255,191,52393,1,12,0:0:0:0:
255,191,52552,1,12,0:0:0:0:
255,191,52871,1,4,0:0:0:0:
255,191,53191,1,8,0:0:0:0:
255,191,53350,1,0,0:0:0:0:
255,191,53510,1,12,0:0:0:0:
256,191,53669,1,0,0:0:0:0:
256,191,53749,1,0,0:0:0:0:
256,191,53829,1,0,0:0:0:0:
256,192,53988,1,8,0:0:0:0:
256,192,54068,1,0,0:0:0:0:
256,192,54148,1,0,0:0:0:0:
256,192,54228,1,0,0:0:0:0:
256,192,54307,1,8,0:0:0:0:
256,192,54467,1,0,0:0:0:0:
255,192,54627,1,8,0:0:0:0:
255,192,54706,1,8,0:0:0:0:
255,192,54786,1,0,0:0:0:0:
255,191,54946,1,0,0:0:0:0:
255,191,55105,1,8,0:0:0:0:
255,191,55265,1,8,0:0:0:0:
255,191,55424,1,8,0:0:0:0:
255,191,55504,1,0,0:0:0:0:
255,191,55584,1,8,0:0:0:0:
255,191,55664,1,0,0:0:0:0:
255,191,55744,1,8,0:0:0:0:
255,191,55823,1,8,0:0:0:0:
255,191,55903,1,0,0:0:0:0:
255,191,55983,1,0,0:0:0:0:
255,191,56063,1,8,0:0:0:0:
256,191,56222,1,0,0:0:0:0:
256,191,56302,1,0,0:0:0:0:
256,191,56382,1,0,0:0:0:0:
256,192,56541,1,8,0:0:0:0:
256,192,56621,1,0,0:0:0:0:
256,192,56701,1,0,0:0:0:0:
256,192,56781,1,0,0:0:0:0:
256,192,56861,1,8,0:0:0:0:
256,192,57020,1,0,0:0:0:0:
255,192,57180,1,8,0:0:0:0:
255,192,57260,1,8,0:0:0:0:
255,192,57339,1,0,0:0:0:0:
255,191,57499,1,0,0:0:0:0:
255,191,57658,1,8,0:0:0:0:
255,191,57818,1,0,0:0:0:0:
255,191,57978,1,8,0:0:0:0:
255,191,58057,1,8,0:0:0:0:
255,191,58137,1,8,0:0:0:0:
255,191,58217,1,0,0:0:0:0:
255,191,58297,1,8,0:0:0:0:
255,191,58377,1,8,0:0:0:0:
255,191,58456,1,0,0:0:0:0:
255,191,58536,1,0,0:0:0:0:
255,191,58616,1,8,0:0:0:0:
255,191,58775,1,0,0:0:0:0:
255,191,58855,1,0,0:0:0:0:
255,191,58935,1,8,0:0:0:0:
256,191,59095,1,8,0:0:0:0:
255,191,59254,1,0,0:0:0:0:
256,192,59414,1,8,0:0:0:0:
256,192,59494,1,8,0:0:0:0:
256,192,59573,1,0,0:0:0:0:
256,192,59653,1,0,0:0:0:0:
255,191,59733,1,8,0:0:0:0:
255,191,59892,1,0,0:0:0:0:
256,191,60052,1,0,0:0:0:0:
256,192,60132,1,0,0:0:0:0:
256,192,60212,1,8,0:0:0:0:
256,192,60371,1,0,0:0:0:0:
256,192,60531,1,8,0:0:0:0:
256,192,60611,1,0,0:0:0:0:
255,191,60690,1,8,0:0:0:0:
255,191,60770,1,8,0:0:0:0:
256,192,60850,1,0,0:0:0:0:
256,191,61010,1,0,0:0:0:0:
255,192,61169,1,8,0:0:0:0:
255,191,61329,1,0,0:0:0:0:
255,191,61488,1,0,0:0:0:0:
255,192,61648,1,8,0:0:0:0:
255,192,61728,1,8,0:0:0:0:
255,192,61807,1,0,0:0:0:0:
255,192,61967,1,0,0:0:0:0:
256,192,62127,1,8,0:0:0:0:
255,192,62206,1,8,0:0:0:0:
255,192,62286,1,0,0:0:0:0:
256,192,62366,1,0,0:0:0:0:
256,192,62446,1,12,0:0:0:0:
256,192,62765,1,12,0:0:0:0:
256,192,63084,1,12,0:0:0:0:
256,192,63244,1,0,0:0:0:0:
256,192,63403,1,8,0:0:0:0:
256,192,63483,1,8,0:0:0:0:
256,192,63563,1,0,0:0:0:0:
255,191,63722,1,12,0:0:0:0:
256,191,63882,1,0,0:0:0:0:
256,191,63962,1,0,0:0:0:0:
256,191,64041,1,0,0:0:0:0:
256,192,64201,1,8,0:0:0:0:
256,192,64281,1,0,0:0:0:0:
256,192,64361,1,0,0:0:0:0:
256,192,64441,1,0,0:0:0:0:
256,192,64520,1,8,0:0:0:0:
256,192,64680,1,0,0:0:0:0:
255,192,64839,1,8,0:0:0:0:
255,192,64919,1,8,0:0:0:0:
255,192,64999,1,0,0:0:0:0:
255,191,65158,1,0,0:0:0:0:
255,191,65318,1,8,0:0:0:0:
255,191,65478,1,8,0:0:0:0:
255,191,65637,1,8,0:0:0:0:
255,191,65717,1,8,0:0:0:0:
255,191,65797,1,0,0:0:0:0:
255,191,65877,1,0,0:0:0:0:
255,191,65956,1,8,0:0:0:0:
255,191,66036,1,8,0:0:0:0:
255,191,66116,1,8,0:0:0:0:
255,191,66196,1,0,0:0:0:0:
255,191,66275,1,8,0:0:0:0:
256,191,66435,1,0,0:0:0:0:
256,191,66515,1,0,0:0:0:0:
256,191,66595,1,0,0:0:0:0:
256,192,66754,1,8,0:0:0:0:
256,192,66834,1,0,0:0:0:0:
256,192,66914,1,0,0:0:0:0:
256,192,66994,1,0,0:0:0:0:
256,192,67073,1,8,0:0:0:0:
256,192,67233,1,0,0:0:0:0:
255,192,67392,1,8,0:0:0:0:
255,192,67472,1,8,0:0:0:0:
255,192,67552,1,0,0:0:0:0:
255,191,67712,1,0,0:0:0:0:
255,191,67871,1,8,0:0:0:0:
255,191,68031,1,8,0:0:0:0:
255,191,68190,1,8,0:0:0:0:
256,192,68270,1,8,0:0:0:0:
255,191,68350,1,0,0:0:0:0:
255,191,68430,1,0,0:0:0:0:
255,191,68510,1,8,0:0:0:0:
255,191,68589,1,0,0:0:0:0:
255,191,68669,1,8,0:0:0:0:
255,191,68749,1,0,0:0:0:0:
255,191,68829,1,8,0:0:0:0:
255,191,68988,1,0,0:0:0:0:
255,191,69068,1,0,0:0:0:0:
255,191,69148,1,8,0:0:0:0:
256,191,69307,1,8,0:0:0:0:
255,191,69467,1,0,0:0:0:0:
256,192,69627,1,8,0:0:0:0:
256,192,69706,1,8,0:0:0:0:
256,192,69786,1,0,0:0:0:0:
256,192,69866,1,0,0:0:0:0:
255,191,69946,1,8,0:0:0:0:
255,191,70105,1,0,0:0:0:0:
256,191,70265,1,0,0:0:0:0:
256,192,70345,1,0,0:0:0:0:
256,192,70424,1,8,0:0:0:0:
256,192,70584,1,0,0:0:0:0:
256,192,70744,1,8,0:0:0:0:
255,191,70903,1,0,0:0:0:0:
256,192,71063,1,8,0:0:0:0:
255,191,71142,1,8,0:0:0:0:
256,191,71222,1,8,0:0:0:0:
256,192,71302,1,0,0:0:0:0:
255,192,71382,1,8,0:0:0:0:
255,191,71541,1,0,0:0:0:0:
255,191,71701,1,0,0:0:0:0:
255,192,71861,1,8,0:0:0:0:
255,192,71940,1,0,0:0:0:0:
255,192,72020,1,8,0:0:0:0:
255,192,72180,1,0,0:0:0:0:
256,192,72339,1,8,0:0:0:0:
255,192,72419,1,8,0:0:0:0:
255,192,72499,1,0,0:0:0:0:
256,192,72579,1,0,0:0:0:0:
256,192,72658,1,8,0:0:0:0:
255,191,72818,1,0,0:0:0:0:
255,192,72898,1,0,0:0:0:0:
255,192,72978,1,8,0:0:0:0:
255,192,73057,1,0,0:0:0:0:
256,191,73137,1,0,0:0:0:0:
255,191,73217,1,0,0:0:0:0:
256,191,73297,1,12,0:0:0:0:
256,191,73456,1,12,0:0:0:0:
256,191,73616,1,12,0:0:0:0:
256,191,73775,1,12,0:0:0:0:
255,192,73935,1,4,0:0:0:0:
256,192,74254,1,0,0:0:0:0:
256,192,74414,1,8,0:0:0:0:
255,191,74494,1,8,0:0:0:0:
255,191,74573,1,0,0:0:0:0:
256,192,74733,1,0,0:0:0:0:
255,191,75052,1,12,0:0:0:0:
256,192,75371,1,0,0:0:0:0:
255,192,75451,1,0,0:0:0:0:
256,192,75531,1,8,0:0:0:0:
256,192,75690,1,0,0:0:0:0:
256,191,75770,1,0,0:0:0:0:
256,192,75850,1,8,0:0:0:0:
255,191,76010,1,0,0:0:0:0:
255,192,76169,1,0,0:0:0:0:
255,191,76329,1,0,0:0:0:0:
255,192,76408,1,0,0:0:0:0:
255,192,76488,1,8,0:0:0:0:
255,192,76807,1,0,0:0:0:0:
255,191,76967,1,0,0:0:0:0:
255,191,77127,1,12,0:0:0:0:
255,191,77286,1,0,0:0:0:0:
255,191,77366,1,0,0:0:0:0:
255,192,77446,1,12,0:0:0:0:
255,192,77605,1,0,0:0:0:0:
255,192,77685,1,0,0:0:0:0:
255,192,77765,1,12,0:0:0:0:
255,191,78084,1,8,0:0:0:0:
255,191,78244,1,0,0:0:0:0:
256,191,78722,1,0,0:0:0:0:
255,192,78802,1,0,0:0:0:0:
256,191,78882,1,0,0:0:0:0:
256,191,78962,1,0,0:0:0:0:
256,191,79041,1,12,0:0:0:0:
255,192,79361,1,0,0:0:0:0:
256,191,79520,1,0,0:0:0:0:
255,191,79600,1,0,0:0:0:0:
255,191,79680,1,8,0:0:0:0:
256,192,79839,1,8,0:0:0:0:
256,192,79999,1,0,0:0:0:0:
256,191,80158,1,8,0:0:0:0:
256,191,80238,1,8,0:0:0:0:
256,191,80318,1,0,0:0:0:0:
255,191,80478,1,0,0:0:0:0:
255,191,80557,1,0,0:0:0:0:
255,191,80637,1,8,0:0:0:0:
255,191,80797,1,8,0:0:0:0:
255,192,80956,1,0,0:0:0:0:
255,192,81116,1,0,0:0:0:0:
256,192,81275,1,0,0:0:0:0:
256,191,81355,1,0,0:0:0:0:
256,191,81435,1,0,0:0:0:0:
256,191,81515,1,0,0:0:0:0:
256,191,81595,1,8,0:0:0:0:
255,192,81914,1,0,0:0:0:0:
256,192,82073,1,0,0:0:0:0:
255,191,82153,1,0,0:0:0:0:
255,191,82233,1,8,0:0:0:0:
256,192,82392,1,8,0:0:0:0:
256,192,82552,1,0,0:0:0:0:
256,191,82712,1,8,0:0:0:0:
256,191,82791,1,8,0:0:0:0:
256,191,82871,1,0,0:0:0:0:
255,191,83031,1,8,0:0:0:0:
255,191,83111,1,0,0:0:0:0:
255,191,83190,1,8,0:0:0:0:
255,192,83510,1,8,0:0:0:0:
255,191,83589,1,8,0:0:0:0:
255,191,83669,1,8,0:0:0:0:
256,192,83829,1,0,0:0:0:0:
256,191,83908,1,0,0:0:0:0:
255,191,83988,1,8,0:0:0:0:
256,191,84068,1,0,0:0:0:0:
256,191,84148,1,12,0:0:0:0:
255,192,84467,1,0,0:0:0:0:
255,191,84627,1,0,0:0:0:0:
255,191,84706,1,0,0:0:0:0:
255,191,84786,1,8,0:0:0:0:
256,192,84946,1,8,0:0:0:0:
256,192,85105,1,0,0:0:0:0:
256,191,85265,1,8,0:0:0:0:
256,191,85345,1,8,0:0:0:0:
256,191,85424,1,0,0:0:0:0:
255,191,85584,1,0,0:0:0:0:
255,191,85664,1,0,0:0:0:0:
255,191,85744,1,8,0:0:0:0:
255,191,85903,1,8,0:0:0:0:
255,192,86063,1,0,0:0:0:0:
256,191,86222,1,8,0:0:0:0:
256,191,86302,1,8,0:0:0:0:
256,191,86382,1,0,0:0:0:0:
255,192,86541,1,0,0:0:0:0:
255,192,86621,1,0,0:0:0:0:
255,192,86701,1,12,0:0:0:0:
255,191,86861,1,8,0:0:0:0:
256,192,87020,1,0,0:0:0:0:
255,191,87180,1,0,0:0:0:0:
255,191,87260,1,0,0:0:0:0:
255,191,87339,1,12,0:0:0:0:
255,192,87499,1,0,0:0:0:0:
255,191,87579,1,0,0:0:0:0:
255,191,87658,1,8,0:0:0:0:
255,191,87818,1,8,0:0:0:0:
255,192,87978,1,4,0:0:0:0:
