osu file format v14

[General]
AudioFilename: audio.mp3
AudioLeadIn: 0
PreviewTime: 53350
Countdown: 0
SampleSet: Normal
StackLeniency: 0.7
Mode: 1
LetterboxInBreaks: 0
WidescreenStoryboard: 1

[Editor]
Bookmarks: 21618,54810,80022
DistanceSpacing: 1.2
BeatDivisor: 4
GridSize: 4
TimelineZoom: 2

[Metadata]
Title:Shiny Happy Days (TV Size)
TitleUnicode:Shiny Happy Days (TV Size)
Artist:Yagi Yuki, Saeki Iori, Izawa Shiori, Itou Miku, Noguchi Yuri, Mizutani Marin
ArtistUnicode:八木侑紀,佐伯伊織,井澤詩織,伊藤美来,のぐちゆり,水谷麻鈴
Creator:Riana
Version:Kantan
Source:ネコぱら
Tags:Nekopara opening op pop jpop j-pop anime animation japanese catgirl cat girl neko works felix film nekomimi chocola vanilla azuki maple cinnamon coconut ショコラ バニラ アズキ メイプル シナモン ココナツ itō
BeatmapID:2533378
BeatmapSetID:1167148

[Difficulty]
HPDrainRate:8
CircleSize:2
OverallDifficulty:2
ApproachRate:0
SliderMultiplier:1.4
SliderTickRate:1

[Events]
//Background and Video events
0,0,"nekos.jpg",0,20
//Break Periods
//Storyboard Layer 0 (Background)
//Storyboard Layer 1 (Fail)
//Storyboard Layer 2 (Pass)
//Storyboard Layer 3 (Foreground)
//Storyboard Layer 4 (Overlay)
//Storyboard Sound Samples

[TimingPoints]
10106,319.148936170213,4,1,0,75,1,0
10106,-100,4,1,0,75,0,0
20318,-100,4,1,0,50,0,0
29893,-100,4,1,0,60,0,0
30531,-100,4,1,0,70,0,0
40744,-100,4,1,0,60,0,0
45850,-100,4,1,0,70,0,0
50957,-100,4,1,0,80,0,0
53350,-100,4,1,0,80,0,0
53510,-100,4,1,0,90,0,1
62446,-100,4,1,0,80,0,0
63723,-100,4,1,0,90,0,1
73935,-100,4,1,0,80,0,0
75052,-100,4,1,0,90,0,1
78723,-100,4,1,0,75,0,0

[Colours]
Combo1 : 255,219,179
Combo2 : 255,255,128
Combo3 : 255,193,193

[HitObjects]
256,191,10105,5,4,0:0:0:0:
255,192,10425,1,0,0:0:0:0:
255,191,10744,1,8,0:0:0:0:
256,191,11223,1,8,0:0:0:0:
255,192,11701,1,8,0:0:0:0:
255,191,12020,1,0,0:0:0:0:
256,191,12659,1,0,0:0:0:0:
255,192,12978,1,0,0:0:0:0:
255,191,13297,1,8,0:0:0:0:
256,191,13776,1,8,0:0:0:0:
256,191,14574,1,8,0:0:0:0:
256,191,15212,1,4,0:0:0:0:
255,192,15531,1,0,0:0:0:0:
255,191,15850,1,8,0:0:0:0:
255,192,16329,1,8,0:0:0:0:
255,191,16808,1,8,0:0:0:0:
256,191,17127,1,0,0:0:0:0:
255,192,17765,1,12,0:0:0:0:
255,191,18403,1,12,0:0:0:0:
255,192,19042,1,4,0:0:0:0:
255,191,20637,1,0,0:0:0:0:
255,191,21276,1,0,0:0:0:0:
255,191,21595,1,8,0:0:0:0:
255,191,22552,1,8,0:0:0:0:
255,191,23191,1,0,0:0:0:0:
255,191,23829,1,0,0:0:0:0:
255,191,24148,1,0,0:0:0:0:
255,191,25106,1,0,0:0:0:0:
255,191,25425,1,8,0:0:0:0:
255,192,26063,1,0,0:0:0:0:
255,191,26701,1,8,0:0:0:0:
255,191,27340,1,0,0:0:0:0:
255,191,27978,1,8,0:0:0:0:
255,191,29254,1,12,0:0:0:0:
255,191,29893,1,0,0:0:0:0:
255,191,30531,1,4,0:0:0:0:
255,191,30850,1,8,0:0:0:0:
256,191,31808,1,8,0:0:0:0:
256,191,32286,1,0,0:0:0:0:
256,192,32765,1,8,0:0:0:0:
256,191,33084,1,0,0:0:0:0:
256,191,33403,1,8,0:0:0:0:
256,191,34361,1,8,0:0:0:0:
256,191,34840,1,0,0:0:0:0:
256,192,35318,1,0,0:0:0:0:
255,192,35637,1,8,0:0:0:0:
256,192,35957,1,8,0:0:0:0:
255,192,36276,1,0,0:0:0:0:
255,192,36914,1,0,0:0:0:0:
256,192,37233,1,8,0:0:0:0:
255,192,37552,1,0,0:0:0:0:
255,191,38191,1,12,0:0:0:0:
256,191,38510,1,8,0:0:0:0:
255,191,38829,1,4,0:0:0:0:
255,192,39308,1,12,0:0:0:0:
255,191,40744,1,8,0:0:0:0:
255,191,41861,1,8,0:0:0:0:
255,191,42659,1,0,0:0:0:0:
255,192,43297,1,8,0:0:0:0:
256,192,44414,1,8,0:0:0:0:
255,191,45212,1,0,0:0:0:0:
255,192,45850,1,4,0:0:0:0:
256,192,46329,1,12,0:0:0:0:
256,192,46808,1,8,0:0:0:0:
255,192,47127,1,4,0:0:0:0:
256,192,47606,1,4,0:0:0:0:
256,192,48084,1,8,0:0:0:0:
255,192,48723,1,0,0:0:0:0:
256,192,49680,1,8,0:0:0:0:
255,191,50318,1,8,0:0:0:0:
256,192,50957,8,0,52871,0:0:0:0:
255,191,53510,5,12,0:0:0:0:
256,192,53988,1,0,0:0:0:0:
256,192,54307,1,0,0:0:0:0:
255,192,54627,1,8,0:0:0:0:
255,191,55425,1,8,0:0:0:0:
255,191,56063,1,8,0:0:0:0:
256,192,56541,1,0,0:0:0:0:
256,192,56861,1,0,0:0:0:0:
255,192,57180,1,8,0:0:0:0:
255,191,57978,1,8,0:0:0:0:
255,191,58616,1,0,0:0:0:0:
256,191,59095,1,0,0:0:0:0:
256,192,59414,1,0,0:0:0:0:
255,191,59733,1,8,0:0:0:0:
256,192,60212,1,0,0:0:0:0:
256,192,60531,1,0,0:0:0:0:
256,192,60850,1,0,0:0:0:0:
255,192,61169,1,8,0:0:0:0:
255,192,61648,1,0,0:0:0:0:
256,192,62127,1,0,0:0:0:0:
256,192,62446,1,12,0:0:0:0:
256,192,62765,1,12,0:0:0:0:
256,192,63084,1,12,0:0:0:0:
255,191,63722,1,4,0:0:0:0:
256,192,64201,1,8,0:0:0:0:
256,192,64520,1,0,0:0:0:0:
255,192,64839,1,8,0:0:0:0:
255,191,65637,1,8,0:0:0:0:
255,191,66275,1,8,0:0:0:0:
256,192,66754,1,0,0:0:0:0:
256,192,67073,1,0,0:0:0:0:
255,192,67392,1,8,0:0:0:0:
255,191,68191,1,8,0:0:0:0:
255,191,68829,1,0,0:0:0:0:
256,191,69307,1,0,0:0:0:0:
256,192,69627,1,0,0:0:0:0:
255,191,69946,1,8,0:0:0:0:
256,192,70424,1,0,0:0:0:0:
256,192,70744,1,0,0:0:0:0:
256,192,71063,1,8,0:0:0:0:
255,192,71382,1,8,0:0:0:0:
255,192,72020,1,8,0:0:0:0:
256,192,72339,1,0,0:0:0:0:
256,192,72658,1,8,0:0:0:0:
256,191,73297,1,8,0:0:0:0:
256,191,73935,1,4,0:0:0:0:
255,191,75052,1,12,0:0:0:0:
256,192,75531,1,8,0:0:0:0:
256,192,75850,1,0,0:0:0:0:
255,192,76488,1,8,0:0:0:0:
255,191,77127,1,12,0:0:0:0:
255,192,77446,1,12,0:0:0:0:
255,192,77765,1,12,0:0:0:0:
256,191,79041,1,4,0:0:0:0:
255,192,79361,1,0,0:0:0:0:
255,191,79680,1,8,0:0:0:0:
256,191,80158,1,8,0:0:0:0:
255,191,80637,1,8,0:0:0:0:
255,192,80956,1,0,0:0:0:0:
256,191,81595,1,0,0:0:0:0:
255,192,81914,1,0,0:0:0:0:
255,191,82233,1,8,0:0:0:0:
256,191,82712,1,8,0:0:0:0:
256,191,83510,1,8,0:0:0:0:
256,191,84148,1,4,0:0:0:0:
255,192,84467,1,0,0:0:0:0:
255,191,84786,1,8,0:0:0:0:
256,191,85265,1,8,0:0:0:0:
255,191,85744,1,8,0:0:0:0:
255,192,86063,1,0,0:0:0:0:
255,192,86701,1,4,0:0:0:0:
255,191,87339,1,12,0:0:0:0:
255,192,87978,1,4,0:0:0:0:
