osu file format v14

[General]
AudioFilename: audio.mp3
AudioLeadIn: 0
PreviewTime: 53653
Countdown: 0
SampleSet: Soft
StackLeniency: 0.4
Mode: 0
LetterboxInBreaks: 0
WidescreenStoryboard: 1

[Editor]
DistanceSpacing: 1.3
BeatDivisor: 8
GridSize: 32
TimelineZoom: 1.4

[Metadata]
Title:Shiny Happy Days (TV Size)
TitleUnicode:Shiny Happy Days (TV Size)
Artist:Yagi Yuki, Saeki Iori, Izawa Shiori, Itou Miku, Noguchi Yuri, Mizutani Marin
ArtistUnicode:八木侑紀,佐伯伊織,井澤詩織,伊藤美来,のぐちゆり,水谷麻鈴
Creator:Nozhomi
Version:vick's Insane
Source:ネコぱら
Tags:Nekopara opening anime japanese catgirl neko works nekomimi chocola vanilla azuki maple cinnamon coconut anime opening ショコラ バニラ アズキ メイプル シナモン ココナツ shapy imakuri vick
BeatmapID:2451619
BeatmapSetID:1145925

[Difficulty]
HPDrainRate:6
CircleSize:3.8
OverallDifficulty:8
ApproachRate:9
SliderMultiplier:1.6
SliderTickRate:1

[Events]
//Background and Video events
0,0,"nya.jpg",0,0
//Break Periods
//Storyboard Layer 0 (Background)
//Storyboard Layer 1 (Fail)
//Storyboard Layer 2 (Pass)
//Storyboard Layer 3 (Foreground)
//Storyboard Layer 4 (Overlay)
//Storyboard Sound Samples

[TimingPoints]
1740,416.666666666667,4,2,1,40,1,0
1740,-133.333333333333,4,2,1,40,0,0
10130,319.148936170213,4,2,1,70,1,0
11087,-100,4,2,1,50,0,0
11406,-100,4,2,1,70,0,0
21140,-100,4,2,1,50,0,0
21619,-125,4,2,1,60,0,0
31832,-100,4,2,1,70,0,0
33906,-100,4,2,0,70,0,0
34225,-100,4,2,1,70,0,0
36459,-100,4,2,0,70,0,0
36778,-100,4,2,1,70,0,0
39012,-100,4,2,0,70,0,0
39332,-100,4,2,1,70,0,0
40927,-100,4,2,0,70,0,0
41247,-100,4,2,1,70,0,0
42044,-133.333333333333,4,2,1,60,0,0
44119,-133.333333333333,4,2,0,60,0,0
44278,-133.333333333333,4,2,1,60,0,0
46672,-133.333333333333,4,2,0,60,0,0
46832,-133.333333333333,4,2,1,60,0,0
47151,-100,4,2,1,65,0,0
54810,-90.9090909090909,4,2,1,80,0,1
64704,-76.9230769230769,4,2,1,80,0,0
65023,-90.9090909090909,4,2,1,80,0,1
75236,-90.9090909090909,4,2,1,70,0,0
75874,-90.9090909090909,4,2,1,50,0,0
76193,-90.9090909090909,4,2,1,70,0,0
78108,-90.9090909090909,4,2,1,30,0,0
78268,-90.9090909090909,4,2,1,35,0,0
78427,-90.9090909090909,4,2,1,40,0,0
78587,-90.9090909090909,4,2,1,45,0,0
78747,-90.9090909090909,4,2,1,50,0,0
78906,-90.9090909090909,4,2,1,60,0,0
79066,-90.9090909090909,4,2,1,70,0,0
80342,-100,4,2,1,70,0,0
89278,-133.333333333333,4,2,1,70,0,0
89598,-133.333333333333,4,2,1,30,0,0

[Colours]
Combo1 : 120,96,92
Combo2 : 241,197,139
Combo3 : 92,107,169
Combo4 : 231,218,209
Combo5 : 164,106,82
Combo6 : 232,214,178

[HitObjects]
91,37,1740,6,0,L|88:178,1,120.000004577637,2|0,0:0|0:0,0:0:0:0:
139,216,2365,2,0,P|206:231|272:212,1,120.000004577637,2|0,0:0|0:0,0:0:0:0:
315,170,2990,1,0,0:0:0:0:
315,170,3198,2,0,L|378:168,1,60.0000022888184,2|0,0:0|0:0,0:0:0:0:
473,251,3615,1,0,0:0:0:0:
473,251,3823,2,0,L|410:249,1,60.0000022888184,2|0,0:0|0:0,0:0:0:0:
345,288,4240,2,0,B|279:260|279:308|202:275,1,120.000004577637,2|0,0:0|0:0,0:0:0:0:
155,253,4865,5,2,0:0:0:0:
155,253,5073,2,0,P|134:192|155:130,1,120.000004577637,2|0,0:0|0:0,0:0:0:0:
203,84,5698,2,0,L|337:80,1,120.000004577637,2|0,0:0|0:0,0:0:0:0:
398,100,6323,1,0,0:0:0:0:
398,100,6531,2,0,P|404:133|401:166,1,60.0000022888184,2|0,0:0|0:0,0:0:0:0:
347,215,6948,2,0,L|350:284,2,60.0000022888184,0|2|0,0:0|0:0|0:0,0:0:0:0:
290,160,7573,5,2,0:0:0:0:
256,192,7781,12,0,10130,0:0:0:0:
290,160,11087,5,8,1:0:0:0:
202,103,11247,1,2,0:0:0:0:
202,103,11326,1,2,0:0:0:0:
202,103,11406,6,0,L|122:100,1,80,12|0,0:0|0:0,0:0:0:0:
0,227,11725,2,0,L|80:224,1,80,8|0,1:0|0:0,0:0:0:0:
170,290,12044,1,8,0:0:0:0:
170,290,12204,2,0,P|219:295|276:283,1,80,2|8,0:0|1:0,0:0:0:0:
348,226,12523,6,0,P|353:179|342:139,1,80,2|8,0:0|0:0,0:0:0:0:
296,46,12842,1,2,0:0:0:0:
202,103,13002,2,0,P|159:108|115:99,1,80,8|0,1:0|0:0,0:0:0:0:
26,221,13321,2,0,P|69:216|113:225,1,80,8|0,0:0|0:0,0:0:0:0:
178,307,13640,1,8,1:0:0:0:
279,259,13800,1,0,1:0:0:0:
279,259,13880,1,0,1:0:0:0:
279,259,13959,6,0,P|335:257|365:259,1,80,8|0,0:0|0:0,0:0:0:0:
490,176,14278,2,0,P|434:178|406:175,1,80,8|0,1:0|0:0,0:0:0:0:
327,98,14598,1,8,0:0:0:0:
327,98,14757,2,0,P|286:93|222:102,1,80,2|8,0:0|1:0,0:0:0:0:
178,184,15076,2,0,L|176:274,1,80,10|0,0:0|0:0,0:0:0:0:
109,125,15395,5,10,0:0:0:0:
270,213,15555,1,8,1:0:0:0:
53,240,15715,1,0,0:0:0:0:
270,213,15874,2,0,L|373:212,1,80,8|0,0:0|0:0,0:0:0:0:
478,103,16193,2,0,P|436:109|376:95,1,80,8|2,1:0|0:0,0:0:0:0:
352,70,16433,1,2,0:0:0:0:
352,70,16512,6,0,L|263:71,1,80,12|0,0:0|0:0,0:0:0:0:
129,169,16832,2,0,L|218:170,1,80,8|0,1:0|0:0,0:0:0:0:
313,209,17151,1,8,0:0:0:0:
313,209,17310,2,0,P|320:252|308:306,1,80,2|8,0:0|1:0,0:0:0:0:
436,363,17630,2,0,L|433:273,1,80,2|8,0:0|0:0,0:0:0:0:
490,166,17949,5,2,0:0:0:0:
490,166,18108,1,8,1:0:0:0:
433,283,18268,1,0,0:0:0:0:
367,117,18427,2,0,P|323:110|278:119,1,80,8|0,0:0|0:0,0:0:0:0:
217,203,18747,2,0,L|214:290,1,80,8|0,1:0|1:0,0:0:0:0:
90,358,19066,6,0,B|116:310|116:310|110:190,1,160,12|8,0:0|1:0,0:0:0:0:
129,94,19544,1,0,0:0:0:0:
129,94,19704,2,0,B|183:88|183:88|229:101|229:101|312:94,1,160,12|8,0:0|1:0,0:0:0:0:
448,176,20183,1,0,0:0:0:0:
448,176,20342,6,0,L|366:174,1,80,12|0,0:0|0:0,0:0:0:0:
265,239,20661,1,8,1:0:0:0:
286,96,20821,1,8,0:0:0:0:
293,103,21140,5,2,0:0:0:0:
293,103,21220,1,0,0:0:0:0:
293,103,21300,2,0,L|241:101,1,40,8|0,1:0|1:0,0:0:0:0:
128,183,21459,2,0,L|180:181,1,40,0|0,1:0|1:0,0:0:0:0:
265,239,21619,6,0,L|344:237,1,64,8|2,0:0|0:0,0:0:0:0:
407,193,21938,1,8,0:0:0:0:
407,193,22098,2,0,P|426:116|401:61,1,128,2|0,0:0|0:0,0:0:0:0:
343,12,22576,1,8,0:0:0:0:
301,91,22736,1,2,0:0:0:0:
217,60,22895,6,0,L|116:61,1,96,8|0,0:0|0:0,0:0:0:0:
75,61,23215,1,8,0:0:0:0:
98,147,23374,2,0,P|114:189|90:260,1,96,2|0,0:0|0:0,0:0:0:0:
83,277,23693,1,2,0:0:0:0:
151,334,23853,2,0,L|225:334,1,64,8|2,0:0|0:0,0:0:0:0:
302,296,24172,6,0,L|378:296,1,64,8|2,0:0|0:0,0:0:0:0:
442,248,24491,1,8,0:0:0:0:
442,248,24651,2,0,P|459:203|442:125,1,128,2|2,0:0|0:0,0:0:0:0:
336,37,25130,2,0,L|341:108,1,64,8|2,0:0|0:0,0:0:0:0:
283,170,25449,6,0,P|225:181|174:174,1,96,8|0,0:0|0:0,0:0:0:0:
150,153,25768,1,8,0:0:0:0:
77,212,25927,2,0,L|79:312,1,96,2|0,0:0|0:0,0:0:0:0:
83,353,26247,1,2,0:0:0:0:
168,326,26406,2,0,P|216:319|250:324,1,64,8|2,0:0|0:0,0:0:0:0:
315,351,26725,6,0,L|415:350,1,96,8|0,0:0|0:0,0:0:0:0:
445,321,27044,2,0,P|461:273|452:239,1,64,8|2,0:0|0:0,0:0:0:0:
397,194,27364,6,0,L|396:92,1,96,8|0,0:0|0:0,0:0:0:0:
367,63,27683,1,8,0:0:0:0:
284,28,27842,1,2,0:0:0:0:
228,101,28002,6,0,P|178:110|119:95,1,96,8|0,0:0|0:0,0:0:0:0:
91,87,28321,2,0,L|96:160,1,64,8|2,0:0|0:0,0:0:0:0:
145,225,28640,6,0,L|143:333,1,96,8|0,0:0|0:0,0:0:0:0:
166,359,28959,1,8,0:0:0:0:
235,301,29119,1,2,0:0:0:0:
319,329,29278,6,0,L|398:327,1,64,8|2,0:0|0:0,0:0:0:0:
511,202,29598,2,0,L|432:200,1,64,8|2,0:0|0:0,0:0:0:0:
368,157,29917,2,0,B|305:128|299:183|221:148,1,128,8|8,0:0|0:0,0:0:0:0:
243,156,30555,5,0,1:0:0:0:
243,156,31193,1,0,1:0:0:0:
239,294,31353,1,0,1:0:0:0:
351,125,31512,1,0,1:0:0:0:
355,263,31672,1,0,1:0:0:0:
243,156,31832,6,0,P|196:148|144:161,1,80,8|2,0:0|0:0,0:0:0:0:
59,192,32151,1,0,1:0:0:0:
59,192,32310,2,0,L|54:356,1,160,0|2,0:0|0:0,0:0:0:0:
150,294,32789,2,0,P|199:285|245:295,1,80,0|0,1:0|0:0,0:0:0:0:
316,345,33108,6,0,L|444:341,1,120,8|0,0:0|0:0,0:0:0:0:
480,314,33427,1,0,1:0:0:0:
406,240,33587,2,0,P|387:196|406:120,1,120,2|0,0:0|0:0,0:0:0:0:
444,99,33906,1,8,0:1:0:0:
367,28,34066,2,0,L|280:27,1,80,8|0,1:0|0:0,0:0:0:0:
111,113,34385,6,0,L|190:112,1,80,8|2,0:0|0:0,0:0:0:0:
288,148,34704,1,0,1:0:0:0:
288,148,34864,2,0,P|311:231|273:310,1,160,0|2,0:0|0:0,0:0:0:0:
416,363,35342,2,0,L|411:268,1,80,0|0,1:0|0:0,0:0:0:0:
484,208,35661,6,0,L|486:88,1,120,8|0,0:0|0:0,0:0:0:0:
485,35,35981,1,0,1:0:0:0:
383,68,36140,2,0,P|328:77|257:59,1,120,2|0,0:0|0:0,0:0:0:0:
228,27,36459,1,8,0:1:0:0:
172,178,36619,1,8,1:0:0:0:
125,89,36778,1,0,0:0:0:0:
188,268,36938,6,0,B|233:289|233:289|326:281,1,120,8|0,0:0|0:0,0:0:0:0:
347,255,37257,2,0,L|439:257,1,80,0|0,1:0|0:0,0:0:0:0:
512,139,37576,6,0,P|446:155|385:135,1,120,8|0,0:0|0:0,0:0:0:0:
363,101,37895,1,0,1:0:0:0:
263,43,38055,1,0,0:0:0:0:
208,148,38215,6,0,P|148:164|80:150,1,120,8|0,0:0|0:0,0:0:0:0:
45,178,38534,2,0,P|37:220|49:266,1,80,0|0,1:0|0:0,0:0:0:0:
119,327,38853,6,0,B|187:354|185:309|258:340,1,120,8|0,0:0|0:0,0:0:0:0:
284,353,39172,1,8,1:0:0:0:
373,285,39332,1,0,0:0:0:0:
324,184,39491,5,12,0:0:0:0:
82,145,39810,1,0,1:0:0:0:
173,20,39970,1,2,0:0:0:0:
173,20,40050,1,2,0:0:0:0:
173,20,40130,2,0,L|176:125,1,80,8|0,0:0|0:0,0:0:0:0:
177,257,40449,1,0,1:0:0:0:
324,184,40608,2,0,P|372:178|418:189,1,80,8|0,0:0|0:0,0:0:0:0:
468,247,40927,5,8,0:1:0:0:
467,119,41087,1,8,1:0:0:0:
471,329,41406,5,0,1:0:0:0:
465,34,41725,1,0,1:0:0:0:
465,34,42044,6,0,B|440:67|386:64|386:64|337:32|276:57,1,180.000006866455,8|8,0:0|0:0,0:0:0:0:
298,49,43002,1,8,0:0:0:0:
320,200,43161,1,2,0:0:0:0:
186,134,43321,5,0,0:0:0:0:
186,134,43401,1,0,0:0:0:0:
186,134,43481,1,2,0:0:0:0:
186,134,43560,1,0,0:0:0:0:
186,134,43640,2,0,L|134:135,3,30.0000011444092,0|0|0|0,1:0|0:0|0:0|0:0,0:0:0:0:
117,152,43959,2,0,L|65:153,3,30.0000011444092,8|0|8|0,0:0|0:0|1:0|0:0,0:0:0:0:
54,179,44278,2,0,P|41:227|64:282,1,90.0000034332277,2|0,0:0|0:0,0:0:0:0:
72,301,44598,5,8,0:0:0:0:
323,306,45076,1,8,0:0:0:0:
396,211,45555,1,8,0:0:0:0:
323,306,45715,1,2,0:0:0:0:
256,158,45874,5,2,0:0:0:0:
256,158,45954,1,0,0:0:0:0:
256,158,46034,1,2,0:0:0:0:
256,158,46114,1,0,0:0:0:0:
256,158,46193,2,0,L|258:102,3,30.0000011444092,0|0|2|0,1:0|0:0|0:0|0:0,0:0:0:0:
231,94,46512,2,0,L|229:38,3,30.0000011444092,8|0|8|0,0:0|0:0|1:0|0:0,0:0:0:0:
204,29,46832,2,0,P|161:20|101:31,1,90.0000034332277,2|0,0:0|0:0,0:0:0:0:
71,62,47151,6,0,B|56:117|56:117|73:165|73:165|66:237,1,160,8|0,0:0|1:0,0:0:0:0:
112,318,47630,2,0,P|173:339|263:306,1,160,8|8,0:0|0:0,0:0:0:0:
345,213,48108,2,0,L|347:312,1,80,0|0,1:0|0:0,0:0:0:0:
460,150,48427,6,0,B|475:114|466:70|466:70|413:68|376:115,1,160,8|0,0:0|1:0,0:0:0:0:
214,145,48906,2,0,B|199:109|208:65|208:65|261:63|298:110,1,160,8|8,0:0|0:0,0:0:0:0:
384,249,49385,2,0,P|337:256|294:245,1,80,0|0,1:0|0:0,0:0:0:0:
214,145,49704,5,10,0:0:0:0:
255,335,50023,1,0,1:0:0:0:
320,82,50342,1,0,1:0:0:0:
270,236,50661,1,0,1:0:0:0:
214,145,50821,1,8,0:0:0:0:
375,193,50981,5,0,1:0:0:0:
156,231,51300,1,0,1:0:0:0:
320,82,51619,1,0,1:0:0:0:
313,335,51938,1,0,1:0:0:0:
206,127,52257,5,0,1:0:0:0:
454,126,52417,1,0,1:0:0:0:
248,10,52736,5,0,1:0:0:0:
305,249,52896,1,0,1:0:0:0:
377,52,53215,5,0,1:0:0:0:
93,175,53374,1,0,1:0:0:0:
313,335,53693,5,0,1:0:0:0:
248,10,53853,1,0,1:0:0:0:
248,10,54172,6,0,B|242:68|242:68|265:121|265:121|253:202,1,160,0|2,1:0|0:0,0:0:0:0:
258,164,54810,6,0,L|147:162,1,88.000002685547,12|0,0:0|0:0,0:0:0:0:
53,279,55130,1,0,1:0:0:0:
53,279,55289,2,0,L|164:277,1,88.000002685547,2|8,0:0|0:0,0:0:0:0:
245,347,55608,1,2,0:0:0:0:
258,164,55768,1,0,1:0:0:0:
340,274,55927,6,0,P|438:280|500:222,1,176.000005371094,2|2,0:0|0:0,0:0:0:0:
461,52,56406,1,0,1:0:0:0:
396,174,56566,1,2,0:0:0:0:
286,16,56725,2,0,P|243:13|184:19,1,88.000002685547,8|0,0:0|0:0,0:0:0:0:
17,172,57044,2,0,P|60:175|119:169,1,88.000002685547,0|2,1:0|0:0,0:0:0:0:
239,125,57364,6,0,B|331:92|331:162|420:116,1,176.000005371094,8|0,0:0|1:0,0:0:0:0:
500,242,57842,1,2,0:0:0:0:
500,242,58002,2,0,P|449:235|401:249,1,88.000002685547,8|2,0:0|0:0,0:0:0:0:
305,343,58321,1,0,1:0:0:0:
309,162,58481,1,2,0:0:0:0:
141,251,58640,6,0,P|199:257|236:249,1,88.000002685547,8|2,0:0|0:0,0:0:0:0:
309,162,58959,2,0,L|309:58,1,88.000002685547,0|2,1:0|0:0,0:0:0:0:
385,219,59278,1,8,0:0:0:0:
208,143,59438,1,2,0:0:0:0:
431,127,59598,1,0,1:0:0:0:
336,307,59757,1,0,1:0:0:0:
336,307,59837,1,0,1:0:0:0:
336,307,59917,6,0,P|291:318|233:307,1,88.000002685547,8|0,0:0|0:0,0:0:0:0:
142,246,60236,1,0,1:0:0:0:
142,246,60395,2,0,L|139:149,1,88.000002685547,2|8,0:0|0:0,0:0:0:0:
259,26,60715,2,0,L|256:113,1,88.000002685547,2|0,0:0|1:0,0:0:0:0:
309,223,61034,6,0,P|384:241|466:195,1,176.000005371094,2|2,0:0|0:0,0:0:0:0:
512,359,61512,2,0,L|416:358,1,88.000002685547,0|2,1:0|0:0,0:0:0:0:
273,297,61832,2,0,P|224:291|173:303,1,88.000002685547,8|2,0:0|0:0,0:0:0:0:
86,368,62151,1,0,1:0:0:0:
22,263,62310,1,2,0:0:0:0:
22,263,62390,1,2,0:0:0:0:
22,263,62470,6,0,B|2:203|2:203|20:72,1,176.000005371094,8|0,0:0|1:0,0:0:0:0:
165,17,62949,1,2,0:0:0:0:
165,17,63108,2,0,L|166:111,1,88.000002685547,8|2,0:0|0:0,0:0:0:0:
236,204,63427,1,0,1:0:0:0:
77,167,63587,1,0,0:0:0:0:
334,92,63747,5,8,0:0:0:0:
215,313,64066,1,8,0:0:0:0:
125,74,64385,1,8,0:0:0:0:
191,167,64544,1,10,0:0:0:0:
269,82,64704,1,0,1:0:0:0:
269,82,64784,1,0,1:0:0:0:
269,82,64864,1,0,1:0:0:0:
269,82,64943,1,0,1:0:0:0:
269,82,65023,6,0,P|348:59|445:94,1,176.000005371094,12|0,0:0|1:0,0:0:0:0:
487,197,65502,2,0,L|482:292,1,88.000002685547,2|8,0:0|0:0,0:0:0:0:
382,358,65821,1,2,0:0:0:0:
316,253,65981,1,0,1:0:0:0:
210,317,66140,6,0,P|121:335|42:272,1,176.000005371094,2|2,0:0|0:0,0:0:0:0:
42,143,66619,1,0,1:0:0:0:
143,222,66778,1,2,0:0:0:0:
119,48,66938,1,8,0:0:0:0:
143,222,67098,1,2,0:0:0:0:
244,100,67257,2,0,P|287:95|342:105,1,88.000002685547,0|2,1:0|0:0,0:0:0:0:
439,160,67576,6,0,L|434:341,1,176.000005371094,8|0,0:0|1:0,0:0:0:0:
324,278,68055,1,2,0:0:0:0:
324,278,68215,2,0,P|274:270|222:282,1,88.000002685547,8|2,0:0|0:0,0:0:0:0:
144,357,68534,1,0,1:0:0:0:
47,281,68693,6,0,B|26:232|26:232|38:100,1,176.000005371094,2|2,0:0|0:0,0:0:0:0:
157,8,69172,2,0,L|159:110,1,88.000002685547,0|2,1:0|0:0,0:0:0:0:
128,210,69491,1,8,0:0:0:0:
309,136,69651,1,2,0:0:0:0:
158,95,69810,1,0,1:0:0:0:
229,280,69970,1,0,1:0:0:0:
229,280,70050,1,0,1:0:0:0:
229,280,70130,6,0,P|281:290|340:276,1,88.000002685547,8|0,0:0|0:0,0:0:0:0:
417,216,70449,1,0,1:0:0:0:
417,216,70608,2,0,L|421:123,1,88.000002685547,2|8,0:0|0:0,0:0:0:0:
286,4,70927,2,0,L|289:91,1,88.000002685547,2|0,0:0|1:0,0:0:0:0:
233,202,71247,2,0,P|146:221|66:167,1,176.000005371094,2|2,0:0|0:0,0:0:0:0:
0,308,71725,6,0,L|100:307,1,88.000002685547,0|2,1:0|0:0,0:0:0:0:
197,363,72044,2,0,L|284:363,1,88.000002685547,8|2,0:0|0:0,0:0:0:0:
401,320,72364,1,0,1:0:0:0:
330,219,72523,1,2,0:0:0:0:
330,219,72603,1,2,0:0:0:0:
330,219,72683,6,0,P|298:125|355:47,1,176.000005371094,8|0,0:0|1:0,0:0:0:0:
174,0,73161,1,2,0:0:0:0:
174,0,73321,2,0,L|181:179,1,176.000005371094,8|0,0:0|1:0,0:0:0:0:
123,285,73800,1,0,0:0:0:0:
236,332,73959,6,0,P|284:338|336:327,1,88.000002685547,8|2,0:0|0:0,0:0:0:0:
428,214,74278,1,0,1:0:0:0:
407,384,74438,1,10,0:0:0:0:
352,124,74757,1,0,1:0:0:0:
333,100,74836,1,0,1:0:0:0:
310,82,74916,1,0,1:0:0:0:
283,71,74996,1,0,1:0:0:0:
254,66,75076,1,0,1:0:0:0:
225,69,75156,1,0,1:0:0:0:
198,79,75236,5,12,0:0:0:0:
241,345,75874,1,8,1:0:0:0:
326,202,76034,1,8,1:0:0:0:
98,239,76353,6,0,P|49:247|4:234,1,88.000002685547,12|0,0:0|0:0,0:0:0:0:
178,160,76672,1,8,0:0:0:0:
152,320,76832,1,0,1:0:0:0:
87,132,76991,1,10,0:0:0:0:
273,188,77151,2,0,P|324:191|366:177,1,88.000002685547,0|8,0:0|0:0,0:0:0:0:
425,98,77470,1,0,1:0:0:0:
498,174,77630,1,0,1:0:0:0:
498,174,77709,1,0,1:0:0:0:
498,174,77789,6,0,L|497:278,1,88.000002685547,4|0,1:2|0:0,0:0:0:0:
423,338,78108,1,0,1:0:0:0:
423,338,78268,1,0,1:0:0:0:
331,285,78427,2,0,P|283:274|233:286,1,88.000002685547,8|0,1:2|1:0,0:0:0:0:
199,307,78667,5,0,1:0:0:0:
176,316,78746,1,0,1:0:0:0:
153,322,78826,1,0,1:0:0:0:
129,324,78906,1,0,1:0:0:0:
105,321,78986,1,0,1:0:0:0:
82,314,79066,6,0,L|78:129,1,176.000005371094,8|0,0:0|1:0,0:0:0:0:
149,60,79544,1,8,0:0:0:0:
149,60,80023,5,2,0:0:0:0:
266,0,80183,1,0,0:0:0:0:
266,0,80262,1,0,0:0:0:0:
266,0,80342,6,0,L|262:97,1,80,12|0,0:0|0:0,0:0:0:0:
192,167,80661,2,0,P|189:212|199:252,1,80,8|0,1:0|0:0,0:0:0:0:
273,328,80981,1,8,0:0:0:0:
368,269,81140,2,0,L|454:266,1,80,2|8,0:0|1:0,0:0:0:0:
512,150,81459,6,0,L|426:147,1,80,2|8,0:0|0:0,0:0:0:0:
321,85,81778,1,2,0:0:0:0:
368,269,81938,1,8,1:0:0:0:
368,269,82098,1,0,0:0:0:0:
198,207,82257,2,0,P|241:200|289:209,1,80,8|0,0:0|0:0,0:0:0:0:
368,269,82576,1,8,1:0:0:0:
458,202,82736,1,0,1:0:0:0:
458,202,82816,1,0,1:0:0:0:
458,202,82895,6,0,P|466:157|458:115,1,80,8|0,0:0|0:0,0:0:0:0:
373,51,83215,2,0,L|282:50,1,80,8|0,1:0|0:0,0:0:0:0:
147,144,83534,1,8,0:0:0:0:
147,144,83693,2,0,L|238:143,1,80,2|8,0:0|1:0,0:0:0:0:
89,64,84012,6,0,P|48:133|76:214,1,160,10|10,0:0|0:0,0:0:0:0:
176,340,84491,2,0,L|170:244,1,80,8|0,1:0|0:0,0:0:0:0:
288,117,84810,2,0,L|283:196,1,80,8|0,0:0|0:0,0:0:0:0:
335,296,85130,1,8,1:0:0:0:
422,226,85289,1,0,1:0:0:0:
422,226,85369,1,0,1:0:0:0:
422,226,85449,6,0,P|471:221|512:228,1,80,12|0,0:0|0:0,0:0:0:0:
367,116,85768,2,0,P|318:121|277:114,1,80,8|0,1:0|0:0,0:0:0:0:
209,36,86087,1,8,0:0:0:0:
209,36,86247,2,0,L|124:38,1,80,2|8,0:0|1:0,0:0:0:0:
31,93,86566,2,0,P|21:141|34:187,1,80,2|8,0:0|0:0,0:0:0:0:
98,278,86885,5,2,0:0:0:0:
157,101,87044,1,8,1:0:0:0:
157,101,87204,1,0,0:0:0:0:
234,182,87364,2,0,P|278:188|320:181,1,80,8|0,0:0|0:0,0:0:0:0:
397,109,87683,1,8,1:0:0:0:
469,193,87842,1,0,1:0:0:0:
469,193,87922,1,0,1:0:0:0:
469,193,88002,6,0,P|475:240|466:278,1,80,12|8,0:0|0:0,0:0:0:0:
372,330,88321,2,0,L|276:331,1,80,8|2,1:0|0:0,0:0:0:0:
188,287,88640,1,8,0:0:0:0:
177,262,88719,1,2,0:0:0:0:
172,236,88799,1,2,0:0:0:0:
174,209,88879,1,2,0:0:0:0:
183,184,88959,1,8,1:0:0:0:
194,159,89038,1,2,0:0:0:0:
201,133,89118,1,2,0:0:0:0:
201,107,89198,1,2,0:0:0:0:
196,81,89278,6,0,L|61:76,1,120.000004577637,12|0,0:0|0:0,0:0:0:0:
