osu file format v14

[General]
AudioFilename: audio.mp3
AudioLeadIn: 0
PreviewTime: 53653
Countdown: 0
SampleSet: Soft
StackLeniency: 0.4
Mode: 0
LetterboxInBreaks: 0
WidescreenStoryboard: 0

[Editor]
DistanceSpacing: 1.3
BeatDivisor: 4
GridSize: 4
TimelineZoom: 1

[Metadata]
Title:Shiny Happy Days (TV Size)
TitleUnicode:Shiny Happy Days (TV Size)
Artist:Yagi Yuki, Saeki Iori, Izawa Shiori, Itou Miku, Noguchi Yuri, Mizutani Marin
ArtistUnicode:八木侑紀,佐伯伊織,井澤詩織,伊藤美来,のぐちゆり,水谷麻鈴
Creator:Nozhomi
Version:La Soleil
Source:ネコぱら
Tags:Nekopara opening anime japanese catgirl neko works nekomimi chocola vanilla azuki maple cinnamon coconut anime opening ショコラ バニラ アズキ メイプル シナモン ココナツ shapy imakuri vick
BeatmapID:2392545
BeatmapSetID:1145925

[Difficulty]
HPDrainRate:6
CircleSize:4.4
OverallDifficulty:8.4
ApproachRate:9.1
SliderMultiplier:1.8
SliderTickRate:1

[Events]
//Background and Video events
0,0,"nya.jpg",0,0
//Break Periods
//Storyboard Layer 0 (Background)
//Storyboard Layer 1 (Fail)
//Storyboard Layer 2 (Pass)
//Storyboard Layer 3 (Foreground)
//Storyboard Layer 4 (Overlay)
//Storyboard Sound Samples

[TimingPoints]
1740,416.666666666667,4,2,1,40,1,0
1740,-133.333333333333,4,2,1,40,0,0
10130,319.148936170213,4,2,1,70,1,0
11087,-100,4,2,1,50,0,0
11406,-100,4,2,1,70,0,0
21140,-100,4,2,1,50,0,0
21619,-125,4,2,1,60,0,0
31832,-100,4,2,1,70,0,0
33906,-100,4,2,0,70,0,0
34225,-100,4,2,1,70,0,0
36459,-100,4,2,0,70,0,0
36778,-100,4,2,1,70,0,0
39012,-100,4,2,0,70,0,0
39332,-100,4,2,1,70,0,0
40927,-100,4,2,0,70,0,0
41247,-100,4,2,1,70,0,0
42044,-100,4,2,1,60,0,0
44119,-100,4,2,0,60,0,0
44278,-100,4,2,1,60,0,0
46672,-100,4,2,0,60,0,0
46832,-100,4,2,1,60,0,0
47151,-100,4,2,1,65,0,0
54810,-76.9230769230769,4,2,1,80,0,1
64704,-76.9230769230769,4,2,1,80,0,0
65023,-76.9230769230769,4,2,1,80,0,1
75236,-90.9090909090909,4,2,1,70,0,0
75874,-90.9090909090909,4,2,1,50,0,0
76193,-90.9090909090909,4,2,1,70,0,0
78108,-90.9090909090909,4,2,1,30,0,0
78268,-90.9090909090909,4,2,1,35,0,0
78427,-90.9090909090909,4,2,1,40,0,0
78587,-90.9090909090909,4,2,1,45,0,0
78747,-90.9090909090909,4,2,1,50,0,0
78906,-90.9090909090909,4,2,1,60,0,0
79066,-90.9090909090909,4,2,1,70,0,0
80342,-100,4,2,1,70,0,0
89278,-133.333333333333,4,2,1,70,0,0
89598,-133.333333333333,4,2,1,30,0,0

[Colours]
Combo1 : 120,96,92
Combo2 : 241,197,139
Combo3 : 92,107,169
Combo4 : 231,218,209
Combo5 : 164,106,82
Combo6 : 232,214,178

[HitObjects]
58,73,1740,6,0,P|121:110|205:85,1,135.000005149842,2|0,0:0|0:0,0:0:0:0:
301,73,2365,2,0,P|235:66|179:101,1,135.000005149842,2|0,0:0|0:0,0:0:0:0:
259,167,2990,1,0,0:0:0:0:
375,104,3198,2,0,P|382:73|371:34,1,67.5000025749208,2|0,0:0|0:0,0:0:0:0:
301,73,3615,1,0,0:0:0:0:
344,187,3823,2,0,L|435:182,1,67.5000025749208,2|0,0:0|0:0,0:0:0:0:
343,288,4240,2,0,L|207:280,1,135.000005149842,2|0,0:0|0:0,0:0:0:0:
105,215,4865,1,2,0:0:0:0:
31,336,5073,6,0,P|94:334|132:278,1,135.000005149842,2|0,0:0|0:0,0:0:0:0:
65,156,5698,2,0,P|34:211|64:273,1,135.000005149842,2|0,0:0|0:0,0:0:0:0:
175,217,6323,1,0,0:0:0:0:
127,89,6531,2,0,L|130:19,1,67.5000025749208,2|0,0:0|0:0,0:0:0:0:
236,68,6948,1,0,0:0:0:0:
132,158,7156,2,0,P|87:146|63:108,1,67.5000025749208,2|0,0:0|0:0,0:0:0:0:
130,21,7573,1,2,0:0:0:0:
256,192,7677,12,0,10130,0:0:0:0:
412,29,11087,5,8,1:0:0:0:
334,153,11247,1,2,0:0:0:0:
334,153,11326,1,2,0:0:0:0:
334,153,11406,6,0,P|314:226|370:329,1,180,12|8,0:0|1:0,0:0:0:0:
463,221,11885,1,0,0:0:0:0:
400,109,12044,1,8,0:0:0:0:
260,71,12204,2,0,P|209:84|159:73,1,90,2|8,0:0|1:0,0:0:0:0:
13,152,12523,2,0,P|57:146|100:159,1,90,2|8,0:0|0:0,0:0:0:0:
222,236,12842,1,2,0:0:0:0:
116,334,13002,2,0,L|122:244,1,90,8|0,1:0|0:0,0:0:0:0:
215,146,13321,2,0,L|222:236,1,90,8|0,0:0|0:0,0:0:0:0:
300,357,13640,1,8,1:0:0:0:
457,288,13800,1,0,1:0:0:0:
457,288,13880,1,0,1:0:0:0:
457,288,13959,6,0,P|370:254|274:291,1,180,8|8,0:0|1:0,0:0:0:0:
175,365,14438,1,0,0:0:0:0:
198,223,14598,1,8,0:0:0:0:
34,301,14757,2,0,P|80:303|128:278,1,90,2|8,0:0|1:0,0:0:0:0:
179,112,15076,2,0,P|158:72|122:45,1,90,10|0,0:0|0:0,0:0:0:0:
205,230,15395,1,10,0:0:0:0:
205,230,15475,1,0,0:0:0:0:
205,230,15555,2,0,L|330:226,1,90,8|0,1:0|0:0,0:0:0:0:
420,134,15874,2,0,L|295:130,1,90,8|0,0:0|0:0,0:0:0:0:
172,46,16193,1,8,1:0:0:0:
150,62,16273,1,2,0:0:0:0:
139,86,16353,1,2,0:0:0:0:
140,113,16433,1,2,0:0:0:0:
151,137,16512,6,0,L|342:131,1,180,12|8,0:0|1:0,0:0:0:0:
407,253,16991,1,0,0:0:0:0:
452,116,17151,1,8,0:0:0:0:
325,220,17310,2,0,L|235:222,1,90,2|8,0:0|1:0,0:0:0:0:
59,210,17630,2,0,P|99:229|129:262,1,90,2|8,0:0|0:0,0:0:0:0:
14,349,17949,1,2,0:0:0:0:
212,379,18108,2,0,P|214:334|199:292,1,90,8|0,1:0|0:0,0:0:0:0:
248,136,18427,2,0,P|233:178|235:222,1,90,8|0,0:0|0:0,0:0:0:0:
325,336,18747,1,8,1:0:0:0:
159,217,18906,1,0,1:0:0:0:
159,217,18986,1,0,1:0:0:0:
159,217,19066,6,0,L|36:224,1,90,12|0,0:0|0:0,0:0:0:0:
11,313,19385,1,8,1:0:0:0:
217,126,19704,6,0,L|94:133,1,90,12|0,0:0|0:0,0:0:0:0:
69,222,20023,1,8,1:0:0:0:
171,34,20342,6,0,L|294:27,1,90,12|0,0:0|0:0,0:0:0:0:
350,90,20661,1,8,1:0:0:0:
288,220,20821,2,0,P|239:187|241:130,1,90,8|0,0:0|0:0,0:0:0:0:
397,154,21140,2,0,P|394:186|374:219,1,45,2|0,0:0|0:0,0:0:0:0:
357,262,21300,1,8,1:0:0:0:
345,301,21380,1,0,1:0:0:0:
363,336,21459,1,0,1:0:0:0:
401,349,21539,1,0,1:0:0:0:
434,332,21619,5,8,0:0:0:0:
285,257,21778,1,2,0:0:0:0:
225,355,21938,1,8,0:0:0:0:
179,242,22098,2,0,P|171:310|224:354,1,144,2|0,0:0|0:0,0:0:0:0:
285,257,22576,1,8,0:0:0:0:
239,150,22736,1,2,0:0:0:0:
142,88,22895,2,0,L|7:94,1,108,8|0,0:0|0:0,0:0:0:0:
24,108,23215,1,8,0:0:0:0:
111,16,23374,1,2,0:0:0:0:
167,152,23534,2,0,L|239:150,1,72,8|2,0:0|0:0,0:0:0:0:
285,257,23853,1,8,0:0:0:0:
362,173,24012,1,2,0:0:0:0:
362,173,24092,1,0,0:0:0:0:
362,173,24172,5,8,0:0:0:0:
216,219,24332,1,2,0:0:0:0:
375,262,24491,1,8,0:0:0:0:
277,113,24651,2,0,L|285:257,1,144,2|2,0:0|0:0,0:0:0:0:
187,355,25130,1,8,0:0:0:0:
183,208,25289,1,2,0:0:0:0:
324,312,25449,2,0,P|258:283|196:288,1,108,8|0,0:0|0:0,0:0:0:0:
207,291,25768,1,8,0:0:0:0:
106,345,25927,1,2,0:0:0:0:
29,245,26087,2,0,P|63:255|98:252,1,72,8|2,0:0|0:0,0:0:0:0:
211,138,26406,2,0,P|175:132|141:145,1,72,8|2,0:0|0:0,0:0:0:0:
4,95,26725,6,0,P|52:132|76:194,1,108,8|0,0:0|0:0,0:0:0:0:
98,252,27044,2,0,P|128:224|172:227,1,72,8|2,0:0|0:0,0:0:0:0:
255,361,27364,2,0,P|217:315|224:251,1,108,8|0,0:0|0:0,0:0:0:0:
225,253,27683,1,8,0:0:0:0:
292,159,27842,1,2,0:0:0:0:
489,274,28002,6,0,P|428:281|368:254,1,108,8|0,0:0|0:0,0:0:0:0:
293,299,28321,2,0,P|310:274|293:224,1,72,8|2,0:0|0:0,0:0:0:0:
362,82,28640,2,0,P|378:134|370:187,1,108,8|0,0:0|0:0,0:0:0:0:
358,201,28959,1,8,0:0:0:0:
265,132,29119,1,2,0:0:0:0:
140,260,29278,6,0,P|165:235|200:227,1,72,8|2,0:0|0:0,0:0:0:0:
199,112,29598,2,0,P|234:112|264:131,1,72,8|2,0:0|0:0,0:0:0:0:
346,49,29917,2,0,P|370:74|378:109,1,72,8|2,0:0|0:0,0:0:0:0:
325,289,30236,1,8,0:0:0:0:
302,260,30316,1,2,0:0:0:0:
295,224,30395,1,2,0:0:0:0:
308,188,30475,1,2,0:0:0:0:
340,172,30555,5,0,1:0:0:0:
497,340,30874,1,2,0:0:0:0:
267,327,31193,1,0,1:0:0:0:
308,188,31353,1,0,1:0:0:0:
402,297,31512,1,0,1:0:0:0:
232,242,31672,1,0,1:0:0:0:
232,242,31752,1,0,1:0:0:0:
232,242,31832,5,8,0:0:0:0:
388,190,31991,1,2,0:0:0:0:
306,345,32151,1,0,1:0:0:0:
294,168,32310,2,0,P|307:211|306:284,1,90,0|8,0:0|0:0,0:0:0:0:
199,349,32630,1,2,0:0:0:0:
74,277,32789,1,0,1:0:0:0:
90,133,32949,1,0,0:0:0:0:
271,84,33108,6,0,P|212:134|142:141,1,135,8|0,0:0|0:0,0:0:0:0:
90,133,33427,1,0,1:0:0:0:
246,196,33587,2,0,P|285:218|310:256,1,90,2|8,0:0|0:0,0:0:0:0:
163,341,33906,1,8,0:1:0:0:
90,133,34066,1,8,1:0:0:0:
177,176,34225,1,0,0:0:0:0:
177,176,34305,1,0,0:0:0:0:
177,176,34385,5,8,0:0:0:0:
243,303,34544,1,2,0:0:0:0:
317,144,34704,1,0,1:0:0:0:
454,279,34864,2,0,P|418:243|376:238,1,90,0|8,0:0|0:0,0:0:0:0:
234,265,35183,1,2,0:0:0:0:
317,144,35342,1,0,1:0:0:0:
153,123,35502,1,0,0:0:0:0:
153,123,35582,1,0,0:0:0:0:
153,123,35661,6,0,P|197:86|280:89,1,135,8|0,0:0|0:0,0:0:0:0:
317,144,35981,1,0,1:0:0:0:
494,107,36140,2,0,P|442:108|391:79,1,90,2|8,0:0|0:0,0:0:0:0:
286,14,36459,1,8,0:1:0:0:
321,152,36619,2,0,L|319:246,1,90,8|0,1:0|0:0,0:0:0:0:
116,330,36938,6,0,P|143:295|188:296,1,90,8|2,0:0|0:0,0:0:0:0:
313,363,37257,1,0,1:0:0:0:
463,259,37417,1,0,0:0:0:0:
463,259,37497,1,0,0:0:0:0:
463,259,37576,2,0,P|435:224|390:225,1,90,8|2,0:0|0:0,0:0:0:0:
266,292,37895,1,0,1:0:0:0:
111,186,38055,1,0,0:0:0:0:
111,186,38135,1,0,0:0:0:0:
111,186,38215,6,0,P|138:151|183:152,1,90,8|2,0:0|0:0,0:0:0:0:
308,219,38534,1,0,1:0:0:0:
302,47,38693,1,0,0:0:0:0:
302,47,38773,1,0,0:0:0:0:
302,47,38853,1,8,0:0:0:0:
234,199,39012,1,8,0:1:0:0:
452,141,39172,2,0,P|409:142|337:130,1,90,8|0,1:0|0:0,0:0:0:0:
158,51,39491,5,12,0:0:0:0:
158,51,39810,1,0,1:0:0:0:
175,236,39970,1,2,0:0:0:0:
175,236,40050,1,2,0:0:0:0:
175,236,40130,1,8,0:0:0:0:
260,81,40289,1,0,0:0:0:0:
77,141,40449,1,0,1:0:0:0:
285,190,40608,6,0,P|216:148|260:81,1,180,8|8,0:0|0:1,0:0:0:0:
399,117,41087,1,8,1:0:0:0:
207,331,41406,1,0,1:0:0:0:
497,346,41725,2,0,P|447:302|353:303,1,135,0|0,1:0|0:0,0:0:0:0:
303,275,42044,6,0,P|312:223|308:163,2,90,8|0|0,0:0|0:0|0:0,0:0:0:0:
172,212,42523,1,8,0:0:0:0:
455,160,42842,1,0,0:0:0:0:
264,100,43002,1,8,0:0:0:0:
303,275,43161,1,2,0:0:0:0:
376,101,43321,5,0,0:0:0:0:
347,129,43401,1,0,0:0:0:0:
309,144,43481,1,2,0:0:0:0:
268,139,43560,1,0,0:0:0:0:
238,111,43640,1,0,1:0:0:0:
205,87,43720,1,0,0:0:0:0:
165,76,43800,1,0,0:0:0:0:
127,88,43880,1,0,0:0:0:0:
100,118,43959,1,8,0:0:0:0:
98,158,44039,1,0,0:0:0:0:
116,193,44119,1,8,1:0:0:0:
151,212,44199,1,0,0:0:0:0:
189,204,44278,2,0,P|212:199|237:202,1,45,2|0,0:0|0:0,0:0:0:0:
322,231,44438,1,2,0:0:0:0:
322,231,44518,1,0,0:0:0:0:
322,231,44598,6,0,P|336:192|378:193,2,90,8|0|0,0:0|0:0|0:0,0:0:0:0:
386,360,45076,1,8,0:0:0:0:
116,193,45395,1,0,0:0:0:0:
312,140,45555,1,8,0:0:0:0:
243,292,45715,1,2,0:0:0:0:
192,91,45874,5,2,0:0:0:0:
170,62,45954,1,0,0:0:0:0:
134,58,46034,1,2,0:0:0:0:
111,86,46114,1,0,0:0:0:0:
110,121,46193,1,0,1:0:0:0:
136,146,46273,1,0,0:0:0:0:
172,148,46353,1,2,0:0:0:0:
200,126,46433,1,0,0:0:0:0:
232,109,46512,1,8,0:0:0:0:
268,108,46592,1,0,0:0:0:0:
300,123,46672,1,8,1:0:0:0:
323,150,46752,1,0,0:0:0:0:
333,184,46832,2,0,P|361:152|417:136,1,90,2|2,0:0|0:0,0:0:0:0:
274,273,47151,6,0,P|201:224|112:220,1,180,8|0,0:0|1:0,0:0:0:0:
14,267,47630,1,8,0:0:0:0:
333,184,47949,1,8,0:0:0:0:
333,184,48108,2,0,P|367:184|434:156,1,90,0|0,1:0|0:0,0:0:0:0:
245,0,48427,6,0,B|209:85|285:83|255:173,1,180,8|0,0:0|1:0,0:0:0:0:
184,254,48906,1,8,0:0:0:0:
306,44,49225,1,8,0:0:0:0:
191,130,49385,2,0,P|150:128|81:97,1,90,0|0,1:0|0:0,0:0:0:0:
245,0,49704,5,10,0:0:0:0:
105,226,50023,2,0,L|114:344,1,90,0|0,1:0|0:0,0:0:0:0:
256,173,50342,2,0,L|247:291,1,90,0|0,1:0|0:0,0:0:0:0:
142,136,50661,1,0,1:0:0:0:
249,262,50821,1,8,0:0:0:0:
321,83,50981,6,0,P|279:96|238:81,1,90,0|0,1:0|0:0,0:0:0:0:
396,80,51300,2,0,P|387:123|354:151,1,90,0|0,1:0|0:0,0:0:0:0:
443,19,51619,2,0,P|467:55|470:100,1,90,0|0,1:0|0:0,0:0:0:0:
400,232,51938,1,0,1:0:0:0:
321,83,52098,1,8,0:0:0:0:
252,270,52257,5,0,1:0:0:0:
265,225,52417,1,0,1:0:0:0:
84,40,52736,5,0,1:0:0:0:
110,121,52895,1,0,1:0:0:0:
110,338,53215,5,0,1:0:0:0:
159,189,53374,1,0,1:0:0:0:
354,176,53693,5,0,1:0:0:0:
39,188,53853,1,0,1:0:0:0:
39,188,54172,6,0,P|106:218|95:145,1,180,0|2,1:0|0:0,0:0:0:0:
14,73,54651,1,0,0:0:0:0:
179,247,54810,6,0,P|236:232|293:241,1,116.999994644165,12|0,0:0|0:0,0:0:0:0:
418,307,55130,1,0,1:0:0:0:
365,118,55289,2,0,P|368:183|377:249,1,116.999994644165,2|8,0:0|0:0,0:0:0:0:
169,363,55608,2,0,P|176:305|179:247,1,116.999994644165,2|0,0:0|1:0,0:0:0:0:
243,36,55927,2,0,P|250:94|253:152,1,116.999994644165,2|8,0:0|0:0,0:0:0:0:
110,271,56247,1,2,0:0:0:0:
101,100,56406,1,0,1:0:0:0:
256,229,56566,1,2,0:0:0:0:
37,207,56725,2,0,P|92:178|158:188,1,116.999994644165,8|0,0:0|0:0,0:0:0:0:
312,276,57044,1,0,1:0:0:0:
359,296,57124,1,2,0:0:0:0:
412,289,57204,1,2,0:0:0:0:
448,251,57284,1,2,0:0:0:0:
431,200,57364,6,0,P|419:142|420:84,1,116.999994644165,8|0,0:0|0:0,0:0:0:0:
260,19,57683,1,0,1:0:0:0:
260,19,57842,2,0,P|261:77|249:134,1,116.999994644165,2|8,0:0|0:0,0:0:0:0:
87,245,58161,2,0,P|113:208|181:200,1,116.999994644165,2|0,0:0|1:0,0:0:0:0:
387,286,58481,2,0,P|361:323|293:331,1,116.999994644165,2|8,0:0|0:0,0:0:0:0:
311,154,58800,1,2,0:0:0:0:
206,293,58959,1,0,1:0:0:0:
168,121,59119,1,2,0:0:0:0:
360,213,59278,2,0,L|480:205,1,116.999994644165,8|2,0:0|0:0,0:0:0:0:
331,342,59598,1,0,1:0:0:0:
293,339,59677,1,0,1:0:0:0:
255,336,59757,1,0,1:0:0:0:
217,334,59837,1,0,1:0:0:0:
180,331,59917,6,0,P|211:279|151:248,1,116.999994644165,8|0,0:0|0:0,0:0:0:0:
6,215,60236,1,0,1:0:0:0:
6,215,60395,2,0,P|66:215|63:148,1,116.999994644165,2|8,0:0|0:0,0:0:0:0:
252,135,60715,2,0,P|232:69|183:27,1,116.999994644165,2|0,0:0|1:0,0:0:0:0:
176,245,61034,2,0,P|286:219|418:233,1,233.999989288331,2|2,0:0|0:0,0:0:0:0:
498,379,61512,1,0,1:0:0:0:
505,203,61672,1,2,0:0:0:0:
377,322,61832,2,0,P|438:323|489:278,1,116.999994644165,8|2,0:0|0:0,0:0:0:0:
403,79,62151,1,0,1:0:0:0:
372,114,62231,1,2,0:0:0:0:
356,158,62310,1,2,0:0:0:0:
364,203,62390,1,2,0:0:0:0:
405,229,62470,6,0,P|440:172|427:111,1,116.999994644165,8|0,0:0|0:0,0:0:0:0:
321,19,62789,1,0,1:0:0:0:
230,182,62949,1,2,0:0:0:0:
403,79,63108,1,8,0:0:0:0:
200,60,63268,1,2,0:0:0:0:
361,216,63427,2,0,L|357:356,1,116.999994644165,0|0,1:0|0:0,0:0:0:0:
322,138,63747,5,8,0:0:0:0:
340,178,64066,1,8,0:0:0:0:
361,216,64385,1,8,0:0:0:0:
192,140,64544,6,0,L|184:210,1,58.4999973220826,10|0,0:0|0:0,0:0:0:0:
167,341,64704,1,0,1:0:0:0:
148,298,64784,1,0,1:0:0:0:
102,283,64864,1,0,1:0:0:0:
58,299,64943,1,0,1:0:0:0:
31,337,65023,6,0,P|32:266|24:213,1,116.999994644165,12|0,0:0|0:0,0:0:0:0:
100,49,65342,1,0,1:0:0:0:
100,49,65502,2,0,P|99:120|107:173,1,116.999994644165,2|8,0:0|0:0,0:0:0:0:
262,260,65821,2,0,P|242:219|163:207,1,116.999994644165,2|0,0:0|1:0,0:0:0:0:
293,364,66140,2,0,P|342:334|366:281,1,116.999994644165,2|8,0:0|0:0,0:0:0:0:
342,106,66459,1,2,0:0:0:0:
262,260,66619,1,0,1:0:0:0:
446,182,66778,1,2,0:0:0:0:
214,152,66938,2,0,P|258:177|344:176,1,116.999994644165,8|2,0:0|0:0,0:0:0:0:
454,47,67257,1,0,1:0:0:0:
417,18,67337,1,2,0:0:0:0:
370,10,67417,1,2,0:0:0:0:
325,23,67497,1,2,0:0:0:0:
306,66,67576,6,0,P|319:118|322:203,1,116.999994644165,8|0,0:0|0:0,0:0:0:0:
209,317,67895,1,0,1:0:0:0:
209,317,68055,2,0,P|231:287|310:282,1,116.999994644165,2|8,0:0|0:0,0:0:0:0:
116,257,68374,2,0,P|113:200|153:160,1,116.999994644165,2|0,0:0|1:0,0:0:0:0:
401,238,68693,2,0,P|362:280|306:280,1,116.999994644165,2|8,0:0|0:0,0:0:0:0:
307,103,69012,1,2,0:0:0:0:
459,189,69172,1,0,1:0:0:0:
253,191,69332,1,2,0:0:0:0:
398,32,69491,2,0,P|407:89|389:144,1,116.999994644165,8|2,0:0|0:0,0:0:0:0:
179,162,69810,1,0,1:0:0:0:
222,145,69890,1,0,1:0:0:0:
262,168,69970,1,0,1:0:0:0:
268,213,70050,1,0,1:0:0:0:
238,250,70130,6,0,L|88:236,1,116.999994644165,8|0,0:0|0:0,0:0:0:0:
269,348,70449,1,0,1:0:0:0:
269,348,70608,2,0,L|385:337,1,116.999994644165,2|8,0:0|0:0,0:0:0:0:
262,168,70927,2,0,L|352:242,1,116.999994644165,2|0,0:0|1:0,0:0:0:0:
430,20,71247,2,0,P|426:136|459:248,1,233.999989288331,2|2,0:0|0:0,0:0:0:0:
300,169,71725,1,0,1:0:0:0:
277,343,71885,1,2,0:0:0:0:
487,281,72044,2,0,P|428:263|371:263,1,116.999994644165,8|2,0:0|0:0,0:0:0:0:
198,282,72364,1,0,1:0:0:0:
253,112,72523,1,2,0:0:0:0:
253,112,72603,1,2,0:0:0:0:
253,112,72683,6,0,P|341:85|297:168,1,233.999989288331,8|0,0:0|1:0,0:0:0:0:
188,302,73161,1,2,0:0:0:0:
55,145,73321,2,0,P|50:84|60:21,1,116.999994644165,8|0,0:0|0:0,0:0:0:0:
116,224,73640,2,0,P|121:285|111:348,1,116.999994644165,0|0,1:0|0:0,0:0:0:0:
151,143,73959,5,8,0:0:0:0:
292,196,74119,1,2,0:0:0:0:
322,214,74199,1,0,0:0:0:0:
356,214,74278,1,0,1:0:0:0:
388,200,74358,1,0,0:0:0:0:
409,165,74438,1,10,0:0:0:0:
407,123,74518,1,0,0:0:0:0:
368,96,74598,1,2,0:0:0:0:
172,164,74757,5,0,1:0:0:0:
172,164,74837,1,0,1:0:0:0:
172,164,74917,1,0,1:0:0:0:
172,164,74997,1,0,1:0:0:0:
172,164,75076,1,0,1:0:0:0:
172,164,75156,1,0,1:0:0:0:
172,164,75236,6,0,B|128:246|199:263|160:356,1,198.000006042481,12|2,0:0|0:0,0:0:0:0:
236,223,75715,1,0,0:0:0:0:
92,306,75874,1,8,1:0:0:0:
349,372,76034,1,8,1:0:0:0:
349,372,76353,2,0,P|256:340|159:355,1,198.000006042481,12|8,0:0|0:0,0:0:0:0:
10,380,76832,1,0,1:0:0:0:
67,224,76991,1,10,0:0:0:0:
159,353,77151,2,0,P|191:317|198:269,1,99.0000030212403,0|8,0:0|0:0,0:0:0:0:
128,92,77470,1,0,1:0:0:0:
147,120,77550,1,0,1:0:0:0:
176,137,77630,1,0,1:0:0:0:
209,142,77709,1,0,1:0:0:0:
239,125,77789,6,0,P|277:118|351:122,1,99.0000030212403,4|0,1:2|0:0,0:0:0:0:
458,225,78108,1,0,1:0:0:0:
441,206,78188,1,0,1:0:0:0:
429,184,78268,1,0,1:0:0:0:
423,154,78348,1,0,1:0:0:0:
428,125,78427,1,8,1:2:0:0:
452,100,78507,1,0,1:0:0:0:
466,131,78587,1,0,1:0:0:0:
445,158,78667,1,0,1:0:0:0:
414,184,78747,1,0,1:0:0:0:
376,196,78826,1,0,1:0:0:0:
331,196,78906,1,0,1:0:0:0:
289,180,78986,1,0,1:0:0:0:
245,164,79066,6,0,P|308:234|266:319,1,198.000006042481,8|0,0:0|1:0,0:0:0:0:
225,246,79544,1,8,0:0:0:0:
225,246,80023,5,2,0:0:0:0:
347,358,80183,1,0,0:0:0:0:
347,358,80262,1,0,0:0:0:0:
347,358,80342,6,0,P|344:239|389:172,1,180,12|8,0:0|1:0,0:0:0:0:
461,86,80821,1,0,0:0:0:0:
499,205,80981,1,8,0:0:0:0:
372,98,81140,2,0,L|280:102,1,90,2|8,0:0|1:0,0:0:0:0:
123,187,81459,2,0,L|212:190,1,90,2|8,0:0|0:0,0:0:0:0:
282,101,81778,1,2,0:0:0:0:
327,266,81938,2,0,P|321:221|291:181,1,90,8|0,1:0|0:0,0:0:0:0:
230,33,82257,2,0,P|203:67|199:112,1,90,8|0,0:0|0:0,0:0:0:0:
296,185,82576,1,8,1:0:0:0:
128,207,82736,1,0,1:0:0:0:
128,207,82816,1,0,1:0:0:0:
128,207,82895,6,0,P|208:170|296:185,1,180,8|8,0:0|1:0,0:0:0:0:
387,283,83374,1,0,0:0:0:0:
397,148,83534,1,8,0:0:0:0:
311,262,83693,2,0,P|307:306|323:365,1,90,2|8,0:0|1:0,0:0:0:0:
402,236,84012,2,0,P|406:191|397:148,1,90,10|0,0:0|0:0,0:0:0:0:
512,76,84332,1,10,0:0:0:0:
512,76,84491,2,0,P|483:41|445:17,1,90,8|0,1:0|0:0,0:0:0:0:
249,63,84810,2,0,P|302:73|357:56,1,90,8|0,0:0|0:0,0:0:0:0:
188,12,85130,2,0,P|175:29|171:58,1,45,8|0,1:0|0:0,1:0:0:0:
188,204,85289,1,0,1:0:0:0:
188,204,85369,1,0,1:0:0:0:
188,204,85449,6,0,P|154:155|237:165,1,180,12|8,0:0|1:0,0:0:0:0:
207,288,85927,1,0,0:0:0:0:
88,224,86087,1,8,0:0:0:0:
25,364,86247,2,0,L|130:351,1,90,2|8,0:0|1:0,0:0:0:0:
188,204,86566,2,0,L|293:217,1,90,2|8,0:0|0:0,0:0:0:0:
419,130,86885,1,2,0:0:0:0:
419,130,87044,2,0,L|364:201,1,90,8|0,1:0|0:0,0:0:0:0:
367,367,87364,2,0,L|332:285,1,90,8|0,0:0|0:0,0:0:0:0:
188,204,87683,1,8,1:0:0:0:
360,94,87842,1,0,1:0:0:0:
360,94,87922,1,0,1:0:0:0:
360,94,88002,6,0,B|368:64|357:41|357:41|332:46|296:81,1,90,12|8,0:0|0:0,0:0:0:0:
152,94,88321,2,0,B|144:64|154:41|154:41|180:46|216:81,1,90,8|2,1:0|0:0,0:0:0:0:
380,242,88640,1,8,0:0:0:0:
354,267,88720,1,2,0:0:0:0:
319,273,88800,1,2,0:0:0:0:
285,261,88880,1,2,0:0:0:0:
256,240,88959,1,8,1:0:0:0:
227,261,89039,1,2,0:0:0:0:
193,273,89119,1,2,0:0:0:0:
158,267,89199,1,2,0:0:0:0:
132,242,89278,6,0,P|196:260|260:217,1,135.000005149842,12|0,0:0|0:0,0:0:0:0:
