osu file format v14

[General]
AudioFilename: audio.mp3
AudioLeadIn: 0
PreviewTime: 53192
Countdown: 0
SampleSet: Soft
StackLeniency: 0.4
Mode: 0
LetterboxInBreaks: 0
WidescreenStoryboard: 0

[Editor]
Bookmarks: 20320,40745,45852
DistanceSpacing: 1
BeatDivisor: 4
GridSize: 4
TimelineZoom: 2.799999

[Metadata]
Title:Shiny Happy Days (TV Size)
TitleUnicode:Shiny Happy Days (TV Size)
Artist:Yagi Yuki, Saeki Iori, Izawa Shiori, Itou Miku, Noguchi Yuri, Mizutani Marin
ArtistUnicode:八木侑紀,佐伯伊織,井澤詩織,伊藤美来,のぐちゆり,水谷麻鈴
Creator:Gordon123
Version:Easy
Source:ネコぱら
Tags:NEKO WORKs Nekopara ショコラ Chocola バニラ Vanilla アズキ Azuki メイプル Maple シナモン Cinnamon ココナツ Coconut anime opening op milr_ -Space- [_Space_] [_White Music_] Daycore anime japanese
BeatmapID:2298098
BeatmapSetID:1097208

[Difficulty]
HPDrainRate:2
CircleSize:2.5
OverallDifficulty:2
ApproachRate:3
SliderMultiplier:0.9
SliderTickRate:1

[Events]
//Background and Video events
0,0,"nekos.jpg",0,0
Video,0,"vid.flv"
//Break Periods
//Storyboard Layer 0 (Background)
//Storyboard Layer 1 (Fail)
//Storyboard Layer 2 (Pass)
//Storyboard Layer 3 (Foreground)
//Storyboard Layer 4 (Overlay)
//Storyboard Sound Samples

[TimingPoints]
439,419.58041958042,4,2,1,50,1,0
439,-100,4,2,1,55,0,0
6104,-100,4,2,1,50,0,0
8831,319.148936170213,4,2,1,60,1,0
8831,-100,4,2,1,70,0,0
20320,-100,4,2,1,60,0,0
30533,-100,4,2,1,70,0,0
40745,-100,4,2,1,65,0,0
45852,-100,4,2,1,60,0,0
48405,-100,4,2,1,65,0,0
50958,-100,4,2,1,70,0,0
52554,-100,4,2,1,75,0,0
53511,-100,4,2,1,80,0,1
62448,-100,4,2,1,70,0,0
63724,-100,4,2,1,80,0,1
73937,-100,4,2,1,60,0,0
79043,-100,4,2,1,70,0,0

[Colours]
Combo1 : 255,206,233
Combo2 : 240,239,193
Combo3 : 146,130,255
Combo4 : 255,163,70

[HitObjects]
25,336,439,6,0,L|217:326,1,180,2|0,0:0|0:0,0:0:0:0:
259,255,1697,1,2,0:0:0:0:
188,199,2117,2,0,P|139:127|178:42,1,180,2|2,0:0|0:0,0:0:0:0:
226,118,3376,1,2,0:0:0:0:
310,86,3795,5,2,0:0:0:0:
396,109,4215,1,2,0:0:0:0:
482,85,4634,2,0,L|467:179,1,90,0|2,0:0|0:0,0:0:0:0:
413,245,5473,2,0,L|428:339,2,90,2|2|2,0:0|0:0|0:0,0:0:0:0:
256,192,6418,12,2,8831,0:0:0:0:
457,33,10107,6,0,B|482:127|415:110|444:220,1,180,6|2,3:2|3:2,0:0:0:0:
313,334,11384,2,0,L|129:339,1,180,0|2,3:0|3:2,0:0:0:0:
106,253,12341,1,10,3:2:0:0:
126,165,12660,6,0,L|116:69,1,90,2|10,3:2|3:2,0:0:0:0:
27,60,13299,2,0,L|42:202,2,135,2|2|8,3:2|3:2|3:2,0:0:0:0:
117,75,14575,1,2,3:2:0:0:
181,137,14894,1,10,3:2:0:0:
216,219,15213,6,0,P|289:195|396:212,1,180,6|2,3:2|3:2,0:0:0:0:
483,55,16490,2,0,P|410:79|303:62,1,180,0|2,3:0|3:2,0:0:0:0:
226,29,17448,1,10,3:2:0:0:
139,52,17767,6,0,L|145:143,1,90,4|8,3:2|3:2,0:0:0:0:
65,184,18405,2,0,P|64:235|88:283,1,90,2|8,3:2|3:2,0:0:0:0:
142,334,19043,2,0,P|218:364|312:334,1,180,2|0,3:2|0:0,0:0:0:0:
424,199,20320,6,0,L|443:57,2,135,0|2|2,3:0|0:2|3:2,0:0:0:0:
334,210,21596,2,0,B|241:231|254:175|148:196,1,180,2|0,3:2|3:0,0:0:0:0:
68,207,22554,1,2,3:2:0:0:
31,124,22873,6,0,L|39:26,1,90,0|2,3:0|3:2,0:0:0:0:
125,13,23511,2,0,P|167:5|229:25,1,90,0|2,3:0|3:2,0:0:0:0:
285,68,24150,2,0,P|356:94|477:78,1,180,2|2,3:2|3:2,0:0:0:0:
350,229,25426,6,0,P|403:268|331:328,1,180,2|2,3:2|3:2,0:0:0:0:
256,294,26384,1,2,3:2:0:0:
173,329,26703,2,0,P|107:284|161:227,1,180,2|2,3:2|3:2,0:0:0:0:
72,70,27979,6,0,L|164:86,1,90,2|2,3:2|3:2,0:0:0:0:
236,36,28618,2,0,L|324:20,1,90,2|2,3:2|3:2,0:0:0:0:
408,52,29256,2,0,B|416:96|384:136|384:136|420:216|420:216|388:256|396:316,1,270,2|8,3:2|3:2,0:0:0:0:
312,340,30533,6,0,L|208:344,1,90,0|2,3:0|3:2,0:0:0:0:
140,312,31171,2,0,L|36:316,1,90,0|2,3:0|3:2,0:0:0:0:
32,228,31809,2,0,P|44:172|160:112,1,180,2|0,3:2|3:0,0:0:0:0:
228,140,32767,1,10,3:2:0:0:
312,112,33086,6,0,L|304:8,1,90,0|2,3:0|3:2,0:0:0:0:
396,32,33724,2,0,L|402:121,1,90,0|2,3:0|3:2,0:0:0:0:
460,192,34362,2,0,P|460:288|388:312,1,180,2|0,3:2|3:0,0:0:0:0:
216,344,35639,6,0,B|196:296|196:296|128:312|72:260,1,180,2|2,3:2|3:2,0:0:0:0:
28,188,36596,1,2,3:2:0:0:
80,116,36916,2,0,B|130:68|198:84|198:84|218:36,1,180,2|2,3:2|3:2,0:0:0:0:
398,50,38192,6,0,L|360:140,1,90,6|10,3:2|0:0,0:0:0:0:
328,216,38831,2,0,P|396:218|449:162,2,135,6|2|8,3:2|3:2|0:0,0:0:0:0:
241,189,40107,1,10,0:2:0:0:
182,120,40426,1,10,0:0:0:0:
215,36,40745,6,0,P|153:34|95:98,1,135,6|2,3:2|3:2,0:0:0:0:
42,202,41703,2,0,L|46:268,1,45,0|10,3:0|0:0,0:0:0:0:
36,336,42182,2,0,P|100:320|178:324,1,135,2|2,0:0|3:2,0:0:0:0:
256,336,42979,1,10,0:2:0:0:
344,320,43299,6,0,P|411:317|476:333,1,135,4|2,3:2|3:2,0:0:0:0:
450,201,44256,2,0,L|457:136,1,45,2|10,3:2|0:0,0:0:0:0:
479,69,44735,2,0,P|406:77|343:57,1,135,2|0,0:0|3:0,0:0:0:0:
263,26,45533,1,8,0:0:0:0:
178,57,45852,6,0,L|33:37,2,135,6|6|10,3:2|3:2|0:2,0:0:0:0:
181,146,47128,2,0,L|36:126,2,135,6|6|10,3:2|3:2|0:2,0:0:0:0:
270,159,48405,5,4,3:2:0:0:
350,320,49043,2,0,P|311:299|257:285,1,90,10|10,0:0|0:0,0:0:0:0:
178,270,49682,2,0,L|190:361,2,90,10|10|10,3:2|0:0|0:0,0:0:0:0:
164,181,50639,1,10,0:0:0:0:
86,135,50958,6,0,P|124:99|245:141,1,180,10|8,3:2|0:0,0:0:0:0:
307,183,51916,2,0,L|303:240,1,45,8|8,0:0|0:0,0:0:0:0:
356,301,52394,2,0,L|352:358,1,45,8|8,0:0|0:0,0:0:0:0:
441,328,52873,2,0,L|448:223,1,90,8|8,0:0|0:1,0:0:0:0:
451,148,53511,6,0,L|350:142,1,90,6|10,3:2|3:2,0:0:0:0:
304,72,54150,2,0,L|203:78,1,90,0|8,3:0|3:2,0:0:0:0:
127,51,54788,1,0,3:0:0:0:
51,99,55107,1,10,3:2:0:0:
58,188,55426,2,0,P|60:237|42:282,1,90,2|8,3:2|3:2,0:0:0:0:
103,345,56065,5,2,3:2:0:0:
188,318,56384,1,10,3:2:0:0:
277,330,56703,2,0,L|368:339,1,90,0|8,3:0|3:2,0:0:0:0:
447,300,57341,2,0,P|417:252|433:128,1,180,0|2,3:0|3:2,0:0:0:0:
485,63,58299,1,10,3:2:0:0:
397,49,58618,6,0,L|246:43,2,135,6|2|8,3:2|0:2|3:2,0:0:0:0:
485,63,59894,1,0,3:0:0:0:
429,133,60213,1,10,3:2:0:0:
400,218,60533,2,0,L|420:316,1,90,2|10,3:2|3:2,0:0:0:0:
336,345,61171,6,0,B|248:368|248:300|160:322,1,180,2|2,3:2|3:2,0:0:0:0:
80,352,62128,1,10,3:2:0:0:
52,266,62448,2,0,P|70:213|69:165,2,90,2|2|2,3:2|3:2|3:2,0:0:0:0:
220,329,63724,6,0,L|206:237,1,90,6|10,3:2|3:2,0:0:0:0:
284,195,64362,2,0,L|298:103,1,90,0|8,3:0|3:2,0:0:0:0:
358,39,65001,1,0,3:0:0:0:
441,76,65320,1,10,3:2:0:0:
462,163,65639,2,0,L|448:251,1,90,2|8,3:2|3:2,0:0:0:0:
399,327,66277,6,0,P|363:311|216:312,1,180,2|0,3:2|3:0,0:0:0:0:
137,330,67235,1,8,3:2:0:0:
161,243,67554,2,0,L|178:144,1,90,0|10,3:0|3:2,0:0:0:0:
257,192,68192,2,0,P|293:211|355:222,1,90,2|10,3:2|3:2,0:0:0:0:
429,202,68831,6,0,L|406:339,2,135,6|2|8,3:2|0:2|3:2,0:0:0:0:
469,121,70107,1,0,3:0:0:0:
426,41,70426,1,10,3:2:0:0:
339,65,70745,2,0,P|294:71|230:68,1,90,2|10,3:2|3:2,0:0:0:0:
162,44,71384,6,0,P|88:42|35:137,1,180,2|2,3:2|3:2,0:0:0:0:
123,126,72341,1,10,3:2:0:0:
212,128,72660,2,0,P|176:197|110:215,2,135,2|2|8,3:2|3:2|3:2,0:0:0:0:
262,53,73937,6,0,L|445:37,1,180,2|8,3:2|2:0,0:0:0:0:
505,156,75054,2,0,P|513:217|460:289,1,135,6|10,3:2|0:2,0:0:0:0:
398,323,75852,1,2,0:0:0:0:
312,295,76171,1,8,0:0:0:0:
228,327,76490,5,6,3:2:0:0:
153,276,76809,2,0,L|141:181,1,90,2|4,0:0|0:3,0:0:0:0:
193,112,77448,1,4,0:3:0:0:
213,24,77767,2,0,P|260:53|278:142,2,135,6|2|10,3:2|3:2|0:0,0:0:0:0:
193,112,79043,6,0,L|169:299,1,180,6|2,3:2|3:2,0:0:0:0:
341,345,80320,2,0,L|318:166,1,180,0|2,3:0|3:2,0:0:0:0:
322,76,81277,1,10,3:2:0:0:
406,44,81596,6,0,P|452:31|506:45,1,90,2|10,3:2|3:2,0:0:0:0:
454,120,82235,2,0,L|469:262,2,135,2|2|8,3:2|3:2|3:2,0:0:0:0:
406,44,83511,1,2,3:2:0:0:
318,65,83830,1,10,3:2:0:0:
230,43,84150,6,0,P|156:35|51:76,1,180,6|2,3:2|3:2,0:0:0:0:
56,250,85426,2,0,P|138:283|227:277,1,180,0|2,3:0|3:2,0:0:0:0:
315,253,86384,1,10,3:2:0:0:
402,275,86703,6,0,L|416:184,1,90,6|8,3:2|0:2,0:0:0:0:
498,151,87341,2,0,L|484:60,1,90,2|8,3:2|0:0,0:0:0:0:
405,18,87979,1,4,0:2:0:0:
