osu file format v14

[General]
AudioFilename: audio.mp3
AudioLeadIn: 0
PreviewTime: 187486
Countdown: 0
SampleSet: Soft
StackLeniency: 0.4
Mode: 0
LetterboxInBreaks: 0
WidescreenStoryboard: 0

[Editor]
Bookmarks: 57344
DistanceSpacing: 0.4
BeatDivisor: 4
GridSize: 4
TimelineZoom: 2.4

[Metadata]
Title:Little Bitter Duet
TitleUnicode:Little Bitter Duet
Artist:Yagami Kou(CV.Hisaka Yoko)xToyama Rin(CV.Kayano Ai)
ArtistUnicode:八神コウ(CV.日笠陽子)×遠山りん(CV.茅野愛衣)
Creator:Kami-senpai
Version:Extra
Source:New Game!!
Tags:
BeatmapID:1944549
BeatmapSetID:931241

[Difficulty]
HPDrainRate:4.5
CircleSize:4
OverallDifficulty:8.5
ApproachRate:9.3
SliderMultiplier:1.9
SliderTickRate:1

[Events]
//Background and Video events
0,0,"bg.jpg",0,0
//Break Periods
//Storyboard Layer 0 (Background)
//Storyboard Layer 1 (Fail)
//Storyboard Layer 2 (Pass)
//Storyboard Layer 3 (Foreground)
//Storyboard Sound Samples

[TimingPoints]
2799,340.909090909091,4,2,1,70,1,0
2799,-153.846153846154,4,2,1,30,0,0
12344,-222.222222222223,4,2,1,30,0,0
13196,-117.64705882353,4,2,1,60,0,0
13708,-111.111111111111,4,2,1,60,0,1
13793,-111.111111111111,4,2,1,60,0,0
21549,-99.9999999999999,4,2,1,60,0,0
24617,-125,4,2,1,40,0,0
34844,-111.111111111111,4,2,1,40,0,0
35526,-111.111111111111,4,2,1,60,0,0
45753,-99.9999999999999,4,2,1,60,0,0
46437,-125,4,2,1,60,0,0
51549,-100,4,2,1,60,0,0
51889,-111.111111111111,4,2,1,60,0,0
54617,-100,4,2,1,60,0,0
55639,-90.9090909090909,4,2,1,60,0,0
55980,-125,4,2,1,60,0,0
57003,-83.3333333333333,4,2,1,60,0,0
57344,-90.9090909090909,4,2,1,60,0,1
67571,-90.9090909090909,4,2,1,60,0,0
68253,-90.9090909090909,4,2,1,60,0,1
77799,-90.9090909090909,4,2,1,60,0,0
78651,-100,4,2,1,60,0,0
90071,-125,4,2,1,50,0,0
100980,-111.111111111111,4,2,1,50,0,0
111037,-100,4,2,1,50,0,0
111889,-125,4,2,1,50,0,0
117344,-142.857142857143,4,2,1,40,0,0
120071,-100,4,2,1,60,0,0
122799,-100,4,2,1,60,0,1

[Colours]
Combo1 : 26,140,255
Combo2 : 255,128,128
Combo3 : 111,111,255
Combo4 : 174,0,87

[HitObjects]
142,147,2799,6,0,P|136:203|290:239,1,246.999988693238
264,141,3651,2,0,P|223:178|215:187,2,61.7499971733095
348,111,4162,5,0,0:0:0:0:
348,111,4844,2,0,B|345:169|345:169|341:181|341:181|338:250,1,123.499994346619
343,259,5526,6,0,B|220:198|231:333|92:254,1,246.999988693238
172,186,6378,2,0,P|167:155|161:125,2,61.7499971733095
286,330,6889,5,0,0:0:0:0:
306,341,7571,2,0,P|336:281|302:219,1,123.499994346619
298,224,8253,6,0,L|112:237,1,185.249991519928
32,137,8935,2,0,L|173:143,1,123.499994346619
175,132,9617,6,0,P|222:203|170:303,1,185.249991519928
76,328,10299,2,0,L|69:203,1,123.499994346619
196,317,10980,6,0,B|226:283|274:275|274:275|326:315|392:338|392:338|440:319|466:286,1,308.749985866547
432,144,12174,1,0,0:0:0:0:
432,144,12344,6,0,L|424:196,2,42.7499986953736
405,74,12855,2,0,L|412:126,1,42.7499986953736
483,17,13196,1,0,0:0:0:0:
487,36,13281,1,0,0:0:0:0:
493,57,13367,6,0,L|423:63,1,40.375000770092
363,65,13537,2,0,L|293:71,1,40.375000770092
190,34,13708,6,0,L|183:130,1,85.4999973907472
238,251,14049,1,0,0:0:0:0:
180,148,14219,1,0,0:0:0:0:
92,273,14389,1,0,0:0:0:0:
15,100,14560,1,0,0:0:0:0:
93,174,14730,2,0,L|188:182,1,85.4999973907472
371,130,15071,5,0,0:0:0:0:
208,172,15242,1,0,0:0:0:0:
346,295,15412,1,0,0:0:0:0:
272,88,15583,1,0,0:0:0:0:
276,71,15668,1,0,0:0:0:0:
284,56,15753,1,0,0:0:0:0:
300,211,15924,5,0,0:0:0:0:
174,78,16094,1,0,0:0:0:0:
182,268,16264,1,0,0:0:0:0:
303,183,16435,6,0,P|369:178|411:180,1,85.4999973907472
475,273,16776,1,0,0:0:0:0:
491,109,16946,1,0,0:0:0:0:
427,185,17117,1,0,0:0:0:0:
343,52,17287,1,0,0:0:0:0:
295,281,17458,2,0,L|290:196,1,85.4999973907472
79,93,17799,5,0,0:0:0:0:
297,165,17969,1,0,0:0:0:0:
121,180,18139,5,0,0:0:0:0:
332,73,18310,1,0,0:0:0:0:
140,18,18480,5,0,0:0:0:0:
205,297,18651,1,0,0:0:0:0:
213,282,18736,1,0,0:0:0:0:
219,266,18821,2,0,P|222:237|221:216,1,42.7499986953736
159,41,18992,1,0,0:0:0:0:
158,58,19077,1,0,0:0:0:0:
159,75,19162,5,0,0:0:0:0:
323,178,19333,1,0,0:0:0:0:
331,200,19503,1,0,0:0:0:0:
487,108,19674,5,0,0:0:0:0:
335,226,19845,1,0,0:0:0:0:
327,248,20015,1,0,0:0:0:0:
143,170,20185,5,0,0:0:0:0:
331,280,20356,1,0,0:0:0:0:
339,302,20526,1,0,0:0:0:0:
512,205,20697,5,0,0:0:0:0:
343,328,20868,1,0,0:0:0:0:
335,350,21038,1,0,0:0:0:0:
268,179,21208,5,0,0:0:0:0:
264,162,21293,1,0,0:0:0:0:
265,144,21378,1,0,0:0:0:0:
405,43,21549,2,0,L|414:152,1,95
196,293,21889,5,0,0:0:0:0:
418,163,22060,1,0,0:0:0:0:
184,107,22230,1,0,0:0:0:0:
367,243,22401,5,0,0:0:0:0:
124,215,22571,1,0,0:0:0:0:
327,115,22742,1,0,0:0:0:0:
211,289,22912,5,0,0:0:0:0:
345,21,23083,2,0,L|351:124,1,95
354,276,23424,5,0,0:0:0:0:
154,22,23595,2,0,L|148:125,1,95
245,340,23935,1,0,0:0:0:0:
249,321,24020,1,0,0:0:0:0:
246,302,24105,6,0,L|182:279,1,47.5
91,223,24276,2,0,L|155:200,1,47.5
329,136,24446,1,0,0:0:0:0:
347,157,24531,1,0,0:0:0:0:
361,187,24617,5,0,0:0:0:0:
369,219,24958,2,0,L|212:228,1,152
201,245,25469,2,0,L|116:240,1,76
49,173,25810,1,0,0:0:0:0:
49,173,25980,6,0,P|66:130|91:113,2,76
100,253,26492,2,0,L|96:334,1,76
203,355,26833,1,0,0:0:0:0:
203,355,27003,2,0,L|199:274,1,76
177,133,27344,5,0,0:0:0:0:
167,151,27685,2,0,P|201:198|311:187,1,152
362,138,28196,2,0,L|353:57,1,76
248,52,28537,1,0,0:0:0:0:
248,52,28708,6,0,P|242:104|253:134,2,76
348,27,29219,2,0,L|443:36,1,76
473,121,29560,1,0,0:0:0:0:
473,121,29730,2,0,L|378:130,1,76
313,200,30071,5,0,0:0:0:0:
292,211,30412,2,0,L|313:363,1,152
401,267,30924,2,0,L|481:275,1,76
430,358,31264,1,0,0:0:0:0:
388,253,31435,6,0,L|398:101,1,152
397,101,31946,1,0,0:0:0:0:
283,42,32117,2,0,L|296:125,1,76
197,245,32458,2,0,L|208:169,1,76
307,218,32799,5,0,0:0:0:0:
324,240,33139,1,0,0:0:0:0:
196,278,33310,1,0,0:0:0:0:
220,158,33480,1,0,0:0:0:0:
270,338,33651,1,0,0:0:0:0:
342,131,33821,1,0,0:0:0:0:
461,282,33992,1,0,0:0:0:0:
438,267,34077,1,0,0:0:0:0:
412,261,34162,6,0,L|319:265,1,76
449,164,34503,1,0,0:0:0:0:
267,60,34674,1,0,0:0:0:0:
257,80,34759,1,0,0:0:0:0:
253,102,34844,6,0,L|260:166,1,42.7499986953736
315,236,35014,2,0,L|308:300,1,42.7499986953736
225,361,35185,6,0,L|220:318,1,42.7499986953736
100,150,35355,1,0,0:0:0:0:
100,175,35441,1,0,0:0:0:0:
110,203,35526,6,0,B|200:256|203:170|294:208,1,170.999994781494
391,304,36037,1,0,0:0:0:0:
425,168,36208,1,0,0:0:0:0:
284,217,36378,1,0,0:0:0:0:
416,308,36549,1,0,0:0:0:0:
277,353,36719,6,0,L|181:346,1,85.4999973907472
57,249,37060,1,0,0:0:0:0:
171,157,37230,2,0,L|166:258,1,85.4999973907472
113,332,37571,1,0,0:0:0:0:
269,256,37742,1,0,0:0:0:0:
141,67,37912,2,0,L|146:168,1,85.4999973907472
244,248,38253,6,0,P|292:212|377:230,1,128.249996086121
384,238,38594,2,0,L|377:329,1,85.4999973907472
221,229,38935,1,0,0:0:0:0:
279,344,39105,1,0,0:0:0:0:
319,174,39276,1,0,0:0:0:0:
468,345,39446,1,0,0:0:0:0:
468,345,39531,1,0,0:0:0:0:
468,345,39617,5,0,0:0:0:0:
340,275,39787,1,0,0:0:0:0:
486,211,39958,1,0,0:0:0:0:
343,154,40128,2,0,P|336:120|335:100,2,42.7499986953736
469,226,40469,2,0,P|465:280|460:316,1,85.4999973907472
231,264,40810,1,0,0:0:0:0:
308,339,40980,6,0,P|337:271|290:171,1,170.999994781494
304,183,41492,1,0,0:0:0:0:
194,121,41662,1,0,0:0:0:0:
304,163,41833,2,0,L|410:161,1,85.4999973907472
415,142,42088,1,0,0:0:0:0:
427,128,42174,6,0,B|465:129|465:129|471:132|471:132|511:132,1,85.4999973907472
336,64,42514,2,0,P|330:34|329:17,2,42.7499986953736
304,190,42855,2,0,P|213:152|127:192,1,170.999994781494
125,195,43281,1,0,0:0:0:0:
118,207,43367,2,0,B|129:266|129:266|127:283|127:283|136:343,1,128.249996086121
162,357,43708,5,0,0:0:0:0:
19,235,43878,1,0,0:0:0:0:
196,150,44049,1,0,0:0:0:0:
45,338,44219,5,0,0:0:0:0:
228,245,44389,1,0,0:0:0:0:
53,147,44560,1,0,0:0:0:0:
119,234,44730,5,0,0:0:0:0:
190,56,44901,1,0,0:0:0:0:
249,258,45071,1,0,0:0:0:0:
302,70,45242,5,0,0:0:0:0:
153,144,45412,1,0,0:0:0:0:
341,228,45583,1,0,0:0:0:0:
350,213,45668,1,0,0:0:0:0:
354,196,45753,2,0,P|276:166|236:171,1,95
237,171,46009,1,0,0:0:0:0:
221,187,46094,6,0,P|231:224|235:243,1,47.5
397,315,46264,2,0,P|387:352|383:371,1,47.5
145,382,46435,6,0,P|90:326|139:216,1,190
307,106,46946,1,0,0:0:0:0:
313,119,47031,1,0,0:0:0:0:
317,133,47117,2,0,L|316:223,1,76
326,227,47372,1,0,0:0:0:0:
333,240,47458,6,0,L|327:298,1,38
234,309,47628,2,0,L|230:271,1,38
185,135,47799,6,0,L|51:152,1,114
48,153,48139,1,0,0:0:0:0:
19,313,48310,1,0,0:0:0:0:
29,301,48395,1,0,0:0:0:0:
42,293,48480,2,0,L|134:308,1,76
143,297,48736,1,0,0:0:0:0:
161,290,48821,6,0,P|169:322|172:352,1,38
263,194,48992,2,0,P|254:226|252:256,1,38
153,159,49162,6,0,P|121:102|163:22,1,152
334,82,49674,1,0,0:0:0:0:
323,71,49759,1,0,0:0:0:0:
308,66,49844,2,0,L|225:81,1,76
212,93,50100,1,0,0:0:0:0:
202,108,50185,6,0,P|221:132|235:146,1,38
350,179,50355,2,0,P|331:203|317:217,1,38
177,333,50526,6,0,L|170:243,1,76
169,234,50781,1,0,0:0:0:0:
173,216,50867,6,0,P|208:209|221:204,1,38
348,150,51037,2,0,P|313:143|300:138,1,38
224,77,51208,6,0,L|219:31,1,38
137,2,51378,2,0,L|132:39,1,38
72,226,51549,6,0,B|69:199|69:199|62:164,1,47.5
13,30,51719,1,0,0:0:0:0:
7,48,51804,1,0,0:0:0:0:
5,69,51889,6,0,B|92:122|86:52|178:90,1,170.999994781494
241,196,52401,2,0,P|267:207|293:209,2,42.7499986953736
149,152,52742,1,0,0:0:0:0:
271,103,52912,1,0,0:0:0:0:
286,292,53083,1,0,0:0:0:0:
164,263,53253,5,0,0:0:0:0:
353,194,53424,1,0,0:0:0:0:
146,122,53594,1,0,0:0:0:0:
310,283,53764,5,0,0:0:0:0:
69,201,53935,1,0,0:0:0:0:
273,131,54105,1,0,0:0:0:0:
127,324,54276,1,0,0:0:0:0:
153,85,54446,1,0,0:0:0:0:
163,103,54531,1,0,0:0:0:0:
172,122,54617,6,0,P|175:183|174:231,1,95
172,235,54872,1,0,0:0:0:0:
167,252,54958,2,0,P|209:246|233:242,1,47.5
457,213,55128,6,0,P|400:199|359:188,1,95
340,172,55384,1,0,0:0:0:0:
329,162,55469,2,0,P|320:207|318:219,1,47.5
181,63,55639,6,0,P|222:81|245:87,1,52.2500015945435
484,99,55810,2,0,P|459:107|435:119,1,52.2500015945435
309,247,55980,6,0,P|279:241|256:232,3,38
410,217,56321,6,0,B|416:249|416:249|416:264|416:264|421:301,1,76
435,307,56577,1,0,0:0:0:0:
453,314,56662,5,0,0:0:0:0:
416,334,56747,1,0,0:0:0:0:
373,337,56833,1,0,0:0:0:0:
334,320,56918,1,0,0:0:0:0:
305,284,57003,6,0,B|370:259|436:258|436:258|389:237,1,170.999994781494
326,183,57344,6,0,L|316:24,1,156.750004783631
309,8,57685,2,0,P|244:23|228:112,1,156.750004783631
233,126,58026,1,0,0:0:0:0:
425,77,58196,1,0,0:0:0:0:
200,25,58367,2,0,L|82:41,1,104.500003189087
5,195,58708,6,0,P|63:157|151:190,1,156.750004783631
160,206,59049,1,0,0:0:0:0:
67,60,59219,1,0,0:0:0:0:
62,350,59389,2,0,L|77:238,1,104.500003189087
204,99,59730,1,0,0:0:0:0:
271,287,59901,1,0,0:0:0:0:
258,270,59986,1,0,0:0:0:0:
240,257,60071,6,0,B|159:239|159:239|71:259,1,156.750004783631
60,273,60412,2,0,P|31:218|62:158,1,104.500003189087
154,134,60753,1,0,0:0:0:0:
46,67,60924,1,0,0:0:0:0:
162,248,61094,1,0,0:0:0:0:
232,46,61264,1,0,0:0:0:0:
222,27,61350,1,0,0:0:0:0:
204,16,61435,5,0,0:0:0:0:
24,59,61605,1,0,0:0:0:0:
259,177,61776,1,0,0:0:0:0:
24,253,61946,1,0,0:0:0:0:
30,233,62031,1,0,0:0:0:0:
43,216,62117,2,0,P|100:216|164:227,1,104.500003189087
175,240,62372,1,0,0:0:0:0:
193,257,62458,6,0,P|199:289|202:308,1,52.2500015945435
364,169,62628,2,0,P|359:195|354:221,1,52.2500015945435
206,66,62799,6,0,L|26:83,1,156.750004783631
26,83,63139,1,0,0:0:0:0:
141,176,63310,1,0,0:0:0:0:
299,9,63480,2,0,P|317:58|306:114,1,104.500003189087
290,126,63736,1,0,0:0:0:0:
274,140,63821,2,0,L|454:157,1,156.750004783631
497,215,64162,6,0,P|500:288|399:336,1,156.750004783631
409,330,64503,1,0,0:0:0:0:
366,191,64674,1,0,0:0:0:0:
211,288,64844,2,0,P|267:277|320:294,1,104.500003189087
102,361,65185,2,0,L|87:239,1,104.500003189087
85,229,65441,1,0,0:0:0:0:
74,216,65526,5,0,0:0:0:0:
271,255,65696,1,0,0:0:0:0:
78,124,65867,5,0,0:0:0:0:
320,150,66037,1,0,0:0:0:0:
58,29,66208,5,0,0:0:0:0:
365,41,66378,1,0,0:0:0:0:
178,172,66549,5,0,0:0:0:0:
464,252,66719,1,0,0:0:0:0:
457,232,66804,1,0,0:0:0:0:
444,216,66889,6,0,P|392:210|334:211,1,104.500003189087
311,221,67145,1,0,0:0:0:0:
294,232,67230,6,0,P|303:274|308:290,1,52.2500015945435
169,100,67401,2,0,P|160:142|155:158,1,52.2500015945435
316,35,67571,5,0,0:0:0:0:
357,29,67656,1,0,0:0:0:0:
397,40,67742,1,0,0:0:0:0:
421,73,67827,1,0,0:0:0:0:
424,115,67912,6,0,P|375:125|349:133,1,52.2500015945435
262,241,68083,2,0,P|213:231|187:223,1,52.2500015945435
52,80,68253,6,0,B|36:235,1,156.750004783631
35,264,68594,2,0,P|109:262|115:157,1,156.750004783631
129,166,68935,1,0,0:0:0:0:
138,345,69105,1,0,0:0:0:0:
254,136,69276,2,0,L|262:241,1,104.500003189087
346,347,69617,6,0,P|388:313|486:338,1,156.750004783631
499,359,69958,1,0,0:0:0:0:
411,168,70128,1,0,0:0:0:0:
323,351,70299,2,0,L|204:343,1,104.500003189087
408,271,70639,1,0,0:0:0:0:
260,101,70810,1,0,0:0:0:0:
253,120,70895,1,0,0:0:0:0:
250,140,70980,6,0,L|445:151,1,156.750004783631
436,150,71321,2,0,P|454:98|427:45,1,104.500003189087
320,27,71662,1,0,0:0:0:0:
262,240,71833,1,0,0:0:0:0:
169,68,72003,1,0,0:0:0:0:
426,168,72174,1,0,0:0:0:0:
409,155,72259,1,0,0:0:0:0:
389,147,72344,6,0,B|312:110|307:187|207:131,1,156.750004783631
219,133,72685,1,0,0:0:0:0:
352,294,72855,2,0,L|358:227,1,52.2500015945435
463,105,73026,2,0,L|468:158,1,52.2500015945435
509,306,73196,1,0,0:0:0:0:
333,150,73367,1,0,0:0:0:0:
338,124,73452,1,0,0:0:0:0:
343,98,73537,1,0,0:0:0:0:
349,72,73622,1,0,0:0:0:0:
353,46,73708,6,0,L|165:57,1,156.750004783631
165,56,74049,1,0,0:0:0:0:
131,192,74219,1,0,0:0:0:0:
228,141,74389,5,0,0:0:0:0:
216,302,74560,1,0,0:0:0:0:
320,189,74730,5,0,0:0:0:0:
345,366,74901,1,0,0:0:0:0:
475,233,75071,6,0,P|421:173|334:176,1,156.750004783631
320,189,75412,5,0,0:0:0:0:
264,359,75583,1,0,0:0:0:0:
220,161,75753,5,0,0:0:0:0:
113,344,75924,1,0,0:0:0:0:
143,88,76094,5,0,0:0:0:0:
0,253,76264,1,0,0:0:0:0:
228,247,76435,6,0,L|237:65,1,156.750004783631
239,66,76776,1,0,0:0:0:0:
371,187,76946,1,0,0:0:0:0:
386,183,77031,1,0,0:0:0:0:
401,179,77117,2,0,L|406:110,1,52.2500015945435
212,258,77287,1,0,0:0:0:0:
197,262,77372,1,0,0:0:0:0:
182,266,77458,6,0,L|177:335,1,52.2500015945435
16,143,77628,2,0,L|21:212,1,52.2500015945435
205,55,77799,5,0,0:0:0:0:
188,68,78651,6,0,P|183:36|186:13,1,47.5
253,130,78821,1,0,0:0:0:0:
223,153,78906,1,0,0:0:0:0:
185,160,78992,1,0,0:0:0:0:
148,148,79077,1,0,0:0:0:0:
117,125,79162,6,0,B|108:177|108:177|127:257,1,95
222,352,79503,1,0,0:0:0:0:
124,242,79674,1,0,0:0:0:0:
74,356,79844,1,0,0:0:0:0:
234,237,80014,1,0,0:0:0:0:
102,243,80185,2,0,L|1:242,1,95
118,140,80526,5,0,0:0:0:0:
209,344,80696,1,0,0:0:0:0:
223,106,80867,1,0,0:0:0:0:
122,270,81037,1,0,0:0:0:0:
123,288,81122,1,0,0:0:0:0:
125,307,81208,1,0,0:0:0:0:
234,212,81378,5,0,0:0:0:0:
26,253,81549,1,0,0:0:0:0:
202,363,81719,1,0,0:0:0:0:
127,180,81889,6,0,L|135:74,1,95
296,65,82230,1,0,0:0:0:0:
194,0,82401,1,0,0:0:0:0:
246,181,82571,1,0,0:0:0:0:
311,43,82742,1,0,0:0:0:0:
385,204,82912,2,0,L|377:310,1,95
248,207,83253,5,0,0:0:0:0:
447,112,83424,1,0,0:0:0:0:
165,95,83594,5,0,0:0:0:0:
372,182,83764,1,0,0:0:0:0:
103,252,83935,5,0,0:0:0:0:
269,90,84105,1,0,0:0:0:0:
272,108,84191,1,0,0:0:0:0:
272,126,84276,2,0,L|261:200,1,47.5
215,342,84446,1,0,0:0:0:0:
209,323,84531,1,0,0:0:0:0:
206,303,84617,5,0,0:0:0:0:
388,196,84787,1,0,0:0:0:0:
384,176,84958,1,0,0:0:0:0:
383,297,85128,5,0,0:0:0:0:
183,169,85298,1,0,0:0:0:0:
187,149,85469,1,0,0:0:0:0:
388,70,85639,5,0,0:0:0:0:
180,193,85809,1,0,0:0:0:0:
177,214,85980,1,0,0:0:0:0:
196,61,86150,5,0,0:0:0:0:
395,222,86320,1,0,0:0:0:0:
398,242,86491,1,0,0:0:0:0:
214,363,86662,5,0,0:0:0:0:
210,344,86747,1,0,0:0:0:0:
212,325,86833,1,0,0:0:0:0:
389,179,87003,2,0,L|250:185,1,95
110,99,87344,5,0,0:0:0:0:
212,301,87514,1,0,0:0:0:0:
230,67,87685,1,0,0:0:0:0:
339,256,87855,5,0,0:0:0:0:
104,216,88026,1,0,0:0:0:0:
318,117,88196,1,0,0:0:0:0:
226,175,88367,5,0,0:0:0:0:
416,43,88537,2,0,L|421:152,1,95
313,247,88878,5,0,0:0:0:0:
126,53,89048,2,0,L|121:162,1,95
177,342,89389,6,0,L|193:278,1,47.5
265,96,89560,2,0,L|281:160,1,47.5
445,330,89730,1,0,0:0:0:0:
416,303,89816,1,0,0:0:0:0:
379,291,89901,1,0,0:0:0:0:
341,297,89986,1,0,0:0:0:0:
311,320,90071,5,0,0:0:0:0:
290,336,90412,2,0,L|279:162,1,152
209,109,90924,2,0,P|167:167|192:233,1,114
196,234,91264,5,0,0:0:0:0:
215,249,91605,1,0,0:0:0:0:
91,184,91776,1,0,0:0:0:0:
229,108,91946,2,0,L|332:126,1,76
343,218,92287,1,0,0:0:0:0:
334,117,92458,2,0,L|340:37,1,76
456,158,92799,5,0,0:0:0:0:
478,145,93139,2,0,L|473:298,1,152
387,354,93651,2,0,P|360:306|381:242,1,114
394,228,93992,5,0,0:0:0:0:
412,245,94333,1,0,0:0:0:0:
334,110,94503,1,0,0:0:0:0:
286,211,94674,2,0,L|290:298,1,76
189,196,95014,1,0,0:0:0:0:
309,221,95185,2,0,L|402:218,1,76
481,99,95526,5,0,0:0:0:0:
495,124,95867,2,0,P|433:159|352:116,1,152
409,0,96378,2,0,L|425:82,1,76
271,196,96719,6,0,L|284:31,1,152
315,118,97230,2,0,P|361:111|403:127,1,76
431,238,97571,1,0,0:0:0:0:
481,162,97742,2,0,L|477:71,1,76
349,200,98083,1,0,0:0:0:0:
428,258,98253,6,0,P|340:295|277:262,1,152
247,179,98764,1,0,0:0:0:0:
202,319,98935,1,0,0:0:0:0:
282,262,99105,1,0,0:0:0:0:
321,370,99276,1,0,0:0:0:0:
150,219,99446,1,0,0:0:0:0:
149,196,99531,1,0,0:0:0:0:
151,173,99617,6,0,L|163:123,3,38
216,80,99958,2,0,L|211:33,1,38
266,157,100128,1,0,0:0:0:0:
288,157,100213,1,0,0:0:0:0:
310,160,100299,6,0,L|301:212,3,38
407,86,100639,1,0,0:0:0:0:
417,122,100725,1,0,0:0:0:0:
428,158,100810,1,0,0:0:0:0:
439,194,100895,1,0,0:0:0:0:
449,230,100980,6,0,L|261:231,1,170.999994781494
177,284,101492,2,0,L|189:375,1,85.4999973907472
278,317,101833,1,0,0:0:0:0:
191,171,102003,2,0,L|179:262,1,85.4999973907472
298,150,102344,5,0,0:0:0:0:
101,197,102514,1,0,0:0:0:0:
269,298,102685,1,0,0:0:0:0:
279,274,102770,1,0,0:0:0:0:
280,248,102855,2,0,L|276:99,1,128.249996086121
278,89,103196,1,0,0:0:0:0:
201,175,103367,1,0,0:0:0:0:
183,28,103537,1,0,0:0:0:0:
311,180,103708,6,0,L|452:171,1,128.249996086121
465,171,104049,2,0,P|476:212|461:264,1,85.4999973907472
414,49,104389,1,0,0:0:0:0:
357,119,104560,2,0,L|364:217,1,85.4999973907472
445,347,104901,1,0,0:0:0:0:
263,267,105071,5,0,0:0:0:0:
350,320,105242,2,0,L|461:323,1,85.4999973907472
226,360,105583,2,0,P|183:332|167:294,1,85.4999973907472
216,168,105924,1,0,0:0:0:0:
272,279,106094,1,0,0:0:0:0:
331,127,106264,1,0,0:0:0:0:
328,101,106350,1,0,0:0:0:0:
322,75,106435,6,0,B|236:39|242:120|136:68,1,170.999994781494
81,15,106946,1,0,0:0:0:0:
44,183,107117,2,0,L|34:95,1,85.4999973907472
140,93,107458,1,0,0:0:0:0:
57,205,107628,1,0,0:0:0:0:
172,195,107799,6,0,L|266:203,1,85.4999973907472
243,101,108139,1,0,0:0:0:0:
152,212,108310,2,0,P|147:276|221:318,1,128.249996086121
228,306,108651,2,0,B|270:298|270:298|277:301|277:301|331:293,1,85.4999973907472
408,149,108992,1,0,0:0:0:0:
415,169,109077,1,0,0:0:0:0:
420,189,109162,5,0,0:0:0:0:
249,171,109333,1,0,0:0:0:0:
390,57,109503,1,0,0:0:0:0:
244,58,109674,5,0,0:0:0:0:
326,247,109844,1,0,0:0:0:0:
411,44,110014,1,0,0:0:0:0:
237,172,110185,5,0,0:0:0:0:
431,35,110355,1,0,0:0:0:0:
431,245,110526,1,0,0:0:0:0:
354,118,110696,5,0,0:0:0:0:
284,328,110867,1,0,0:0:0:0:
158,202,111037,1,0,0:0:0:0:
172,183,111122,1,0,0:0:0:0:
186,163,111208,2,0,L|181:52,1,95
177,44,111464,1,0,0:0:0:0:
174,31,111549,6,0,L|240:49,1,47.5
354,118,111720,2,0,L|288:136,1,47.5
158,202,111889,6,0,L|173:367,1,152
326,328,112401,1,0,0:0:0:0:
324,309,112486,1,0,0:0:0:0:
322,290,112571,2,0,L|246:275,1,76
226,262,112827,1,0,0:0:0:0:
213,250,112912,6,0,L|222:207,1,38
316,135,113083,2,0,L|325:178,1,38
211,103,113253,6,0,P|173:67|98:86,1,114
93,88,113594,1,0,0:0:0:0:
55,216,113764,1,0,0:0:0:0:
72,207,113850,1,0,0:0:0:0:
89,200,113935,2,0,L|187:213,1,76
195,222,114191,1,0,0:0:0:0:
209,237,114276,6,0,L|216:284,1,38
303,206,114446,2,0,L|309:169,1,38
322,318,114617,6,0,P|387:279|454:320,1,152
497,222,115128,1,0,0:0:0:0:
491,203,115213,1,0,0:0:0:0:
485,184,115299,2,0,L|486:81,1,76
492,88,115554,1,0,0:0:0:0:
500,72,115639,6,0,L|445:75,1,38
369,78,115810,2,0,L|314:81,1,38
223,33,115980,6,0,L|215:136,1,76
214,133,116236,1,0,0:0:0:0:
206,152,116321,6,0,L|256:168,1,38
358,221,116492,2,0,L|308:237,1,38
196,257,116662,6,0,B|203:285|203:285|207:313,1,38
287,368,116833,2,0,B|288:358|288:358|295:330,1,38
427,253,117003,6,0,L|361:237,1,38
234,164,117174,1,0,0:0:0:0:
260,159,117259,1,0,0:0:0:0:
286,154,117344,6,0,L|294:71,2,66.4999979705811
245,240,117855,1,0,0:0:0:0:
245,240,118026,2,0,L|264:373,1,132.999995941162
116,288,118708,6,0,L|42:302,2,66.4999979705811
208,226,119219,2,0,L|282:240,2,66.4999979705811
118,179,119730,2,0,L|125:52,1,99.7499969558717
128,57,120071,6,0,L|192:73,1,47.5
342,152,120242,1,0,0:0:0:0:
347,170,120327,1,0,0:0:0:0:
352,188,120412,2,0,L|288:204,1,47.5
140,239,120583,6,0,L|155:315,1,47.5
212,106,120753,1,0,0:0:0:0:
229,97,120838,1,0,0:0:0:0:
244,85,120924,6,0,L|260:158,1,47.5
325,333,121094,2,0,L|334:286,1,47.5
414,93,121264,1,0,0:0:0:0:
426,74,121605,6,0,P|457:68|490:59,1,47.5
279,138,121776,2,0,P|206:118|112:104,2,142.5
295,153,122372,1,0,0:0:0:0:
307,173,122458,6,0,L|305:237,1,47.5
157,331,122628,1,0,0:0:0:0:
171,318,122713,1,0,0:0:0:0:
