osu file format v14

[General]
AudioFilename: audio.mp3
AudioLeadIn: 0
PreviewTime: 35539
Countdown: 0
SampleSet: Soft
StackLeniency: 0.7
Mode: 0
LetterboxInBreaks: 0
WidescreenStoryboard: 0

[Editor]
Bookmarks: 1855,10276,18697,35539,43961,52382,60803,77645,86066,94487,102382,103523,121417
DistanceSpacing: 1.5
BeatDivisor: 4
GridSize: 4
TimelineZoom: 3.099999

[Metadata]
Title:Naoborot
TitleUnicode:Наоборот
Artist:Ya rastenie
ArtistUnicode:Я растение
Creator:Vik_Vens
Version:sleep
Source:
Tags:
BeatmapID:1487159
BeatmapSetID:702874

[Difficulty]
HPDrainRate:6
CircleSize:3.5
OverallDifficulty:8.7
ApproachRate:8
SliderMultiplier:1.6
SliderTickRate:1

[Events]
//Background and Video events
0,0,"zdoroviy-son-cheloveka.jpg",0,0
//Break Periods
//Storyboard Layer 0 (Background)
//Storyboard Layer 1 (Fail)
//Storyboard Layer 2 (Pass)
//Storyboard Layer 3 (Foreground)
//Storyboard Sound Samples

[TimingPoints]
1855.75123063209,526.315789473684,4,2,0,12,1,0
2645,-125,4,2,0,12,0,0
3171,-100,4,2,0,12,0,0
4750,-125,4,2,0,12,0,0
5013,-100,4,2,0,12,0,0
6855,-125,4,2,0,12,0,0
7118,-100,4,2,0,12,0,0
8961,-125,4,2,0,12,0,0
9224,-100,4,2,0,12,0,0
10276,-90.9090909090909,4,2,0,12,0,0
35539,-100,4,2,0,12,0,0
56066,-76.9230769230769,4,2,0,12,0,0
56329,-100,4,2,0,12,0,0
60803,-83.3333333333333,4,2,0,12,0,1
77645,-100,4,2,0,12,0,0
92382,-71.4285714285714,4,2,0,12,0,0
94487,-100,4,2,0,12,0,0
98961,-71.4285714285714,4,2,0,12,0,0
99750,-100,4,2,0,12,0,0
103523,526.315789473684,4,2,0,12,1,0
103523,-83.3333333333333,4,2,0,12,0,1
120101,-100,4,2,0,12,0,0

[Colours]
Combo1 : 192,192,192
Combo2 : 255,255,255

[HitObjects]
93,76,1855,5,0,0:0:0:0:
132,189,2118,2,0,L|206:233,1,80
384,50,2645,2,0,P|316:63|308:74,1,64
154,243,3171,1,0,0:0:0:0:
382,249,3434,1,0,0:0:0:0:
158,208,3697,1,0,0:0:0:0:
396,46,3961,5,0,0:0:0:0:
361,160,4224,2,0,L|286:228,1,80
99,56,4750,2,0,P|148:75|158:97,1,64
211,300,5276,1,0,0:0:0:0:
393,200,5539,1,0,0:0:0:0:
194,270,5803,1,0,0:0:0:0:
96,61,6066,5,0,0:0:0:0:
203,114,6329,2,0,L|307:117,1,80
415,332,6855,2,0,P|395:273|375:256,1,64
221,113,7382,1,0,0:0:0:0:
130,315,7645,1,0,0:0:0:0:
249,131,7908,1,0,0:0:0:0:
390,340,8171,5,0,0:0:0:0:
415,93,8434,2,0,P|403:167|381:193,1,80
170,231,8961,2,0,L|259:230,1,64
397,62,9487,1,0,0:0:0:0:
403,313,9750,1,0,0:0:0:0:
359,201,10013,1,0,0:0:0:0:
207,78,10276,5,0,0:0:0:0:
120,177,10539,1,0,0:0:0:0:
218,265,10803,2,0,L|310:269,1,88.000002685547
421,69,11329,1,0,0:0:0:0:
310,271,11592,1,0,0:0:0:0:
320,49,11855,1,0,0:0:0:0:
188,52,12118,1,0,0:0:0:0:
152,318,12382,5,0,0:0:0:0:
240,219,12645,1,0,0:0:0:0:
335,310,12908,2,0,L|436:298,1,88.000002685547
265,88,13434,1,0,0:0:0:0:
428,306,13697,1,0,0:0:0:0:
217,185,13961,1,0,0:0:0:0:
184,312,14224,1,0,0:0:0:0:
387,88,14487,5,0,0:0:0:0:
324,204,14750,1,0,0:0:0:0:
202,152,15013,2,0,L|107:96,1,88.000002685547
207,331,15539,1,0,0:0:0:0:
128,108,15803,1,0,0:0:0:0:
289,286,16066,1,0,0:0:0:0:
407,227,16329,1,0,0:0:0:0:
170,76,16592,6,0,L|115:46,2,44.0000013427735
371,247,17382,2,0,L|434:312,1,88.000002685547
179,99,17908,1,0,0:0:0:0:
409,282,18171,1,0,0:0:0:0:
261,58,18697,5,0,0:0:0:0:
148,177,18961,1,0,0:0:0:0:
365,279,19224,2,0,L|452:320,1,88.000002685547
183,153,19750,5,0,0:0:0:0:
83,66,20013,1,0,0:0:0:0:
86,358,20276,1,0,0:0:0:0:
183,153,20539,1,0,0:0:0:0:
430,73,20803,5,0,0:0:0:0:
411,203,21066,1,0,0:0:0:0:
170,73,21329,2,0,L|81:27,1,88.000002685547
201,339,21855,5,0,0:0:0:0:
354,372,22118,1,0,0:0:0:0:
239,36,22382,5,0,0:0:0:0:
201,339,22645,1,0,0:0:0:0:
66,100,22908,5,0,0:0:0:0:
197,110,23171,1,0,0:0:0:0:
405,237,23434,2,0,L|480:305,1,88.000002685547
348,29,23961,5,0,0:0:0:0:
261,128,24224,1,0,0:0:0:0:
153,51,24487,1,0,0:0:0:0:
261,128,24750,1,0,0:0:0:0:
103,331,25013,5,0,0:0:0:0:
209,253,25276,1,0,0:0:0:0:
340,256,25539,1,0,0:0:0:0:
387,54,25803,1,0,0:0:0:0:
433,177,26066,1,0,0:0:0:0:
247,40,26329,1,0,0:0:0:0:
356,244,26592,2,0,L|389:295,2,44.0000013427735
57,106,27118,5,0,0:0:0:0:
182,63,27382,1,0,0:0:0:0:
141,233,27645,2,0,L|82:314,1,88.000002685547
393,90,28171,1,0,0:0:0:0:
341,211,28434,1,0,0:0:0:0:
151,62,28697,1,0,0:0:0:0:
393,90,28961,5,0,0:0:0:0:
393,90,29092,1,0,0:0:0:0:
393,90,29224,1,0,0:0:0:0:
339,210,29487,1,0,0:0:0:0:
108,86,29750,2,0,L|21:35,1,88.000002685547
141,297,30276,5,0,0:0:0:0:
251,225,30539,1,0,0:0:0:0:
414,373,30803,1,0,0:0:0:0:
141,297,31066,5,0,0:0:0:0:
141,297,31197,1,0,0:0:0:0:
141,297,31329,1,0,0:0:0:0:
195,176,31592,1,0,0:0:0:0:
373,298,31855,2,0,L|453:336,1,88.000002685547
101,154,32382,5,0,0:0:0:0:
195,62,32645,1,0,0:0:0:0:
279,163,32908,1,0,0:0:0:0:
195,62,33171,5,0,0:0:0:0:
169,317,33434,5,0,0:0:0:0:
402,228,33697,1,0,0:0:0:0:
136,195,33961,1,0,0:0:0:0:
297,46,34224,2,0,L|291:165,1,88.000002685547
287,331,34750,1,0,0:0:0:0:
296,91,35013,1,0,0:0:0:0:
63,150,35539,5,0,0:0:0:0:
68,312,35803,1,0,0:0:0:0:
183,150,36066,1,0,0:0:0:0:
417,66,36329,6,0,L|413:175,1,80
341,324,36855,1,0,0:0:0:0:
130,320,37118,1,0,0:0:0:0:
341,324,37382,1,0,0:0:0:0:
108,163,37645,5,0,0:0:0:0:
117,8,37908,1,0,0:0:0:0:
226,173,38171,1,0,0:0:0:0:
461,40,38434,6,0,L|407:91,2,40
419,246,38961,1,0,0:0:0:0:
240,158,39224,1,0,0:0:0:0:
240,158,39750,5,0,0:0:0:0:
106,262,40013,1,0,0:0:0:0:
90,51,40276,2,0,L|64:139,1,80
272,158,40803,5,0,0:0:0:0:
406,262,41066,1,0,0:0:0:0:
422,51,41329,2,0,L|448:139,1,80
259,157,41855,5,0,0:0:0:0:
255,353,42118,1,0,0:0:0:0:
449,234,43961,5,0,0:0:0:0:
444,72,44225,1,0,0:0:0:0:
329,234,44488,1,0,0:0:0:0:
95,81,44750,6,0,L|43:23,2,40
205,300,45276,1,0,0:0:0:0:
332,149,45539,1,0,0:0:0:0:
205,300,45803,1,0,0:0:0:0:
114,54,46066,5,0,0:0:0:0:
225,210,46329,1,0,0:0:0:0:
362,44,46592,1,0,0:0:0:0:
372,237,46855,2,0,L|374:334,1,80
250,94,47382,5,0,0:0:0:0:
104,241,47645,1,0,0:0:0:0:
250,94,47908,1,0,0:0:0:0:
255,333,48171,5,0,0:0:0:0:
314,146,48434,1,0,0:0:0:0:
431,276,48697,2,0,L|509:350,1,80
257,51,49224,5,0,0:0:0:0:
198,238,49487,1,0,0:0:0:0:
81,108,49750,2,0,L|28:59,2,40
267,314,50276,5,0,0:0:0:0:
427,123,50539,1,0,0:0:0:0:
448,328,51066,5,0,0:0:0:0:
257,167,51329,1,0,0:0:0:0:
170,57,52382,5,0,0:0:0:0:
306,215,52645,1,0,0:0:0:0:
105,243,52908,2,0,L|46:273,2,40
299,66,53434,5,0,0:0:0:0:
210,277,53697,1,0,0:0:0:0:
378,202,53961,2,0,L|442:184,2,40
70,298,54487,5,0,0:0:0:0:
179,53,54750,1,0,0:0:0:0:
194,293,55013,1,0,0:0:0:0:
343,234,55276,2,0,L|439:197,1,80
439,50,55803,5,0,0:0:0:0:
88,167,56066,2,0,P|102:234|146:269,1,103.999995239258
371,52,56592,5,0,0:0:0:0:
418,120,56724,1,0,0:0:0:0:
432,202,56855,1,0,0:0:0:0:
431,283,56987,1,0,0:0:0:0:
368,333,57118,1,0,0:0:0:0:
314,269,57250,1,0,0:0:0:0:
256,210,57382,2,0,L|156:208,1,80
233,64,57908,2,0,L|340:66,1,80
111,284,58434,5,0,0:0:0:0:
111,284,58566,1,0,0:0:0:0:
111,284,58697,2,0,L|109:200,1,80
394,77,59487,5,0,0:0:0:0:
394,77,59750,2,0,L|312:125,1,80
104,58,60803,5,0,0:0:0:0:
243,283,61066,1,0,0:0:0:0:
358,59,61329,1,0,0:0:0:0:
484,128,61592,1,0,0:0:0:0:
220,140,61855,2,0,L|114:137,1,95.9999970703126
416,313,62382,5,0,0:0:0:0:
123,137,62645,1,0,0:0:0:0:
353,48,62908,5,0,0:0:0:0:
248,300,63171,1,0,0:0:0:0:
115,53,63434,1,0,0:0:0:0:
27,167,63697,1,0,0:0:0:0:
286,178,63961,2,0,L|397:171,1,95.9999970703126
50,330,64487,5,0,0:0:0:0:
235,61,64750,1,0,0:0:0:0:
388,308,65013,5,0,0:0:0:0:
156,186,65276,1,0,0:0:0:0:
367,50,65539,1,0,0:0:0:0:
367,194,65803,1,0,0:0:0:0:
98,55,66066,2,0,P|158:60|199:88,1,95.9999970703126
314,303,66592,5,0,0:0:0:0:
100,53,66855,1,0,0:0:0:0:
73,194,67118,5,0,0:0:0:0:
73,194,67382,2,0,L|66:297,1,95.9999970703126
385,106,67908,1,0,0:0:0:0:
219,235,68171,1,0,0:0:0:0:
385,106,68434,1,0,0:0:0:0:
156,100,68697,1,0,0:0:0:0:
489,106,68961,1,0,0:0:0:0:
337,331,69224,5,0,0:0:0:0:
217,104,69487,1,0,0:0:0:0:
68,252,69750,2,0,L|59:357,1,95.9999970703126
340,246,70276,5,0,0:0:0:0:
77,102,70539,1,0,0:0:0:0:
332,52,70803,2,0,L|423:137,1,95.9999970703126
215,315,71329,5,0,0:0:0:0:
121,90,71592,1,0,0:0:0:0:
28,315,71855,1,0,0:0:0:0:
131,215,72118,1,0,0:0:0:0:
351,338,72382,1,0,0:0:0:0:
254,89,72645,1,0,0:0:0:0:
158,333,72908,2,0,P|191:270|233:237,1,95.9999970703126
440,129,73434,5,0,0:0:0:0:
214,42,73697,1,0,0:0:0:0:
366,263,73961,1,0,0:0:0:0:
353,119,74224,5,0,0:0:0:0:
118,282,74487,1,0,0:0:0:0:
125,48,74750,1,0,0:0:0:0:
233,141,75013,5,0,0:0:0:0:
125,48,75276,1,0,0:0:0:0:
284,311,75539,5,0,0:0:0:0:
431,186,75803,1,0,0:0:0:0:
217,185,76066,1,0,0:0:0:0:
52,46,76329,2,0,L|46:168,1,95.9999970703126
357,324,76855,1,0,0:0:0:0:
48,98,77118,1,0,0:0:0:0:
334,66,77645,5,0,0:0:0:0:
334,66,77908,1,0,0:0:0:0:
296,179,78171,1,0,0:0:0:0:
110,73,78434,5,0,0:0:0:0:
110,73,78697,2,0,B|131:148|125:189|125:184,1,80
285,297,79224,2,0,L|368:240,1,80
234,67,79750,5,0,0:0:0:0:
147,212,80013,1,0,0:0:0:0:
323,134,80276,1,0,0:0:0:0:
88,284,80539,2,0,L|26:345,1,80
85,281,81855,5,0,0:0:0:0:
85,281,82118,1,0,0:0:0:0:
141,174,82382,1,0,0:0:0:0:
314,304,82645,5,0,0:0:0:0:
314,304,82908,2,0,L|319:189,1,80
260,40,83434,2,0,L|351:91,1,80
49,109,83961,5,0,0:0:0:0:
204,318,84224,1,0,0:0:0:0:
43,258,84750,5,0,0:0:0:0:
259,113,85013,1,0,0:0:0:0:
406,61,86066,6,0,L|397:160,1,80
191,164,86592,2,0,L|159:267,1,80
62,330,87118,6,0,L|71:231,1,80
277,227,87644,2,0,L|309:124,1,80
108,55,88171,5,0,0:0:0:0:
108,55,88434,2,0,L|103:148,1,80
245,313,88961,1,0,0:0:0:0:
245,313,90276,6,0,L|292:217,1,80
394,101,90803,2,0,L|440:54,2,40
42,226,91329,1,0,0:0:0:0:
258,59,91592,2,0,P|206:63|170:100,1,80
42,226,92118,1,0,0:0:0:0:
270,158,92382,5,0,0:0:0:0:
321,92,92513,1,0,0:0:0:0:
399,61,92645,1,0,0:0:0:0:
474,97,92776,1,0,0:0:0:0:
481,180,92908,1,0,0:0:0:0:
452,258,93039,1,0,0:0:0:0:
383,306,93171,1,0,0:0:0:0:
305,271,93303,1,0,0:0:0:0:
221,272,93434,1,0,0:0:0:0:
137,283,93566,1,0,0:0:0:0:
88,214,93697,1,0,0:0:0:0:
119,135,93829,1,0,0:0:0:0:
141,53,93961,1,0,0:0:0:0:
222,32,94092,1,0,0:0:0:0:
298,66,94224,1,0,0:0:0:0:
305,149,94355,1,0,0:0:0:0:
273,227,94487,6,0,L|323:280,2,40
59,90,95013,1,0,0:0:0:0:
118,298,95276,5,0,0:0:0:0:
386,56,95539,1,0,0:0:0:0:
205,199,95803,1,0,0:0:0:0:
34,46,96066,2,0,P|97:59|117:92,1,80
270,289,96592,5,0,0:0:0:0:
270,289,96855,2,0,L|342:224,1,80
291,45,97382,1,0,0:0:0:0:
68,118,97645,1,0,0:0:0:0:
316,172,97908,1,0,0:0:0:0:
122,38,98171,2,0,P|165:89|177:130,1,80
170,338,98697,5,0,0:0:0:0:
374,78,98961,5,0,0:0:0:0:
305,126,99092,1,0,0:0:0:0:
282,207,99224,1,0,0:0:0:0:
310,285,99355,1,0,0:0:0:0:
393,277,99487,1,0,0:0:0:0:
423,199,99618,1,0,0:0:0:0:
457,122,99750,2,0,L|481:39,1,80
226,138,100276,2,0,L|126:177,1,80
410,42,100803,5,0,0:0:0:0:
419,338,101066,1,0,0:0:0:0:
95,170,101592,5,0,0:0:0:0:
76,68,103523,5,0,0:0:0:0:
205,286,103786,1,0,0:0:0:0:
350,67,104049,2,0,L|308:111,4,47.9999985351563
200,284,104838,1,0,0:0:0:0:
21,104,105101,1,0,0:0:0:0:
296,221,105365,1,0,0:0:0:0:
69,333,105628,5,0,0:0:0:0:
225,71,105891,1,0,0:0:0:0:
321,316,106154,1,0,0:0:0:0:
203,232,106417,1,0,0:0:0:0:
321,316,106680,1,0,0:0:0:0:
433,225,106944,1,0,0:0:0:0:
233,343,107207,1,0,0:0:0:0:
207,80,107470,5,0,0:0:0:0:
207,80,107601,1,0,0:0:0:0:
207,80,107733,1,0,0:0:0:0:
345,250,107996,1,0,0:0:0:0:
90,220,108259,1,0,0:0:0:0:
339,131,108523,2,0,L|403:110,2,47.9999985351563
188,312,109049,1,0,0:0:0:0:
134,122,109312,2,0,L|100:28,1,95.9999970703126
372,266,109838,5,0,0:0:0:0:
419,74,110101,1,0,0:0:0:0:
259,200,110365,1,0,0:0:0:0:
121,73,110628,2,0,L|64:26,2,47.9999985351563
277,311,111154,1,0,0:0:0:0:
413,71,111417,1,0,0:0:0:0:
189,222,111680,1,0,0:0:0:0:
212,14,111944,5,0,0:0:0:0:
398,282,112207,1,0,0:0:0:0:
102,290,112470,1,0,0:0:0:0:
283,88,112733,5,0,0:0:0:0:
245,302,112996,1,0,0:0:0:0:
407,218,113259,2,0,P|475:192|506:177,1,95.9999970703126
173,67,113786,5,0,0:0:0:0:
173,67,113917,1,0,0:0:0:0:
173,67,114049,1,0,0:0:0:0:
55,266,114312,1,0,0:0:0:0:
306,173,114575,1,0,0:0:0:0:
43,151,114838,5,0,0:0:0:0:
230,335,115101,1,0,0:0:0:0:
212,80,115365,1,0,0:0:0:0:
377,205,115628,2,0,L|473:280,1,95.9999970703126
115,58,116154,5,0,0:0:0:0:
207,254,116417,1,0,0:0:0:0:
32,129,116680,1,0,0:0:0:0:
285,91,116944,2,0,L|357:68,2,47.9999985351563
42,284,117470,1,0,0:0:0:0:
303,304,117733,1,0,0:0:0:0:
176,89,117996,1,0,0:0:0:0:
415,81,118259,5,0,0:0:0:0:
170,294,118523,1,0,0:0:0:0:
279,59,118786,1,0,0:0:0:0:
341,255,119049,2,0,L|372:324,2,47.9999985351563
187,49,119575,5,0,0:0:0:0:
132,324,119838,5,0,0:0:0:0:
450,225,120101,5,0,0:0:0:0:
