osu file format v14

[General]
AudioFilename: audio.mp3
AudioLeadIn: 0
PreviewTime: 33923
Countdown: 0
SampleSet: None
StackLeniency: 0.2
Mode: 0
LetterboxInBreaks: 0
WidescreenStoryboard: 0

[Editor]
DistanceSpacing: 0.2
BeatDivisor: 4
GridSize: 8
TimelineZoom: 2.5

[Metadata]
Title:._Pulse
TitleUnicode:._Pulse
Artist:YZYX
ArtistUnicode:YZYX
Creator:NOIN
Version:Oscillation
Source:
Tags:
BeatmapID:2154037
BeatmapSetID:1030155

[Difficulty]
HPDrainRate:5
CircleSize:4
OverallDifficulty:9
ApproachRate:10
SliderMultiplier:2.1
SliderTickRate:0.5

[Events]
//Background and Video events
0,0,"pulse.jpg",0,0
//Break Periods
//Storyboard Layer 0 (Background)
//Storyboard Layer 1 (Fail)
//Storyboard Layer 2 (Pass)
//Storyboard Layer 3 (Foreground)
//Storyboard Layer 4 (Overlay)
//Storyboard Sound Samples

[TimingPoints]
195,263.504611330698,4,1,0,80,1,0
195,-133.333333333333,4,1,0,80,0,0
2171,-66.6666666666667,4,1,0,80,0,0
2303,-133.333333333333,4,1,0,80,0,0
3357,-66.6666666666667,4,1,0,80,0,0
3884,-133.333333333333,4,1,0,80,0,0
4411,-50,4,1,0,80,0,0
6914,-400,4,1,0,80,0,0
8100,-200,4,1,0,80,0,0
8627,-100,4,1,0,80,0,0
10735,-133.333333333333,4,1,0,80,0,0
13370,-66.6666666666667,4,1,0,80,0,0
14424,-1000,4,1,0,40,0,0
17059,-90.9090909090909,4,1,0,80,0,0
24437,-57.1428571428571,4,1,0,80,0,0
25491,-66.6666666666667,4,1,0,80,0,1
42355,-80,4,1,0,80,0,0
46571,-66.6666666666667,4,1,0,80,0,0
49733,-200,4,1,0,60,0,0
49931,-200,4,1,0,5,0,0
49997,-200,4,1,0,60,0,0
50524,-500,4,1,0,60,0,0
50722,-500,4,1,0,5,0,0
50787,-200,4,1,0,60,0,0
67652,-66.6666666666667,4,1,0,80,0,0
75030,-57.1428571428571,4,1,0,80,0,0
76084,-66.6666666666667,4,1,0,80,0,0
84516,-80,4,1,0,80,0,0
92948,-133.333333333333,4,1,0,70,0,0
101380,-66.6666666666667,4,1,0,80,0,0
101907,-62.5,4,1,0,80,0,0
102434,-58.8235294117647,4,1,0,80,0,0
103225,-200,4,1,0,80,0,0
103488,-55.5555555555556,4,1,0,80,0,0
104015,-52.6315789473684,4,1,0,80,0,0
105201,-200,4,1,0,80,0,0
105530,-200,4,1,0,5,0,0
105596,-66.6666666666667,4,1,0,80,0,0
106123,-62.5,4,1,0,80,0,0
106650,-58.8235294117647,4,1,0,80,0,0
107177,-55.5555555555556,4,1,0,80,0,0
107704,-52.6315789473684,4,1,0,80,0,0
108231,-50,4,1,0,80,0,0
108758,-33.3333333333333,4,1,0,80,0,1
109549,-66.6666666666667,4,1,0,70,0,0
118245,-100,4,1,0,70,0,0
124569,266.666666666667,4,1,0,70,1,0
124835,279.06976744186,4,1,0,70,1,0
125114,285.714285714286,4,1,0,70,1,0
125399,292.682926829268,4,1,0,70,1,0
125691,300,4,1,0,70,1,0
125991,307.692307692308,4,1,0,70,1,0
126298,315.789473684211,4,1,0,70,1,0
126613,329.67032967033,4,1,0,70,1,0
126942,333.333333333333,4,1,0,70,1,0
126942,-50,4,1,0,70,0,0
127275,-50,4,1,0,90,0,0
127608,-50,4,1,0,40,0,0
127942,-50,4,1,0,20,0,0

[Colours]
Combo1 : 118,134,245
Combo2 : 98,255,98
Combo3 : 255,98,98
Combo4 : 255,255,108

[HitObjects]
212,103,195,5,0,0:0:0:0:
115,61,326,1,0,0:0:0:0:
74,158,458,1,0,0:0:0:0:
193,250,590,1,0,0:0:0:0:
193,250,656,1,0,0:0:0:0:
193,250,722,6,0,P|237:258|276:252,1,78.7500030040742
339,63,985,2,0,P|331:107|337:146,1,78.7500030040742
338,151,1183,1,0,0:0:0:0:
342,162,1249,6,0,P|348:186|344:223,1,39.3750015020371
195,365,1380,2,0,P|212:356|231:351,1,39.3750015020371
398,338,1512,1,0,0:0:0:0:
398,338,1644,1,0,0:0:0:0:
466,213,1776,5,0,0:0:0:0:
115,177,1907,1,0,0:0:0:0:
115,177,2171,6,0,B|131:154|131:154|198:148,1,78.7500030040742
362,139,2303,1,0,0:0:0:0:
362,139,2434,1,0,0:0:0:0:
417,342,2566,5,0,0:0:0:0:
401,320,2632,1,0,0:0:0:0:
381,341,2698,1,0,0:0:0:0:
365,313,2764,1,0,0:0:0:0:
345,340,2830,1,0,0:0:0:0:
329,306,2895,1,0,0:0:0:0:
309,339,2961,1,0,0:0:0:0:
293,299,3027,1,0,0:0:0:0:
273,338,3093,2,0,P|241:331|218:315,1,39.3750015020371
116,231,3225,1,0,0:0:0:0:
141,83,3357,6,0,P|186:62|249:76,1,98.4375037550928
293,299,3521,2,0,P|252:268|232:207,1,98.4375037550928
405,59,3686,2,0,P|399:109|356:156,1,98.4375037550928
141,83,3884,5,0,0:0:0:0:
141,83,3949,1,0,0:0:0:0:
141,83,4015,1,0,0:0:0:0:
141,83,4081,1,0,0:0:0:0:
141,83,4147,2,0,L|158:166,1,78.7500030040742
409,287,4411,5,0,0:0:0:0:
428,207,4476,1,0,0:0:0:0:
448,126,4542,1,0,0:0:0:0:
190,0,4674,1,0,0:0:0:0:
64,258,4806,1,0,0:0:0:0:
322,384,4938,5,0,0:0:0:0:
345,9,5069,1,0,0:0:0:0:
73,102,5201,1,0,0:0:0:0:
166,374,5333,1,0,0:0:0:0:
438,281,5465,6,0,P|455:117|211:51,1,420
0,211,5860,2,0,P|133:307|312:129,1,420
247,31,6255,1,0,0:0:0:0:
247,31,6519,5,0,0:0:0:0:
307,86,6584,1,0,0:0:0:0:
310,169,6650,1,0,0:0:0:0:
52,272,6782,1,0,0:0:0:0:
69,192,6848,1,0,0:0:0:0:
140,148,6914,2,0,P|169:142|195:141,2,52.5
500,360,7573,5,0,0:0:0:0:
381,161,8100,6,0,L|377:186,1,26.25
335,96,8231,2,0,L|309:91,1,26.25
399,50,8363,2,0,L|403:24,1,26.25
446,114,8495,2,0,L|471:117,1,26.25
249,187,8627,6,0,P|174:179|131:154,1,105
107,15,8890,1,0,0:0:0:0:
381,161,9022,2,0,P|389:219|364:278,1,105
127,267,9285,1,0,0:0:0:0:
127,267,9351,1,0,0:0:0:0:
127,267,9417,2,0,P|112:217|120:165,1,105
330,110,9681,5,0,0:0:0:0:
306,352,9812,2,0,P|256:366|204:358,1,105
120,165,10076,1,0,0:0:0:0:
300,12,10208,1,0,0:0:0:0:
442,135,10339,1,0,0:0:0:0:
442,135,10405,1,0,0:0:0:0:
442,135,10471,1,0,0:0:0:0:
263,197,10603,1,0,0:0:0:0:
330,110,10735,5,0,0:0:0:0:
200,43,10866,2,0,P|157:38|119:42,1,78.7500030040742
43,0,11130,2,0,P|38:43|42:81,1,78.7500030040742
0,157,11393,2,0,P|43:162|81:158,1,78.7500030040742
156,200,11657,1,0,0:0:0:0:
200,43,11789,5,0,0:0:0:0:
200,43,11920,1,0,0:0:0:0:
410,67,12052,1,0,0:0:0:0:
184,55,12316,5,0,0:0:0:0:
184,55,12447,1,0,0:0:0:0:
394,79,12579,1,0,0:0:0:0:
168,67,12843,5,0,0:0:0:0:
168,67,12974,1,0,0:0:0:0:
329,205,13106,1,0,0:0:0:0:
329,205,13238,1,0,0:0:0:0:
147,316,13370,6,0,P|98:274|229:270,2,315.000012016297
147,316,14028,1,0,0:0:0:0:
365,316,14160,1,0,0:0:0:0:
365,316,14292,1,0,0:0:0:0:
256,72,14424,6,0,L|256:46,2,26.25
256,72,16005,6,0,L|256:46,2,26.25
44,341,17059,6,0,L|203:329,1,115.50000352478
273,68,17322,1,0,0:0:0:0:
164,104,17454,1,0,0:0:0:0:
318,367,17586,5,0,0:0:0:0:
427,331,17718,1,0,0:0:0:0:
417,216,17849,2,0,L|405:57,1,115.50000352478
94,44,18113,6,0,P|81:105|94:170,1,115.50000352478
315,146,18376,1,0,0:0:0:0:
297,31,18508,1,0,0:0:0:0:
78,247,18640,5,0,0:0:0:0:
96,361,18772,1,0,0:0:0:0:
186,288,18903,2,0,P|199:227|186:162,1,115.50000352478
8,4,19167,6,0,L|167:16,1,115.50000352478
384,36,19430,1,0,0:0:0:0:
384,36,19496,1,0,0:0:0:0:
384,36,19562,1,0,0:0:0:0:
464,256,19694,5,0,0:0:0:0:
434,368,19826,1,0,0:0:0:0:
323,338,19957,1,0,0:0:0:0:
353,227,20089,1,0,0:0:0:0:
353,227,20155,1,0,0:0:0:0:
353,227,20221,6,0,P|292:214|227:227,1,115.50000352478
70,289,20484,1,0,0:0:0:0:
70,127,20616,1,0,0:0:0:0:
70,127,20880,5,0,0:0:0:0:
256,15,21011,1,0,0:0:0:0:
442,127,21143,1,0,0:0:0:0:
442,127,21209,1,0,0:0:0:0:
442,127,21275,6,0,P|455:188|442:253,1,115.50000352478
256,360,21538,1,0,0:0:0:0:
256,360,21604,1,0,0:0:0:0:
256,360,21670,1,0,0:0:0:0:
45,114,21802,5,0,0:0:0:0:
45,229,21934,1,0,0:0:0:0:
145,287,22065,1,0,0:0:0:0:
245,229,22197,1,0,0:0:0:0:
245,229,22263,1,0,0:0:0:0:
245,229,22329,6,0,L|233:70,1,115.50000352478
51,8,22592,1,0,0:0:0:0:
66,122,22724,1,0,0:0:0:0:
346,163,22856,5,0,0:0:0:0:
331,49,22988,1,0,0:0:0:0:
445,34,23119,2,0,L|453:149,1,115.50000352478
512,374,23383,6,0,P|455:381|399:369,1,115.50000352478
242,75,23646,1,0,0:0:0:0:
242,75,23712,1,0,0:0:0:0:
242,75,23778,1,0,0:0:0:0:
314,320,23910,5,0,0:0:0:0:
287,210,24042,1,0,0:0:0:0:
171,200,24173,1,0,0:0:0:0:
128,308,24305,1,0,0:0:0:0:
128,308,24371,1,0,0:0:0:0:
128,308,24437,6,0,P|126:299|132:313,1,91.8750008761883
106,106,24569,2,0,P|114:102|101:114,1,91.8750008761883
291,22,24700,2,0,P|297:29|287:20,1,91.8750008761883
427,173,24832,2,0,P|423:181|427:167,1,91.8750008761883
319,339,24964,5,0,0:0:0:0:
283,253,25030,1,0,0:0:0:0:
289,160,25096,1,0,0:0:0:0:
333,79,25162,1,0,0:0:0:0:
409,25,25227,5,0,0:0:0:0:
352,99,25293,1,0,0:0:0:0:
268,140,25359,1,0,0:0:0:0:
176,142,25425,1,0,0:0:0:0:
92,104,25491,6,0,P|93:150|85:184,3,78.7500030040742
9,342,25754,2,0,P|48:318|81:308,3,78.7500030040742
249,323,26018,5,0,0:0:0:0:
322,352,26084,1,0,0:0:0:0:
400,343,26150,1,0,0:0:0:0:
465,299,26216,1,0,0:0:0:0:
502,222,26281,1,0,0:0:0:0:
491,127,26347,1,0,0:0:0:0:
428,55,26413,1,0,0:0:0:0:
336,30,26479,1,0,0:0:0:0:
253,58,26545,5,0,0:0:0:0:
218,129,26611,1,0,0:0:0:0:
231,206,26677,1,0,0:0:0:0:
300,243,26743,1,0,0:0:0:0:
366,219,26808,1,0,0:0:0:0:
394,162,26874,1,0,0:0:0:0:
376,101,26940,1,0,0:0:0:0:
327,60,27006,1,0,0:0:0:0:
274,43,27072,5,0,0:0:0:0:
226,45,27138,1,0,0:0:0:0:
181,60,27204,1,0,0:0:0:0:
143,88,27270,1,0,0:0:0:0:
119,118,27335,1,0,0:0:0:0:
104,146,27401,1,0,0:0:0:0:
97,176,27467,1,0,0:0:0:0:
97,207,27533,1,0,0:0:0:0:
104,237,27599,6,0,P|123:278|149:302,3,78.7500030040742
356,296,27862,2,0,P|311:303|275:297,3,78.7500030040742
172,190,28126,5,0,0:0:0:0:
180,103,28192,1,0,0:0:0:0:
250,52,28258,1,0,0:0:0:0:
334,71,28324,1,0,0:0:0:0:
377,153,28389,1,0,0:0:0:0:
352,252,28455,1,0,0:0:0:0:
272,316,28521,1,0,0:0:0:0:
169,311,28587,1,0,0:0:0:0:
97,248,28653,5,0,0:0:0:0:
80,162,28719,1,0,0:0:0:0:
113,81,28785,1,0,0:0:0:0:
186,34,28851,1,0,0:0:0:0:
264,34,28917,1,0,0:0:0:0:
325,67,28982,1,0,0:0:0:0:
339,136,29048,1,0,0:0:0:0:
290,188,29114,1,0,0:0:0:0:
227,177,29180,5,0,0:0:0:0:
197,130,29246,1,0,0:0:0:0:
199,74,29312,1,0,0:0:0:0:
231,29,29378,1,0,0:0:0:0:
281,7,29444,6,0,P|333:8|372:34,1,78.7500030040742
425,162,29575,2,0,P|398:206|356:227,1,78.7500030040742
146,200,29707,6,0,P|107:204|68:197,3,78.7500030040742
70,53,29971,2,0,P|93:84|106:121,3,78.7500030040742
120,289,30234,5,0,0:0:0:0:
166,342,30300,1,0,0:0:0:0:
229,373,30366,1,0,0:0:0:0:
299,380,30432,1,0,0:0:0:0:
374,356,30498,1,0,0:0:0:0:
437,298,30563,1,0,0:0:0:0:
468,217,30629,1,0,0:0:0:0:
457,130,30695,1,0,0:0:0:0:
416,62,30761,5,0,0:0:0:0:
356,22,30827,1,0,0:0:0:0:
286,5,30893,1,0,0:0:0:0:
216,17,30959,1,0,0:0:0:0:
162,49,31025,1,0,0:0:0:0:
125,89,31090,1,0,0:0:0:0:
103,139,31156,1,0,0:0:0:0:
105,194,31222,1,0,0:0:0:0:
129,234,31288,5,0,0:0:0:0:
161,256,31354,1,0,0:0:0:0:
198,266,31420,1,0,0:0:0:0:
237,262,31486,1,0,0:0:0:0:
266,250,31552,1,0,0:0:0:0:
284,235,31617,1,0,0:0:0:0:
299,216,31683,1,0,0:0:0:0:
309,194,31749,1,0,0:0:0:0:
315,171,31815,6,0,P|313:131|299:95,3,78.7500030040742
415,2,32079,2,0,P|400:38|399:77,3,78.7500030040742
417,218,32342,5,0,0:0:0:0:
406,296,32408,1,0,0:0:0:0:
355,356,32474,1,0,0:0:0:0:
279,378,32540,1,0,0:0:0:0:
196,351,32606,1,0,0:0:0:0:
144,272,32671,1,0,0:0:0:0:
153,177,32737,1,0,0:0:0:0:
221,111,32803,1,0,0:0:0:0:
307,120,32869,5,0,0:0:0:0:
348,187,32935,1,0,0:0:0:0:
326,262,33001,1,0,0:0:0:0:
255,297,33067,1,0,0:0:0:0:
185,283,33133,1,0,0:0:0:0:
139,240,33198,1,0,0:0:0:0:
115,181,33264,1,0,0:0:0:0:
119,118,33330,1,0,0:0:0:0:
155,66,33396,6,0,P|201:40|285:50,1,78.7500030040742
382,91,33528,2,0,P|408:137|398:221,1,78.7500030040742
357,318,33660,2,0,P|311:344|227:334,1,78.7500030040742
130,293,33791,2,0,P|104:247|114:163,1,78.7500030040742
287,99,33923,6,0,P|305:64|314:26,3,78.7500030040742
167,44,34187,2,0,P|127:45|90:57,3,78.7500030040742
96,198,34450,5,0,0:0:0:0:
117,281,34516,1,0,0:0:0:0:
174,345,34582,1,0,0:0:0:0:
254,376,34648,1,0,0:0:0:0:
348,364,34714,1,0,0:0:0:0:
429,303,34779,1,0,0:0:0:0:
463,206,34845,1,0,0:0:0:0:
421,112,34911,1,0,0:0:0:0:
327,97,34977,5,0,0:0:0:0:
264,157,35043,1,0,0:0:0:0:
269,243,35109,1,0,0:0:0:0:
338,295,35175,1,0,0:0:0:0:
416,284,35241,1,0,0:0:0:0:
459,229,35306,1,0,0:0:0:0:
457,158,35372,1,0,0:0:0:0:
409,104,35438,1,0,0:0:0:0:
346,93,35504,5,0,0:0:0:0:
293,110,35570,1,0,0:0:0:0:
258,153,35636,1,0,0:0:0:0:
241,205,35702,1,0,0:0:0:0:
243,252,35768,1,0,0:0:0:0:
256,288,35833,1,0,0:0:0:0:
278,320,35899,1,0,0:0:0:0:
308,344,35965,1,0,0:0:0:0:
345,356,36031,6,0,P|396:362|457:345,3,78.7500030040742
457,158,36295,2,0,P|441:193|416:224,3,78.7500030040742
279,319,36558,5,0,0:0:0:0:
189,350,36624,1,0,0:0:0:0:
96,331,36690,1,0,0:0:0:0:
26,266,36756,1,0,0:0:0:0:
0,166,36822,1,0,0:0:0:0:
39,63,36888,1,0,0:0:0:0:
130,3,36953,1,0,0:0:0:0:
240,8,37019,1,0,0:0:0:0:
320,71,37085,5,0,0:0:0:0:
352,159,37151,1,0,0:0:0:0:
327,250,37217,1,0,0:0:0:0:
243,295,37283,1,0,0:0:0:0:
159,271,37349,1,0,0:0:0:0:
114,205,37415,1,0,0:0:0:0:
117,127,37480,1,0,0:0:0:0:
169,68,37546,1,0,0:0:0:0:
245,48,37612,6,0,P|290:51|329:70,1,78.7500030040742
400,181,37744,2,0,P|397:226|378:265,1,78.7500030040742
267,336,37876,2,0,P|222:333|183:314,1,78.7500030040742
112,203,38008,2,0,P|115:158|134:119,1,78.7500030040742
402,24,38139,6,0,P|403:69|388:109,3,78.7500030040742
350,255,38403,2,0,P|341:210|317:174,3,78.7500030040742
194,57,38666,5,0,0:0:0:0:
117,74,38732,1,0,0:0:0:0:
59,127,38798,1,0,0:0:0:0:
36,202,38864,1,0,0:0:0:0:
59,285,38930,1,0,0:0:0:0:
132,344,38996,1,0,0:0:0:0:
225,348,39061,1,0,0:0:0:0:
301,291,39127,1,0,0:0:0:0:
307,204,39193,5,0,0:0:0:0:
253,145,39259,1,0,0:0:0:0:
174,141,39325,1,0,0:0:0:0:
114,192,39391,1,0,0:0:0:0:
103,262,39457,1,0,0:0:0:0:
133,317,39523,1,0,0:0:0:0:
183,353,39588,1,0,0:0:0:0:
244,366,39654,1,0,0:0:0:0:
298,356,39720,5,0,0:0:0:0:
339,332,39786,1,0,0:0:0:0:
370,296,39852,1,0,0:0:0:0:
388,252,39918,1,0,0:0:0:0:
393,212,39984,1,0,0:0:0:0:
387,180,40050,1,0,0:0:0:0:
375,151,40115,1,0,0:0:0:0:
357,124,40181,1,0,0:0:0:0:
334,102,40247,6,0,P|292:81|249:78,3,78.7500030040742
172,217,40511,2,0,P|208:187|249:174,3,78.7500030040742
388,174,40774,5,0,0:0:0:0:
403,259,40840,1,0,0:0:0:0:
368,338,40906,1,0,0:0:0:0:
294,384,40972,1,0,0:0:0:0:
199,378,41038,1,0,0:0:0:0:
123,308,41104,1,0,0:0:0:0:
111,207,41169,1,0,0:0:0:0:
167,121,41235,1,0,0:0:0:0:
260,107,41301,5,0,0:0:0:0:
315,174,41367,1,0,0:0:0:0:
290,257,41433,1,0,0:0:0:0:
206,281,41499,1,0,0:0:0:0:
143,233,41565,1,0,0:0:0:0:
122,165,41631,1,0,0:0:0:0:
141,97,41696,1,0,0:0:0:0:
191,46,41762,1,0,0:0:0:0:
251,27,41828,5,0,0:0:0:0:
305,37,41894,1,0,0:0:0:0:
350,67,41960,1,0,0:0:0:0:
380,112,42026,1,0,0:0:0:0:
386,166,42092,6,0,P|377:212|337:261,1,78.7500030040742
193,291,42223,2,0,P|157:260|135:201,1,78.7500030040742
251,27,42355,5,0,0:0:0:0:
251,27,42619,2,0,L|407:40,1,131.25
474,265,42882,5,0,0:0:0:0:
388,256,42948,1,0,0:0:0:0:
302,247,43014,1,0,0:0:0:0:
289,77,43146,1,0,0:0:0:0:
289,77,43278,1,0,0:0:0:0:
258,352,43409,5,0,0:0:0:0:
61,330,43541,1,0,0:0:0:0:
0,123,43673,1,0,0:0:0:0:
197,145,43805,1,0,0:0:0:0:
400,172,43936,6,0,P|408:136|406:100,1,65.625
449,28,44068,2,0,P|413:20|377:22,1,65.625
251,46,44200,1,0,0:0:0:0:
296,232,44332,1,0,0:0:0:0:
484,101,44463,6,0,P|501:163|494:228,1,131.25
487,247,44661,1,0,0:0:0:0:
479,264,44727,1,0,0:0:0:0:
267,328,44859,1,0,0:0:0:0:
103,171,44990,6,0,P|135:165|167:167,1,65.625
418,365,45122,1,0,0:0:0:0:
165,342,45254,1,0,0:0:0:0:
165,342,45386,1,0,0:0:0:0:
242,138,45517,5,0,0:0:0:0:
328,147,45583,1,0,0:0:0:0:
414,156,45649,1,0,0:0:0:0:
313,349,45781,1,0,0:0:0:0:
313,349,45913,1,0,0:0:0:0:
163,211,46044,5,0,0:0:0:0:
149,126,46110,1,0,0:0:0:0:
183,47,46176,1,0,0:0:0:0:
333,194,46308,1,0,0:0:0:0:
303,272,46373,1,0,0:0:0:0:
232,317,46439,1,0,0:0:0:0:
149,309,46505,1,0,0:0:0:0:
87,252,46571,6,0,P|81:207|97:138,1,78.7500030040742
314,228,46703,2,0,P|269:234|200:218,1,78.7500030040742
212,3,46835,6,0,P|257:-3|326:13,1,78.7500030040742
236,230,46967,2,0,P|230:185|246:116,1,78.7500030040742
460,128,47098,6,0,P|466:173|450:242,1,78.7500030040742
233,152,47230,2,0,P|278:146|347:162,1,78.7500030040742
335,377,47362,6,0,P|290:383|221:367,1,78.7500030040742
311,150,47494,2,0,P|317:195|301:264,1,78.7500030040742
92,123,47625,6,0,P|55:164|39:220,2,105.000004005432
264,30,47889,2,0,P|213:7|154:10,2,105.000004005432
407,163,48152,2,0,P|412:107|392:53,2,105.000004005432
323,341,48416,2,0,P|377:329|423:293,2,105.000004005432
129,317,48679,5,0,0:0:0:0:
162,245,48745,1,0,0:0:0:0:
196,173,48811,1,0,0:0:0:0:
230,101,48877,1,0,0:0:0:0:
264,30,48943,5,0,0:0:0:0:
280,107,49009,1,0,0:0:0:0:
294,185,49075,1,0,0:0:0:0:
309,263,49140,1,0,0:0:0:0:
323,341,49206,5,0,0:0:0:0:
266,287,49272,1,0,0:0:0:0:
208,233,49338,1,0,0:0:0:0:
149,178,49404,1,0,0:0:0:0:
92,123,49470,5,0,0:0:0:0:
170,132,49536,1,0,0:0:0:0:
249,143,49602,1,0,0:0:0:0:
328,152,49667,1,0,0:0:0:0:
407,163,49733,6,0,L|394:245,1,78.75
375,323,49997,6,0,L|327:329,1,26.25
316,247,50129,2,0,L|268:241,1,26.25
254,338,50260,2,0,L|206:344,1,26.25
202,230,50392,2,0,L|154:224,1,26.25
80,211,50524,6,0,L|77:179,1,31.5
75,162,50787,5,0,0:0:0:0:
75,162,50919,1,0,0:0:0:0:
75,162,51051,1,0,0:0:0:0:
75,162,51183,1,0,0:0:0:0:
75,162,51314,5,0,0:0:0:0:
75,162,51446,1,0,0:0:0:0:
75,162,51578,1,0,0:0:0:0:
75,162,51710,1,0,0:0:0:0:
75,162,51841,5,0,0:0:0:0:
75,162,51973,1,0,0:0:0:0:
75,162,52105,1,0,0:0:0:0:
75,162,52237,1,0,0:0:0:0:
153,155,52303,1,0,0:0:0:0:
230,148,52368,5,0,0:0:0:0:
230,148,52500,2,0,L|228:126,2,13.125
227,116,52632,1,0,0:0:0:0:
227,116,52764,1,0,0:0:0:0:
382,194,52895,5,0,0:0:0:0:
382,194,53027,1,0,0:0:0:0:
382,194,53159,1,0,0:0:0:0:
382,194,53291,1,0,0:0:0:0:
382,194,53422,5,0,0:0:0:0:
382,194,53554,1,0,0:0:0:0:
382,194,53686,1,0,0:0:0:0:
382,194,53818,1,0,0:0:0:0:
382,194,53949,5,0,0:0:0:0:
382,194,54081,1,0,0:0:0:0:
382,194,54213,1,0,0:0:0:0:
382,194,54345,1,0,0:0:0:0:
304,187,54411,1,0,0:0:0:0:
227,180,54476,5,0,0:0:0:0:
227,180,54608,2,0,L|229:158,2,13.125
230,148,54740,1,0,0:0:0:0:
230,148,54872,1,0,0:0:0:0:
45,247,55003,5,0,0:0:0:0:
45,247,55135,1,0,0:0:0:0:
214,260,55267,1,0,0:0:0:0:
214,260,55399,1,0,0:0:0:0:
214,260,55530,5,0,0:0:0:0:
45,247,55662,1,0,0:0:0:0:
214,260,55794,1,0,0:0:0:0:
214,260,55926,1,0,0:0:0:0:
45,247,56057,5,0,0:0:0:0:
45,247,56189,1,0,0:0:0:0:
214,260,56321,1,0,0:0:0:0:
214,260,56453,1,0,0:0:0:0:
221,182,56519,1,0,0:0:0:0:
228,105,56584,5,0,0:0:0:0:
59,92,56716,1,0,0:0:0:0:
228,105,56848,1,0,0:0:0:0:
228,105,56980,2,0,L|250:107,2,13.125
265,107,57111,5,0,0:0:0:0:
265,107,57243,1,0,0:0:0:0:
434,94,57375,1,0,0:0:0:0:
434,94,57507,1,0,0:0:0:0:
434,94,57639,5,0,0:0:0:0:
265,107,57770,1,0,0:0:0:0:
434,94,57902,1,0,0:0:0:0:
434,94,58034,1,0,0:0:0:0:
265,107,58166,5,0,0:0:0:0:
265,107,58297,1,0,0:0:0:0:
434,94,58429,1,0,0:0:0:0:
434,94,58561,1,0,0:0:0:0:
441,172,58627,1,0,0:0:0:0:
448,249,58693,5,0,0:0:0:0:
279,262,58824,1,0,0:0:0:0:
448,249,58956,1,0,0:0:0:0:
448,249,59088,2,0,L|470:247,2,13.125
428,250,59220,5,0,0:0:0:0:
350,257,59351,1,0,0:0:0:0:
414,95,59483,1,0,0:0:0:0:
336,102,59615,1,0,0:0:0:0:
258,109,59747,5,0,0:0:0:0:
272,264,59878,1,0,0:0:0:0:
180,116,60010,1,0,0:0:0:0:
102,123,60142,1,0,0:0:0:0:
116,279,60274,5,0,0:0:0:0:
194,272,60405,1,0,0:0:0:0:
102,123,60537,1,0,0:0:0:0:
180,117,60669,1,0,0:0:0:0:
180,116,60735,1,0,0:0:0:0:
180,116,60801,5,0,0:0:0:0:
272,265,60932,1,0,0:0:0:0:
258,110,61064,1,0,0:0:0:0:
336,104,61196,2,0,L|334:82,2,13.125
333,58,61328,5,0,0:0:0:0:
340,136,61459,1,0,0:0:0:0:
178,72,61591,1,0,0:0:0:0:
185,150,61723,1,0,0:0:0:0:
192,228,61855,5,0,0:0:0:0:
347,214,61986,1,0,0:0:0:0:
199,306,62118,1,0,0:0:0:0:
206,384,62250,1,0,0:0:0:0:
362,370,62382,5,0,0:0:0:0:
355,292,62513,1,0,0:0:0:0:
206,384,62645,1,0,0:0:0:0:
200,306,62777,1,0,0:0:0:0:
199,306,62843,1,0,0:0:0:0:
199,306,62909,5,0,0:0:0:0:
348,214,63040,1,0,0:0:0:0:
193,228,63172,1,0,0:0:0:0:
187,150,63304,2,0,L|185:128,2,13.125
185,123,63436,5,0,0:0:0:0:
263,130,63568,1,0,0:0:0:0:
327,293,63700,1,0,0:0:0:0:
249,286,63831,1,0,0:0:0:0:
171,279,63963,5,0,0:0:0:0:
341,137,64094,1,0,0:0:0:0:
178,201,64226,1,0,0:0:0:0:
185,123,64358,1,0,0:0:0:0:
334,215,64490,5,0,0:0:0:0:
327,293,64621,1,0,0:0:0:0:
263,130,64753,1,0,0:0:0:0:
341,137,64885,1,0,0:0:0:0:
341,137,64951,1,0,0:0:0:0:
341,137,65017,5,0,0:0:0:0:
249,286,65148,1,0,0:0:0:0:
171,279,65280,1,0,0:0:0:0:
178,201,65412,2,0,L|180:179,2,13.125
180,177,65544,5,0,0:0:0:0:
173,99,65676,1,0,0:0:0:0:
10,35,65808,1,0,0:0:0:0:
17,113,65939,1,0,0:0:0:0:
24,191,66071,5,0,0:0:0:0:
166,21,66202,1,0,0:0:0:0:
102,184,66334,1,0,0:0:0:0:
180,177,66466,1,0,0:0:0:0:
88,28,66598,5,0,0:0:0:0:
10,35,66729,1,0,0:0:0:0:
173,99,66861,1,0,0:0:0:0:
166,21,66993,1,0,0:0:0:0:
166,21,67059,1,0,0:0:0:0:
166,21,67125,6,0,L|144:23,4,13.125
84,262,67652,5,0,0:0:0:0:
84,262,67718,1,0,0:0:0:0:
84,262,67783,2,0,P|134:257|179:264,1,78.7500030040742
326,364,67915,5,0,0:0:0:0:
326,364,67981,1,0,0:0:0:0:
326,364,68047,2,0,P|321:314|328:269,1,78.7500030040742
428,122,68179,5,0,0:0:0:0:
428,122,68245,1,0,0:0:0:0:
428,122,68310,2,0,P|378:127|333:120,1,78.7500030040742
186,20,68442,5,0,0:0:0:0:
186,20,68508,1,0,0:0:0:0:
186,20,68574,2,0,P|191:70|184:115,1,78.7500030040742
183,363,68706,5,0,0:0:0:0:
183,363,68772,1,0,0:0:0:0:
183,363,68837,2,0,P|215:324|252:297,1,78.7500030040742
427,264,68969,5,0,0:0:0:0:
427,264,69035,1,0,0:0:0:0:
427,264,69101,2,0,P|388:232|361:195,1,78.7500030040742
328,20,69233,5,0,0:0:0:0:
328,20,69299,1,0,0:0:0:0:
328,20,69364,2,0,P|296:59|259:86,1,78.7500030040742
84,119,69496,5,0,0:0:0:0:
84,119,69562,1,0,0:0:0:0:
84,119,69628,2,0,P|123:151|150:188,1,78.7500030040742
388,350,69760,5,0,0:0:0:0:
388,350,69826,1,0,0:0:0:0:
388,350,69891,2,0,P|393:300|386:255,1,78.7500030040742
122,271,70023,5,0,0:0:0:0:
122,271,70089,1,0,0:0:0:0:
122,271,70155,2,0,P|118:310|123:349,1,78.7500030040742
389,112,70287,5,0,0:0:0:0:
389,112,70353,1,0,0:0:0:0:
389,112,70418,2,0,P|394:62|387:17,1,78.7500030040742
123,33,70550,5,0,0:0:0:0:
123,33,70616,1,0,0:0:0:0:
123,33,70682,2,0,P|119:72|124:111,1,78.7500030040742
336,325,70814,5,0,0:0:0:0:
336,325,70880,1,0,0:0:0:0:
336,325,70945,2,0,P|386:330|431:323,1,78.7500030040742
415,59,71077,5,0,0:0:0:0:
415,59,71143,1,0,0:0:0:0:
415,59,71209,2,0,P|375:55|336:60,1,78.7500030040742
98,324,71341,5,0,0:0:0:0:
98,324,71407,1,0,0:0:0:0:
98,324,71472,2,0,P|148:329|193:322,1,78.7500030040742
177,58,71604,6,0,P|137:54|98:59,1,78.7500030040742
252,364,71736,2,0,P|255:324|250:285,1,78.7500030040742
21,153,71868,5,0,0:0:0:0:
21,153,71934,1,0,0:0:0:0:
21,153,72000,2,0,P|17:192|22:231,1,78.7500030040742
252,364,72131,5,0,0:0:0:0:
252,364,72197,1,0,0:0:0:0:
252,364,72263,2,0,P|255:324|250:285,1,78.7500030040742
145,72,72395,5,0,0:0:0:0:
145,72,72461,1,0,0:0:0:0:
145,72,72527,2,0,P|141:111|146:150,1,78.7500030040742
376,283,72658,5,0,0:0:0:0:
376,283,72724,1,0,0:0:0:0:
376,283,72790,2,0,P|379:243|374:204,1,78.7500030040742
301,9,72922,5,0,0:0:0:0:
301,9,72988,1,0,0:0:0:0:
301,9,73054,2,0,P|340:5|379:10,1,78.7500030040742
512,240,73185,5,0,0:0:0:0:
512,240,73251,1,0,0:0:0:0:
512,240,73317,2,0,P|472:243|433:238,1,78.7500030040742
223,142,73449,5,0,0:0:0:0:
223,142,73515,1,0,0:0:0:0:
223,142,73581,2,0,P|262:138|301:143,1,78.7500030040742
434,373,73712,5,0,0:0:0:0:
434,373,73778,1,0,0:0:0:0:
434,373,73844,2,0,P|394:376|355:371,1,78.7500030040742
155,348,73976,5,0,0:0:0:0:
155,348,74042,1,0,0:0:0:0:
155,348,74108,2,0,P|151:308|156:269,1,78.7500030040742
357,36,74239,5,0,0:0:0:0:
357,36,74305,1,0,0:0:0:0:
357,36,74371,2,0,P|360:75|355:114,1,78.7500030040742
357,348,74503,5,0,0:0:0:0:
357,348,74569,1,0,0:0:0:0:
357,348,74635,2,0,P|360:308|355:269,1,78.7500030040742
155,36,74766,5,0,0:0:0:0:
155,36,74832,1,0,0:0:0:0:
155,36,74898,2,0,P|151:75|156:114,1,78.7500030040742
382,106,75030,6,0,P|449:106|509:122,3,91.8750008761883
129,277,75293,6,0,P|62:277|2:261,3,91.8750008761883
429,235,75557,6,0,P|429:301|413:362,3,91.8750008761883
82,148,75820,6,0,P|82:82|98:21,3,91.8750008761883
395,63,76084,5,0,0:0:0:0:
395,63,76150,1,0,0:0:0:0:
395,63,76216,2,0,P|356:59|317:64,1,78.7500030040742
127,53,76347,5,0,0:0:0:0:
127,53,76413,1,0,0:0:0:0:
127,53,76479,2,0,P|123:92|128:131,1,78.7500030040742
117,321,76611,5,0,0:0:0:0:
117,321,76677,1,0,0:0:0:0:
117,321,76743,2,0,P|156:325|195:320,1,78.7500030040742
385,331,76874,5,0,0:0:0:0:
385,331,76940,1,0,0:0:0:0:
385,331,77006,2,0,P|389:292|384:253,1,78.7500030040742
263,2,77138,5,0,0:0:0:0:
263,2,77204,1,0,0:0:0:0:
263,2,77270,2,0,P|232:27|208:58,1,78.7500030040742
66,184,77401,5,0,0:0:0:0:
66,184,77467,1,0,0:0:0:0:
66,184,77533,2,0,P|91:215|122:239,1,78.7500030040742
248,381,77665,5,0,0:0:0:0:
248,381,77731,1,0,0:0:0:0:
248,381,77797,2,0,P|279:356|303:325,1,78.7500030040742
445,199,77928,6,0,P|420:168|389:144,1,78.7500030040742
263,2,78060,2,0,P|232:27|208:58,1,78.7500030040742
100,293,78192,5,0,0:0:0:0:
100,293,78258,1,0,0:0:0:0:
100,293,78324,2,0,P|140:297|179:292,1,78.7500030040742
412,91,78455,5,0,0:0:0:0:
412,91,78521,1,0,0:0:0:0:
412,91,78587,2,0,P|373:88|334:93,1,78.7500030040742
100,91,78719,5,0,0:0:0:0:
100,91,78785,1,0,0:0:0:0:
100,91,78851,2,0,P|140:88|179:93,1,78.7500030040742
412,293,78982,5,0,0:0:0:0:
412,293,79048,1,0,0:0:0:0:
412,293,79114,2,0,P|373:297|334:292,1,78.7500030040742
280,37,79246,5,0,0:0:0:0:
280,37,79312,1,0,0:0:0:0:
280,37,79378,1,0,0:0:0:0:
280,37,79444,1,0,0:0:0:0:
280,37,79509,2,0,P|283:77|278:116,1,78.7500030040742
109,248,79641,5,0,0:0:0:0:
109,248,79707,1,0,0:0:0:0:
109,248,79773,1,0,0:0:0:0:
109,248,79839,1,0,0:0:0:0:
109,248,79905,2,0,P|142:226|179:210,1,78.7500030040742
378,290,80036,5,0,0:0:0:0:
378,290,80102,1,0,0:0:0:0:
378,290,80168,2,0,P|342:272|310:249,1,78.7500030040742
412,68,80300,5,0,0:0:0:0:
412,68,80366,1,0,0:0:0:0:
412,68,80432,2,0,P|415:108|410:147,1,78.7500030040742
100,316,80563,6,0,P|97:276|102:237,1,78.7500030040742
410,237,80695,2,0,P|415:276|412:316,1,78.7500030040742
101,146,80827,5,0,0:0:0:0:
101,146,80893,1,0,0:0:0:0:
101,146,80959,2,0,P|96:107|100:68,1,78.7500030040742
412,68,81090,5,0,0:0:0:0:
412,68,81156,1,0,0:0:0:0:
412,68,81222,2,0,P|415:108|410:147,1,78.7500030040742
178,317,81354,5,0,0:0:0:0:
178,317,81420,1,0,0:0:0:0:
178,317,81485,2,0,P|138:320|99:315,1,78.7500030040742
100,67,81617,5,0,0:0:0:0:
100,67,81683,1,0,0:0:0:0:
100,67,81748,2,0,P|139:63|178:68,1,78.7500030040742
412,317,81881,5,0,0:0:0:0:
412,317,81947,1,0,0:0:0:0:
412,317,82012,2,0,P|372:320|333:315,1,78.7500030040742
334,67,82144,6,0,P|373:63|412:68,1,78.7500030040742
260,364,82276,2,0,P|257:324|262:285,1,78.7500030040742
378,155,82408,5,0,0:0:0:0:
378,155,82474,1,0,0:0:0:0:
378,155,82540,2,0,P|383:194|379:233,1,78.7500030040742
64,83,82671,5,0,0:0:0:0:
64,83,82737,1,0,0:0:0:0:
64,83,82803,2,0,P|59:44|63:5,1,78.7500030040742
448,4,82935,5,0,0:0:0:0:
448,4,83001,1,0,0:0:0:0:
448,4,83067,2,0,P|452:44|448:83,1,78.7500030040742
134,229,83198,5,0,0:0:0:0:
134,229,83264,1,0,0:0:0:0:
134,229,83330,2,0,P|129:190|133:151,1,78.7500030040742
407,264,83462,5,0,0:0:0:0:
407,264,83528,1,0,0:0:0:0:
407,264,83594,1,0,0:0:0:0:
407,264,83660,1,0,0:0:0:0:
407,264,83725,2,0,P|367:267|328:262,1,78.7500030040742
255,0,83857,6,0,P|260:39|256:78,1,78.7500030040742
234,292,83989,5,0,0:0:0:0:
181,346,84054,1,0,0:0:0:0:
107,361,84120,1,0,0:0:0:0:
39,330,84186,1,0,0:0:0:0:
0,265,84252,1,0,0:0:0:0:
7,190,84318,1,0,0:0:0:0:
55,132,84384,1,0,0:0:0:0:
129,114,84450,1,0,0:0:0:0:
199,142,84516,5,0,0:0:0:0:
199,142,84779,2,0,P|261:159|326:152,1,131.25
441,0,85043,5,0,0:0:0:0:
427,85,85109,1,0,0:0:0:0:
461,164,85175,1,0,0:0:0:0:
275,24,85306,1,0,0:0:0:0:
275,24,85438,1,0,0:0:0:0:
88,23,85570,5,0,0:0:0:0:
35,195,85702,1,0,0:0:0:0:
282,266,85833,1,0,0:0:0:0:
159,135,85965,1,0,0:0:0:0:
38,302,86097,6,0,P|74:310|110:308,1,65.625
182,351,86229,2,0,P|190:315|188:279,1,65.625
160,152,86361,1,0,0:0:0:0:
306,51,86492,1,0,0:0:0:0:
450,162,86624,6,0,L|437:318,1,131.25
437,306,86822,1,0,0:0:0:0:
436,319,86888,1,0,0:0:0:0:
234,213,87019,1,0,0:0:0:0:
330,50,87151,6,0,P|338:86|336:122,1,65.625
251,348,87283,1,0,0:0:0:0:
160,133,87415,1,0,0:0:0:0:
160,133,87546,1,0,0:0:0:0:
24,307,87678,5,0,0:0:0:0:
109,321,87744,1,0,0:0:0:0:
188,287,87810,1,0,0:0:0:0:
250,75,87942,1,0,0:0:0:0:
250,75,88073,1,0,0:0:0:0:
74,50,88205,5,0,0:0:0:0:
83,136,88271,1,0,0:0:0:0:
92,222,88337,1,0,0:0:0:0:
355,325,88469,1,0,0:0:0:0:
346,239,88535,1,0,0:0:0:0:
337,153,88601,1,0,0:0:0:0:
251,162,88666,1,0,0:0:0:0:
165,171,88732,5,0,0:0:0:0:
165,171,88996,2,0,L|178:327,1,131.25
487,182,89259,6,0,P|451:190|415:188,1,65.625
189,42,89391,1,0,0:0:0:0:
261,243,89523,1,0,0:0:0:0:
261,243,89654,1,0,0:0:0:0:
299,55,89786,5,0,0:0:0:0:
86,102,89918,1,0,0:0:0:0:
257,349,90050,1,0,0:0:0:0:
210,136,90182,1,0,0:0:0:0:
426,118,90313,6,0,P|434:154|432:190,1,65.625
475,262,90445,2,0,P|439:270|403:268,1,65.625
276,240,90577,1,0,0:0:0:0:
284,42,90708,1,0,0:0:0:0:
82,0,90840,6,0,P|65:62|72:127,1,131.25
79,146,91038,1,0,0:0:0:0:
87,163,91104,1,0,0:0:0:0:
276,240,91235,1,0,0:0:0:0:
370,33,91367,5,0,0:0:0:0:
284,42,91433,1,0,0:0:0:0:
198,51,91499,1,0,0:0:0:0:
158,279,91631,1,0,0:0:0:0:
158,279,91762,1,0,0:0:0:0:
347,128,91894,5,0,0:0:0:0:
400,300,92026,1,0,0:0:0:0:
153,371,92157,1,0,0:0:0:0:
276,240,92289,1,0,0:0:0:0:
167,70,92421,5,0,0:0:0:0:
55,223,92553,1,0,0:0:0:0:
167,377,92685,1,0,0:0:0:0:
347,319,92816,1,0,0:0:0:0:
347,128,92948,6,0,L|424:142,1,78.7500030040742
439,146,93212,1,0,0:0:0:0:
358,237,93343,2,0,L|280:222,1,78.7500030040742
266,219,93607,1,0,0:0:0:0:
199,313,93739,2,0,L|277:328,1,78.7500030040742
470,331,94002,6,0,L|455:253,1,78.7500030040742
452,239,94266,1,0,0:0:0:0:
433,139,94397,2,0,L|355:153,1,78.7500030040742
341,157,94661,1,0,0:0:0:0:
241,176,94793,2,0,L|255:253,1,78.7500030040742
135,335,95056,6,0,L|57:320,1,78.7500030040742
43,317,95320,1,0,0:0:0:0:
214,249,95451,2,0,L|136:234,1,78.7500030040742
122,231,95715,1,0,0:0:0:0:
293,163,95847,2,0,L|215:148,1,78.7500030040742
7,53,96110,6,0,L|21:130,1,78.7500030040742
25,145,96374,1,0,0:0:0:0:
44,245,96505,1,0,0:0:0:0:
144,226,96637,5,0,0:0:0:0:
141,217,96702,1,0,0:0:0:0:
139,207,96768,1,0,0:0:0:0:
137,198,96834,1,0,0:0:0:0:
134,188,96900,1,0,0:0:0:0:
132,179,96966,1,0,0:0:0:0:
130,169,97032,1,0,0:0:0:0:
127,159,97098,1,0,0:0:0:0:
124,149,97164,6,0,L|201:134,1,78.7500030040742
216,131,97428,1,0,0:0:0:0:
316,112,97559,2,0,L|330:189,1,78.7500030040742
334,204,97823,1,0,0:0:0:0:
353,304,97955,2,0,L|430:289,1,78.7500030040742
226,245,98218,6,0,L|211:322,1,78.7500030040742
208,337,98482,1,0,0:0:0:0:
140,166,98613,2,0,L|125:243,1,78.7500030040742
122,258,98877,1,0,0:0:0:0:
54,87,99009,2,0,L|39:164,1,78.7500030040742
4,358,99272,6,0,L|81:343,1,78.7500030040742
96,340,99536,1,0,0:0:0:0:
196,321,99667,2,0,L|273:306,1,78.7500030040742
288,303,99931,1,0,0:0:0:0:
388,284,100063,2,0,L|465:269,1,78.7500030040742
302,61,100326,6,0,L|287:138,1,78.7500030040742
284,153,100590,1,0,0:0:0:0:
265,253,100722,1,0,0:0:0:0:
365,272,100853,5,0,0:0:0:0:
362,281,100918,1,0,0:0:0:0:
360,291,100984,1,0,0:0:0:0:
358,300,101050,1,0,0:0:0:0:
355,310,101116,1,0,0:0:0:0:
353,319,101182,1,0,0:0:0:0:
351,329,101248,1,0,0:0:0:0:
348,339,101314,1,0,0:0:0:0:
345,349,101380,6,0,L|467:372,2,105.000004005432
256,297,101644,1,0,0:0:0:0:
256,192,101732,1,0,0:0:0:0:
346,244,101819,1,0,0:0:0:0:
166,244,101907,6,0,L|40:265,2,112
256,192,102171,1,0,0:0:0:0:
256,76,102259,1,0,0:0:0:0:
157,133,102346,1,0,0:0:0:0:
355,133,102434,6,0,L|481:112,2,119.000002269745
256,192,102698,1,0,0:0:0:0:
256,319,102786,1,0,0:0:0:0:
364,256,102873,1,0,0:0:0:0:
148,255,102961,5,0,0:0:0:0:
256,192,103049,1,0,0:0:0:0:
148,129,103137,1,0,0:0:0:0:
256,319,103225,2,0,L|256:357,2,35
364,130,103488,6,0,L|494:109,2,125.999996154785
256,192,103752,1,0,0:0:0:0:
256,331,103840,1,0,0:0:0:0:
374,262,103927,1,0,0:0:0:0:
137,262,104015,6,0,L|7:283,2,125.999996154785
256,192,104279,1,0,0:0:0:0:
256,38,104367,1,0,0:0:0:0:
125,114,104454,1,0,0:0:0:0:
386,114,104542,5,0,0:0:0:0:
386,269,104630,1,0,0:0:0:0:
256,345,104718,1,0,0:0:0:0:
125,269,104806,1,0,0:0:0:0:
125,114,104894,1,0,0:0:0:0:
386,114,104982,1,0,0:0:0:0:
256,38,105069,5,0,0:0:0:0:
256,326,105201,2,0,P|272:335|253:326,1,131.25
361,131,105596,5,0,0:0:0:0:
377,192,105662,1,0,0:0:0:0:
361,252,105728,2,0,P|315:262|269:249,1,78.7500030040742
150,252,105860,1,0,0:0:0:0:
134,192,105925,1,0,0:0:0:0:
150,131,105992,2,0,P|197:122|243:135,1,78.7500030040742
368,256,106123,5,0,0:0:0:0:
320,304,106189,1,0,0:0:0:0:
256,321,106255,2,0,P|224:285|213:239,1,84
143,127,106387,1,0,0:0:0:0:
191,79,106452,1,0,0:0:0:0:
256,63,106519,2,0,P|287:98|298:144,1,84
256,329,106650,5,0,0:0:0:0:
187,311,106716,1,0,0:0:0:0:
136,260,106782,2,0,P|151:215|185:181,1,89.2500017023087
256,54,106915,1,0,0:0:0:0:
324,72,106980,1,0,0:0:0:0:
376,124,107046,2,0,P|360:168|326:202,1,89.2500017023087
129,265,107177,5,0,0:0:0:0:
109,191,107243,1,0,0:0:0:0:
129,118,107309,2,0,P|175:108|221:121,1,94.499997116089
382,118,107441,1,0,0:0:0:0:
402,192,107507,1,0,0:0:0:0:
383,266,107573,2,0,P|336:275|290:262,1,94.499997116089
122,114,107704,5,0,0:0:0:0:
179,58,107770,1,0,0:0:0:0:
256,37,107836,2,0,P|288:73|300:121,1,99.7499973363877
256,347,107968,2,0,P|223:310|211:262,1,99.7499973363877
390,114,108100,2,0,P|374:160|339:195,1,99.7499973363877
115,273,108231,5,0,0:0:0:0:
93,192,108297,1,0,0:0:0:0:
115,110,108363,2,0,P|165:100|215:114,1,105
397,274,108495,2,0,P|346:283|296:269,1,105
256,28,108627,2,0,P|290:67|303:118,1,105
256,374,108758,5,0,0:0:0:0:
165,349,108824,1,0,0:0:0:0:
98,283,108890,1,0,0:0:0:0:
73,191,108956,1,0,0:0:0:0:
98,100,109022,5,0,0:0:0:0:
165,33,109088,1,0,0:0:0:0:
256,8,109154,1,0,0:0:0:0:
348,34,109220,1,0,0:0:0:0:
415,100,109285,5,0,0:0:0:0:
439,191,109351,1,0,0:0:0:0:
414,283,109417,1,0,0:0:0:0:
348,350,109483,1,0,0:0:0:0:
256,192,109549,5,0,0:0:0:0:
256,192,109812,6,0,P|285:229|314:244,1,78.7500030040742
319,331,109944,2,0,P|362:312|384:288,1,78.7500030040742
470,302,110076,2,0,P|463:255|445:227,1,78.7500030040742
500,159,110208,2,0,P|456:141|423:142,1,78.7500030040742
405,58,110339,2,0,P|363:80|343:106,1,78.7500030040742
275,50,110471,2,0,P|257:93|258:126,1,78.7500030040742
172,142,110603,2,0,P|194:183|220:203,1,78.7500030040742
190,285,110735,2,0,P|236:286|267:273,1,78.7500030040742
338,321,110866,6,0,P|351:276|347:243,1,78.7500030040742
426,206,110998,2,0,P|393:171|363:159,1,78.7500030040742
383,73,111130,2,0,P|336:75|307:90,1,78.7500030040742
268,11,111262,2,0,P|233:43|221:73,1,78.7500030040742
141,38,111393,2,0,P|135:84|145:115,1,78.7500030040742
65,154,111525,2,0,P|97:188|127:200,1,78.7500030040742
106,286,111657,2,0,P|152:283|181:268,1,78.7500030040742
244,330,111789,2,0,P|265:288|266:255,1,78.7500030040742
203,186,111920,6,0,P|237:166|275:163,1,78.7500030040742
327,82,112052,2,0,P|354:109|367:146,1,78.7500030040742
458,178,112184,2,0,P|438:211|406:234,1,78.7500030040742
419,329,112316,2,0,P|379:328|344:312,1,78.7500030040742
273,375,112447,2,0,P|253:340|250:302,1,78.7500030040742
155,286,112579,2,0,P|168:249|196:221,1,78.7500030040742
129,152,112711,2,0,P|163:132|201:129,1,78.7500030040742
217,34,112843,2,0,P|253:47|281:75,1,78.7500030040742
371,44,112974,6,0,P|377:82|367:120,1,78.7500030040742
438,185,113106,2,0,P|407:209|370:220,1,78.7500030040742
367,316,113238,2,0,P|328:308|296:286,1,78.7500030040742
236,361,113370,2,0,P|211:330|200:293,1,78.7500030040742
107,309,113501,2,0,P|107:269|123:234,1,78.7500030040742
46,177,113633,2,0,P|76:152|113:141,1,78.7500030040742
129,47,113765,2,0,P|165:60|193:88,1,78.7500030040742
289,81,113897,2,0,P|285:119|265:153,1,78.7500030040742
208,208,114028,6,0,P|241:227|280:231,1,78.7500030040742
317,302,114160,2,0,P|344:274|358:237,1,78.7500030040742
436,219,114292,2,0,P|416:185|384:162,1,78.7500030040742
406,85,114424,2,0,P|366:85|331:101,1,78.7500030040742
276,43,114556,2,0,P|256:76|252:115,1,78.7500030040742
174,120,114687,2,0,P|187:156|214:184,1,78.7500030040742
156,238,114819,2,0,P|189:257|228:261,1,78.7500030040742
231,341,114951,2,0,P|267:327|295:300,1,78.7500030040742
366,336,115083,6,0,P|372:297|362:259,1,78.7500030040742
434,226,115214,2,0,P|408:196|373:179,1,78.7500030040742
407,106,115346,2,0,P|368:99|330:109,1,78.7500030040742
324,29,115478,2,0,P|287:42|259:69,1,78.7500030040742
203,13,115610,2,0,P|183:46|179:85,1,78.7500030040742
101,90,115741,2,0,P|114:126|141:154,1,78.7500030040742
105,225,115873,2,0,P|143:231|181:221,1,78.7500030040742
242,273,116005,2,0,P|258:237|258:198,1,78.7500030040742
203,129,116137,6,0,P|238:112|277:112,1,78.7500030040742
309,31,116268,2,0,P|340:53|360:87,1,78.7500030040742
448,74,116400,2,0,P|444:112|425:146,1,78.7500030040742
479,216,116532,2,0,P|443:232|404:232,1,78.7500030040742
388,319,116664,2,0,P|352:302|327:272,1,78.7500030040742
259,327,116795,2,0,P|242:291|242:252,1,78.7500030040742
155,236,116927,2,0,P|171:200|201:175,1,78.7500030040742
172,92,117059,2,0,P|210:88|247:101,1,78.7500030040742
306,36,117191,6,0,P|328:68|335:106,1,78.7500030040742
420,124,117322,2,0,P|403:159|373:184,1,78.7500030040742
400,267,117454,2,0,P|361:270|324:257,1,78.7500030040742
266,325,117586,2,0,P|243:293|235:254,1,78.7500030040742
149,268,117718,2,0,P|151:229|170:194,1,78.7500030040742
102,139,117849,2,0,P|133:116|172:108,1,78.7500030040742
186,21,117981,2,0,P|221:37|247:66,1,78.7500030040742
335,64,118113,2,0,P|328:102|307:135,1,78.7500030040742
256,192,118245,6,0,L|282:237,5,52.5
326,313,118640,2,0,L|273:314,5,52.5
185,313,119035,2,0,L|211:267,3,52.5
256,192,119299,6,0,L|202:192,3,52.5
114,191,119562,2,0,L|140:144,1,52.5
184,69,119694,2,0,L|130:69,3,52.5
41,67,119957,2,0,L|55:91,3,26.25
114,191,120089,2,0,L|167:191,1,52.5
256,192,120221,2,0,L|269:168,3,26.25
327,71,120353,6,0,L|353:116,5,52.5
397,192,120748,2,0,L|343:192,5,52.5
256,192,121143,2,0,L|282:237,3,52.5
326,313,121407,6,0,L|352:266,3,52.5
397,192,121670,2,0,L|423:237,1,52.5
467,313,121802,2,0,L|413:313,3,52.5
326,313,122065,2,0,L|312:289,3,26.25
256,192,122197,2,0,L|202:192,1,52.5
114,191,122329,2,0,L|127:167,3,26.25
184,69,122461,6,0,L|130:69,5,52.5
41,67,122856,2,0,L|67:112,5,52.5
114,191,123251,2,0,L|87:237,3,52.5
45,313,123515,6,0,L|98:313,3,52.5
185,313,123778,2,0,L|211:267,1,52.5
256,192,123910,2,0,L|309:192,3,52.5
398,191,124173,2,0,L|384:167,3,26.25
327,71,124305,2,0,L|273:71,1,52.5
184,69,124437,2,0,L|197:92,3,26.25
256,192,124569,6,0,L|229:238,5,52.5
185,312,124964,2,0,L|238:312,5,52.5
326,313,125392,2,0,L|300:267,3,52.5
256,192,125689,6,0,L|309:192,3,52.5
398,191,125985,2,0,L|424:237,1,52.5
467,313,126150,2,0,L|413:313,3,52.5
326,313,126446,2,0,L|312:289,3,26.25
256,192,126611,2,0,L|282:145,1,52.5
327,71,126776,2,0,L|357:71,3,26.25
466,192,126942,6,0,L|37:192,3,420
