osu file format v14

[General]
AudioFilename: audio.mp3
AudioLeadIn: 0
PreviewTime: 75323
Countdown: 0
SampleSet: Soft
StackLeniency: 0.7
Mode: 3
LetterboxInBreaks: 0
SpecialStyle: 0
WidescreenStoryboard: 1

[Editor]
DistanceSpacing: 1
BeatDivisor: 4
GridSize: 4
TimelineZoom: 1.6

[Metadata]
Title:shining! our life (Short Ver.)
TitleUnicode:shining! our life (Short Ver.)
Artist:YUZUNO
ArtistUnicode:柚子乃
Creator:Nabi-
Version:Easy
Source:金色ラブリッチェ
Tags:FAMoss Touru0711 deta5859 sagaplanets eroge ed ending kin iro saga planets golden loveriche j-pop jpop japanese I've kazuya takase 高瀬一矢 visual novel VN galgame Video Game kinkoi
BeatmapID:2781340
BeatmapSetID:1323543

[Difficulty]
HPDrainRate:7
CircleSize:4
OverallDifficulty:7
ApproachRate:5
SliderMultiplier:1.4
SliderTickRate:1

[Events]
//Background and Video events
0,0,"KBdfT1b.jpg",0,0
//Break Periods
//Storyboard Layer 0 (Background)
//Storyboard Layer 1 (Fail)
//Storyboard Layer 2 (Pass)
//Storyboard Layer 3 (Foreground)
//Storyboard Layer 4 (Overlay)
//Storyboard Sound Samples
Sample,10780,0,"cymbal_short.wav",50
Sample,11123,0,"cymbal_short.wav",50
Sample,11466,0,"cymbal_short.wav",50
Sample,50209,0,"LR_Clap Long.wav",70
Sample,50380,0,"LR_Clap Long.wav",70
Sample,50552,0,"LR_Clap Long.wav",70
Sample,58437,0,"cymbal_short.wav",50
Sample,58609,0,"cymbal_short.wav",50
Sample,58780,0,"cymbal_short.wav",50

[TimingPoints]
1352,342.857142857143,4,2,1,60,1,0
75409,-100.0,4,2,1,60,0,1
97352,-100.0,4,2,1,60,0,0
100094,-100.0,4,2,1,60,0,1
122037,-100.0,4,2,1,60,0,0

[HitObjects]
64,192,1352,1,0,0:0:0:0:
320,192,1523,1,0,0:0:0:0:
192,192,1694,1,0,0:0:0:0:
448,192,1866,1,0,0:0:0:0:
320,192,2380,1,0,0:0:0:0:
64,192,2894,1,0,0:0:0:0:
192,192,3066,1,0,0:0:0:0:
448,192,3237,1,0,0:0:0:0:
320,192,3409,1,0,0:0:0:0:
192,192,3752,1,0,0:0:0:0:
448,192,4094,1,0,0:0:0:0:
64,192,4266,1,0,0:0:0:0:
320,192,4437,1,0,0:0:0:0:
192,192,4609,1,0,0:0:0:0:
64,192,4952,1,0,0:0:0:0:
320,192,5123,1,0,0:0:0:0:
448,192,5294,1,0,0:0:0:0:
320,192,5809,1,0,0:0:0:0:
192,192,6152,1,0,0:0:0:0:
448,192,6494,1,0,0:0:0:0:
320,192,6837,1,0,0:0:0:0:
64,192,7180,1,0,0:0:0:0:
448,192,7352,1,0,0:0:0:0:
192,192,7694,1,0,0:0:0:0:
320,192,8209,1,0,0:0:0:0:
192,192,8380,1,0,0:0:0:0:
64,192,8552,1,0,0:0:0:0:
320,192,8723,1,0,0:0:0:0:
192,192,9066,1,0,0:0:0:0:
448,192,9580,1,6,0:0:0:0:
64,192,9752,1,2,0:0:0:0:
448,192,9923,1,2,0:0:0:0:
192,192,10266,1,2,0:0:0:0:
320,192,10437,1,2,0:0:0:0:
64,192,10780,1,2,0:0:0:0:
448,192,11123,1,2,0:0:0:0:
64,192,11466,1,2,0:0:0:0:
448,192,11637,1,6,0:0:0:0:
192,192,11980,1,2,0:0:0:0:
320,192,12152,1,2,0:0:0:0:
64,192,12323,1,6,0:0:0:0:
448,192,12494,1,2,0:0:0:0:
64,192,12666,1,2,0:0:0:0:
320,192,13009,1,2,0:0:0:0:
192,192,13180,1,2,0:0:0:0:
448,192,13523,1,6,0:0:0:0:
64,192,13866,1,2,0:0:0:0:
448,192,14209,1,2,0:0:0:0:
192,192,14380,1,2,0:0:0:0:
320,192,14552,1,2,0:0:0:0:
64,192,14723,128,2,15066:0:0:0:0:
448,192,15066,1,2,0:0:0:0:
320,192,15237,1,2,0:0:0:0:
64,192,15409,1,6,0:0:0:0:
192,192,15409,1,8,0:0:0:0:
64,192,15752,1,2,0:0:0:0:
192,192,15923,1,2,0:0:0:0:
320,192,16094,1,6,0:0:0:0:
448,192,16094,1,8,0:0:0:0:
448,192,16437,1,2,0:0:0:0:
192,192,16609,1,2,0:0:0:0:
64,192,16780,1,6,0:0:0:0:
320,192,16780,1,8,0:0:0:0:
64,192,17123,1,2,0:0:0:0:
320,192,17294,1,2,0:0:0:0:
192,192,17466,1,6,0:0:0:0:
448,192,17466,1,8,0:0:0:0:
448,192,17809,1,2,0:0:0:0:
320,192,17980,1,2,0:0:0:0:
64,192,18152,1,6,0:0:0:0:
192,192,18152,1,8,0:0:0:0:
64,192,18494,1,2,0:0:0:0:
192,192,18666,1,2,0:0:0:0:
320,192,18837,1,6,0:0:0:0:
448,192,18837,1,8,0:0:0:0:
320,192,19180,1,2,0:0:0:0:
192,192,19352,1,2,0:0:0:0:
64,192,19523,1,10,0:0:0:0:
448,192,19523,1,4,0:0:0:0:
192,192,19866,1,14,0:0:0:0:
320,192,20037,1,2,0:0:0:0:
64,192,20209,128,2,20552:0:0:0:0:
320,192,20552,1,2,0:0:0:0:
448,192,20552,1,4,0:0:0:0:
192,192,20894,1,8,0:0:0:0:
64,192,21237,1,2,0:0:0:0:
448,192,21580,1,8,0:0:0:0:
192,192,21752,1,2,0:0:0:0:
192,192,22094,1,2,0:0:0:0:
448,192,22266,1,8,0:0:0:0:
64,192,22609,1,2,0:0:0:0:
320,192,22952,1,8,0:0:0:0:
192,192,23294,1,2,0:0:0:0:
448,192,23637,1,8,0:0:0:0:
320,192,23980,1,2,0:0:0:0:
64,192,24323,1,8,0:0:0:0:
448,192,24494,1,2,0:0:0:0:
448,192,24837,1,2,0:0:0:0:
64,192,25009,1,8,0:0:0:0:
320,192,25352,1,2,0:0:0:0:
64,192,25694,1,8,0:0:0:0:
192,192,25694,1,4,0:0:0:0:
320,192,26037,1,4,0:0:0:0:
448,192,26037,1,2,0:0:0:0:
64,192,26380,1,8,0:0:0:0:
448,192,26723,1,2,0:0:0:0:
192,192,27066,1,8,0:0:0:0:
320,192,27237,1,2,0:0:0:0:
320,192,27580,1,2,0:0:0:0:
192,192,27752,1,8,0:0:0:0:
448,192,28094,1,2,0:0:0:0:
64,192,28437,1,8,0:0:0:0:
192,192,28780,1,2,0:0:0:0:
320,192,28780,1,4,0:0:0:0:
448,192,29123,1,8,0:0:0:0:
64,192,29466,1,2,0:0:0:0:
320,192,29809,1,8,0:0:0:0:
64,192,29980,1,2,0:0:0:0:
192,192,29980,1,4,0:0:0:0:
448,192,30323,1,10,0:0:0:0:
192,192,30666,1,10,0:0:0:0:
320,192,31009,1,10,0:0:0:0:
64,192,31180,1,8,0:0:0:0:
320,192,31523,1,2,0:0:0:0:
448,192,31523,1,4,0:0:0:0:
192,192,31866,1,8,0:0:0:0:
448,192,32209,1,2,0:0:0:0:
64,192,32552,1,8,0:0:0:0:
320,192,32723,1,2,0:0:0:0:
320,192,33066,1,2,0:0:0:0:
64,192,33237,1,8,0:0:0:0:
448,192,33580,1,2,0:0:0:0:
192,192,33923,1,8,0:0:0:0:
320,192,34266,1,2,0:0:0:0:
448,192,34266,1,4,0:0:0:0:
64,192,34609,1,8,0:0:0:0:
448,192,34952,1,2,0:0:0:0:
192,192,35294,1,8,0:0:0:0:
320,192,35466,1,2,0:0:0:0:
320,192,35809,1,2,0:0:0:0:
192,192,35980,1,8,0:0:0:0:
448,192,36323,1,2,0:0:0:0:
64,192,36494,1,10,0:0:0:0:
320,192,36666,1,8,0:0:0:0:
64,192,37009,1,4,0:0:0:0:
448,192,37009,1,2,0:0:0:0:
192,192,37352,1,8,0:0:0:0:
448,192,37694,1,2,0:0:0:0:
64,192,38037,1,8,0:0:0:0:
320,192,38209,1,2,0:0:0:0:
320,192,38552,1,2,0:0:0:0:
64,192,38723,1,8,0:0:0:0:
448,192,39066,1,2,0:0:0:0:
192,192,39409,1,8,0:0:0:0:
64,192,39752,1,2,0:0:0:0:
448,192,39752,1,4,0:0:0:0:
320,192,40094,1,8,0:0:0:0:
64,192,40437,1,2,0:0:0:0:
448,192,40780,1,8,0:0:0:0:
192,192,40952,1,6,0:0:0:0:
320,192,41294,1,2,0:0:0:0:
64,192,41466,1,8,0:0:0:0:
192,192,41809,1,14,0:0:0:0:
448,192,41980,1,2,0:0:0:0:
64,192,42152,128,10,42494:0:0:0:0:
320,192,42494,1,2,0:0:0:0:
448,192,42494,128,4,43009:0:0:0:0:
192,192,43009,128,0,43523:0:0:0:0:
320,192,43523,128,0,43866:0:0:0:0:
64,192,43866,128,0,44380:0:0:0:0:
448,192,44380,128,0,44723:0:0:0:0:
192,192,44723,1,8,0:0:0:0:
320,192,44894,1,8,0:0:0:0:
64,192,45237,1,2,0:0:0:0:
448,192,45237,1,4,0:0:0:0:
192,192,45409,1,0,0:0:0:0:
320,192,45752,1,2,0:0:0:0:
64,192,45923,1,0,0:0:0:70:LR_Clap Long.wav
448,192,45923,1,0,0:0:0:0:
320,192,46266,1,2,0:0:0:0:
64,192,46437,1,0,0:0:0:0:
192,192,46780,1,2,0:0:0:0:
448,192,46952,1,0,0:0:0:0:
64,192,47294,1,0,0:0:0:70:LR_Clap Long.wav
320,192,47294,1,0,0:0:0:0:
192,192,47466,1,2,0:0:0:0:
448,192,47637,1,2,0:0:0:0:
320,192,47809,1,2,0:0:0:0:
64,192,47980,1,2,0:0:0:0:
448,192,48152,1,0,0:0:0:0:
192,192,48494,1,2,0:0:0:0:
320,192,48666,1,0,0:0:0:70:LR_Clap Long.wav
448,192,48666,1,0,0:0:0:0:
64,192,49009,1,2,0:0:0:0:
448,192,49180,1,0,0:0:0:0:
320,192,49523,1,2,0:0:0:0:
64,192,49694,1,0,0:0:0:70:LR_Clap Short.wav
192,192,49694,1,0,0:0:0:0:
448,192,50037,1,2,0:0:0:0:
192,192,50209,1,2,0:0:0:0:
320,192,50380,1,2,0:0:0:0:
64,192,50552,1,2,0:0:0:0:
320,192,50723,1,2,0:0:0:0:
448,192,50723,1,4,0:0:0:0:
192,192,51066,1,2,0:0:0:0:
320,192,51409,1,2,0:0:0:0:
64,192,51752,1,2,0:0:0:0:
448,192,52094,1,2,0:0:0:0:
192,192,52437,1,2,0:0:0:0:
320,192,52780,1,2,0:0:0:0:
64,192,53123,1,2,0:0:0:0:
192,192,53466,1,2,0:0:0:0:
448,192,53809,1,2,0:0:0:0:
64,192,54152,1,2,0:0:0:0:
320,192,54494,1,2,0:0:0:0:
192,192,54666,1,0,0:0:0:0:
448,192,55009,1,0,0:0:0:0:
64,192,55180,1,2,0:0:0:0:
320,192,55523,1,2,0:0:0:0:
192,192,55694,1,8,0:0:0:0:
448,192,55866,1,10,0:0:0:0:
320,192,56037,1,8,0:0:0:0:
64,192,56209,1,2,0:0:0:0:
192,192,56209,1,4,0:0:0:0:
64,192,56552,1,10,0:0:0:0:
320,192,56723,1,4,0:0:0:0:
448,192,56723,1,2,0:0:0:0:
192,192,57066,1,10,0:0:0:0:
448,192,57237,1,10,0:0:0:0:
64,192,57409,1,2,0:0:0:0:
192,192,57409,1,4,0:0:0:0:
320,192,57752,1,10,0:0:0:0:
192,192,57923,1,2,0:0:0:0:
320,192,58094,1,2,0:0:0:0:
448,192,58094,1,4,0:0:0:0:
64,192,58437,1,10,0:0:0:0:
448,192,58609,1,10,0:0:0:0:
320,192,58780,1,2,0:0:0:0:
64,192,58952,1,4,0:0:0:0:
192,192,58952,1,2,0:0:0:0:
448,192,59294,1,10,0:0:0:0:
64,192,59637,1,2,0:0:0:0:
320,192,59980,1,10,0:0:0:0:
192,192,60323,1,2,0:0:0:0:
320,192,60494,1,8,0:0:0:0:
448,192,60494,1,0,0:0:0:0:
64,192,60837,1,8,0:0:0:0:
192,192,60837,1,0,0:0:0:0:
192,192,61180,1,8,0:0:0:0:
320,192,61180,1,0,0:0:0:0:
448,192,61523,1,2,0:0:0:0:
192,192,61694,1,10,0:0:0:0:
320,192,61694,1,4,0:0:0:0:
64,192,61866,1,10,0:0:0:0:
448,192,62037,1,10,0:0:0:0:
192,192,62380,1,10,0:0:0:0:
448,192,62552,1,10,0:0:0:0:
64,192,62894,1,10,0:0:0:0:
192,192,62894,1,4,0:0:0:0:
320,192,63237,1,10,0:0:0:0:
64,192,63580,1,10,0:0:0:0:
448,192,63752,1,10,0:0:0:0:
192,192,63923,1,10,0:0:0:0:
320,192,64094,128,10,64437:0:0:0:0:
64,192,64437,1,2,0:0:0:0:
192,192,64609,1,2,0:0:0:0:
320,192,64780,1,6,0:0:0:0:
448,192,64780,1,8,0:0:0:0:
448,192,65123,1,2,0:0:0:0:
320,192,65294,1,2,0:0:0:0:
64,192,65466,1,6,0:0:0:0:
192,192,65466,1,8,0:0:0:0:
64,192,65809,1,2,0:0:0:0:
320,192,65980,1,2,0:0:0:0:
192,192,66152,1,6,0:0:0:0:
448,192,66152,1,8,0:0:0:0:
448,192,66494,1,2,0:0:0:0:
192,192,66666,1,2,0:0:0:0:
64,192,66837,1,6,0:0:0:0:
320,192,66837,1,8,0:0:0:0:
192,192,67180,1,2,0:0:0:0:
448,192,67352,1,2,0:0:0:0:
64,192,67523,1,6,0:0:0:0:
192,192,67523,1,8,0:0:0:0:
320,192,67866,1,2,0:0:0:0:
64,192,68037,1,2,0:0:0:0:
320,192,68209,1,6,0:0:0:0:
448,192,68209,1,8,0:0:0:0:
192,192,68552,1,2,0:0:0:0:
320,192,68723,1,2,0:0:0:0:
64,192,68894,1,6,0:0:0:0:
192,192,68894,1,8,0:0:0:0:
448,192,69237,1,12,0:0:0:0:
192,192,69409,1,10,0:0:0:0:
320,192,69580,128,10,69923:0:0:0:0:
64,192,69923,1,2,0:0:0:0:
192,192,69923,1,4,0:0:0:0:
448,192,70266,1,8,0:0:0:0:
64,192,70609,1,2,0:0:0:0:
320,192,70780,1,2,0:0:0:0:
192,192,70952,1,8,0:0:0:0:
448,192,71123,1,2,0:0:0:0:
64,192,71466,1,2,0:0:0:0:
320,192,71637,1,8,0:0:0:0:
192,192,71809,1,2,0:0:0:0:
448,192,71980,128,2,72323:0:0:0:0:
64,192,72323,128,8,72666:0:0:0:0:
320,192,72666,1,2,0:0:0:0:
448,192,72666,1,4,0:0:0:0:
192,192,73009,1,8,0:0:0:0:
448,192,73352,1,2,0:0:0:0:
64,192,73523,1,2,0:0:0:0:
320,192,73694,1,8,0:0:0:0:
64,192,73866,1,2,0:0:0:0:
192,192,73866,1,4,0:0:0:0:
320,192,74209,1,2,0:0:0:0:
448,192,74209,1,0,0:0:0:0:
64,192,74552,1,2,0:0:0:0:
192,192,74552,1,0,0:0:0:0:
320,192,74894,1,2,0:0:0:0:
192,192,75066,1,8,0:0:0:0:
64,192,75409,1,2,0:0:0:0:
448,192,75409,1,4,0:0:0:0:
320,192,75752,1,8,0:0:0:0:
192,192,76094,1,2,0:0:0:0:
448,192,76266,1,2,0:0:0:0:
64,192,76437,1,8,0:0:0:0:
320,192,76609,128,2,76952:0:0:0:0:
192,192,76952,1,2,0:0:0:0:
448,192,77123,1,8,0:0:0:0:
64,192,77466,1,2,0:0:0:0:
320,192,77637,1,2,0:0:0:0:
192,192,77809,1,8,0:0:0:0:
448,192,78152,1,2,0:0:0:0:
192,192,78494,1,8,0:0:0:0:
320,192,78837,1,2,0:0:0:0:
64,192,79009,1,2,0:0:0:0:
448,192,79180,1,8,0:0:0:0:
192,192,79352,128,2,79694:0:0:0:0:
320,192,79694,1,2,0:0:0:0:
64,192,79866,1,8,0:0:0:0:
448,192,80209,1,2,0:0:0:0:
64,192,80380,1,2,0:0:0:0:
192,192,80552,1,8,0:0:0:0:
320,192,80552,1,4,0:0:0:0:
64,192,80894,1,4,0:0:0:0:
448,192,80894,1,2,0:0:0:0:
192,192,81237,1,8,0:0:0:0:
320,192,81580,1,2,0:0:0:0:
64,192,81752,1,2,0:0:0:0:
448,192,81923,1,8,0:0:0:0:
192,192,82094,1,2,0:0:0:0:
192,192,82437,1,2,0:0:0:0:
320,192,82609,1,8,0:0:0:0:
448,192,82952,1,2,0:0:0:0:
320,192,83123,1,2,0:0:0:0:
192,192,83294,1,8,0:0:0:0:
64,192,83637,1,2,0:0:0:0:
448,192,83637,1,4,0:0:0:0:
320,192,83980,1,8,0:0:0:0:
192,192,84323,1,2,0:0:0:0:
448,192,84494,1,2,0:0:0:0:
64,192,84666,1,8,0:0:0:0:
320,192,84837,1,2,0:0:0:0:
448,192,84837,1,4,0:0:0:0:
192,192,85180,1,10,0:0:0:0:
448,192,85523,1,10,0:0:0:0:
64,192,85866,1,10,0:0:0:0:
320,192,86037,1,8,0:0:0:0:
192,192,86209,1,10,0:0:0:0:
64,192,86380,1,2,0:0:0:0:
448,192,86380,1,4,0:0:0:0:
320,192,86723,1,8,0:0:0:0:
64,192,87066,1,2,0:0:0:0:
192,192,87237,1,2,0:0:0:0:
448,192,87409,1,8,0:0:0:0:
64,192,87580,128,2,87923:0:0:0:0:
320,192,87923,1,2,0:0:0:0:
192,192,88094,1,8,0:0:0:0:
448,192,88437,1,2,0:0:0:0:
320,192,88609,1,2,0:0:0:0:
64,192,88780,1,8,0:0:0:0:
192,192,89123,1,4,0:0:0:0:
448,192,89123,1,2,0:0:0:0:
320,192,89466,1,8,0:0:0:0:
192,192,89809,1,2,0:0:0:0:
448,192,89980,1,2,0:0:0:0:
64,192,90152,1,8,0:0:0:0:
320,192,90323,128,2,90666:0:0:0:0:
192,192,90666,1,2,0:0:0:0:
448,192,90837,1,8,0:0:0:0:
64,192,91180,1,2,0:0:0:0:
320,192,91352,1,2,0:0:0:0:
192,192,91523,1,8,0:0:0:0:
320,192,91866,1,2,0:0:0:0:
448,192,91866,1,4,0:0:0:0:
64,192,92209,1,8,0:0:0:0:
448,192,92552,1,2,0:0:0:0:
192,192,92723,1,2,0:0:0:0:
320,192,92894,1,8,0:0:0:0:
64,192,93066,1,2,0:0:0:0:
64,192,93409,1,2,0:0:0:0:
448,192,93580,1,8,0:0:0:0:
320,192,93923,1,2,0:0:0:0:
192,192,94094,1,2,0:0:0:0:
448,192,94266,1,8,0:0:0:0:
64,192,94609,1,4,0:0:0:0:
192,192,94609,1,2,0:0:0:0:
448,192,94952,1,8,0:0:0:0:
64,192,95294,1,2,0:0:0:0:
320,192,95466,1,2,0:0:0:0:
192,192,95637,1,8,0:0:0:0:
64,192,95809,1,4,0:0:0:0:
448,192,95809,1,2,0:0:0:0:
192,192,96152,1,2,0:0:0:0:
320,192,96323,1,8,0:0:0:0:
64,192,96666,1,4,0:0:0:0:
448,192,96666,1,8,0:0:0:0:
320,192,96837,1,2,0:0:0:0:
192,192,97009,128,2,97352:0:0:0:0:
320,192,97352,1,4,0:0:0:0:
448,192,97352,128,2,98723:0:0:0:0:
64,192,98723,128,0,99580:0:0:0:0:
320,192,99580,1,8,0:0:0:0:
192,192,99752,1,8,0:0:0:0:
64,192,100094,1,4,0:0:0:0:
448,192,100094,1,2,0:0:0:0:
192,192,100437,1,8,0:0:0:0:
448,192,100780,1,2,0:0:0:0:
320,192,100952,1,2,0:0:0:0:
64,192,101123,1,8,0:0:0:0:
448,192,101294,1,2,0:0:0:0:
192,192,101637,1,2,0:0:0:0:
320,192,101809,1,8,0:0:0:0:
64,192,101980,1,2,0:0:0:0:
448,192,102323,1,2,0:0:0:0:
192,192,102494,1,8,0:0:0:0:
320,192,102837,1,2,0:0:0:0:
64,192,103180,1,8,0:0:0:0:
448,192,103523,1,2,0:0:0:0:
320,192,103694,1,2,0:0:0:0:
64,192,103866,1,8,0:0:0:0:
448,192,104037,1,2,0:0:0:0:
192,192,104380,1,2,0:0:0:0:
320,192,104552,1,8,0:0:0:0:
64,192,104723,1,2,0:0:0:0:
448,192,105066,1,0,0:0:0:0:
192,192,105237,1,4,0:0:0:0:
320,192,105237,1,8,0:0:0:0:
64,192,105580,1,2,0:0:0:0:
448,192,105580,1,4,0:0:0:0:
192,192,105923,1,8,0:0:0:0:
448,192,106266,1,2,0:0:0:0:
64,192,106437,1,2,0:0:0:0:
320,192,106780,1,2,0:0:0:0:
192,192,107123,1,2,0:0:0:0:
448,192,107294,1,8,0:0:0:0:
64,192,107466,1,2,0:0:0:0:
448,192,107809,1,2,0:0:0:0:
320,192,107980,1,8,0:0:0:0:
192,192,108152,1,2,0:0:0:0:
64,192,108323,1,4,0:0:0:0:
448,192,108323,1,2,0:0:0:0:
320,192,108666,1,8,0:0:0:0:
192,192,109009,1,2,0:0:0:0:
448,192,109180,1,2,0:0:0:0:
64,192,109352,1,8,0:0:0:0:
192,192,109523,1,2,0:0:0:0:
320,192,109523,1,4,0:0:0:0:
448,192,109866,1,10,0:0:0:0:
64,192,110209,1,10,0:0:0:0:
320,192,110552,1,10,0:0:0:0:
192,192,110723,128,8,111066:0:0:0:0:
320,192,111066,1,2,0:0:0:0:
448,192,111066,1,4,0:0:0:0:
64,192,111409,1,8,0:0:0:0:
448,192,111752,1,2,0:0:0:0:
192,192,111923,1,2,0:0:0:0:
320,192,112266,1,2,0:0:0:0:
64,192,112609,1,2,0:0:0:0:
448,192,112780,1,8,0:0:0:0:
192,192,112952,1,2,0:0:0:0:
320,192,113294,1,2,0:0:0:0:
64,192,113466,1,8,0:0:0:0:
320,192,113809,1,4,0:0:0:0:
448,192,113809,1,2,0:0:0:0:
192,192,114152,1,8,0:0:0:0:
448,192,114494,1,2,0:0:0:0:
320,192,114666,1,2,0:0:0:0:
64,192,115009,1,2,0:0:0:0:
448,192,115352,1,2,0:0:0:0:
192,192,115523,1,8,0:0:0:0:
320,192,115694,1,2,0:0:0:0:
64,192,116037,1,2,0:0:0:0:
192,192,116209,1,8,0:0:0:0:
320,192,116380,1,2,0:0:0:0:
64,192,116552,1,2,0:0:0:0:
448,192,116552,1,4,0:0:0:0:
192,192,116894,1,8,0:0:0:0:
448,192,117237,1,2,0:0:0:0:
64,192,117409,1,2,0:0:0:0:
320,192,117580,1,8,0:0:0:0:
192,192,117752,1,2,0:0:0:0:
448,192,118094,1,2,0:0:0:0:
64,192,118266,1,8,0:0:0:0:
320,192,118437,1,2,0:0:0:0:
192,192,118780,1,2,0:0:0:0:
448,192,118952,1,8,0:0:0:0:
64,192,119123,1,10,0:0:0:0:
192,192,119294,1,4,0:0:0:0:
320,192,119294,1,2,0:0:0:0:
448,192,119637,1,8,0:0:0:0:
64,192,119980,1,2,0:0:0:0:
320,192,120152,1,2,0:0:0:0:
192,192,120323,1,8,0:0:0:0:
320,192,120494,1,4,0:0:0:0:
448,192,120494,1,2,0:0:0:0:
448,192,120837,1,2,0:0:0:0:
64,192,121009,128,8,121352:0:0:0:0:
192,192,121352,1,6,0:0:0:0:
320,192,121352,128,8,121694:0:0:0:0:
192,192,121694,128,2,122037:0:0:0:0:
320,192,122037,1,4,0:0:0:0:
448,192,122037,128,2,123409:0:0:0:0:
64,192,123409,128,0,124780:0:0:0:0:
448,192,124266,1,8,0:0:0:0:
320,192,124437,1,8,0:0:0:0:
192,192,124780,1,2,0:0:0:0:
320,192,124952,1,2,0:0:0:0:
64,192,125123,1,6,0:0:0:0:
448,192,125123,1,8,0:0:0:0:
320,192,125466,1,2,0:0:0:0:
192,192,125637,1,2,0:0:0:0:
64,192,125809,1,6,0:0:0:0:
448,192,125809,1,8,0:0:0:0:
192,192,126152,1,2,0:0:0:0:
320,192,126323,1,2,0:0:0:0:
64,192,126494,1,6,0:0:0:0:
192,192,126494,1,8,0:0:0:0:
320,192,126837,1,2,0:0:0:0:
192,192,127009,1,2,0:0:0:0:
320,192,127180,1,6,0:0:0:0:
448,192,127180,1,8,0:0:0:0:
448,192,127523,1,2,0:0:0:0:
320,192,127694,1,2,0:0:0:0:
64,192,127866,1,6,0:0:0:0:
192,192,127866,1,8,0:0:0:0:
64,192,128209,1,2,0:0:0:0:
192,192,128380,1,2,0:0:0:0:
320,192,128552,1,6,0:0:0:0:
448,192,128552,1,8,0:0:0:0:
448,192,128894,1,2,0:0:0:0:
192,192,129066,1,2,0:0:0:0:
64,192,129237,1,6,0:0:0:0:
320,192,129237,1,8,0:0:0:0:
448,192,129580,1,14,0:0:0:0:
192,192,129752,1,10,0:0:0:0:
320,192,129923,1,10,0:0:0:0:
192,192,130094,1,10,0:0:0:0:
64,192,130266,128,2,132752:0:0:0:0:
448,192,130266,1,4,0:0:0:0:
192,192,132752,1,8,0:0:0:0:
320,192,132923,1,2,0:0:0:0:
448,192,132923,128,4,133352:0:0:0:0:
