osu file format v14

[General]
AudioFilename: audio.mp3
AudioLeadIn: 0
PreviewTime: 20282
Countdown: 0
SampleSet: Soft
StackLeniency: 0.7
Mode: 0
LetterboxInBreaks: 0
WidescreenStoryboard: 1

[Editor]
Bookmarks: 9140,20111,50282,74968,105139,129825,140796,162739,187425,220681
DistanceSpacing: 1
BeatDivisor: 4
GridSize: 4
TimelineZoom: 1.299999

[Metadata]
Title:shining! our life
TitleUnicode:shining! our life
Artist:YUZUNO
ArtistUnicode:柚子乃
Creator:Hinsvar
Version:Easy
Source:金色ラブリッチェ
Tags:Kin'iro Loveriche Kiniro Kinkoi Golden SAGA PLANETS Japanese Pop J-Pop JPop Video Game visual novel VN eroge galge galgame ED ending GOLD BEST PINK POISON 高瀬一矢 Kazuya Takase
BeatmapID:4088062
BeatmapSetID:1969787

[Difficulty]
HPDrainRate:2
CircleSize:2
OverallDifficulty:3
ApproachRate:3.6
SliderMultiplier:0.96
SliderTickRate:1

[Events]
//Background and Video events
0,0,"BG.png",0,0
//Break Periods
2,132768,139428
//Storyboard Layer 0 (Background)
//Storyboard Layer 1 (Fail)
//Storyboard Layer 2 (Pass)
//Storyboard Layer 3 (Foreground)
//Storyboard Layer 4 (Overlay)
//Storyboard Sound Samples

[TimingPoints]
9140,342.857142857143,4,2,1,70,1,0
20111,-90.9090909090909,4,2,1,80,0,1
42054,-90.9090909090909,4,2,1,70,0,0
44797,342.857142857143,4,2,2,60,1,0
44797,-111.111111111111,4,2,2,60,0,0
55254,-111.111111111111,4,2,1,60,0,0
55768,-100,4,2,1,70,0,0
63997,342.857142857143,4,2,1,70,1,0
74968,-90.9090909090909,4,2,1,80,0,1
96911,-90.9090909090909,4,2,1,70,0,0
99654,342.857142857143,4,2,2,60,1,0
99654,-111.111111111111,4,2,2,60,0,0
110111,-111.111111111111,4,2,1,60,0,0
110625,-100,4,2,1,70,0,0
118854,342.857142857143,4,2,1,70,1,0
140796,-125,4,2,2,60,0,0
157254,-111.111111111111,4,2,2,65,0,0
159996,-100,4,2,1,70,0,0
162739,-90.9090909090909,4,2,1,80,0,1
184682,-90.9090909090909,4,2,1,70,0,0
187425,342.857142857143,4,2,1,75,1,1
187425,-100,4,2,1,75,0,1
187510,-100,4,2,1,75,0,0
209367,-125,4,2,1,60,0,0
212110,342.857142857143,4,2,1,75,1,0
217595,-166.666666666667,4,2,1,60,0,0
220252,-125,4,2,1,70,0,0
220681,-125,4,2,1,50,0,0

[Colours]
Combo1 : 125,146,225
Combo2 : 143,225,239
Combo3 : 251,153,226
Combo4 : 243,227,116

[HitObjects]
97,237,9140,6,0,P|78:280|37:303,2,96,8|8|8,0:0|0:0|0:0,0:0:0:0:
73,81,10340,1,8,0:0:0:0:
166,60,10683,1,8,0:0:0:0:
259,39,11026,2,0,P|336:78|359:136,1,144,8|8,0:0|0:0,0:0:0:0:
281,185,11883,6,0,L|185:179,2,96,12|8|8,0:0|0:0|0:0,0:0:0:0:
405,283,13083,1,12,0:0:0:0:
483,228,13425,2,0,L|492:84,1,144,8|8,0:0|0:0,0:0:0:0:
209,28,14968,6,0,P|161:27|104:53,1,96,12|0,0:0|3:0,0:0:0:0:
91,136,15654,2,0,P|90:184|116:241,1,96,12|0,0:0|3:0,0:0:0:0:
149,314,16340,2,0,P|197:315|254:289,1,96,12|0,0:0|3:0,0:0:0:0:
267,206,17026,2,0,P|268:158|242:101,1,96,12|0,0:0|3:0,0:0:0:0:
306,35,17711,5,12,0:0:0:0:
400,52,18054,1,0,3:0:0:0:
436,140,18397,2,0,L|418:243,1,96,12|0,0:0|3:0,0:0:0:0:
455,322,19082,1,12,0:0:0:0:
138,339,20111,5,4,3:2:0:0:
157,235,20454,2,0,P|109:206|57:210,1,105.600003222656,8|2,0:0|3:2,0:0:0:0:
74,35,21311,2,0,P|145:77|223:71,1,158.400004833985,2|8,3:2|0:0,0:0:0:0:
318,38,22168,2,0,L|332:151,1,105.600003222656,2|8,3:2|0:0,0:0:0:0:
434,167,22854,1,0,3:0:0:0:
510,239,23197,6,0,L|496:352,1,105.600003222656,8|2,0:0|3:2,0:0:0:0:
324,369,24054,2,0,P|271:310|274:226,1,158.400004833985,2|8,3:2|0:0,0:0:0:0:
300,132,24911,1,2,3:2:0:0:
195,114,25254,1,8,0:0:0:0:
114,45,25597,5,4,3:2:0:0:
7,184,26111,2,0,P|57:229|66:375,1,211.200006445313,2|0,0:0|3:0,0:0:0:0:
250,354,27311,2,0,L|361:337,1,105.600003222656,8|2,0:0|3:2,0:0:0:0:
415,251,27997,1,8,0:0:0:0:
314,219,28340,5,6,3:2:0:0:
294,45,28854,2,0,P|385:18|469:87,1,211.200006445313,2|4,0:0|3:2,0:0:0:0:
410,250,30054,2,0,P|364:263|322:229,1,105.600003222656,2|2,0:0|0:0,0:0:0:0:
250,154,30740,1,2,0:0:0:0:
159,100,31083,5,4,3:2:0:0:
60,137,31426,2,0,P|37:186|44:248,1,105.600003222656,8|2,0:0|3:2,0:0:0:0:
170,352,32283,2,0,P|244:341|284:264,1,158.400004833985,2|8,3:2|0:0,0:0:0:0:
360,201,33140,2,0,P|409:224|471:217,1,105.600003222656,2|8,3:2|0:0,0:0:0:0:
499,123,33826,1,4,3:2:0:0:
422,50,34168,6,0,P|373:27|311:34,1,105.600003222656,8|2,0:0|3:2,0:0:0:0:
219,171,35026,2,0,P|153:222|83:201,1,158.400004833985,2|8,3:2|0:0,0:0:0:0:
13,126,35883,1,2,3:2:0:0:
58,30,36226,1,0,3:0:0:0:
163,24,36568,5,6,3:2:0:0:
284,148,37083,2,0,L|260:364,1,211.200006445313,2|0,0:0|3:0,0:0:0:0:
434,368,38283,2,0,P|482:339|510:295,1,105.600003222656,8|2,0:0|3:2,0:0:0:0:
494,193,38968,1,8,0:0:0:0:
390,212,39311,5,6,3:2:0:0:
227,275,39826,2,0,P|140:212|77:111,1,211.200006445313,2|4,0:0|3:2,0:0:0:0:
127,30,40854,1,8,0:0:0:0:
304,19,41368,1,12,0:0:0:0:
374,97,41711,1,8,0:0:0:0:
451,27,42054,1,6,3:2:0:0:
451,27,44797,6,0,P|480:80|481:167,1,129.599996044922,4|0,3:2|3:0,0:0:0:0:
444,297,45825,2,0,P|391:326|304:327,1,129.599996044922,0|0,3:0|3:0,0:0:0:0:
169,302,46854,1,8,0:0:0:0:
79,270,47197,1,0,3:0:0:0:
111,180,47539,2,0,P|117:119|53:79,2,129.599996044922,0|0|0,3:0|3:0|3:0,0:0:0:0:
300,200,49254,2,0,P|340:204|367:161,2,86.3999973632813,8|0|8,0:0|3:0|0:0,0:0:0:0:
214,242,50282,6,0,P|209:307|236:368,1,129.599996044922,6|2,3:2|0:0,0:0:0:0:
328,374,51139,1,2,0:0:0:0:
418,345,51482,2,0,P|421:301|403:261,1,86.3999973632813,2|0,0:0|0:0,0:0:0:0:
373,172,52168,2,0,P|422:149|441:71,1,129.599996044922,2|0,0:0|3:0,0:0:0:0:
361,31,53025,1,2,3:2:0:0:
173,59,53711,2,0,P|102:61|42:40,2,129.599996044922,2|2|0,3:2|0:0|3:0,0:0:0:0:
242,124,55082,1,2,3:2:0:0:
231,218,55425,1,8,0:0:0:0:
137,207,55768,6,0,P|88:238|84:322,1,144,6|6,3:2|3:2,0:0:0:0:
169,357,56625,1,8,0:0:0:0:
264,363,56968,2,0,L|365:348,1,96,6|8,3:2|0:0,0:0:0:0:
405,264,57654,2,0,L|253:241,1,144,6|8,3:2|0:0,0:0:0:0:
202,168,58511,5,6,3:2:0:0:
147,90,58854,1,8,0:0:0:0:
205,13,59197,1,0,3:0:0:0:
295,44,59539,2,0,P|367:23|432:49,1,144,8|8,0:0|0:0,0:0:0:0:
492,119,60397,1,8,0:0:0:0:
460,210,60739,1,8,0:0:0:0:
407,359,61254,6,0,P|360:372|306:348,1,96,12|8,0:0|0:0,0:0:0:0:
286,265,61939,1,8,0:0:0:0:
384,140,62454,1,12,0:0:0:0:
421,51,62797,2,0,P|353:28|285:48,1,144,8|8,0:0|0:0,0:0:0:0:
28,175,64339,6,0,L|14:278,1,96,12|0,0:0|3:0,0:0:0:0:
52,359,65025,2,0,L|155:372,1,96,12|0,0:0|3:0,0:0:0:0:
207,296,65711,1,12,0:0:0:0:
301,277,66054,2,0,P|313:322|298:375,2,96,2|12|0,3:2|0:0|3:0,0:0:0:0:
357,200,67082,6,0,L|458:181,1,96,12|0,0:0|3:0,0:0:0:0:
438,86,67768,2,0,L|337:105,1,96,12|0,0:0|3:0,0:0:0:0:
261,53,68454,1,12,0:0:0:0:
166,63,68797,2,0,P|136:100|149:147,1,96,8|8,0:0|0:0,0:0:0:0:
231,188,69482,6,0,P|251:278|193:351,1,192,6|0,3:2|3:0,0:0:0:0:
97,368,70511,1,2,3:2:0:0:
11,195,71197,1,8,0:0:0:0:
32,101,71539,2,0,L|126:83,1,96,2|8,3:2|0:0,0:0:0:0:
200,21,72225,6,0,P|252:30|285:68,1,96,6|8,3:2|0:0,0:0:0:0:
319,148,72911,2,0,L|460:174,1,144,2|6,3:2|3:2,0:0:0:0:
480,268,73768,1,8,0:0:0:0:
386,289,74111,1,8,0:0:0:0:
292,310,74454,1,8,0:0:0:0:
255,160,74968,5,4,3:2:0:0:
173,92,75311,2,0,P|132:79|71:94,1,105.600003222656,8|2,0:0|3:2,0:0:0:0:
25,261,76168,2,0,P|86:280|178:258,1,158.400004833985,2|8,3:2|0:0,0:0:0:0:
281,263,77025,2,0,P|308:309|322:373,1,105.600003222656,2|8,3:2|0:0,0:0:0:0:
426,363,77711,1,0,3:0:0:0:
470,267,78054,6,0,P|443:221|429:157,1,105.600003222656,8|2,0:0|3:2,0:0:0:0:
317,37,78911,2,0,L|155:56,1,158.400004833985,2|8,3:2|0:0,0:0:0:0:
109,148,79768,1,2,3:2:0:0:
211,173,80111,1,8,0:0:0:0:
313,199,80454,5,4,3:2:0:0:
230,352,80968,2,0,P|114:334|19:282,1,211.200006445313,2|0,0:0|3:0,0:0:0:0:
22,117,82168,2,0,P|37:61|69:24,1,105.600003222656,8|2,0:0|3:2,0:0:0:0:
165,73,82854,1,8,0:0:0:0:
251,20,83197,5,4,3:2:0:0:
307,184,83711,2,0,P|402:210|508:173,1,211.200006445313,2|4,0:0|3:2,0:0:0:0:
503,349,84911,2,0,P|460:324|404:327,1,105.600003222656,2|2,0:0|0:0,0:0:0:0:
306,356,85597,1,2,0:0:0:0:
270,256,85939,5,4,3:2:0:0:
315,160,86282,2,0,P|328:112|309:59,1,105.600003222656,8|2,0:0|3:2,0:0:0:0:
137,39,87139,2,0,L|10:142,1,158.400004833985,2|8,3:2|0:0,0:0:0:0:
38,241,87997,2,0,L|122:309,1,105.600003222656,2|8,3:2|0:0,0:0:0:0:
217,347,88682,1,4,3:2:0:0:
256,249,89025,6,0,P|311:244|342:280,1,105.600003222656,8|2,0:0|3:2,0:0:0:0:
489,371,89882,2,0,P|475:296|498:202,1,158.400004833985,2|8,3:2|0:0,0:0:0:0:
494,110,90739,1,2,3:2:0:0:
404,53,91082,1,0,3:0:0:0:
342,139,91425,5,4,3:2:0:0:
236,277,91939,2,0,L|180:69,1,211.200006445313,2|0,0:0|3:0,0:0:0:0:
11,113,93139,2,0,P|1:160|44:209,1,105.600003222656,8|2,0:0|3:2,0:0:0:0:
132,241,93825,1,8,0:0:0:0:
234,214,94168,5,4,3:2:0:0:
160,371,94682,2,0,P|59:351|26:254,1,211.200006445313,2|4,0:0|3:2,0:0:0:0:
42,153,95711,1,8,0:0:0:0:
217,123,96225,1,12,0:0:0:0:
314,163,96568,1,8,0:0:0:0:
354,66,96911,1,4,3:2:0:0:
354,66,99654,6,0,P|410:68|473:112,1,129.599996044922,4|0,3:2|3:0,0:0:0:0:
498,260,100682,2,0,P|496:316|452:379,1,129.599996044922,0|0,3:0|3:0,0:0:0:0:
303,346,101711,1,8,0:0:0:0:
292,251,102054,1,0,3:0:0:0:
281,156,102396,2,0,L|297:25,2,129.599996044922,0|0|0,3:0|3:0|3:0,0:0:0:0:
100,95,104111,2,0,P|78:66|23:37,2,86.3999973632813,8|0|8,0:0|3:0|0:0,0:0:0:0:
48,175,105139,6,0,P|33:243|68:295,1,129.599996044922,6|2,3:2|0:0,0:0:0:0:
147,335,105996,1,2,0:0:0:0:
240,319,106339,2,0,P|260:282|249:241,1,86.3999973632813,2|0,0:0|0:0,0:0:0:0:
340,211,107025,2,0,P|395:241|456:225,1,129.599996044922,2|0,0:0|3:0,0:0:0:0:
477,133,107882,1,2,3:2:0:0:
304,51,108568,2,0,P|248:20|187:36,2,129.599996044922,2|2|0,3:2|0:0|3:0,0:0:0:0:
304,146,109939,1,2,3:2:0:0:
214,177,110282,1,8,0:0:0:0:
124,146,110625,6,0,P|61:200|46:274,1,144,6|6,3:2|3:2,0:0:0:0:
46,352,111482,1,8,0:0:0:0:
141,364,111825,2,0,L|243:371,1,96,6|8,3:2|0:0,0:0:0:0:
329,345,112511,2,0,L|414:217,1,144,6|8,3:2|0:0,0:0:0:0:
362,143,113368,5,4,3:2:0:0:
353,48,113711,1,8,0:0:0:0:
257,30,114053,1,0,3:0:0:0:
210,111,114396,2,0,P|159:154|78:160,1,144,8|8,0:0|0:0,0:0:0:0:
11,98,115254,1,8,0:0:0:0:
74,26,115596,1,8,0:0:0:0:
232,20,116111,6,0,P|278:15|341:46,1,96,12|8,0:0|0:0,0:0:0:0:
401,89,116796,1,8,0:0:0:0:
459,236,117311,1,12,0:0:0:0:
478,330,117654,2,0,P|409:337|314:291,1,144,8|8,0:0|0:0,0:0:0:0:
150,96,119196,6,0,P|124:52|77:34,1,96,12|0,0:0|3:0,0:0:0:0:
25,110,119882,2,0,P|51:154|98:172,1,96,12|0,0:0|3:0,0:0:0:0:
185,190,120568,1,12,0:0:0:0:
268,143,120911,2,0,P|307:124|363:113,2,96,2|12|0,3:2|0:0|3:0,0:0:0:0:
191,85,121939,6,0,L|95:121,1,96,12|0,0:0|3:0,0:0:0:0:
93,215,122625,2,0,L|129:309,1,96,12|0,0:0|3:0,0:0:0:0:
223,313,123311,1,4,3:2:0:0:
289,244,123654,2,0,P|328:225|384:214,1,96,0|8,3:0|0:0,0:0:0:0:
475,223,124339,6,0,P|507:299|425:366,1,192,4|0,3:2|3:0,0:0:0:0:
339,367,125368,1,8,0:0:0:0:
191,240,126054,1,8,0:0:0:0:
159,149,126396,2,0,L|183:47,1,96,2|8,3:2|0:0,0:0:0:0:
272,24,127082,6,0,P|314:39|330:101,1,96,6|8,3:2|0:0,0:0:0:0:
337,180,127768,2,0,P|274:202|250:295,1,144,2|2,3:2|3:2,0:0:0:0:
180,340,128625,1,10,0:0:0:0:
92,300,128968,1,10,0:0:0:0:
30,226,129311,1,8,0:0:0:0:
140,112,129825,1,6,3:2:0:0:
256,192,129996,12,2,132568,3:2:0:0:
44,340,140796,6,0,P|84:281|173:264,1,153.6,6|0,3:2|1:0,0:0:0:0:
289,337,141996,1,2,3:2:0:0:
379,355,142339,2,0,P|416:318|409:251,1,115.2,2|0,3:2|1:0,0:0:0:0:
379,172,143196,1,0,3:0:0:0:
426,92,143539,6,0,L|515:82,2,76.8,2|2|0,3:2|0:0|1:0,0:0:0:0:
284,43,144739,1,2,3:2:0:0:
192,36,145082,2,0,L|67:49,1,115.2,2|0,3:2|1:0,0:0:0:0:
39,228,146282,6,0,P|56:286|140:331,1,153.6,2|0,3:2|1:0,0:0:0:0:
261,249,147482,1,2,3:2:0:0:
264,156,147825,2,0,P|260:98|280:24,1,115.2,2|0,3:2|1:0,0:0:0:0:
361,65,148682,1,0,3:0:0:0:
453,60,149025,6,0,P|455:96|443:142,1,76.8,2|2,3:2|0:0,0:0:0:0:
428,226,149711,1,0,1:0:0:0:
332,338,150225,1,2,3:2:0:0:
243,364,150568,2,0,P|188:348|148:309,1,115.2,2|0,3:2|1:0,0:0:0:0:
296,176,151768,6,0,P|331:111|298:33,1,153.6,6|0,3:2|1:0,0:0:0:0:
156,24,152968,1,6,3:2:0:0:
71,61,153311,1,2,3:2:0:0:
68,210,153825,2,0,P|68:253|56:299,1,76.8,0|0,1:0|0:0,0:0:0:0:
150,316,154511,6,0,P|263:167|343:146,1,268.8,6|0,3:2|3:0,0:0:0:0:
374,231,156054,2,0,P|427:236|503:215,1,115.2,0|0,3:0|1:0,0:0:0:0:
502,131,156911,1,2,0:0:0:0:
413,99,157254,6,0,P|403:56|406:8,2,86.3999973632813,4|8|8,1:2|0:0|0:0,0:0:0:0:
498,229,158454,2,0,P|440:292|375:305,1,129.599996044922,12|0,0:0|1:0,0:0:0:0:
326,244,159311,1,0,1:0:0:0:
236,210,159654,1,8,0:0:0:0:
46,242,160339,6,0,P|31:290|32:346,1,96,12|0,0:0|3:0,0:0:0:0:
124,353,161025,2,0,P|139:305|138:249,1,96,12|0,0:0|3:0,0:0:0:0:
135,163,161711,1,12,0:0:0:0:
209,102,162054,2,0,P|257:117|313:116,1,96,8|8,0:0|0:0,0:0:0:0:
374,40,162739,5,4,3:2:0:0:
471,80,163082,2,0,P|485:131|460:181,1,105.600003222656,8|2,0:0|3:2,0:0:0:0:
372,325,163939,2,0,P|295:346|220:308,1,158.400004833985,2|8,3:2|0:0,0:0:0:0:
260,214,164796,2,0,P|259:163|248:109,1,105.600003222656,2|8,3:2|0:0,0:0:0:0:
199,15,165482,1,0,3:0:0:0:
95,37,165825,6,0,P|95:87|106:141,1,105.600003222656,8|2,0:0|3:2,0:0:0:0:
13,288,166682,2,0,P|89:341|141:310,1,158.400004833985,2|8,3:2|0:0,0:0:0:0:
210,236,167539,1,2,3:2:0:0:
314,220,167882,1,8,0:0:0:0:
298,116,168225,5,4,3:2:0:0:
461,56,168739,2,0,P|497:137|442:265,1,211.200006445313,2|0,0:0|3:0,0:0:0:0:
296,307,169939,2,0,P|244:302|186:276,1,105.600003222656,8|2,0:0|3:2,0:0:0:0:
96,243,170625,1,8,0:0:0:0:
29,161,170968,5,4,3:2:0:0:
138,24,171482,2,0,L|390:40,1,211.200006445313,2|4,0:0|3:2,0:0:0:0:
277,196,172682,2,0,P|260:246|277:305,1,105.600003222656,2|2,0:0|0:0,0:0:0:0:
358,356,173368,1,2,0:0:0:0:
456,318,173711,5,4,3:2:0:0:
510,227,174054,2,0,P|470:195|418:181,1,105.600003222656,8|2,0:0|3:2,0:0:0:0:
263,261,174911,2,0,P|211:193|220:117,1,158.400004833985,2|8,3:2|0:0,0:0:0:0:
119,82,175768,2,0,P|73:116|23:110,1,105.600003222656,2|8,3:2|0:0,0:0:0:0:
16,218,176454,1,4,3:2:0:0:
113,256,176796,6,0,P|110:307|99:371,1,105.600003222656,8|2,0:0|3:2,0:0:0:0:
275,349,177654,2,0,P|279:272|296:176,1,158.400004833985,2|8,3:2|0:0,0:0:0:0:
309,87,178511,1,2,3:2:0:0:
409,55,178854,1,0,3:0:0:0:
480,132,179196,5,4,3:2:0:0:
491,306,179711,2,0,L|280:327,1,211.200006445313,2|0,0:0|3:0,0:0:0:0:
115,375,180911,2,0,P|90:324|100:264,1,105.600003222656,8|2,0:0|3:2,0:0:0:0:
169,201,181596,1,8,0:0:0:0:
267,162,181939,5,4,3:2:0:0:
152,26,182454,2,0,P|61:52|24:159,1,211.200006445313,2|4,0:0|3:2,0:0:0:0:
35,258,183482,1,8,0:0:0:0:
207,230,183996,1,12,0:0:0:0:
307,263,184339,1,8,0:0:0:0:
254,355,184682,1,4,3:2:0:0:
254,355,187425,5,4,3:2:0:0:
256,192,187596,12,2,190167,3:2:0:0:
57,71,191710,6,0,P|93:106|103:161,1,96,0|2,3:0|3:2,0:0:0:0:
92,244,192396,1,2,0:0:0:0:
200,359,192910,6,0,L|305:349,1,96,4|8,3:2|0:0,0:0:0:0:
329,259,193596,2,0,L|487:274,1,144,2|2,3:2|3:2,0:0:0:0:
506,182,194453,1,0,3:0:0:0:
497,86,194796,1,2,3:2:0:0:
412,39,195139,1,0,3:0:0:0:
258,80,195653,6,0,P|217:101|160:110,1,96,6|10,3:2|0:0,0:0:0:0:
72,99,196339,2,0,P|57:163|8:228,1,144,2|6,3:2|3:2,0:0:0:0:
22,320,197196,1,10,0:0:0:0:
98,377,197539,1,10,0:0:0:0:
186,338,197882,1,10,0:0:0:0:
228,185,198396,6,0,P|224:137|203:82,2,96,4|10|0,3:2|0:0|3:0,0:0:0:0:
369,112,199596,1,2,3:2:0:0:
450,163,199939,2,0,P|434:208|430:256,1,96,0|2,3:0|3:2,0:0:0:0:
436,351,200625,1,0,3:0:0:0:
278,365,201139,5,4,3:2:0:0:
182,359,201482,2,0,P|123:321|73:255,1,144,10|2,0:0|3:2,0:0:0:0:
69,167,202339,1,2,3:2:0:0:
118,84,202682,2,0,P|163:74|217:81,1,96,0|2,3:0|3:2,0:0:0:0:
286,140,203367,1,0,3:0:0:0:
383,270,203882,5,4,3:2:0:0:
457,209,204225,2,0,P|480:150|461:65,1,144,8|0,0:0|3:0,0:0:0:0:
381,33,205082,1,2,3:2:0:0:
289,63,205425,2,0,P|239:57|194:18,2,96,2|0|2,3:2|3:0|3:2,0:0:0:0:
250,216,206625,5,4,3:2:0:0:
164,173,206967,2,0,P|97:203|71:278,1,144,8|0,0:0|3:0,0:0:0:0:
104,355,207825,2,0,L|254:340,1,144,6|10,3:2|0:0,0:0:0:0:
322,280,208682,1,14,0:0:0:0:
384,353,209025,1,10,0:0:0:0:
456,290,209367,6,0,P|449:167|304:55,1,307.2,6|2,3:2|0:0,0:0:0:0:
313,56,212452,6,0,L|216:46,1,96,12|0,0:0|0:0,0:0:0:0:
168,130,213138,2,0,L|158:226,1,96,12|0,0:0|3:0,0:0:0:0:
186,318,213824,2,0,L|282:327,1,96,12|0,0:0|3:0,0:0:0:0:
330,244,214510,2,0,L|339:147,1,96,12|0,0:0|3:0,0:0:0:0:
258,97,215195,5,12,0:0:0:0:
210,15,215538,1,0,3:0:0:0:
115,35,215881,1,12,0:0:0:0:
105,132,216224,1,0,3:0:0:0:
193,170,216567,1,8,0:0:0:0:
403,368,217595,6,0,P|499:199|348:25,1,446.399986376954,6|6,3:2|3:2,0:0:0:0:
