osu file format v14

[General]
AudioFilename: audio.mp3
AudioLeadIn: 0
PreviewTime: 26
Countdown: 0
SampleSet: Soft
StackLeniency: 1
Mode: 0
LetterboxInBreaks: 0
WidescreenStoryboard: 1

[Editor]
DistanceSpacing: 1
BeatDivisor: 4
GridSize: 8
TimelineZoom: 2.2

[Metadata]
Title:Roskill Lavender
TitleUnicode:Roskill Lavender
Artist:YUZUKINGDOM
ArtistUnicode:YUZUKINGDOM
Creator:Nao Tomori
Version:Easy
Source:
Tags:ryu blood stain child q'ulle genesis king single metalcore japanese rock metal icekalt pishifat yugu lasse
BeatmapID:2908638
BeatmapSetID:1410727

[Difficulty]
HPDrainRate:2
CircleSize:2.5
OverallDifficulty:2.5
ApproachRate:4
SliderMultiplier:0.899999999999999
SliderTickRate:1

[Events]
//Background and Video events
0,0,"higanbanana.jpg",0,0
//Break Periods
2,79476,81706
2,84276,86056
2,167226,172756
2,193476,199156
//Storyboard Layer 0 (Background)
//Storyboard Layer 1 (Fail)
//Storyboard Layer 2 (Pass)
//Storyboard Layer 3 (Foreground)
//Storyboard Layer 4 (Overlay)
//Storyboard Sound Samples

[TimingPoints]
76,300,4,2,1,40,1,0
76,-111.111111111111,4,2,1,40,0,0
226,300,4,2,1,40,1,0
226,-111.111111111111,4,2,1,40,0,0
1276,-90.9090909090909,4,2,1,80,0,0
12076,-100,4,2,1,60,0,0
13426,-100,4,2,1,60,0,0
19276,-100,4,2,1,50,0,0
20026,-100,4,2,1,70,0,0
20476,-100,4,2,1,70,0,0
30826,-100,4,2,1,50,0,0
35026,-100,4,2,1,70,0,0
44476,-100,4,2,1,70,0,0
49276,-90.9090909090909,4,2,1,80,0,1
68476,-90.9090909090909,4,2,1,80,0,0
78226,-100,4,2,1,60,0,0
87226,-100,4,2,1,70,0,0
87676,-100,4,2,1,70,0,0
98026,-100,4,2,1,50,0,0
102226,-100,4,2,1,70,0,0
107626,-111.111111111111,4,2,1,50,0,0
111676,-100,4,2,1,70,0,0
116476,-90.9090909090909,4,2,1,80,0,1
135676,-100,4,2,1,80,0,0
136426,-100,4,2,1,70,0,0
139426,-100,4,2,1,70,0,0
141226,-100,4,2,1,70,0,0
143626,-100,4,2,1,70,0,0
145426,-100,4,2,1,70,0,0
153826,-100,4,2,1,70,0,0
155026,-100,4,2,1,70,0,0
168901,-100,4,2,1,70,0,0
169426,-100,4,2,1,70,0,0
174076,-90.9090909090909,4,2,1,80,0,0
177601,-90.9090909090909,4,2,1,80,0,0
178876,-90.9090909090909,4,2,1,80,0,0
182476,-90.9090909090909,4,2,1,80,0,0
183601,-90.9090909090909,4,2,1,80,0,0
193276,-100,4,2,1,80,0,0
200476,-90.9090909090909,4,2,1,80,0,0
202876,-90.9090909090909,4,2,1,80,0,1
220876,-90.9090909090909,4,2,1,80,0,1
222076,-90.9090909090909,4,2,1,80,0,0

[Colours]
Combo1 : 181,167,248
Combo2 : 237,109,109
Combo3 : 168,242,232
Combo4 : 235,120,27

[HitObjects]
435,115,1276,6,0,P|366:109|317:165,1,148.50000453186,6|8,3:2|0:2,0:0:0:0:
339,261,2026,1,2,3:2:0:0:
217,341,2476,2,0,B|157:348|126:361|126:361|82:314,1,148.50000453186,2|8,3:2|0:2,0:0:0:0:
9,260,3226,2,0,P|5:221|28:157,1,99.0000030212402,2|8,3:2|0:2,0:0:0:0:
19,115,3676,6,0,P|65:116|145:178,1,148.50000453186,2|8,3:2|0:2,0:0:0:0:
182,267,4426,1,2,3:2:0:0:
329,249,4876,2,0,P|371:260|430:187,1,148.50000453186,6|8,3:2|0:2,0:0:0:0:
412,140,5476,2,0,B|381:124|360:92|360:92|345:122|300:141,1,148.50000453186,6|8,3:2|2:2,0:0:0:0:
262,109,6076,6,0,B|212:102|184:129|201:147|169:165|122:174,1,148.50000453186,6|8,3:2|0:2,0:0:0:0:
55,111,6826,1,2,3:2:0:0:
8,252,7276,2,0,B|-3:342|-3:342|13:352|62:336,1,148.50000453186,2|8,3:2|0:2,0:0:0:0:
146,371,8026,2,0,P|176:346|244:337,1,99.0000030212402,2|8,3:2|0:2,0:0:0:0:
255,291,8476,6,0,P|297:321|393:321,1,148.50000453186,6|8,3:2|0:2,0:0:0:0:
476,271,9226,1,2,3:2:0:0:
418,133,9676,2,0,B|369:141|369:141|355:168|355:168|274:184,1,148.50000453186,2|8,3:2|0:2,0:0:0:0:
210,119,10426,2,0,L|220:40,2,74.2500022659302,8|8|8,0:2|0:2|0:2,0:0:0:0:
164,139,11026,6,0,P|131:138|49:220,2,148.50000453186,8|8|8,2:2|2:2|2:2,0:0:0:0:
195,163,12076,1,8,0:2:0:0:
195,163,13426,2,0,B|250:171|250:171|329:141,2,135,8|8|8,0:2|0:0|0:0,0:0:0:0:
170,206,14476,1,8,0:2:0:0:
170,206,15826,6,0,P|160:151|226:93,1,135,8|8,0:2|0:0,0:0:0:0:
304,120,16576,1,8,0:2:0:0:
361,46,16876,1,8,0:2:0:0:
361,46,18226,2,0,B|384:77|384:77|482:103,1,135,8|8,0:2|0:0,0:0:0:0:
424,176,18976,1,8,0:2:0:0:
500,243,19276,1,8,0:2:0:0:
500,243,20476,6,0,P|446:254|391:318,1,135,6|0,3:2|3:2,0:0:0:0:
327,372,21226,1,8,0:2:0:0:
203,316,21676,2,0,L|219:177,1,135,2|0,3:2|3:2,0:0:0:0:
166,108,22426,2,0,L|83:150,1,89.9999999999999,8|0,0:2|3:2,0:0:0:0:
43,131,22876,6,0,B|39:111|25:85|25:85|30:40|82:22,1,135,6|2,3:2|3:2,0:0:0:0:
167,17,23626,1,8,0:2:0:0:
257,117,24076,2,0,B|337:99|337:99|355:78|380:59,1,135,2|8,3:2|0:2,0:0:0:0:
446,117,24826,2,0,L|507:131,2,45,8|8|8,0:2|0:2|0:2,0:0:0:0:
417,152,25276,6,0,P|417:219|403:292,1,135,6|2,3:2|3:2,0:0:0:0:
343,350,26026,1,10,0:2:0:0:
231,273,26476,1,2,3:2:0:0:
117,345,26926,2,0,P|100:310|93:245,1,89.9999999999999,2|8,0:2|0:2,0:0:0:0:
168,148,27676,6,0,B|177:1,1,135,2|8,3:2|0:2,0:0:0:0:
266,8,28426,2,0,L|262:98,1,89.9999999999999,8|8,0:2|2:2,0:0:0:0:
295,127,28876,2,0,P|353:109|419:146,1,135,2|8,3:2|0:2,0:0:0:0:
452,224,29626,1,8,0:2:0:0:
394,293,29926,1,8,0:2:0:0:
304,286,30226,6,0,L|276:358,2,67.4999999999999,8|8|8,0:2|0:2|0:2,0:0:0:0:
278,254,30826,1,2,3:2:0:0:
278,254,32626,2,0,L|207:272,2,67.4999999999999,8|8|8,0:2|2:0|0:0,0:0:0:0:
293,216,33226,1,2,3:2:0:0:
293,216,35026,6,0,P|331:176|458:176,1,180,6|8,3:2|0:2,0:0:0:0:
361,14,36226,2,0,B|310:13|281:55|303:66|286:110|217:126,1,180,0|8,3:2|0:2,0:0:0:0:
141,278,37426,2,0,B|85:243|85:243|23:271,2,135,2|2|2,3:2|0:2|0:2,0:0:0:0:
207,339,38626,2,0,B|237:359|269:351|269:351|286:317|337:302,2,135,6|2|2,3:2|0:2|0:2,0:0:0:0:
193,249,39826,6,0,L|211:176,2,67.4999999999999,8|8|8,0:2|0:2|0:2,0:0:0:0:
148,267,40426,1,2,3:2:0:0:
148,267,42226,2,0,L|164:332,2,67.4999999999999,8|8|8,0:2|0:2|0:2,0:0:0:0:
100,251,42826,1,2,3:2:0:0:
165,82,43426,2,0,P|256:51|301:79,2,135,10|10|8,0:2|0:2|0:2,0:0:0:0:
138,118,44476,6,0,L|41:102,2,89.9999999999999,6|0|0,3:2|3:2|3:2,0:0:0:0:
155,159,45226,1,8,0:2:0:0:
275,220,45676,2,0,P|326:225|368:191,2,89.9999999999999,0|0|0,3:2|3:2|3:2,0:0:0:0:
249,183,46426,2,0,L|263:83,1,89.9999999999999,8|8,0:2|0:2,0:0:0:0:
262,48,46876,6,0,L|122:30,1,135,2|8,3:2|0:2,0:0:0:0:
59,88,47626,1,8,0:2:0:0:
100,167,47926,2,0,B|86:206|75:229|75:229|103:290|173:297,1,180,8|8,0:2|0:2,0:0:0:0:
202,277,48676,2,0,P|288:243|342:228,1,135,4|8,2:3|0:2,0:0:0:0:
373,253,49276,6,0,P|373:179|380:97,1,148.50000453186,6|10,3:2|0:2,0:0:0:0:
454,40,50026,1,2,3:2:0:0:
508,160,50476,2,0,P|510:209|498:272,1,99.0000030212402,2|0,3:2|3:2,0:0:0:0:
502,307,50926,1,10,0:2:0:0:
425,369,51226,2,0,P|395:344|329:332,1,99.0000030212402,2|8,3:2|0:2,0:0:0:0:
302,296,51676,6,0,P|268:339|168:356,2,148.50000453186,2|10|0,3:2|0:2|3:2,0:0:0:0:
307,196,52876,1,6,3:2:0:0:
370,120,53176,1,2,3:2:0:0:
468,130,53476,2,0,L|482:244,1,99.0000030212402,6|0,3:2|3:2,0:0:0:0:
457,324,54076,6,0,P|420:293|311:311,1,148.50000453186,6|10,0:2|0:2,0:0:0:0:
240,352,54826,2,0,P|194:369|147:358,1,99.0000030212402,2|8,3:2|0:2,0:0:0:0:
104,332,55276,2,0,B|87:345|74:358|74:358|33:308|48:254,1,148.50000453186,2|10,3:2|0:2,0:0:0:0:
100,173,56026,1,2,3:2:0:0:
18,48,56476,1,2,3:2:0:0:
161,9,56926,2,0,L|266:36,2,99.0000030212402,8|10|8,0:2|0:2|0:2,0:0:0:0:
132,49,57676,5,6,3:2:0:0:
177,136,57976,1,2,3:2:0:0:
274,152,58276,1,2,3:2:0:0:
350,89,58576,1,8,0:2:0:0:
431,144,58876,6,0,B|424:168|412:186|412:185|412:185|446:297,1,148.50000453186,6|10,3:2|0:2,0:0:0:0:
377,359,59626,2,0,P|333:379|284:357,1,99.0000030212402,2|8,3:2|0:2,0:0:0:0:
250,329,60076,2,0,L|267:220,1,99.0000030212402,2|0,3:2|3:2,0:0:0:0:
244,185,60526,1,10,0:2:0:0:
170,119,60826,2,0,P|127:114|83:152,1,99.0000030212402,2|8,3:2|0:2,0:0:0:0:
46,177,61276,6,0,B|28:262|28:262|53:283|69:333,2,148.50000453186,2|10|0,3:2|0:2|3:2,0:0:0:0:
19,81,62476,1,6,3:2:0:0:
105,32,62776,1,2,3:2:0:0:
177,99,63076,2,0,P|217:110|275:80,1,99.0000030212402,6|0,2:2|3:2,0:0:0:0:
332,12,63676,6,0,B|354:41|387:45|387:45|419:11|478:18,1,148.50000453186,6|10,3:2|0:2,0:0:0:0:
505,106,64426,2,0,P|523:148|510:214,1,99.0000030212402,2|8,3:2|0:2,0:0:0:0:
487,239,64876,2,0,P|440:234|361:312,1,148.50000453186,2|10,3:2|0:2,0:0:0:0:
292,361,65626,1,2,3:2:0:0:
150,308,66076,1,2,3:2:0:0:
15,371,66526,2,0,P|15:324|1:251,2,99.0000030212402,8|8|8,0:2|0:2|0:2,0:0:0:0:
64,365,67276,6,0,B|92:355|126:316|126:316|122:290|122:290|155:244|217:234,1,198.00000604248,6|4,3:2|3:2,0:0:0:0:
294,251,68176,1,10,0:2:0:0:
334,341,68476,6,0,P|383:357|476:180,1,297.000009063721,6|0,3:2|3:2,0:0:0:0:
422,106,69676,2,0,B|362:131|362:131|360:137|360:137|286:168,1,148.50000453186,2|8,3:2|0:2,0:0:0:0:
204,114,70426,2,0,P|163:100|94:90,1,99.0000030212402,0|8,3:2|0:2,0:0:0:0:
74,127,70876,6,0,P|57:163|40:283,1,148.50000453186,2|8,3:2|0:2,0:0:0:0:
110,338,71626,1,0,3:2:0:0:
241,268,72076,2,0,P|282:263|338:298,1,99.0000030212402,2|0,3:2|3:2,0:0:0:0:
418,338,72676,2,0,P|416:302|461:247,1,99.0000030212402,2|0,3:2|3:2,0:0:0:0:
486,159,73276,6,0,P|441:131|365:179,1,148.50000453186,6|10,3:2|0:2,0:0:0:0:
296,244,74026,2,0,P|244:271|203:292,1,99.0000030212402,0|8,3:2|0:2,0:0:0:0:
167,318,74476,2,0,P|141:275|105:177,1,148.50000453186,2|8,3:2|0:2,0:0:0:0:
160,100,75226,1,2,3:2:0:0:
298,45,75676,6,0,B|349:50|364:77|350:76|381:127|432:124,1,148.50000453186,2|10,3:2|0:2,0:0:0:0:
510,89,76426,2,0,P|501:150|494:206,1,99.0000030212402,2|8,3:2|0:2,0:0:0:0:
507,235,76876,2,0,B|478:283|478:283|374:261,1,148.50000453186,2|8,3:2|0:2,0:0:0:0:
293,231,77626,2,0,L|290:149,2,74.2500022659302,8|8|8,0:2|0:2|0:2,0:0:0:0:
271,270,78226,6,0,P|204:265|133:310,2,135,8|8|8,0:2|0:2|0:2,0:0:0:0:
298,306,79276,1,8,0:2:0:0:
298,306,83026,6,0,P|362:325|427:342,2,135,8|8|8,0:2|0:2|0:2,0:0:0:0:
266,338,84076,1,8,0:2:0:0:
266,338,87376,5,8,0:3:0:0:
199,277,87676,2,0,P|155:250|74:266,1,135,6|0,3:2|3:2,0:0:0:0:
6,206,88426,2,0,P|0:167|46:86,2,135,8|0|2,0:2|3:2|0:2,0:0:0:0:
76,264,89626,1,8,2:2:0:0:
185,184,90076,6,0,B|235:191|235:191|256:206|256:206|323:215,1,135,2|2,3:2|3:2,0:0:0:0:
397,179,90826,2,0,L|428:32,2,135,8|2|8,0:2|3:2|0:2,0:0:0:0:
466,235,92026,2,0,P|484:280|466:329,1,89.9999999999999,8|8,0:2|0:2,0:0:0:0:
436,344,92476,6,0,P|383:315|305:320,1,135,2|2,3:2|3:2,0:0:0:0:
225,286,93226,2,0,P|179:310|127:334,1,89.9999999999999,10|2,0:2|3:2,0:0:0:0:
117,362,93676,2,0,P|94:323|54:237,1,135,2|2,3:2|3:2,0:0:0:0:
113,172,94426,2,0,P|140:122|103:52,2,135,10|2|8,0:2|3:2|0:2,0:0:0:0:
186,224,95626,2,0,P|224:214|286:197,1,89.9999999999999,8|8,0:2|0:2,0:0:0:0:
291,159,96076,6,0,P|360:177|443:192,1,135,2|10,3:2|0:2,0:0:0:0:
488,250,96826,1,10,0:2:0:0:
460,335,97126,1,8,0:2:0:0:
373,360,97426,6,0,P|342:367|297:379,2,67.4999999999999,8|8|8,0:2|0:2|0:2,0:0:0:0:
365,315,98026,1,2,3:2:0:0:
365,315,99826,2,0,P|380:270|389:240,2,67.4999999999999,8|8|8,0:2|0:2|0:2,0:0:0:0:
324,294,100426,1,2,3:2:0:0:
324,294,102226,6,0,P|269:286|163:371,1,180,2|8,3:2|0:2,0:0:0:0:
37,231,103426,2,0,B|13:207|-12:197|-12:197|18:69,1,180,2|10,3:2|0:2,0:0:0:0:
188,30,104626,2,0,P|212:48|275:79,1,89.9999999999999,2|0,3:2|0:2,0:0:0:0:
281,117,105076,2,0,P|331:81|406:76,1,135,2|2,0:2|0:2,0:0:0:0:
476,127,105826,2,0,L|466:221,1,89.9999999999999,2|0,3:2|0:2,0:0:0:0:
437,251,106276,2,0,B|395:244|373:226|373:226|364:248|325:280,1,135,2|2,0:2|0:2,0:0:0:0:
240,268,107026,6,0,L|226:335,2,67.4999999999999,8|8|8,0:2|0:2|0:2,0:0:0:0:
225,230,107626,1,2,3:2:0:0:
225,230,109426,6,0,L|212:169,2,60.7499981460571,8|8|8,0:2|0:2|0:2,0:0:0:0:
260,249,110026,1,2,3:2:0:0:
391,153,110626,2,0,P|434:121|507:128,2,121.499996292114,14|14|8,0:2|0:2|0:2,0:0:0:0:
354,180,111676,6,0,P|309:169|258:157,2,89.9999999999999,6|0|0,3:2|3:2|3:2,0:0:0:0:
384,213,112426,1,8,0:2:0:0:
268,282,112876,2,0,P|201:328|149:372,1,135,0|2,3:2|0:0,0:0:0:0:
76,327,113626,2,0,P|72:284|66:238,1,89.9999999999999,8|4,0:2|0:3,0:0:0:0:
91,200,114076,6,0,P|96:158|102:62,1,135,6|10,3:2|2:2,0:0:0:0:
193,72,114826,2,0,P|231:68|290:32,1,89.9999999999999,10|10,0:2|0:2,0:0:0:0:
317,25,115276,2,0,P|382:47|461:52,1,135,2|4,3:2|0:3,0:0:0:0:
490,37,115876,1,2,3:2:0:0:
392,209,116476,6,0,B|383:234|368:255|368:255|438:348,1,148.50000453186,6|10,3:2|0:2,0:0:0:0:
489,255,117226,2,0,L|483:145,1,99.0000030212402,2|8,3:2|0:2,0:0:0:0:
500,109,117676,2,0,P|454:69|354:90,1,148.50000453186,2|10,3:2|0:2,0:0:0:0:
297,142,118426,2,0,P|241:180|207:175,1,99.0000030212402,2|8,3:2|0:2,0:0:0:0:
169,153,118876,6,0,P|116:154|51:156,1,99.0000030212402,2|2,3:2|3:2,0:0:0:0:
26,131,119326,2,0,P|4:173|18:339,1,198.00000604248,10|8,0:2|0:2,0:0:0:0:
45,352,120076,1,6,3:2:0:0:
121,289,120376,1,2,3:2:0:0:
201,346,120676,2,0,P|235:362|313:347,1,99.0000030212402,6|0,2:2|3:2,0:0:0:0:
393,350,121276,6,0,L|373:196,1,148.50000453186,6|10,3:2|0:2,0:0:0:0:
453,143,122026,2,0,P|457:96|429:37,1,99.0000030212402,2|8,3:2|0:2,0:0:0:0:
400,16,122476,2,0,B|351:8|321:48|348:52|322:92|274:102,1,148.50000453186,2|10,3:2|0:2,0:0:0:0:
205,44,123226,2,0,P|159:28|109:45,1,99.0000030212402,2|8,3:2|0:2,0:0:0:0:
86,84,123676,6,0,L|105:187,1,99.0000030212402,2|0,3:2|3:2,0:0:0:0:
85,227,124126,2,0,P|70:276|55:331,2,99.0000030212402,10|10|8,0:2|0:2|0:2,0:0:0:0:
133,238,124876,1,6,3:2:0:0:
229,217,125176,1,2,3:2:0:0:
322,250,125476,1,2,3:2:0:0:
418,229,125776,1,10,0:2:0:0:
483,302,126076,6,0,P|457:352|366:369,1,148.50000453186,6|10,3:2|0:2,0:0:0:0:
283,327,126826,2,0,P|235:315|189:327,1,99.0000030212402,2|8,3:2|0:2,0:0:0:0:
150,359,127276,2,0,B|114:377|114:377|67:349|80:270,1,148.50000453186,2|10,3:2|0:2,0:0:0:0:
146,210,128026,1,2,3:2:0:0:
71,81,128476,1,2,3:2:0:0:
218,66,128926,2,0,B|321:82|321:82|338:115|359:127,1,148.50000453186,10|0,0:2|3:2,0:0:0:0:
443,139,129676,5,6,3:2:0:0:
487,227,129976,1,2,3:2:0:0:
433,310,130276,1,6,2:2:0:0:
335,290,130576,1,0,3:2:0:0:
277,209,130876,6,0,P|218:199|119:183,1,148.50000453186,6|10,3:2|0:2,0:0:0:0:
43,232,131626,2,0,P|20:270|19:335,1,99.0000030212402,2|8,3:2|0:2,0:0:0:0:
44,364,132076,2,0,B|140:345|140:345|183:371,1,148.50000453186,2|10,3:2|0:2,0:0:0:0:
274,330,132826,2,0,P|317:320|375:318,1,99.0000030212402,2|8,3:2|0:2,0:0:0:0:
418,333,133276,6,0,P|404:281|398:232,1,99.0000030212402,2|0,3:2|3:2,0:0:0:0:
415,189,133726,2,0,P|437:134|434:77,2,99.0000030212402,10|10|8,0:2|0:2|0:2,0:0:0:0:
366,201,134476,1,6,2:2:0:0:
279,151,134776,1,2,3:2:0:0:
198,208,135076,1,2,3:2:0:0:
207,306,135376,1,10,0:2:0:0:
305,300,135676,6,0,P|360:281|501:359,1,225,10|2,0:2|0:2,0:0:0:0:
510,367,137026,2,0,P|460:311|476:205,1,180,8|2,0:2|0:2,0:0:0:0:
470,212,138226,2,0,P|499:153|435:56,1,180,8|2,0:2|0:2,0:0:0:0:
446,60,139426,6,0,L|354:91,1,89.9999999999999,2|2,3:2|0:2,0:0:0:0:
286,41,140026,2,0,L|194:72,1,89.9999999999999,10|2,0:2|0:2,0:0:0:0:
115,40,140626,6,0,B|91:79|100:126|130:126|142:169|106:222,1,180,8|2,0:2|0:2,0:0:0:0:
113,211,141826,2,0,B|94:244|86:261|86:261|116:334|196:330,1,180,8|2,0:2|0:2,0:0:0:0:
179,329,143026,2,0,B|247:270|247:270|334:303,1,180,8|2,0:2|0:2,0:0:0:0:
331,301,145426,6,0,P|355:272|333:169,1,135,2|2,3:2|0:2,0:0:0:0:
263,142,146176,2,0,B|193:148|209:177|121:185,2,135,2|2|2,0:2|3:2|0:2,0:0:0:0:
299,59,147376,2,0,P|349:49|395:30,1,89.9999999999999,2|0,0:2|0:2,0:0:0:0:
426,53,147826,6,0,P|468:85|477:179,1,135,2|2,3:2|0:2,0:0:0:0:
422,229,148576,1,2,0:2:0:0:
310,304,149026,2,0,B|282:323|282:323|231:329|176:303,1,135,2|2,3:2|0:2,0:0:0:0:
106,258,149776,2,0,P|108:205|119:169,1,89.9999999999999,2|8,0:2|0:2,0:0:0:0:
132,127,150226,6,0,P|198:133|254:98,1,135,10|2,0:2|0:2,0:0:0:0:
331,51,150976,2,0,B|371:21|416:27|416:27|441:42|465:65,2,135,2|2|2,0:2|3:2|0:2,0:0:0:0:
338,140,152176,2,0,L|360:235,1,89.9999999999999,2|8,0:2|0:2,0:0:0:0:
382,265,152626,6,0,P|430:273|510:222,2,135,10|10|8,0:2|0:2|0:2,0:0:0:0:
330,338,153826,2,2,B|249:366|195:297|225:293|187:216|101:233,1,270,0|0,0:2|0:0,0:1:0:0:
32,284,155026,6,0,P|52:247|17:148,1,135,6|10,3:2|0:2,0:0:0:0:
81,86,155776,2,0,L|178:118,1,89.9999999999999,10|8,0:2|0:2,0:0:0:0:
204,90,156226,2,0,L|308:60,1,89.9999999999999,2|0,3:2|3:2,0:0:0:0:
331,83,156676,1,10,0:2:0:0:
406,33,156976,1,10,0:2:0:0:
507,121,157426,6,0,P|498:163|418:190,2,135,2|10|0,3:2|0:2|3:2,0:0:0:0:
447,53,158626,2,0,L|339:40,1,89.9999999999999,2|0,3:2|3:2,0:0:0:0:
322,70,159076,1,10,2:2:0:0:
239,34,159376,1,8,0:2:0:0:
123,104,159826,6,0,L|142:250,1,135,2|10,3:2|0:2,0:0:0:0:
169,322,160576,2,0,P|216:343|256:324,1,89.9999999999999,10|8,0:2|0:2,0:0:0:0:
286,303,161026,2,0,P|329:270|424:271,1,135,2|10,3:2|0:2,0:0:0:0:
463,194,161776,2,0,L|466:101,1,89.9999999999999,10|8,0:2|0:2,0:0:0:0:
441,65,162226,6,0,B|382:95|382:95|348:75|296:75,1,135,2|10,3:2|0:2,0:0:0:0:
249,136,162976,1,10,0:2:0:0:
312,255,163426,2,0,B|345:299|328:339|328:339|278:373,1,135,2|10,3:2|0:2,0:0:0:0:
214,316,164176,2,0,P|177:304|97:353,1,135,10|2,0:2|0:2,0:0:0:0:
256,192,164776,12,4,167026,2:2:0:0:
34,159,174076,6,0,P|85:200|166:180,1,148.50000453186,6|8,3:2|0:2,0:0:0:0:
244,128,174826,2,0,P|301:97|346:96,1,99.0000030212402,2|8,3:2|0:2,0:0:0:0:
380,112,175276,1,6,3:2:0:0:
498,201,175726,1,10,0:2:0:0:
452,288,176026,2,0,L|349:327,1,99.0000030212402,2|8,3:2|0:2,0:0:0:0:
328,361,176476,6,0,L|216:340,1,99.0000030212402,6|0,3:2|3:2,0:0:0:0:
189,370,176926,1,8,0:2:0:0:
91,353,177226,2,0,P|88:308|123:258,1,99.0000030212402,2|8,3:2|0:2,0:0:0:0:
164,255,177676,1,6,3:2:0:0:
130,161,177976,1,0,3:2:0:0:
178,74,178276,2,0,P|226:75|265:104,1,99.0000030212402,6|0,3:2|3:2,0:0:0:0:
313,191,178876,6,0,P|391:210|434:148,1,148.50000453186,6|8,3:2|0:2,0:0:0:0:
444,66,179626,2,0,B|394:53|394:53|393:51|393:51|349:41,1,99.0000030212402,2|8,3:2|0:2,0:0:0:0:
309,72,180076,2,0,B|227:96|227:96|206:76|162:60,1,148.50000453186,6|10,3:2|0:2,0:0:0:0:
75,47,180826,1,2,3:2:0:0:
115,189,181276,5,6,3:2:0:0:
45,321,181726,2,0,B|65:356|65:356|103:354|135:378,2,99.0000030212402,8|10|8,0:2|0:2|0:2,0:0:0:0:
51,271,182476,2,0,P|124:242|203:272,1,148.50000453186,6|10,3:2|0:2,0:0:0:0:
228,289,183076,1,6,3:2:0:0:
325,270,183376,1,8,0:2:0:0:
422,282,183676,6,0,P|439:255|407:139,1,148.50000453186,6|10,3:2|0:2,0:0:0:0:
322,118,184426,2,0,L|208:142,1,99.0000030212402,2|8,3:2|0:2,0:0:0:0:
202,182,184876,2,0,P|207:241|228:287,1,99.0000030212402,6|0,3:2|3:2,0:0:0:0:
206,324,185326,1,10,0:2:0:0:
114,362,185626,2,0,P|66:353|28:297,1,99.0000030212402,2|8,3:2|0:2,0:0:0:0:
50,270,186076,6,0,L|69:108,1,148.50000453186,6|8,3:2|0:2,0:0:0:0:
166,115,186826,2,0,L|153:225,1,99.0000030212402,2|8,3:2|0:2,0:0:0:0:
187,250,187276,1,6,3:2:0:0:
276,208,187576,1,0,3:2:0:0:
365,250,187876,2,0,P|422:270|506:228,1,148.50000453186,6|8,3:2|0:2,0:0:0:0:
499,186,188476,6,0,B|478:141|478:141|496:36,1,148.50000453186,6|8,3:2|0:2,0:0:0:0:
395,47,189226,1,2,3:2:0:0:
293,155,189676,1,6,3:2:0:0:
161,85,190126,1,10,0:2:0:0:
73,131,190426,2,0,P|67:173|69:232,1,99.0000030212402,2|8,3:2|0:2,0:0:0:0:
40,270,190876,6,0,P|75:250|178:291,1,148.50000453186,6|8,3:2|0:2,0:0:0:0:
246,345,191626,2,0,P|285:358|363:288,1,148.50000453186,10|6,0:2|3:2,0:0:0:0:
327,204,192376,1,6,3:2:0:0:
395,132,192676,1,6,3:2:0:0:
488,163,192976,2,0,B|499:211|499:211|501:212|501:212|513:275,1,99.0000030212402,6|4,3:2|0:3,0:0:0:0:
13,309,200476,6,0,B|70:344|181:256|118:237|209:140|325:210,1,346.500010574341,6|8,3:2|0:2,0:0:0:0:
333,245,201676,1,12,0:2:0:0:
412,186,201976,1,12,0:2:0:0:
381,92,202276,1,12,0:2:0:0:
281,94,202576,1,12,0:2:0:0:
259,188,202876,6,0,P|222:217|119:199,1,148.50000453186,6|10,3:2|0:2,0:0:0:0:
58,134,203626,2,0,L|70:27,1,99.0000030212402,2|8,3:2|0:2,0:0:0:0:
113,13,204076,2,0,B|165:33|165:33|178:54|178:54|249:76,1,148.50000453186,2|10,3:2|0:2,0:0:0:0:
326,19,204826,1,2,3:2:0:0:
448,103,205276,5,2,3:2:0:0:
401,244,205726,2,0,P|390:284|376:355,2,99.0000030212402,10|2|8,2:2|3:2|0:2,0:0:0:0:
369,205,206476,1,6,3:2:0:0:
293,269,206776,1,0,3:2:0:0:
208,217,207076,2,0,P|203:160|186:118,1,99.0000030212402,6|2,2:2|3:2,0:0:0:0:
90,142,207676,6,0,P|91:215|121:301,1,148.50000453186,6|10,3:2|0:2,0:0:0:0:
199,335,208426,2,0,P|240:324|298:310,1,99.0000030212402,2|8,3:2|0:2,0:0:0:0:
320,267,208876,2,0,L|476:281,1,148.50000453186,2|10,3:2|0:2,0:0:0:0:
496,185,209626,2,0,L|393:175,1,99.0000030212402,2|8,3:2|0:2,0:0:0:0:
369,134,210076,5,2,3:2:0:0:
233,194,210526,2,0,P|195:212|132:202,2,99.0000030212402,14|14|12,0:2|0:2|0:2,0:0:0:0:
263,154,211276,1,8,0:2:0:0:
199,78,211576,1,8,0:2:0:0:
274,14,211876,2,0,L|374:37,1,99.0000030212402,8|8,0:2|0:2,0:0:0:0:
456,86,212476,6,0,B|393:120|393:120|394:123|394:123|318:163,1,148.50000453186,6|10,3:2|0:2,0:0:0:0:
382,240,213226,2,0,P|403:287|412:343,1,99.0000030212402,2|8,3:2|0:2,0:0:0:0:
375,367,213676,2,0,P|316:352|214:336,1,148.50000453186,2|10,3:2|0:2,0:0:0:0:
136,371,214426,1,2,3:2:0:0:
29,267,214876,5,2,3:2:0:0:
140,169,215326,2,0,P|142:138|101:59,2,99.0000030212402,10|0|8,0:2|3:2|0:2,0:0:0:0:
175,203,216076,1,6,3:2:0:0:
258,149,216376,1,0,3:2:0:0:
347,191,216676,2,0,B|393:202|393:202|454:176,1,99.0000030212402,6|2,2:2|3:2,0:0:0:0:
482,91,217276,6,0,B|486:69|483:51|483:51|445:7|375:29,1,148.50000453186,6|10,3:2|0:2,0:0:0:0:
315,98,218026,1,2,3:2:0:0:
179,37,218476,1,2,3:2:0:0:
54,117,218926,1,10,0:2:0:0:
114,195,219226,2,0,P|121:245|128:314,1,99.0000030212402,2|8,3:2|0:2,0:0:0:0:
159,330,219676,1,2,3:2:0:0:
277,241,220126,2,0,L|290:131,2,99.0000030212402,10|8|8,0:2|0:2|0:2,0:0:0:0:
315,272,220876,5,6,3:2:0:0:
254,350,221176,1,2,3:2:0:0:
163,310,221476,1,6,3:2:0:0:
85,372,221776,1,10,0:2:0:0:
5,312,222076,6,0,B|-32:255|-10:126|23:94|23:94|34:137|63:150,1,297.000009063721,6|0,3:2|3:2,0:0:0:0:
145,200,223276,2,0,P|211:185|299:163,2,148.50000453186,2|10|2,3:2|0:2|3:2,0:0:0:0:
114,294,224476,6,0,P|147:342|240:330,1,148.50000453186,2|8,3:2|0:2,0:0:0:0:
310,280,225226,1,2,3:2:0:0:
454,312,225676,2,0,B|423:211|423:211|433:194|442:172,1,148.50000453186,6|8,3:2|0:2,0:0:0:0:
460,125,226276,2,0,P|419:153|317:119,1,148.50000453186,6|8,3:2|0:2,0:0:0:0:
290,99,226876,6,0,P|232:73|141:113,1,148.50000453186,6|8,3:2|0:2,0:0:0:0:
91,174,227626,2,0,L|102:280,1,99.0000030212402,2|8,3:2|0:2,0:0:0:0:
136,307,228076,2,0,B|187:298|187:298|212:316|212:316|295:302,1,148.50000453186,2|10,3:2|0:2,0:0:0:0:
351,239,228826,1,2,3:2:0:0:
498,252,229276,6,0,P|505:215|450:106,1,148.50000453186,6|8,3:2|0:2,0:0:0:0:
373,73,230026,2,0,L|264:108,1,99.0000030212402,2|8,3:2|0:2,0:0:0:0:
262,149,230476,1,12,0:2:0:0:
165,126,230776,1,12,0:2:0:0:
113,211,231076,1,12,0:2:0:0:
178,287,231376,1,12,0:2:0:0:
270,249,231676,6,0,P|308:271|308:374,1,148.50000453186,6|8,3:2|0:2,0:0:0:0:
215,358,232426,2,0,L|104:387,1,99.0000030212402,2|8,3:2|0:2,0:0:0:0:
74,361,232876,2,0,B|47:332|47:332|71:205,1,148.50000453186,2|10,3:2|0:2,0:0:0:0:
99,131,233626,1,2,3:2:0:0:
235,188,234076,5,2,3:2:0:0:
339,82,234526,2,0,P|396:63|445:73,2,99.0000030212402,8|2|8,0:2|3:2|0:2,0:0:0:0:
339,131,235276,2,0,B|393:143|415:159|401:178|445:213|484:206,1,148.50000453186,6|8,3:2|0:2,0:0:0:0:
484,250,235876,2,0,P|424:261|342:320,1,148.50000453186,6|8,3:2|0:2,0:0:0:0:
317,344,236476,6,0,P|268:368|188:313,1,148.50000453186,6|10,3:2|0:2,0:0:0:0:
235,235,237226,2,0,L|214:126,1,99.0000030212402,0|2,3:2|3:2,0:0:0:0:
209,88,237676,2,0,B|178:81|158:55|158:55|140:105|84:106,1,148.50000453186,10|2,2:2|3:2,0:0:0:0:
10,157,238426,2,0,B|-2:219|-2:219|27:258,1,99.0000030212402,0|2,3:2|3:2,0:0:0:0:
23,297,238876,6,0,P|79:255|160:273,1,148.50000453186,14|2,0:2|3:2,0:0:0:0:
220,339,239626,1,2,3:2:0:0:
335,245,240076,1,14,0:2:0:0:
252,121,240526,1,4,0:3:0:0:
296,32,240826,6,0,L|379:6,2,74.2500022659302,8|8|8,0:2|0:2|0:2,0:0:0:0:
425,243,242026,6,0,L|508:217,2,74.2500022659302,8|8|8,0:2|0:2|0:2,0:0:0:0:
