osu file format v14

[General]
AudioFilename: audio.mp3
AudioLeadIn: 0
PreviewTime: 13990
Countdown: 0
SampleSet: Normal
StackLeniency: 0
Mode: 1
LetterboxInBreaks: 0
WidescreenStoryboard: 1

[Editor]
Bookmarks: 26065,45265,64465,83665,100465,114865,134065,155665,174865,194065,208465,227665,250465,265465
DistanceSpacing: 0.4
BeatDivisor: 4
GridSize: 32
TimelineZoom: 1.5

[Metadata]
Title:National Anthem
TitleUnicode:National Anthem
Artist:YUZUKINGDOM
ArtistUnicode:YUZUKINGDOM
Creator:Nao Tomori
Version:Collab Futsuu
Source:
Tags:ryu blood stain child q'ulle genesis metalcore japanese metal raiden hivie featured artist mappers' guild taiko
BeatmapID:2994724
BeatmapSetID:1439897

[Difficulty]
HPDrainRate:6
CircleSize:4
OverallDifficulty:4
ApproachRate:9
SliderMultiplier:1.4
SliderTickRate:1

[Events]
//Background and Video events
0,0,"asmodeus.jpg",0,50
//Break Periods
//Storyboard Layer 0 (Background)
//Storyboard Layer 1 (Fail)
//Storyboard Layer 2 (Pass)
//Storyboard Layer 3 (Foreground)
//Storyboard Layer 4 (Overlay)
//Storyboard Sound Samples

[TimingPoints]
4475,300,4,1,0,70,1,0
4475,-100,4,1,0,70,0,0
14000,-100,4,1,0,90,0,0
26075,-100,4,1,0,70,0,0
64400,-100,4,1,0,90,0,0
64475,-100,4,1,0,90,0,1
83675,-100,4,1,0,90,0,0
95600,-100,4,1,0,70,0,0
124400,-100,4,1,0,90,0,0
124475,-100,4,1,0,90,0,1
143675,-100,4,1,0,90,0,0
143825,-100,4,1,0,70,0,0
174800,-100,4,1,0,80,0,0
203600,-100,4,1,0,90,0,0
203675,-100,4,1,0,90,0,1
208025,-100,4,1,0,90,0,0
218150,-100,4,1,0,70,0,0
227675,-100,4,1,0,90,0,0
237275,-100,4,1,0,90,0,1
250475,-100,4,1,0,90,0,0
251000,-100,4,1,0,70,0,0
251675,-100,4,1,0,90,0,0
265475,-100,4,1,0,100,0,0

[HitObjects]
256,192,4475,5,12,1:1:0:0:
256,192,4775,1,0,1:1:0:0:
256,192,5225,1,8,1:1:0:0:
256,192,5675,1,0,1:1:0:0:
256,192,6125,1,0,1:1:0:0:
256,192,6875,1,12,1:1:0:0:
256,192,7175,1,0,1:1:0:0:
256,192,7625,1,8,1:1:0:0:
256,192,8075,1,0,1:1:0:0:
256,192,8525,1,0,0:0:0:0:
256,192,8975,1,8,1:1:0:0:
256,192,9275,1,0,1:1:0:0:
256,192,9875,1,0,1:1:0:0:
256,192,10175,1,0,1:1:0:0:
256,192,10475,1,8,1:1:0:0:
256,192,10775,1,0,1:1:0:0:
256,192,10925,1,8,1:1:0:0:
256,192,11075,1,0,1:1:0:0:
256,192,11375,1,0,1:1:0:0:
256,192,11675,1,8,1:1:0:0:
256,192,11975,1,0,1:1:0:0:
256,192,12125,1,8,1:1:0:0:
256,192,12425,1,0,1:1:0:0:
256,192,12575,1,8,1:1:0:0:
256,192,12725,1,0,1:1:0:0:
256,192,12875,1,8,1:1:0:0:
256,192,13100,1,8,1:1:0:0:
256,192,13325,1,8,1:1:0:0:
256,192,13475,1,0,1:1:0:0:
256,192,14075,1,4,1:1:0:0:
256,192,14375,1,0,1:1:0:0:
256,192,14525,1,0,1:1:0:0:
256,192,14675,1,8,1:1:0:0:
256,192,14975,1,8,1:1:0:0:
256,192,15275,1,0,1:1:0:0:
256,192,15575,1,8,1:1:0:0:
256,192,15725,1,8,1:1:0:0:
256,192,15875,1,0,1:1:0:0:
256,192,16175,1,8,1:1:0:0:
256,192,16475,1,0,1:1:0:0:
256,192,16775,1,8,1:1:0:0:
256,192,16925,1,0,1:1:0:0:
256,192,17075,1,8,1:1:0:0:
256,192,17375,1,8,1:1:0:0:
256,192,17675,1,0,1:1:0:0:
256,192,17825,1,0,1:1:0:0:
256,192,17975,1,8,1:1:0:0:
256,192,18125,1,8,1:1:0:0:
256,192,18275,1,0,1:1:0:0:
256,192,18575,1,0,1:1:0:0:
256,192,18875,1,8,1:1:0:0:
256,192,19475,1,8,1:1:0:0:
256,192,19775,1,0,1:1:0:0:
256,192,19925,1,8,1:1:0:0:
256,192,20075,1,0,1:1:0:0:
256,192,20375,1,8,1:1:0:0:
256,192,20675,1,8,1:1:0:0:
256,192,20975,1,0,1:1:0:0:
256,192,21125,1,8,1:1:0:0:
256,192,21275,1,8,1:1:0:0:
256,192,21575,1,0,1:1:0:0:
256,192,21875,1,8,1:1:0:0:
256,192,22025,1,8,1:1:0:0:
256,192,22175,1,0,1:1:0:0:
256,192,22325,1,0,1:1:0:0:
256,192,22475,1,8,1:1:0:0:
256,192,22775,1,8,1:1:0:0:
256,192,23075,1,0,1:1:0:0:
256,192,23225,1,0,1:1:0:0:
256,192,23375,1,8,1:1:0:0:
256,192,23525,1,8,1:1:0:0:
256,192,23675,1,0,1:1:0:0:
256,192,24125,1,8,1:1:0:0:
256,192,24575,1,0,1:1:0:0:
256,192,25475,1,8,1:1:0:0:
256,192,25625,1,8,1:1:0:0:
206,181,26075,1,4,0:0:0:0:
300,165,26525,1,8,0:0:0:0:
302,172,26825,1,8,0:0:0:0:
188,176,27125,1,8,0:0:0:0:
301,172,27275,1,0,0:0:0:0:
301,171,27575,1,8,0:0:0:0:
301,171,27875,1,0,0:0:0:0:
302,172,28175,1,0,0:0:0:0:
302,172,28475,1,8,0:0:0:0:
242,165,28925,1,8,0:0:0:0:
241,163,29225,1,0,0:0:0:0:
241,161,29525,1,0,0:0:0:0:
241,161,29675,1,8,0:0:0:0:
241,161,29975,1,8,0:0:0:0:
174,146,30125,1,8,0:0:0:0:
241,160,30275,1,0,0:0:0:0:
241,160,30875,1,4,0:0:0:0:
241,160,31325,1,8,0:0:0:0:
241,160,31625,1,8,0:0:0:0:
174,160,31925,1,0,0:0:0:0:
241,159,32075,1,8,0:0:0:0:
241,159,32375,1,0,0:0:0:0:
241,159,32675,1,8,0:0:0:0:
241,159,32975,1,8,0:0:0:0:
240,159,33275,1,0,0:0:0:0:
240,159,33575,1,0,0:0:0:0:
240,159,33725,1,8,0:0:0:0:
238,158,34025,1,0,0:0:0:0:
212,106,34325,1,0,0:0:0:0:
238,158,34475,1,8,0:0:0:0:
238,158,34775,1,8,0:0:0:0:
238,158,35075,1,0,0:0:0:0:
134,116,35375,1,8,0:0:0:0:
238,158,35675,1,0,0:0:0:0:
238,159,36125,1,8,0:0:0:0:
198,191,36875,1,0,0:0:0:0:
198,191,37175,1,0,0:0:0:0:
198,191,37475,1,8,0:0:0:0:
198,188,37775,1,8,0:0:0:0:
192,190,38075,1,0,0:0:0:0:
191,194,38525,1,0,0:0:0:0:
191,194,38975,1,0,0:0:0:0:
190,195,39275,1,8,0:0:0:0:
190,195,39575,1,0,0:0:0:0:
190,195,39875,1,8,0:0:0:0:
190,195,40175,1,8,0:0:0:0:
190,195,40475,1,0,0:0:0:0:
189,201,40925,1,8,0:0:0:0:
258,190,41675,1,8,0:0:0:0:
256,190,41975,1,0,0:0:0:0:
254,188,42275,1,8,0:0:0:0:
252,187,42575,1,8,0:0:0:0:
246,190,42875,1,0,0:0:0:0:
241,190,43325,1,0,0:0:0:0:
241,190,43775,1,0,0:0:0:0:
241,190,44075,1,8,0:0:0:0:
227,190,44375,1,8,0:0:0:0:
214,190,44675,1,0,0:0:0:0:
256,192,45275,5,4,1:1:0:0:
256,192,45725,1,8,1:1:0:0:
256,192,46025,1,8,1:1:0:0:
256,192,46325,1,0,1:1:0:0:
256,192,46475,1,8,1:1:0:0:
256,192,46775,1,0,1:1:0:0:
256,192,47075,1,0,1:1:0:0:
256,192,47375,1,8,1:1:0:0:
256,192,47525,1,8,1:1:0:0:
256,192,47675,1,0,1:1:0:0:
256,192,48125,1,8,1:1:0:0:
256,192,48425,1,0,1:1:0:0:
256,192,48725,1,8,1:1:0:0:
256,192,48875,1,8,1:1:0:0:
256,192,49175,1,0,1:1:0:0:
256,192,49325,1,8,1:1:0:0:
256,192,49475,1,0,1:1:0:0:
256,192,50075,1,0,1:1:0:0:
256,192,50525,1,8,1:1:0:0:
256,192,50825,1,0,1:1:0:0:
256,192,51125,1,8,1:1:0:0:
256,192,51275,1,0,1:1:0:0:
256,192,51575,1,8,1:1:0:0:
256,192,51875,1,8,1:1:0:0:
256,192,52175,1,0,1:1:0:0:
256,192,52325,1,0,1:1:0:0:
256,192,52475,1,8,1:1:0:0:
256,192,52925,1,8,1:1:0:0:
256,192,53225,1,8,1:1:0:0:
256,192,53525,1,0,1:1:0:0:
256,192,53675,1,8,1:1:0:0:
256,192,53975,1,0,1:1:0:0:
256,192,54275,1,0,1:1:0:0:
256,192,54875,1,8,1:1:0:0:
256,192,55325,1,8,1:1:0:0:
256,192,55625,1,0,1:1:0:0:
256,192,55775,1,0,1:1:0:0:
256,192,56075,1,8,1:1:0:0:
256,192,56525,1,8,1:1:0:0:
256,192,56825,1,0,1:1:0:0:
256,192,56975,1,0,1:1:0:0:
256,192,57275,1,8,1:1:0:0:
256,192,57575,1,0,1:1:0:0:
256,192,57725,1,8,1:1:0:0:
256,192,58025,1,8,1:1:0:0:
256,192,58175,1,0,1:1:0:0:
256,192,58475,1,8,1:1:0:0:
256,192,58775,1,0,1:1:0:0:
256,192,58925,1,8,1:1:0:0:
256,192,59075,1,0,1:1:0:0:
256,192,59675,1,8,1:1:0:0:
256,192,60125,1,8,1:1:0:0:
256,192,60425,1,0,1:1:0:0:
256,192,60575,1,0,1:1:0:0:
256,192,60875,1,8,1:1:0:0:
256,192,61325,1,8,1:1:0:0:
256,192,61625,1,0,1:1:0:0:
256,192,61775,1,0,1:1:0:0:
256,192,62075,1,8,1:1:0:0:
256,192,62375,1,0,1:1:0:0:
256,192,62525,1,8,1:1:0:0:
256,192,62675,1,0,1:1:0:0:
256,192,62825,1,0,1:1:0:0:
256,192,62975,1,8,1:1:0:0:
256,192,63275,1,12,1:1:0:0:
209,158,64475,1,4,0:0:0:0:
209,158,64775,1,8,0:0:0:0:
203,158,65075,1,0,0:0:0:0:
202,155,65375,1,8,0:0:0:0:
202,155,65525,1,8,0:0:0:0:
202,155,65675,1,0,0:0:0:0:
149,86,65975,1,8,0:0:0:0:
183,146,66125,1,0,0:0:0:0:
134,142,66425,1,0,0:0:0:0:
182,149,66575,1,8,0:0:0:0:
182,149,66875,1,8,0:0:0:0:
244,132,67175,1,0,0:0:0:0:
179,165,67325,1,8,0:0:0:0:
227,120,67625,1,0,0:0:0:0:
227,120,67775,1,8,0:0:0:0:
227,120,67925,1,8,0:0:0:0:
227,120,68075,1,0,0:0:0:0:
228,154,68675,1,0,0:0:0:0:
228,154,68975,1,8,0:0:0:0:
228,154,69125,1,0,0:0:0:0:
228,154,69275,1,8,0:0:0:0:
166,140,69575,1,8,0:0:0:0:
225,155,69875,1,0,0:0:0:0:
185,169,70175,1,8,0:0:0:0:
164,179,70475,1,0,0:0:0:0:
163,177,70775,1,8,0:0:0:0:
163,177,70925,1,0,0:0:0:0:
163,176,71225,1,0,0:0:0:0:
163,176,71375,1,8,0:0:0:0:
163,176,71675,1,0,0:0:0:0:
163,175,72275,1,0,0:0:0:0:
163,175,72575,1,8,0:0:0:0:
155,169,72875,1,0,0:0:0:0:
155,169,73025,1,8,0:0:0:0:
155,169,73175,1,8,0:0:0:0:
235,187,73475,1,0,0:0:0:0:
226,193,73625,1,0,0:0:0:0:
222,185,73775,1,8,0:0:0:0:
222,185,73925,1,0,0:0:0:0:
222,185,74075,1,4,0:0:0:0:
193,190,74675,1,0,0:0:0:0:
193,121,74975,1,8,0:0:0:0:
220,184,75275,1,0,0:0:0:0:
231,202,75725,1,8,0:0:0:0:
222,212,76175,1,8,0:0:0:0:
212,210,76325,1,0,0:0:0:0:
215,196,76475,1,8,0:0:0:0:
201,173,76925,1,0,0:0:0:0:
201,174,77375,1,8,0:0:0:0:
216,136,77525,1,8,0:0:0:0:
212,128,77675,1,0,0:0:0:0:
204,102,77975,1,8,0:0:0:0:
184,160,78275,1,0,0:0:0:0:
126,161,78425,1,0,0:0:0:0:
184,160,78575,1,8,0:0:0:0:
180,151,78875,1,12,0:0:0:0:
177,159,79475,1,0,0:0:0:0:
177,159,79775,1,8,0:0:0:0:
177,159,80075,1,0,0:0:0:0:
177,159,80375,1,0,0:0:0:0:
174,157,80675,1,8,0:0:0:0:
243,108,80975,1,8,0:0:0:0:
243,108,81125,1,0,0:0:0:0:
243,108,81275,1,8,0:0:0:0:
269,179,81725,1,8,0:0:0:0:
266,175,82175,1,8,0:0:0:0:
251,176,82475,1,0,0:0:0:0:
163,169,83075,1,8,0:0:0:0:
227,134,83375,1,8,0:0:0:0:
217,130,83525,1,8,0:0:0:0:
256,192,83675,5,0,1:1:0:0:
256,192,83975,1,0,1:1:0:0:
256,192,84125,1,0,1:1:0:0:
256,192,84275,1,8,1:1:0:0:
256,192,84575,1,8,1:1:0:0:
256,192,84875,1,0,1:1:0:0:
256,192,85175,1,8,1:1:0:0:
256,192,85325,1,8,1:1:0:0:
256,192,85475,1,0,1:1:0:0:
256,192,85775,1,0,1:1:0:0:
256,192,86075,1,8,1:1:0:0:
256,192,86375,1,0,1:1:0:0:
256,192,86525,1,0,1:1:0:0:
256,192,86675,1,8,1:1:0:0:
256,192,86975,1,8,1:1:0:0:
256,192,87275,1,0,1:1:0:0:
256,192,87425,1,0,1:1:0:0:
256,192,87575,1,8,1:1:0:0:
256,192,87725,1,0,1:1:0:0:
256,192,87875,1,8,1:1:0:0:
256,192,88175,1,0,1:1:0:0:
256,192,88475,1,8,1:1:0:0:
256,192,89075,1,8,1:1:0:0:
256,192,89375,1,0,1:1:0:0:
256,192,89525,1,8,1:1:0:0:
256,192,89675,1,0,1:1:0:0:
256,192,89975,1,8,1:1:0:0:
256,192,90275,1,8,1:1:0:0:
256,192,90575,1,0,1:1:0:0:
256,192,90725,1,8,1:1:0:0:
256,192,90875,1,8,1:1:0:0:
256,192,91175,1,0,1:1:0:0:
256,192,91475,1,8,1:1:0:0:
256,192,91625,1,8,1:1:0:0:
256,192,91775,1,0,1:1:0:0:
256,192,91925,1,0,1:1:0:0:
256,192,92075,1,8,1:1:0:0:
256,192,92375,1,8,1:1:0:0:
256,192,92675,1,0,1:1:0:0:
256,192,92825,1,8,1:1:0:0:
256,192,92975,1,0,1:1:0:0:
256,192,93125,1,0,1:1:0:0:
256,192,93275,1,8,1:1:0:0:
256,192,93725,1,8,1:1:0:0:
256,192,94175,1,0,1:1:0:0:
256,192,94475,1,0,1:1:0:0:
256,192,94625,1,8,1:1:0:0:
256,192,95075,1,8,1:1:0:0:
256,192,95225,1,8,1:1:0:0:
256,192,95675,1,0,1:1:0:0:
256,192,96275,1,8,1:1:0:0:
256,192,96875,1,0,1:1:0:0:
256,192,97175,1,0,1:1:0:0:
256,192,97475,1,8,1:1:0:0:
256,192,98075,1,8,1:1:0:0:
256,192,98675,1,0,1:1:0:0:
256,192,99275,1,0,1:1:0:0:
256,192,99575,1,8,1:1:0:0:
256,192,99875,1,8,1:1:0:0:
256,192,100175,1,8,1:1:0:0:
216,164,100475,1,0,0:0:0:0:
251,124,100925,1,8,0:0:0:0:
242,126,101225,1,8,0:0:0:0:
232,131,101525,1,0,0:0:0:0:
232,131,101675,1,8,0:0:0:0:
232,131,101975,1,8,0:0:0:0:
232,131,102125,1,8,0:0:0:0:
232,131,102275,1,0,0:0:0:0:
232,131,102575,1,0,0:0:0:0:
232,131,102875,1,8,0:0:0:0:
224,136,103325,1,8,0:0:0:0:
224,136,103625,1,0,0:0:0:0:
224,136,103925,1,0,0:0:0:0:
224,136,104075,1,8,0:0:0:0:
224,136,104375,1,0,0:0:0:0:
224,136,104525,1,8,0:0:0:0:
224,136,104675,1,0,0:0:0:0:
304,150,104975,1,8,0:0:0:0:
218,139,105275,1,0,0:0:0:0:
218,140,105725,1,8,0:0:0:0:
251,160,106475,1,0,0:0:0:0:
250,161,106775,1,0,0:0:0:0:
250,161,107075,1,8,0:0:0:0:
250,161,107225,1,0,0:0:0:0:
250,161,107375,1,0,0:0:0:0:
250,160,107675,1,8,0:0:0:0:
199,128,107825,1,8,0:0:0:0:
199,128,108125,1,0,0:0:0:0:
199,128,108425,1,8,0:0:0:0:
199,128,108575,1,0,0:0:0:0:
193,139,108875,1,8,0:0:0:0:
237,165,109175,1,0,0:0:0:0:
231,163,109475,1,8,0:0:0:0:
226,158,109775,1,8,0:0:0:0:
204,153,110075,1,0,0:0:0:0:
217,126,110525,1,8,0:0:0:0:
221,139,111275,1,0,0:0:0:0:
221,139,111575,1,0,0:0:0:0:
221,139,111725,1,0,0:0:0:0:
219,133,111875,1,8,0:0:0:0:
217,133,112175,1,8,0:0:0:0:
217,133,112325,1,0,0:0:0:0:
217,133,112475,1,8,0:0:0:0:
212,134,112925,1,0,0:0:0:0:
210,132,113375,1,0,0:0:0:0:
210,132,113525,1,0,0:0:0:0:
210,132,113675,1,8,0:0:0:0:
206,129,114275,1,0,0:0:0:0:
206,129,114575,1,0,0:0:0:0:
256,192,114875,5,8,1:1:0:0:
256,192,115325,1,8,1:1:0:0:
256,192,115625,1,0,1:1:0:0:
256,192,115775,1,8,1:1:0:0:
256,192,116075,1,0,1:1:0:0:
256,192,116525,1,0,1:1:0:0:
256,192,116825,1,8,1:1:0:0:
256,192,116975,1,0,1:1:0:0:
256,192,117275,1,8,1:1:0:0:
256,192,117575,1,0,1:1:0:0:
256,192,117725,1,8,1:1:0:0:
256,192,118025,1,8,1:1:0:0:
256,192,118175,1,8,1:1:0:0:
256,192,118475,1,0,1:1:0:0:
256,192,118775,1,8,1:1:0:0:
256,192,118925,1,8,1:1:0:0:
256,192,119075,1,0,1:1:0:0:
256,192,119675,1,8,1:1:0:0:
256,192,120125,1,8,1:1:0:0:
256,192,120425,1,0,1:1:0:0:
256,192,120575,1,8,1:1:0:0:
256,192,120875,1,0,1:1:0:0:
256,192,121325,1,0,1:1:0:0:
256,192,121625,1,8,1:1:0:0:
256,192,121775,1,0,1:1:0:0:
256,192,122075,1,8,1:1:0:0:
256,192,122375,1,0,1:1:0:0:
256,192,122525,1,8,1:1:0:0:
256,192,122675,1,0,1:1:0:0:
256,192,122825,1,0,1:1:0:0:
256,192,122975,1,8,1:1:0:0:
256,192,123275,1,12,1:1:0:0:
256,192,124475,1,4,1:1:0:0:
256,192,124775,1,8,1:1:0:0:
256,192,125075,1,0,1:1:0:0:
256,192,125225,1,0,1:1:0:0:
256,192,125375,1,8,1:1:0:0:
256,192,125675,1,0,1:1:0:0:
256,192,125975,1,0,1:1:0:0:
256,192,126125,1,8,1:1:0:0:
256,192,126275,1,0,1:1:0:0:
256,192,126575,1,0,1:1:0:0:
256,192,126875,1,8,1:1:0:0:
256,192,127175,1,0,1:1:0:0:
256,192,127325,1,8,1:1:0:0:
256,192,127475,1,0,1:1:0:0:
256,192,127625,1,0,1:1:0:0:
256,192,127775,1,8,1:1:0:0:
256,192,128075,1,8,1:1:0:0:
256,192,128375,1,0,1:1:0:0:
256,192,128675,1,8,1:1:0:0:
256,192,128975,1,8,1:1:0:0:
256,192,129125,1,8,0:0:0:0:
256,192,129275,1,0,1:1:0:0:
256,192,129875,1,0,0:0:0:0:
256,192,130175,1,0,0:0:0:0:
256,192,130325,1,0,0:0:0:0:
256,192,130475,1,8,0:0:0:0:
256,192,130775,1,0,0:0:0:0:
256,192,130925,1,8,0:0:0:0:
256,192,131075,1,0,0:0:0:0:
256,192,131375,1,8,0:0:0:0:
256,192,131675,1,8,0:0:0:0:
256,192,131975,1,0,0:0:0:0:
256,192,132125,1,8,0:0:0:0:
256,192,132425,1,8,0:0:0:0:
256,192,132575,1,0,0:0:0:0:
256,192,132875,1,0,0:0:0:0:
256,192,133025,1,8,0:0:0:0:
256,192,133175,1,8,0:0:0:0:
256,192,133475,1,0,0:0:0:0:
256,192,133775,1,8,0:0:0:0:
256,192,133925,1,8,0:0:0:0:
256,192,134075,1,4,0:0:0:0:
202,181,134675,1,0,0:0:0:0:
202,180,134975,1,0,0:0:0:0:
198,177,135275,1,8,0:0:0:0:
160,120,135425,1,0,0:0:0:0:
198,177,135725,1,8,0:0:0:0:
166,124,135875,1,0,0:0:0:0:
196,178,136175,1,0,0:0:0:0:
232,159,136475,1,8,0:0:0:0:
223,163,136925,1,8,0:0:0:0:
224,163,137375,1,0,0:0:0:0:
224,163,137525,1,0,0:0:0:0:
224,163,137675,1,8,0:0:0:0:
198,139,138275,1,0,0:0:0:0:
201,143,138575,1,8,0:0:0:0:
201,143,138875,1,8,0:0:0:0:
200,144,139475,1,0,0:0:0:0:
199,145,139775,1,8,0:0:0:0:
199,145,139925,1,8,0:0:0:0:
199,145,140075,1,0,0:0:0:0:
200,145,140375,1,0,0:0:0:0:
200,144,140675,1,8,0:0:0:0:
200,143,140975,1,0,0:0:0:0:
200,143,141275,1,8,0:0:0:0:
200,143,141725,1,8,0:0:0:0:
200,142,142175,1,8,0:0:0:0:
198,143,142475,1,4,0:0:0:0:
198,144,143075,1,8,0:0:0:0:
198,144,143375,1,8,0:0:0:0:
198,144,143525,1,8,0:0:0:0:
198,144,143675,1,4,0:0:0:0:
185,132,143975,1,0,0:0:0:0:
245,170,144425,1,8,0:0:0:0:
235,177,144875,1,0,0:0:0:0:
235,182,145325,1,0,0:0:0:0:
233,187,145775,1,0,0:0:0:0:
233,187,146075,1,12,0:0:0:0:
250,156,146375,1,0,0:0:0:0:
301,185,146825,1,8,0:0:0:0:
286,184,147275,1,8,0:0:0:0:
260,126,147725,1,0,0:0:0:0:
216,126,147875,1,8,0:0:0:0:
249,121,148025,1,8,0:0:0:0:
215,130,148175,1,0,0:0:0:0:
212,123,148475,1,12,0:0:0:0:
242,160,149225,1,8,0:0:0:0:
210,159,149675,1,0,0:0:0:0:
210,158,150125,1,0,0:0:0:0:
210,158,150425,1,0,0:0:0:0:
210,158,150725,1,0,0:0:0:0:
210,158,150875,1,8,0:0:0:0:
208,158,151175,1,0,0:0:0:0:
208,158,151325,1,8,0:0:0:0:
205,156,151625,1,0,0:0:0:0:
205,156,151775,1,0,0:0:0:0:
204,157,152075,1,8,0:0:0:0:
240,136,152375,1,8,0:0:0:0:
203,179,152675,1,0,0:0:0:0:
204,170,152975,1,0,0:0:0:0:
201,180,153275,1,8,0:0:0:0:
197,183,153725,1,8,0:0:0:0:
197,181,154175,1,8,0:0:0:0:
238,170,154475,1,0,0:0:0:0:
217,177,155075,1,8,0:0:0:0:
256,192,155675,5,0,1:1:0:0:
256,192,156125,1,0,1:1:0:0:
256,192,156575,1,0,1:1:0:0:
256,192,157025,1,0,1:1:0:0:
256,192,157475,1,8,1:1:0:0:
256,192,158075,1,0,1:1:0:0:
256,192,158525,1,8,1:1:0:0:
256,192,158975,1,8,1:1:0:0:
256,192,159425,1,0,1:1:0:0:
256,192,159875,1,8,1:1:0:0:
256,192,160475,1,0,1:1:0:0:
256,192,160925,1,0,1:1:0:0:
256,192,161375,1,8,1:1:0:0:
256,192,161825,1,0,1:1:0:0:
256,192,162275,1,8,1:1:0:0:
256,192,162875,1,0,1:1:0:0:
256,192,163325,1,0,1:1:0:0:
256,192,163775,1,8,1:1:0:0:
256,192,164225,1,8,1:1:0:0:
256,192,164675,1,0,1:1:0:0:
256,192,165275,1,8,1:1:0:0:
256,192,165725,1,0,1:1:0:0:
256,192,165875,1,8,1:1:0:0:
256,192,166175,1,0,1:1:0:0:
256,192,166325,1,0,1:1:0:0:
256,192,166625,1,8,1:1:0:0:
256,192,166775,1,0,0:0:0:0:
256,192,167075,1,8,1:1:0:0:
256,192,167675,1,8,1:1:0:0:
256,192,168125,1,0,1:1:0:0:
256,192,168275,1,8,1:1:0:0:
256,192,168575,1,0,1:1:0:0:
256,192,168725,1,0,1:1:0:0:
256,192,169025,1,0,1:1:0:0:
256,192,169175,1,0,1:1:0:0:
256,192,169475,1,8,1:1:0:0:
256,192,169775,1,0,0:0:0:0:
256,192,170075,1,8,1:1:0:0:
256,192,170525,1,0,1:1:0:0:
256,192,170675,1,8,1:1:0:0:
256,192,170975,1,0,1:1:0:0:
256,192,171125,1,0,1:1:0:0:
256,192,171425,1,8,1:1:0:0:
256,192,171575,1,0,1:1:0:0:
256,192,171875,1,8,1:1:0:0:
256,192,172475,1,8,1:1:0:0:
256,192,172925,1,0,1:1:0:0:
256,192,173075,1,8,1:1:0:0:
256,192,173375,1,8,1:1:0:0:
256,192,173525,1,0,1:1:0:0:
256,192,173825,1,0,1:1:0:0:
256,192,173975,1,0,1:1:0:0:
256,192,174275,1,8,1:1:0:0:
256,192,174575,1,8,1:1:0:0:
171,148,174875,1,0,0:0:0:0:
254,163,175475,1,8,0:0:0:0:
240,164,175925,1,0,0:0:0:0:
240,160,176225,1,8,0:0:0:0:
239,162,176525,1,8,0:0:0:0:
239,162,176825,1,8,0:0:0:0:
222,165,177275,1,0,0:0:0:0:
238,150,177575,1,8,0:0:0:0:
233,154,177875,1,8,0:0:0:0:
233,156,178325,1,0,0:0:0:0:
233,155,178625,1,0,0:0:0:0:
233,156,178925,1,8,0:0:0:0:
183,149,179225,1,8,0:0:0:0:
243,149,179975,1,8,0:0:0:0:
231,149,180125,1,8,0:0:0:0:
231,149,180275,1,0,0:0:0:0:
223,152,180725,1,0,0:0:0:0:
223,152,181025,1,8,0:0:0:0:
221,152,181325,1,0,0:0:0:0:
221,152,181475,1,8,0:0:0:0:
221,152,181625,1,0,0:0:0:0:
220,153,181925,1,0,0:0:0:0:
220,153,182075,1,8,0:0:0:0:
215,152,182525,1,0,0:0:0:0:
199,142,182975,1,8,0:0:0:0:
199,143,183275,1,8,0:0:0:0:
192,148,183875,1,0,0:0:0:0:
183,152,184475,1,4,0:0:0:0:
194,146,184925,1,0,0:0:0:0:
190,144,185225,1,8,0:0:0:0:
178,154,185675,1,8,0:0:0:0:
176,154,186125,1,0,0:0:0:0:
176,154,186425,1,0,0:0:0:0:
176,154,186875,1,12,0:0:0:0:
176,154,187325,1,0,0:0:0:0:
176,153,187625,1,8,0:0:0:0:
176,153,188075,1,0,0:0:0:0:
176,153,188375,1,8,0:0:0:0:
176,153,188525,1,8,0:0:0:0:
231,136,189125,5,0,0:0:0:0:
224,133,189275,1,8,0:0:0:0:
206,134,189425,1,8,0:0:0:0:
206,134,189575,1,0,0:0:0:0:
206,134,189875,1,0,0:0:0:0:
200,136,190175,1,8,0:0:0:0:
169,122,190325,1,8,0:0:0:0:
169,122,190475,1,0,0:0:0:0:
162,125,190625,1,8,0:0:0:0:
89,238,190775,1,0,0:0:0:0:
141,188,191075,1,8,0:0:0:0:
141,188,191225,1,8,0:0:0:0:
135,193,191375,1,0,0:0:0:0:
275,144,191675,1,12,0:0:0:0:
256,158,192125,1,0,0:0:0:0:
248,150,192425,1,8,0:0:0:0:
209,152,192725,1,0,0:0:0:0:
209,152,192875,1,8,0:0:0:0:
204,152,193325,1,8,0:0:0:0:
204,152,193625,1,0,0:0:0:0:
256,192,194075,5,4,1:1:0:0:
256,192,194375,1,8,1:1:0:0:
256,192,194525,1,0,1:1:0:0:
256,192,194675,1,8,1:1:0:0:
256,192,195275,1,0,1:1:0:0:
256,192,195575,1,8,1:1:0:0:
256,192,195725,1,8,1:1:0:0:
256,192,195875,1,0,1:1:0:0:
256,192,196175,1,0,1:1:0:0:
256,192,196475,1,8,1:1:0:0:
256,192,196775,1,0,1:1:0:0:
256,192,196925,1,8,1:1:0:0:
256,192,197075,1,0,1:1:0:0:
256,192,197225,1,0,1:1:0:0:
256,192,197375,1,8,1:1:0:0:
256,192,197675,1,8,1:1:0:0:
256,192,197825,1,0,1:1:0:0:
256,192,197975,1,8,1:1:0:0:
256,192,198125,1,8,1:1:0:0:
256,192,198275,1,0,1:1:0:0:
256,192,198575,1,0,1:1:0:0:
256,192,198875,1,12,1:1:0:0:
256,192,199475,1,8,1:1:0:0:
256,192,199775,1,0,1:1:0:0:
256,192,199925,1,0,1:1:0:0:
256,192,200075,1,8,1:1:0:0:
256,192,200375,1,0,1:1:0:0:
256,192,200675,1,0,1:1:0:0:
256,192,200825,1,8,1:1:0:0:
256,192,200975,1,0,1:1:0:0:
256,192,201275,1,8,1:1:0:0:
256,192,201425,1,0,0:0:0:0:
256,192,201875,1,0,1:1:0:0:
256,192,202475,1,0,1:1:0:0:
256,192,202700,1,0,1:1:0:0:
256,192,202925,1,0,1:1:0:0:
195,124,203075,1,8,0:0:0:0:
195,124,203300,1,8,0:0:0:0:
195,124,203525,1,8,0:0:0:0:
256,192,203675,1,4,1:1:0:0:
256,192,204125,1,4,1:1:0:0:
256,192,204575,1,4,1:1:0:0:
256,192,205025,1,8,1:1:0:0:
256,192,205175,1,8,1:1:0:0:
256,192,205325,1,0,1:1:0:0:
256,192,205475,1,8,1:1:0:0:
256,192,205625,1,0,1:1:0:0:
256,192,206075,1,12,1:1:0:0:
256,192,206525,1,12,1:1:0:0:
256,192,206975,1,12,1:1:0:0:
256,192,207425,1,8,1:1:0:0:
256,192,207575,1,0,1:1:0:0:
256,192,207725,1,0,1:1:0:0:
256,192,207875,1,8,1:1:0:0:
206,110,208025,1,0,0:0:0:0:
270,152,208475,1,4,0:0:0:0:
267,152,208925,1,8,0:0:0:0:
251,152,209675,1,0,0:0:0:0:
171,147,209975,1,0,0:0:0:0:
171,147,210125,1,0,0:0:0:0:
172,146,210275,1,8,0:0:0:0:
172,146,210425,1,0,0:0:0:0:
172,146,210575,1,8,0:0:0:0:
175,144,210875,1,0,0:0:0:0:
176,142,211325,1,8,0:0:0:0:
177,140,211775,1,8,0:0:0:0:
177,140,211925,1,8,0:0:0:0:
176,147,212075,1,0,0:0:0:0:
173,144,212375,1,0,0:0:0:0:
173,147,212675,1,8,0:0:0:0:
178,152,212825,1,0,0:0:0:0:
178,152,212975,1,8,0:0:0:0:
178,152,213125,1,8,0:0:0:0:
178,152,213275,1,0,0:0:0:0:
181,149,213725,1,8,0:0:0:0:
191,150,214475,1,8,0:0:0:0:
187,149,214775,1,0,0:0:0:0:
187,149,214925,1,0,0:0:0:0:
187,149,215075,1,8,0:0:0:0:
187,149,215225,1,8,0:0:0:0:
187,149,215375,1,0,0:0:0:0:
185,150,215675,1,8,0:0:0:0:
179,149,216125,1,0,0:0:0:0:
177,149,216575,1,0,0:0:0:0:
177,149,216725,1,8,0:0:0:0:
177,149,216875,1,0,0:0:0:0:
178,149,217175,1,0,0:0:0:0:
177,149,217475,1,8,0:0:0:0:
177,149,217625,1,0,0:0:0:0:
176,150,217775,1,0,0:0:0:0:
176,150,218075,1,8,0:0:0:0:
227,126,218525,1,0,0:0:0:0:
225,127,218825,1,0,0:0:0:0:
223,127,219275,1,8,0:0:0:0:
223,127,219725,1,0,0:0:0:0:
221,124,220025,1,0,0:0:0:0:
220,124,220475,1,8,0:0:0:0:
220,124,220925,1,8,0:0:0:0:
220,124,221225,1,0,0:0:0:0:
146,133,221525,1,0,0:0:0:0:
146,133,221675,1,8,0:0:0:0:
146,135,221975,1,0,0:0:0:0:
146,135,222125,1,8,0:0:0:0:
179,106,222875,1,8,0:0:0:0:
241,131,223325,1,8,0:0:0:0:
241,131,223625,1,0,0:0:0:0:
282,117,223925,1,0,0:0:0:0:
282,117,224075,1,8,0:0:0:0:
172,104,224525,1,8,0:0:0:0:
171,104,224825,1,0,0:0:0:0:
171,104,224975,1,8,0:0:0:0:
169,113,225125,1,8,0:0:0:0:
169,113,225275,1,4,0:0:0:0:
167,114,225725,1,4,0:0:0:0:
166,113,226175,1,4,0:0:0:0:
203,118,226475,1,4,0:0:0:0:
256,192,227675,5,12,1:1:0:0:
256,192,228875,1,4,1:1:0:0:
256,192,230075,1,12,1:1:0:0:
256,192,231275,1,12,1:1:0:0:
256,192,231875,1,0,1:1:0:0:
256,192,232475,1,12,1:1:0:0:
256,192,233075,1,0,1:1:0:0:
256,192,233375,1,8,1:1:0:0:
256,192,233675,1,4,1:1:0:0:
256,192,234125,1,8,1:1:0:0:
256,192,234425,1,0,1:1:0:0:
256,192,234575,1,8,1:1:0:0:
256,192,234875,1,8,1:1:0:0:
256,192,235175,1,0,1:1:0:0:
256,192,235325,1,8,1:1:0:0:
256,192,235475,1,0,1:1:0:0:
256,192,235625,1,0,1:1:0:0:
256,192,235775,1,8,1:1:0:0:
256,192,236075,1,8,1:1:0:0:
256,192,236225,1,8,1:1:0:0:
256,192,236375,1,8,1:1:0:0:
256,192,236525,1,8,1:1:0:0:
256,192,236675,1,0,1:1:0:0:
256,192,236975,1,0,1:1:0:0:
256,192,237275,1,12,1:1:0:0:
256,192,237875,1,0,1:1:0:0:
256,192,238175,1,8,1:1:0:0:
256,192,238325,1,8,1:1:0:0:
256,192,238475,1,0,1:1:0:0:
256,192,238775,1,0,1:1:0:0:
256,192,238925,1,8,1:1:0:0:
256,192,239075,1,0,1:1:0:0:
256,192,239375,1,0,1:1:0:0:
256,192,239675,1,8,1:1:0:0:
256,192,239975,1,0,1:1:0:0:
256,192,240125,1,8,1:1:0:0:
256,192,240275,1,0,1:1:0:0:
256,192,240425,1,0,1:1:0:0:
256,192,240575,1,8,1:1:0:0:
256,192,240875,1,8,1:1:0:0:
256,192,241175,1,0,1:1:0:0:
256,192,241475,1,8,1:1:0:0:
256,192,241625,1,0,1:1:0:0:
256,192,241775,1,8,1:1:0:0:
256,192,241925,1,8,0:0:0:0:
256,192,242075,1,4,1:1:0:0:
256,192,242675,1,8,0:0:0:0:
256,192,242975,1,0,0:0:0:0:
256,192,243125,1,0,0:0:0:0:
256,192,243275,1,8,0:0:0:0:
256,192,243575,1,0,0:0:0:0:
256,192,243875,1,0,0:0:0:0:
256,192,244025,1,0,0:0:0:0:
256,192,244175,1,8,0:0:0:0:
256,192,244325,1,8,0:0:0:0:
256,192,244475,1,0,0:0:0:0:
256,192,244775,1,0,0:0:0:0:
256,192,245075,1,8,0:0:0:0:
256,192,245225,1,8,0:0:0:0:
256,192,245375,1,0,0:0:0:0:
256,192,245525,1,0,0:0:0:0:
256,192,245675,1,8,0:0:0:0:
256,192,246275,1,0,0:0:0:0:
256,192,246575,1,0,0:0:0:0:
256,192,246875,1,12,0:0:0:0:
256,192,247175,1,0,1:1:0:0:
256,192,247325,1,0,1:1:0:0:
256,192,247475,1,8,1:1:0:0:
256,192,247775,1,0,1:1:0:0:
256,192,248075,1,8,1:1:0:0:
256,192,248225,1,0,1:1:0:0:
256,192,248375,1,8,1:1:0:0:
256,192,248675,1,8,1:1:0:0:
256,192,248825,1,8,1:1:0:0:
256,192,248975,1,0,1:1:0:0:
256,192,249125,1,0,1:1:0:0:
256,192,249275,1,12,1:1:0:0:
256,192,250475,1,4,1:1:0:0:
256,192,251075,1,0,1:1:0:0:
187,154,251675,1,12,0:0:0:0:
257,170,252275,1,8,0:0:0:0:
257,170,252575,1,8,0:0:0:0:
257,170,252725,1,8,0:0:0:0:
250,168,252875,1,0,0:0:0:0:
270,147,253175,1,0,0:0:0:0:
262,148,253475,1,8,0:0:0:0:
254,150,253775,1,0,0:0:0:0:
254,150,253925,1,8,0:0:0:0:
254,150,254075,1,8,0:0:0:0:
227,163,254375,1,0,0:0:0:0:
228,163,254675,1,8,0:0:0:0:
228,163,254975,1,8,0:0:0:0:
228,163,255275,1,0,0:0:0:0:
228,163,255575,1,8,0:0:0:0:
181,132,255725,1,8,0:0:0:0:
228,163,255875,1,0,0:0:0:0:
206,137,256175,1,0,0:0:0:0:
205,146,256325,1,0,0:0:0:0:
242,159,256475,1,12,0:0:0:0:
270,157,257075,1,8,0:0:0:0:
251,159,257225,1,0,0:0:0:0:
251,159,257375,1,0,0:0:0:0:
239,157,257525,1,8,0:0:0:0:
239,157,257675,1,0,0:0:0:0:
241,160,257975,1,0,0:0:0:0:
241,159,258275,1,8,0:0:0:0:
241,160,258575,1,0,0:0:0:0:
241,160,258725,1,0,0:0:0:0:
241,160,258875,1,8,0:0:0:0:
242,160,259175,1,0,0:0:0:0:
242,159,259475,1,8,0:0:0:0:
242,160,259775,1,8,0:0:0:0:
242,159,260075,1,0,0:0:0:0:
242,160,260375,1,8,0:0:0:0:
242,160,260525,1,8,0:0:0:0:
242,160,260675,1,0,0:0:0:0:
240,160,260975,1,8,0:0:0:0:
240,160,261125,1,0,0:0:0:0:
240,160,261275,1,12,0:0:0:0:
256,192,261425,12,12,263525,0:0:0:0:
256,192,263675,12,0,265475,0:0:0:0:
