osu file format v14

[General]
AudioFilename: audio.mp3
AudioLeadIn: 0
PreviewTime: 30810
Countdown: 0
SampleSet: None
StackLeniency: 0.7
Mode: 3
LetterboxInBreaks: 0
SpecialStyle: 0
WidescreenStoryboard: 0

[Editor]
Bookmarks: 16173,31657,39399,52948,68431
DistanceSpacing: 0.8
BeatDivisor: 4
GridSize: 4
TimelineZoom: 3.799999

[Metadata]
Title:REASON (TV Size)
TitleUnicode:REASON (TV Size)
Artist:YUZU
ArtistUnicode:ゆず
Creator:Josefumi
Version:Hard
Source:ハンター×ハンター
Tags:HxH Hunter × 2011 x
BeatmapID:1710763
BeatmapSetID:815715

[Difficulty]
HPDrainRate:7
CircleSize:4
OverallDifficulty:7
ApproachRate:5
SliderMultiplier:1.4
SliderTickRate:1

[Events]
//Background and Video events
Video,16120,"likinggonandorkillumakesyouapedo.avi"
0,0,"2207881.png",0,0
//Break Periods
//Storyboard Layer 0 (Background)
//Storyboard Layer 1 (Fail)
//Storyboard Layer 2 (Pass)
//Storyboard Layer 3 (Foreground)
//Storyboard Sound Samples

[TimingPoints]
20,483.870967741935,4,2,1,70,1,0
690,483.870967741935,4,2,1,70,1,0
15206,-100,4,2,1,20,0,0
16173,-100,4,2,1,70,0,0
31657,-100,4,2,1,70,0,1
39399,-100,4,2,1,70,0,0
68431,-100,4,2,1,70,0,1
78048,-100,4,2,1,70,0,0
78109,-100,4,2,1,70,0,1
78169,-100,4,2,1,70,0,0
78593,-100,4,2,1,70,0,1
78653,-100,4,2,1,70,0,0
79077,-100,4,2,1,70,0,1
79137,-100,4,2,1,70,0,0
79500,-100,4,2,1,70,0,1
79560,-100,4,2,1,70,0,0
80044,-100,4,2,1,70,0,1
85851,-100,4,2,1,70,0,0

[HitObjects]
192,192,20,128,0,690:0:0:0:0:
448,192,690,1,2,0:0:0:0:
64,192,690,1,0,0:0:0:0:
320,192,931,1,0,0:0:0:0:
64,192,1173,1,8,0:0:0:0:
448,192,1173,1,0,0:0:0:0:
192,192,1415,128,0,1899:0:0:0:0:
448,192,1899,1,0,0:0:0:0:
64,192,2141,128,2,2625:0:0:0:0:
448,192,2625,128,2,4077:0:0:0:0:
192,192,2867,1,0,0:0:0:0:
64,192,3109,1,8,0:0:0:0:
320,192,3109,1,0,0:0:0:0:
192,192,3351,128,2,4077:0:0:0:0:
64,192,4077,128,2,4560:0:0:0:0:
320,192,4560,128,2,6012:0:0:0:0:
192,192,4802,1,0,0:0:0:0:
64,192,5044,1,8,0:0:0:0:
192,192,5286,128,0,6012:0:0:0:0:
448,192,6012,1,0,0:0:0:0:
64,192,6254,1,2,0:0:0:0:
192,192,6375,1,2,0:0:0:0:
320,192,6496,1,2,0:0:0:0:
448,192,6496,128,0,7222:0:0:0:0:
192,192,6738,1,0,0:0:0:0:
320,192,6980,1,8,0:0:0:0:
64,192,6980,1,0,0:0:0:0:
192,192,7222,128,2,7948:0:0:0:0:
320,192,7948,128,2,8431:0:0:0:0:
64,192,8431,128,2,9883:0:0:0:0:
448,192,8673,1,0,0:0:0:0:
192,192,8915,1,8,0:0:0:0:
320,192,8915,1,0,0:0:0:0:
448,192,9157,128,0,9883:0:0:0:0:
320,192,9883,1,2,0:0:0:0:
192,192,10367,128,2,11093:0:0:0:0:
320,192,10609,1,0,0:0:0:0:
64,192,10851,1,8,0:0:0:0:
448,192,10851,1,0,0:0:0:0:
320,192,11093,128,2,11819:0:0:0:0:
448,192,11819,128,2,12302:0:0:0:0:
64,192,12302,1,2,0:0:0:0:
320,192,12302,1,0,0:0:0:0:
192,192,12544,1,0,0:0:0:0:
320,192,12665,1,0,0:0:0:0:
448,192,12786,1,0,1:0:0:0:
320,192,13028,1,0,0:0:0:0:
192,192,13149,1,0,0:0:0:0:
64,192,13270,1,0,1:0:0:0:
192,192,13512,1,0,0:0:0:0:
320,192,13633,1,0,0:0:0:0:
448,192,13754,1,0,1:0:0:0:
448,192,13996,1,0,0:0:0:0:
320,192,14117,1,0,0:0:0:0:
64,192,14238,1,0,1:0:0:0:
192,192,14238,1,0,0:0:0:0:
320,192,14480,1,0,1:0:0:0:
448,192,14722,1,0,1:0:0:0:
192,192,14964,1,0,1:0:0:0:
320,192,15206,1,2,0:0:0:0:
64,192,15448,1,2,0:0:0:0:
192,192,15448,1,0,0:0:0:0:
320,192,15569,1,2,0:0:0:0:
448,192,15569,1,0,0:0:0:0:
192,192,15689,1,0,0:0:0:0:
64,192,15689,1,2,0:0:0:0:
320,192,15810,1,2,0:0:0:0:
448,192,15810,1,0,0:0:0:0:
64,192,15931,1,2,0:0:0:0:
192,192,15931,1,0,0:0:0:0:
320,192,16052,1,2,0:0:0:0:
448,192,16052,1,0,0:0:0:0:
64,192,16173,1,4,0:0:0:0:
192,192,16173,1,0,1:0:0:0:
320,192,16294,1,0,0:0:0:0:
448,192,16415,1,0,0:0:0:0:
320,192,16536,1,0,0:0:0:0:
192,192,16657,128,10,16899:1:2:0:0:
64,192,16899,1,0,0:0:0:0:
448,192,17020,128,0,17383:0:0:0:0:
192,192,17141,1,0,1:0:0:0:
320,192,17383,128,2,17625:0:0:0:0:
64,192,17383,1,0,0:0:0:0:
64,192,17625,128,8,17867:1:2:0:0:
320,192,17867,128,2,18109:0:0:0:0:
64,192,18109,1,0,1:0:0:0:
448,192,18109,1,0,0:0:0:0:
192,192,18230,1,0,0:0:0:0:
448,192,18351,1,0,0:0:0:0:
320,192,18472,1,0,0:0:0:0:
64,192,18593,1,10,1:2:0:0:
192,192,18714,1,0,0:0:0:0:
320,192,18835,1,0,0:0:0:0:
448,192,18956,128,0,19319:0:0:0:0:
64,192,19077,1,0,1:0:0:0:
192,192,19319,1,2,0:0:0:0:
320,192,19319,1,0,0:0:0:0:
320,192,19560,1,8,0:0:0:0:
448,192,19560,1,0,1:0:0:0:
192,192,19802,1,0,0:0:0:0:
64,192,19802,1,2,0:0:0:0:
320,192,20044,128,4,20407:1:2:0:0:
448,192,20407,128,0,20770:0:0:0:0:
64,192,20528,1,10,1:2:0:0:
64,192,20770,128,0,21980:0:0:0:0:
320,192,21012,1,0,1:0:0:0:
448,192,21254,1,2,0:0:0:0:
192,192,21496,1,8,1:2:0:0:
320,192,21738,1,2,0:0:0:0:
192,192,21980,1,0,1:0:0:0:
448,192,21980,128,4,22343:0:0:0:0:
64,192,22343,128,2,22706:0:0:0:0:
192,192,22464,1,8,1:2:0:0:
320,192,22706,128,2,23189:0:0:0:0:
192,192,22948,1,4,1:2:0:0:
448,192,23189,128,2,23915:0:0:0:0:
64,192,23431,1,8,1:2:0:0:
320,192,23673,1,0,0:0:0:0:
64,192,23915,1,6,0:0:0:0:
192,192,23915,1,0,1:0:0:0:
320,192,24036,1,0,0:0:0:0:
64,192,24157,1,0,0:0:0:0:
192,192,24278,1,0,0:0:0:0:
448,192,24399,1,10,1:2:0:0:
320,192,24520,1,0,0:0:0:0:
192,192,24641,1,0,0:0:0:0:
64,192,24762,128,0,25125:0:0:0:0:
448,192,24883,1,0,1:0:0:0:
192,192,25125,128,2,25367:0:0:0:0:
448,192,25367,128,8,25609:1:2:0:0:
320,192,25609,128,2,25851:0:0:0:0:
192,192,25851,1,0,1:0:0:0:
64,192,25851,1,0,0:0:0:0:
448,192,25972,1,0,0:0:0:0:
64,192,26093,1,0,0:0:0:0:
448,192,26214,1,0,0:0:0:0:
64,192,26335,1,10,1:2:0:0:
192,192,26456,1,0,0:0:0:0:
448,192,26456,1,0,0:0:0:0:
320,192,26698,128,0,27060:0:0:0:0:
64,192,26819,1,0,1:0:0:0:
64,192,27060,128,2,27302:0:0:0:0:
448,192,27302,128,8,27544:1:2:0:0:
192,192,27544,128,2,27786:0:0:0:0:
64,192,27786,1,4,0:0:0:0:
448,192,27786,1,0,1:0:0:0:
320,192,28028,1,0,0:0:0:0:
64,192,28270,1,10,0:0:0:0:
448,192,28270,1,0,1:0:0:0:
192,192,28512,128,0,29480:0:0:0:0:
448,192,28754,1,0,1:0:0:0:
64,192,28996,1,2,0:0:0:0:
320,192,29238,1,8,1:2:0:0:
448,192,29480,128,2,29722:0:0:0:0:
64,192,29722,128,6,30085:1:2:0:0:
448,192,30085,128,2,30448:0:0:0:0:
192,192,30206,1,8,1:2:0:0:
320,192,30448,128,2,30931:0:0:0:0:
192,192,30689,1,4,1:2:0:0:
64,192,30931,128,2,31173:1:2:0:0:
448,192,31173,128,8,31657:1:2:0:0:
320,192,31415,128,0,31657:1:0:0:0:
192,192,31657,1,4,1:2:0:0:
64,192,31778,128,2,32020:0:0:0:0:
320,192,31899,1,8,0:0:0:0:
448,192,32020,1,0,0:0:0:0:
320,192,32141,128,2,32383:0:0:0:0:
192,192,32262,1,0,0:0:0:0:
64,192,32383,1,8,0:0:0:0:
448,192,32504,128,2,32867:0:0:0:0:
192,192,32625,1,0,0:0:0:0:
64,192,32746,1,0,0:0:0:0:
320,192,32867,1,10,0:0:0:0:
192,192,32988,1,0,0:0:0:0:
64,192,33109,1,10,0:0:0:0:
448,192,33109,1,0,0:0:0:0:
320,192,33230,1,0,0:0:0:0:
448,192,33351,1,0,0:0:0:0:
64,192,33351,1,10,0:0:0:0:
192,192,33472,1,0,0:0:0:0:
320,192,33593,128,6,33835:0:0:0:0:
64,192,33714,1,0,0:0:0:0:
448,192,33835,1,8,0:0:0:0:
64,192,33956,128,2,34198:0:0:0:0:
192,192,34077,1,0,0:0:0:0:
448,192,34198,1,0,0:0:0:0:
192,192,34319,1,10,0:0:0:0:
320,192,34439,128,2,34802:0:0:0:0:
64,192,34560,1,0,0:0:0:0:
448,192,34681,1,0,0:0:0:0:
64,192,34802,1,10,0:0:0:0:
192,192,34923,1,0,0:0:0:0:
448,192,35044,1,2,0:0:0:0:
320,192,35044,1,8,0:0:0:0:
192,192,35165,1,0,0:0:0:0:
64,192,35286,1,8,0:0:0:0:
448,192,35286,1,2,0:0:0:0:
192,192,35407,1,0,0:0:0:0:
320,192,35528,1,2,0:0:0:0:
448,192,35528,1,4,0:0:0:0:
192,192,35649,1,2,0:0:0:0:
64,192,35649,1,0,0:0:0:0:
320,192,35770,1,8,0:0:0:0:
448,192,35770,1,2,0:0:0:0:
192,192,35891,1,0,0:0:0:0:
64,192,35891,1,2,0:0:0:0:
320,192,36012,1,0,0:0:0:0:
448,192,36012,1,2,0:0:0:0:
64,192,36133,1,2,0:0:0:0:
192,192,36133,1,0,0:0:0:0:
320,192,36254,128,10,36496:0:0:0:0:
64,192,36375,1,0,0:0:0:0:
192,192,36496,128,2,36738:0:0:0:0:
64,192,36617,1,0,0:0:0:0:
448,192,36738,1,10,0:0:0:0:
64,192,36859,1,0,0:0:0:0:
320,192,36980,1,8,0:0:0:0:
192,192,37101,1,0,0:0:0:0:
448,192,37222,1,10,0:0:0:0:
64,192,37343,1,0,0:0:0:0:
320,192,37464,128,2,38189:1:2:0:0:
192,192,37827,128,2,38189:0:0:0:0:
448,192,38189,1,2,0:0:0:0:
64,192,38189,1,0,0:0:0:0:
448,192,38673,1,2,0:0:0:0:
448,192,38915,1,2,0:0:0:0:
448,192,39157,1,2,0:0:0:0:
320,192,39278,1,0,1:0:0:0:
448,192,39399,1,0,0:0:0:0:
64,192,39399,1,2,0:0:0:0:
192,192,39399,1,0,1:0:0:0:
320,192,39641,1,0,0:0:0:0:
192,192,39883,1,0,0:0:0:0:
64,192,40125,1,0,1:0:0:0:
192,192,40246,1,0,1:0:0:0:
320,192,40367,1,0,0:0:0:0:
448,192,40367,1,2,0:0:0:0:
192,192,40609,1,0,1:0:0:0:
448,192,40851,1,0,1:0:0:0:
320,192,41093,1,0,1:0:0:0:
192,192,41214,1,0,1:0:0:0:
64,192,41335,1,2,0:0:0:0:
320,192,41577,1,0,0:0:0:0:
64,192,41819,1,0,1:0:0:0:
448,192,41939,1,0,1:0:0:0:
64,192,42060,1,0,1:0:0:0:
448,192,42181,1,0,1:0:0:0:
192,192,42302,1,0,1:0:0:0:
64,192,42302,1,2,0:0:0:0:
320,192,42544,1,0,1:0:0:0:
448,192,42786,1,0,1:0:0:0:
192,192,43028,1,0,1:0:0:0:
320,192,43149,1,0,1:0:0:0:
64,192,43270,1,6,0:0:0:0:
448,192,43270,1,0,1:0:0:0:
320,192,43512,1,0,1:0:0:0:
64,192,43754,1,0,1:0:0:0:
192,192,43996,1,0,1:0:0:0:
320,192,44117,1,0,1:0:0:0:
448,192,44238,1,2,0:0:0:0:
64,192,44480,1,0,1:0:0:0:
448,192,44722,1,0,1:0:0:0:
192,192,44964,1,0,1:0:0:0:
320,192,45085,1,0,1:0:0:0:
64,192,45206,1,2,0:0:0:0:
192,192,45206,1,0,1:0:0:0:
192,192,45448,1,0,1:0:0:0:
448,192,45689,1,0,1:0:0:0:
64,192,45810,1,0,1:0:0:0:
448,192,45931,1,0,1:0:0:0:
64,192,46052,1,0,1:0:0:0:
320,192,46173,1,0,1:0:0:0:
448,192,46173,1,2,0:0:0:0:
192,192,46415,1,0,0:0:0:0:
64,192,46657,1,0,0:0:0:0:
192,192,46899,1,0,1:0:0:0:
320,192,47020,1,0,1:0:0:0:
448,192,47141,128,2,47383:0:0:0:0:
64,192,47383,1,0,0:0:0:0:
320,192,47504,1,0,0:0:0:0:
192,192,47625,128,0,47867:0:0:0:0:
64,192,47867,1,0,0:0:0:0:
320,192,47988,1,0,1:0:0:0:
448,192,48109,128,0,48351:0:0:0:0:
320,192,48351,1,0,0:0:0:0:
192,192,48472,1,0,1:0:0:0:
64,192,48593,128,0,48835:0:0:0:0:
192,192,48835,1,0,0:0:0:0:
320,192,48956,1,0,1:0:0:0:
448,192,49077,1,0,1:0:0:0:
64,192,49198,1,0,1:0:0:0:
448,192,49319,1,0,1:0:0:0:
64,192,49439,1,0,1:0:0:0:
448,192,49560,1,0,1:0:0:0:
64,192,49681,1,0,1:0:0:0:
448,192,49802,1,0,1:0:0:0:
64,192,49923,1,0,1:0:0:0:
320,191,50044,1,0,1:0:0:0:
448,191,50044,1,0,0:0:0:0:
192,192,50165,1,0,1:0:0:0:
64,192,50165,1,0,0:0:0:0:
320,191,50286,1,0,1:0:0:0:
448,191,50286,1,0,0:0:0:0:
192,192,50407,1,0,1:0:0:0:
64,192,50407,1,0,0:0:0:0:
320,191,50528,1,0,1:0:0:0:
448,191,50528,1,0,0:0:0:0:
192,192,50649,1,0,1:0:0:0:
64,192,50649,1,0,0:0:0:0:
320,192,50770,1,0,1:0:0:0:
448,192,50770,1,0,0:0:0:0:
192,192,50891,1,0,1:0:0:0:
64,192,50891,1,0,0:0:0:0:
320,192,51738,1,0,0:0:0:0:
448,192,51980,128,2,52343:0:0:0:0:
64,192,52343,128,2,52706:0:0:0:0:
320,192,52706,1,0,0:0:0:0:
448,192,52827,1,2,0:0:0:0:
64,192,52948,1,0,1:0:0:0:
320,192,52948,1,0,1:0:0:0:
320,192,53189,1,0,0:0:0:0:
448,192,53310,1,0,0:0:0:0:
64,192,53431,128,0,53673:1:0:0:0:
320,192,53673,1,0,0:0:0:0:
192,192,53915,1,0,1:0:0:0:
448,192,54036,1,0,0:0:0:0:
64,192,54157,128,0,54399:0:0:0:0:
320,192,54399,1,0,1:2:0:0:
448,192,54641,1,0,0:0:0:0:
320,192,54762,1,0,0:0:0:0:
64,192,54883,128,0,55125:1:0:0:0:
448,192,55125,1,0,0:0:0:0:
192,192,55246,1,0,0:0:0:0:
320,192,55367,128,0,55609:1:0:0:0:
64,192,55609,1,0,0:0:0:0:
192,192,55851,1,0,1:0:0:0:
448,192,55972,1,0,0:0:0:0:
192,192,56093,128,0,56335:0:0:0:0:
448,192,56335,1,0,1:0:0:0:
320,192,56577,1,0,0:0:0:0:
64,192,56698,1,0,0:0:0:0:
448,192,56819,128,0,57060:1:0:0:0:
320,192,57060,1,0,0:0:0:0:
192,192,57181,1,0,0:0:0:0:
64,192,57302,128,0,57544:1:0:0:0:
448,192,57544,1,0,0:0:0:0:
320,192,57786,1,0,1:0:0:0:
64,192,57907,1,0,0:0:0:0:
192,192,58028,128,0,58270:0:0:0:0:
448,192,58270,1,0,1:0:0:0:
320,192,58512,1,0,0:0:0:0:
192,192,58633,1,0,0:0:0:0:
448,192,58754,128,0,58996:1:0:0:0:
64,192,58996,1,0,0:0:0:0:
192,192,59117,1,0,0:0:0:0:
320,192,59238,128,0,59480:1:0:0:0:
64,192,59480,1,0,0:0:0:0:
192,192,59722,1,0,1:0:0:0:
320,192,59843,1,0,0:0:0:0:
448,192,59964,128,0,60206:0:0:0:0:
64,192,60206,1,0,1:0:0:0:
320,192,60448,1,0,1:0:0:0:
192,192,60569,1,0,0:0:0:0:
64,192,60689,128,0,60931:1:0:0:0:
448,192,60931,1,0,0:0:0:0:
192,192,61052,1,0,0:0:0:0:
320,192,61173,128,0,61415:1:0:0:0:
64,192,61415,1,0,0:0:0:0:
192,192,61657,1,0,1:0:0:0:
320,192,61778,1,0,0:0:0:0:
448,192,61899,128,0,62141:0:0:0:0:
192,192,62141,1,0,1:0:0:0:
64,192,62383,1,0,0:0:0:0:
192,192,62504,1,0,0:0:0:0:
448,192,62625,1,0,1:0:0:0:
320,192,62625,1,0,1:0:0:0:
448,192,62867,1,0,0:0:0:0:
320,192,62867,1,0,0:0:0:0:
64,192,63109,1,0,1:0:0:0:
192,192,63109,1,0,1:0:0:0:
64,192,63351,1,0,0:0:0:0:
192,192,63351,1,0,0:0:0:0:
448,192,63593,1,0,1:0:0:0:
320,192,63593,1,0,1:0:0:0:
448,192,63835,1,0,0:0:0:0:
320,192,63835,1,0,0:0:0:0:
64,192,64077,1,0,1:0:0:0:
192,192,64077,1,0,1:0:0:0:
64,192,64319,1,0,0:0:0:0:
192,192,64319,1,0,0:0:0:0:
320,192,64439,1,0,0:0:0:0:
448,192,64560,1,0,1:0:0:0:
64,192,64802,1,0,0:0:0:0:
320,192,64802,1,0,1:0:0:0:
64,192,65044,1,0,0:0:0:0:
320,192,65044,1,0,1:0:0:0:
64,192,65286,1,0,0:0:0:0:
320,192,65286,1,0,1:0:0:0:
64,192,65528,1,0,0:0:0:0:
192,192,65528,1,0,1:0:0:0:
448,192,65649,1,0,0:0:0:0:
320,192,65649,1,0,1:0:0:0:
64,192,65770,1,0,0:0:0:0:
192,192,65770,1,0,1:0:0:0:
448,192,65891,1,0,0:0:0:0:
320,192,65891,1,0,1:0:0:0:
64,192,66012,1,0,0:0:0:0:
192,192,66012,1,0,1:0:0:0:
448,192,66133,1,0,0:0:0:0:
320,192,66133,1,0,1:0:0:0:
64,192,66254,1,0,0:0:0:0:
192,192,66254,1,0,1:0:0:0:
448,192,66375,1,0,0:0:0:0:
320,192,66375,1,0,1:0:0:0:
192,192,67706,128,0,68431:0:0:0:0:
64,192,67948,128,0,68431:0:0:0:0:
320,192,68189,1,0,1:0:0:0:
448,192,68310,1,0,1:0:0:0:
320,192,68431,1,6,0:0:0:0:
448,192,68673,1,0,0:0:0:0:
320,192,68794,1,0,0:0:0:0:
192,192,68915,128,8,69157:0:0:0:0:
448,192,69157,1,0,0:0:0:0:
64,192,69278,1,0,0:0:0:0:
320,192,69399,128,0,69641:1:0:0:0:
64,192,69641,1,0,0:0:0:0:
192,192,69762,128,0,70125:0:0:0:0:
64,192,69883,1,8,1:2:0:0:
448,192,70125,1,0,0:0:0:0:
320,192,70246,1,0,0:0:0:0:
64,192,70367,128,4,70609:1:2:0:0:
448,192,70609,1,0,0:0:0:0:
192,192,70730,1,0,0:0:0:0:
320,192,70851,1,8,1:2:0:0:
192,192,71093,128,0,71335:0:0:0:0:
448,192,71093,1,0,0:0:0:0:
64,192,71214,1,0,0:0:0:0:
320,192,71335,128,0,71698:1:0:0:0:
448,192,71577,1,0,0:0:0:0:
192,192,71698,128,0,72060:0:0:0:0:
64,192,71819,1,8,1:2:0:0:
448,192,72060,1,0,0:0:0:0:
64,192,72181,128,0,72544:0:0:0:0:
192,192,72302,1,0,1:0:0:0:
448,192,72302,1,4,0:0:0:0:
320,192,72544,1,0,0:0:0:0:
192,192,72665,1,0,0:0:0:0:
448,192,72786,1,0,1:0:0:0:
64,192,72786,1,8,0:0:0:0:
192,192,73028,1,0,0:0:0:0:
320,192,73149,1,0,0:0:0:0:
448,192,73270,128,0,73512:1:0:0:0:
192,192,73512,1,0,0:0:0:0:
64,192,73633,1,0,0:0:0:0:
320,192,73754,128,8,73996:1:2:0:0:
64,192,73996,1,0,0:0:0:0:
448,192,74117,128,0,74480:0:0:0:0:
192,192,74238,1,6,1:2:0:0:
64,192,74359,1,0,0:0:0:0:
192,192,74480,1,2,0:0:0:0:
320,192,74601,1,0,0:0:0:0:
448,192,74722,1,10,1:2:0:0:
320,192,74843,1,0,0:0:0:0:
192,192,74964,128,2,75206:0:0:0:0:
64,192,75085,1,0,0:0:0:0:
320,192,75206,128,6,75448:1:2:0:0:
448,192,75327,1,0,0:0:0:0:
64,192,75448,1,2,0:0:0:0:
192,192,75569,128,0,75931:0:0:0:0:
448,192,75689,1,10,1:2:0:0:
320,192,75810,1,0,0:0:0:0:
64,192,75931,128,2,76173:0:0:0:0:
448,192,75931,1,0,0:0:0:0:
320,192,76052,1,0,0:0:0:0:
448,192,76173,128,0,76415:1:0:0:0:
192,192,76173,1,6,0:0:0:0:
64,192,76415,1,0,0:0:0:0:
192,192,76536,1,0,0:0:0:0:
320,192,76657,1,8,0:0:0:0:
448,192,76657,1,0,1:0:0:0:
192,192,76899,1,0,0:0:0:0:
64,192,76899,1,0,0:0:0:0:
448,192,77141,1,0,0:0:0:0:
320,192,77141,1,0,1:0:0:0:
192,192,77262,1,0,0:0:0:0:
64,192,77262,1,0,0:0:0:0:
320,192,77383,1,0,0:0:0:0:
192,192,77504,1,0,0:0:0:0:
320,192,77625,1,8,1:2:0:0:
64,192,77867,1,0,0:0:0:0:
192,192,77988,1,0,0:0:0:0:
448,192,78109,1,4,0:0:0:0:
320,192,78109,1,0,1:0:0:0:
448,192,78351,1,0,0:0:0:0:
320,192,78351,1,0,0:0:0:0:
64,191,78593,1,0,1:0:0:0:
192,192,78593,1,4,0:0:0:0:
192,192,78835,1,0,0:0:0:0:
64,191,78835,1,0,0:0:0:0:
192,192,79077,1,0,1:0:0:0:
320,192,79077,1,4,0:0:0:0:
320,192,79319,1,0,0:0:0:0:
192,192,79319,1,0,0:0:0:0:
448,192,79560,1,4,0:0:0:0:
64,191,79560,1,0,1:0:0:0:
448,192,79802,1,0,1:0:0:0:
64,191,79802,1,0,0:0:0:0:
320,192,79923,1,0,1:0:0:0:
192,192,80044,128,4,80770:0:0:0:0:
64,192,80286,1,0,0:0:0:0:
320,192,80407,1,0,0:0:0:0:
448,192,80528,1,8,0:0:0:0:
448,192,80770,128,0,81012:0:0:0:0:
64,192,81012,128,0,81496:0:0:0:0:
192,192,81133,1,0,0:0:0:0:
320,192,81254,1,0,0:0:0:0:
192,192,81375,1,0,0:0:0:0:
448,192,81496,1,8,0:0:0:0:
192,192,81738,1,0,0:0:0:0:
320,192,81980,128,4,82222:0:0:0:0:
64,192,82222,1,0,0:0:0:0:
192,192,82343,128,0,82706:0:0:0:0:
448,192,82706,1,0,0:0:0:0:
64,192,82948,128,4,83310:0:0:0:0:
448,192,83189,1,0,0:0:0:0:
192,192,83310,128,4,83673:0:0:0:0:
320,192,83673,128,4,83794:0:0:0:0:
448,192,83794,128,0,85851:0:0:0:0:
64,192,83794,1,0,0:0:0:0:
64,192,85851,1,2,0:0:0:0:
