osu file format v14

[General]
AudioFilename: Reason YUZU HxH.mp3
AudioLeadIn: 0
PreviewTime: 86995
Countdown: 0
SampleSet: None
StackLeniency: 0.7
Mode: 0
LetterboxInBreaks: 0
WidescreenStoryboard: 1

[Editor]
Bookmarks: 87479,120382,154171,170442
DistanceSpacing: 1.4
BeatDivisor: 4
GridSize: 4
TimelineZoom: 2

[Metadata]
Title:REASON
TitleUnicode:REASON
Artist:YUZU
ArtistUnicode:ゆず
Creator:Osuology
Version:Riyuu
Source:HUNTER X HUNTER
Tags:sad cry hunterxhunter
BeatmapID:762907
BeatmapSetID:285543

[Difficulty]
HPDrainRate:6.4
CircleSize:4
OverallDifficulty:7
ApproachRate:9.3
SliderMultiplier:1.4
SliderTickRate:1

[Events]
//Background and Video events
0,0,"LuTVIg.jpg",0,0
//Break Periods
//Storyboard Layer 0 (Background)
//Storyboard Layer 1 (Fail)
//Storyboard Layer 2 (Pass)
//Storyboard Layer 3 (Foreground)
//Storyboard Sound Samples

[TimingPoints]
1213,857.142857142857,4,2,0,6,1,0
2070,681.818181818182,4,2,0,6,1,0
5479,-100,4,2,0,10,0,0
6842,714.285714285714,4,2,0,10,1,0
7556,714.285714285714,4,2,0,37,1,0
7556,-100,4,2,0,37,0,0
20770,-100,4,2,0,5,0,0
21841,-100,4,2,0,37,0,0
29341,-100,4,2,0,5,0,0
30413,-100,4,2,0,37,0,0
33286,483.870967741935,4,1,0,60,1,0
50705,-50,4,1,0,90,0,0
52640,-50,4,1,0,60,0,0
53850,-100,4,1,0,60,0,0
58568,-50,4,1,0,60,0,0
59898,-100,4,1,0,60,0,0
60503,-50,4,1,0,60,0,0
61592,-100,4,1,0,60,0,0
66068,-80,4,2,0,90,0,0
73689,-80,4,3,0,70,0,0
87479,-80,4,1,0,80,0,0
102237,-57.1428571428571,4,1,0,100,0,0
102963,-57.1428571428571,4,2,0,60,0,1
112640,-100,4,3,0,80,0,1
118447,-100,4,3,0,80,0,0
120382,-100,4,3,0,65,0,0
122318,-100,4,1,0,80,0,0
135866,508.474576271186,4,1,0,80,1,0
137899,-100,4,3,0,70,0,0
152391,-50,4,3,0,70,0,0
153916,-100,4,1,0,70,0,0
170442,-100,4,1,0,83,0,1
170950,-66.6666666666667,4,3,0,83,0,1
188747,-66.6666666666667,4,3,0,60,0,0
190527,-66.6666666666667,4,2,0,95,0,0
190781,-100,4,2,0,100,0,0
192306,-66.6666666666667,4,2,0,70,0,0
198980,-100,4,1,0,80,0,0
207052,-66.6666666666667,4,2,0,65,0,0
215188,483.870967741935,4,3,0,80,1,0
217124,-100,4,3,0,80,0,0
219058,-100,4,3,0,80,0,0
222929,-100,4,1,0,65,0,0
237687,-50,4,3,0,100,0,0
238413,-66.6666666666667,4,3,0,87,0,1
271800,-52.6315789473684,4,3,0,100,0,1
273010,-66.6666666666667,4,3,0,87,0,1
277607,-100,4,3,0,100,0,1
278575,-50,4,3,0,87,0,1
296478,-50,4,3,0,87,0,0
297325,-50,4,3,0,100,0,0

[Colours]
Combo1 : 247,236,43
Combo2 : 79,227,105
Combo3 : 192,192,192
Combo4 : 44,19,162

[HitObjects]
256,192,1213,12,0,6842,0:0:0:0:
172,112,7556,6,0,P|128:88|88:88,1,70
136,172,8270,2,0,P|164:184|212:168,2,70
128,252,10413,6,0,L|216:244,1,70,4|0,0:0|0:0,0:0:0:0:
280,292,11127,1,0,0:0:0:0:
280,292,11484,1,0,0:0:0:0:
280,292,11841,2,0,P|232:300|200:288,2,70,4|0|0,0:0|0:0|0:0,0:0:0:0:
244,232,13270,6,0,P|268:168|272:136,1,70
264,64,13984,2,0,P|228:44|180:48,1,70,0|0,0:3|0:3,0:3:0:0:
208,188,15770,6,0,P|176:216|152:244,1,70,2|0,0:0|0:0,0:0:0:0:
264,128,16484,1,0,0:0:0:0:
284,224,16841,1,0,0:0:0:0:
156,216,17198,2,0,P|172:184|191:179,2,35
248,68,17913,2,0,L|256:156,2,70,2|0|2,0:0|0:0|0:0,0:0:0:0:
192,176,18984,5,0,0:0:0:0:
276,236,19341,1,0,0:0:0:0:
312,144,19698,1,0,0:0:0:0:
424,92,20055,2,0,P|408:192|444:224,1,140
468,152,21841,6,0,P|480:188|476:236,1,70,4|0,0:0|0:0,0:0:0:0:
404,280,22555,1,0,0:0:0:0:
312,248,22913,1,0,0:0:0:0:
400,200,23270,2,0,P|364:168|316:152,2,70,4|0|4,0:0|0:0|0:0,0:0:0:0:
308,116,24698,6,0,L|208:104,2,70
308,116,25770,1,0,0:0:0:0:
238,107,26484,5,2,0:0:0:0:
336,176,27555,5,4,0:0:0:0:
208,244,28984,6,0,P|200:284|224:328,2,70,4|0|0,0:0|0:0|0:0,0:0:0:0:
256,192,30413,5,4,0:0:0:0:
256,192,30502,12,0,32555,0:0:0:0:
76,164,35221,6,0,P|132:160|208:192,1,140
316,228,35947,1,8,0:0:0:0:
256,120,36673,1,8,0:0:0:0:
436,164,37156,6,0,P|380:160|304:192,1,140
196,228,37882,1,8,0:0:0:0:
256,120,38608,1,8,0:0:0:0:
68,176,39092,5,2,0:0:0:0:
264,200,39576,1,8,0:0:0:0:
148,328,39818,1,8,0:0:0:0:
256,288,40544,5,2,0:0:0:0:
444,176,41027,1,2,0:0:0:0:
248,200,41511,1,8,0:0:0:0:
364,328,41753,1,8,0:0:0:0:
68,168,42479,5,0,0:0:0:0:
192,36,42963,1,0,0:0:0:0:
236,188,43447,1,8,0:0:0:0:
236,188,43689,1,8,0:0:0:0:
444,168,44415,5,0,0:0:0:0:
320,36,44898,1,0,0:0:0:0:
276,188,45382,1,8,0:0:0:0:
276,188,45624,1,8,0:0:0:0:
256,192,46350,5,0,0:0:0:0:
272,216,46834,5,0,0:0:0:0:
256,192,46955,12,0,49737,0:0:0:0:
208,128,50705,6,0,P|236:140|288:120,1,70,4|0,0:0|0:0,0:0:0:0:
324,56,50947,2,0,P|352:64|392:112,1,70
444,160,51189,2,0,L|392:216,1,70,8|0,0:0|0:0,0:0:0:0:
288,200,51431,2,0,L|344:136,1,70
444,160,51673,5,0,0:0:0:0:
444,160,51915,1,0,0:0:0:0:
240,108,52156,1,8,0:0:0:0:
240,108,52398,1,0,0:0:0:0:
88,80,52640,6,0,L|96:160,1,70,4|0,0:0|0:0,0:0:0:0:
52,232,52882,2,0,P|88:252|132:276,1,70
196,300,53124,2,0,P|201:254|224:204,1,70,8|0,0:0|0:0,0:0:0:0:
296,192,53366,2,0,P|291:146|268:96,1,70
224,64,53608,5,0,0:0:0:0:
224,64,53850,2,0,L|284:8,2,70,0|8|0,0:0|0:0|0:0,0:0:0:0:
240,256,54576,1,0,0:0:0:0:
296,153,54818,1,0,0:0:0:0:
296,153,54939,1,0,0:0:0:0:
296,153,55060,1,8,0:0:0:0:
416,272,55302,2,0,B|372:264|332:220,1,70,0|4,0:0|0:0,0:0:0:0:
364,108,55785,5,0,0:0:0:0:
244,92,56027,1,8,0:0:0:0:
128,76,56269,1,0,0:0:0:0:
156,300,56511,5,0,0:0:0:0:
276,304,56753,1,0,0:0:0:0:
300,264,56874,1,0,0:0:0:0:
332,232,56995,1,8,0:0:0:0:
344,140,57237,2,0,P|296:88|192:104,1,175
196,184,57963,6,0,L|112:204,1,70
104,124,58447,5,4,0:0:0:0:
176,124,58568,2,0,L|194:54,2,70
232,216,58931,5,8,0:0:0:0:
304,216,59052,2,0,L|336:152,2,70
220,328,59415,5,0,0:0:0:0:
220,328,59656,1,0,0:0:0:0:
392,272,59898,2,0,L|368:184,1,70
220,240,60382,5,0,0:0:0:0:
140,196,60503,2,0,L|146:127,2,70
108,276,60866,5,8,0:0:0:0:
172,340,60987,2,0,L|248:336,2,70
224,152,61350,5,0,0:0:0:0:
224,152,61592,2,0,P|216:112|184:88,2,70,0|8|0,0:0|0:0|0:0,0:0:0:0:
195,286,62318,5,8,0:0:0:0:
110,160,62560,1,0,0:0:0:0:
240,73,62802,1,4,0:0:0:0:
324,199,63044,1,0,0:0:0:0:
392,216,63527,6,0,L|312:196,1,70,0|8,0:0|0:0,0:0:0:0:
208,228,64011,1,0,0:0:0:0:
296,312,64253,2,0,L|376:296,2,70,4|0|0,0:0|0:0|0:0,0:0:0:0:
176,312,64979,1,0,0:0:0:0:
72,100,65463,5,0,0:0:0:0:
152,140,65705,2,0,P|144:176|120:212,1,70,2|0,0:0|0:0,0:0:0:0:
127,204,66068,2,0,P|152:272|296:268,1,218.75
396,296,66794,5,0,0:0:0:0:
368,224,66915,2,0,P|344:228|312:232,1,43.75,0|2,0:0|0:0,0:0:0:0:
256,268,67156,1,0,0:0:0:0:
212,200,67277,1,0,0:0:0:0:
188,128,67398,1,0,0:0:0:0:
180,52,67519,1,0,0:0:0:0:
100,32,67640,6,0,P|60:68|32:112,1,87.5,2|0,0:0|0:0,0:0:0:0:
36,264,68124,6,0,L|72:220,1,43.75,4|0,0:0|0:0,0:0:0:0:
63,230,68366,2,0,P|100:236|112:228,1,43.75,0|2,0:0|0:0,0:0:0:0:
184,224,68608,1,0,0:0:0:0:
252,184,68729,1,0,0:0:0:0:
316,148,68850,1,0,0:0:0:0:
372,100,68971,1,0,0:0:0:0:
420,40,69092,1,4,0:0:0:0:
444,112,69213,1,0,0:0:0:0:
472,180,69334,2,0,P|432:212|368:224,1,87.5,0|6,0:0|0:0,0:0:0:0:
232,244,69818,6,0,L|184:260,1,43.75
212,168,70060,2,4,L|188:112,1,43.75
288,176,70302,2,0,L|332:208,1,43.75
276,320,70544,2,2,L|312:284,1,43.75,10|2,0:0|0:0,0:0:0:0:
260,124,70785,6,0,L|328:132,1,43.75
390,232,71027,2,0,L|352:284,1,43.75,4|0,0:0|0:0,0:0:0:0:
172,256,71269,2,0,L|234:241,1,43.75
448,164,71511,2,2,L|396:120,1,43.75,10|2,0:0|0:0,0:0:0:0:
92,64,71753,6,0,L|144:105,1,43.75
80,320,71995,2,0,L|155:285,1,43.75,4|0,0:0|0:0,0:0:0:0:
352,244,72237,2,0,L|312:173,1,43.75
208,64,72479,5,8,0:0:0:0:
332,148,72721,6,0,P|264:184|252:216,1,87.5
112,212,73205,1,0,0:0:0:0:
176,76,73447,1,0,0:0:0:0:
248,216,73689,1,0,0:0:0:0:
248,216,73810,1,0,0:0:0:0:
248,216,73931,1,2,0:0:0:0:
500,356,74415,5,8,0:0:0:0:
356,324,74656,1,0,0:0:0:0:
288,292,74777,1,0,0:0:0:0:
264,220,74898,1,2,0:0:0:0:
116,200,75140,1,0,0:0:0:0:
256,144,75382,1,8,0:0:0:0:
380,64,75624,1,0,0:0:0:0:
420,128,75745,1,0,0:0:0:0:
444,200,75866,1,2,0:0:0:0:
296,216,76108,5,0,0:0:0:0:
124,196,76350,1,8,0:0:0:0:
60,244,76471,1,0,0:0:0:0:
60,320,76592,1,0,0:0:0:0:
124,360,76713,1,0,0:0:0:0:
196,332,76834,1,2,0:0:0:0:
408,248,77076,5,0,0:0:0:0:
364,68,77318,1,8,0:0:0:0:
360,188,77560,6,0,L|364:128,1,43.75
364,68,77802,1,2,0:0:0:0:
188,104,78044,1,0,0:0:0:0:
72,236,78285,1,8,0:0:0:0:
256,296,78527,1,0,0:0:0:0:
256,220,78648,1,0,0:0:0:0:
256,148,78769,1,2,0:0:0:0:
108,164,79011,2,0,P|140:116|172:92,1,87.5,0|8,0:0|0:0,0:0:0:0:
256,76,79495,5,0,0:0:0:0:
212,136,79616,1,0,0:0:0:0:
172,200,79737,1,2,0:0:0:0:
316,228,79979,1,0,0:0:0:0:
380,92,80221,1,8,0:0:0:0:
428,148,80342,1,0,0:0:0:0:
356,160,80463,1,0,0:0:0:0:
284,172,80584,1,0,0:0:0:0:
212,188,80705,1,2,0:0:0:0:
320,172,80947,6,0,L|228:224,2,87.5,0|8|0,0:0|0:0|0:0,0:0:0:0:
320,172,81552,1,0,0:0:0:0:
384,224,81673,1,2,0:0:0:0:
236,276,81915,1,0,0:0:0:0:
132,176,82156,1,8,0:0:0:0:
256,96,82398,6,0,L|304:128,1,43.75
236,172,82640,2,0,L|192:144,1,43.75,2|0,0:0|0:0,0:0:0:0:
140,196,82882,2,0,L|192:236,1,43.75
132,288,83124,2,0,L|88:252,1,43.75,8|0,0:0|0:0,0:0:0:0:
56,320,83366,2,0,L|92:348,1,43.75
195,98,83608,6,0,L|165:65,1,43.75
347,123,83850,2,0,L|376:90,1,43.75
323,268,84092,2,0,L|350:302,1,43.75
166,242,84334,2,0,L|139:276,1,43.75
172,57,84576,6,0,L|150:-3,1,43.75,2|0,0:0|0:0,0:0:0:0:
412,169,84818,2,0,L|473:147,1,43.75
339,326,85060,2,0,L|361:387,1,43.75,8|0,0:0|0:0,0:0:0:0:
99,214,85302,2,0,L|60:232,1,43.75
256,192,85544,5,2,0:0:0:0:
68,184,87479,6,0,P|124:164|248:156,1,175,4|0,0:0|0:0,0:0:0:0:
324,220,88205,1,0,0:0:0:0:
224,256,88447,2,0,P|128:236|120:164,1,175
192,188,89173,1,0,0:0:0:0:
324,212,89415,5,4,0:0:0:0:
48,96,89898,1,0,0:0:0:0:
196,184,90140,1,0,0:0:0:0:
328,104,90382,5,0,0:0:0:0:
96,288,90866,2,0,P|128:232|152:216,1,87.5
192,96,91350,1,4,0:0:0:0:
192,96,91834,5,0,0:0:0:0:
420,288,92318,1,0,0:0:0:0:
440,180,92560,1,0,0:0:0:0:
352,80,92802,1,0,0:0:0:0:
300,220,93044,1,0,0:0:0:0:
264,32,93285,1,4,0:0:0:0:
180,316,93769,5,0,0:0:0:0:
328,288,94011,1,0,0:0:0:0:
472,324,94253,1,0,0:0:0:0:
256,240,94495,5,0,0:0:0:0:
108,196,94737,1,0,0:0:0:0:
256,168,94979,1,0,0:0:0:0:
404,196,95221,1,0,0:0:0:0:
320,248,95705,5,0,0:0:0:0:
172,244,95947,2,0,L|76:240,2,87.5
72,132,96915,5,0,0:0:0:0:
166,11,97156,5,4,0:0:0:0:
442,118,97640,1,4,0:0:0:0:
340,384,98124,1,4,0:0:0:0:
69,265,98608,1,4,0:0:0:0:
280,56,99092,6,0,P|236:100|204:108,1,87.5
208,32,99576,1,0,0:0:0:0:
172,196,99818,1,0,0:0:0:0:
458,168,100060,5,0,0:0:0:0:
432,192,100181,1,0,0:0:0:0:
408,208,100302,1,0,0:0:0:0:
383,222,100423,1,0,0:0:0:0:
357,235,100544,1,0,0:0:0:0:
331,248,100665,1,0,0:0:0:0:
300,260,100785,1,0,0:0:0:0:
272,264,100906,1,0,0:0:0:0:
264,296,101027,2,0,P|334:301|427:250,1,175
184,148,102237,6,2,P|192:216|232:112,1,306.250002920628
216,56,102963,5,4,0:0:0:0:
136,60,103084,1,0,0:0:0:0:
80,124,103205,2,0,P|72:168|96:208,1,61.2500005841255,0|8,0:0|0:0,0:0:0:0:
144,236,103447,1,0,0:0:0:0:
204,188,103568,1,0,0:0:0:0:
256,128,103689,2,0,L|312:200,1,61.2500005841255
344,248,103931,2,0,P|384:196|368:128,1,122.500001168251
308,92,104294,2,0,L|156:96,1,122.500001168251
116,220,104656,1,0,0:0:0:0:
92,296,104777,1,0,0:0:0:0:
168,260,104898,2,0,L|224:232,1,61.2500005841255
312,312,105140,2,0,L|372:328,1,61.2500005841255
156,208,105382,5,0,0:0:0:0:
128,284,105503,1,0,0:0:0:0:
196,340,105624,1,0,0:0:0:0:
248,272,105745,1,0,0:0:0:0:
260,188,105866,2,0,L|128:144,1,122.500001168251
60,124,106229,1,0,0:0:0:0:
172,188,106350,1,8,0:0:0:0:
152,112,106471,1,0,0:0:0:0:
108,180,106592,1,0,0:0:0:0:
84,256,106713,5,0,0:0:0:0:
156,292,106834,2,0,L|272:236,1,122.500001168251,8|0,0:0|0:0,0:0:0:0:
344,236,107197,1,0,0:0:0:0:
288,176,107318,1,8,0:0:0:0:
240,112,107439,1,0,0:0:0:0:
284,48,107560,1,0,0:0:0:0:
352,88,107681,1,0,0:0:0:0:
396,164,107802,2,0,L|420:232,1,61.2500005841255,8|0,0:0|0:0,0:0:0:0:
344,292,108044,2,0,L|312:344,1,61.2500005841255
232,312,108285,5,0,0:0:0:0:
248,236,108406,1,0,0:0:0:0:
304,172,108527,1,0,0:0:0:0:
356,104,108648,2,0,L|204:76,1,122.500001168251
168,312,109011,2,0,P|144:300|104:296,1,61.2500005841255
216,160,109253,2,0,P|248:148|248:104,1,61.2500005841255,8|0,0:0|0:0,0:0:0:0:
332,156,109495,5,0,0:0:0:0:
320,76,109616,1,0,0:0:0:0:
392,44,109737,2,0,P|424:24|452:4,2,61.2500005841255,4|0|0,0:0|0:0|0:0,0:0:0:0:
412,120,110100,1,0,0:0:0:0:
464,180,110221,2,0,L|480:244,3,61.2500005841255,8|0|0|0,0:0|0:0|0:0|0:0,0:0:0:0:
400,236,110705,1,4,0:0:0:0:
336,284,110826,1,0,0:0:0:0:
256,288,110947,1,0,0:0:0:0:
200,232,111068,1,0,0:0:0:0:
136,276,111189,1,8,0:0:0:0:
172,204,111310,5,0,0:0:0:0:
212,136,111431,1,0,0:0:0:0:
252,204,111552,1,0,0:0:0:0:
308,148,111673,2,0,P|328:180|352:204,1,61.2500005841255,4|0,0:0|0:0,0:0:0:0:
424,96,111915,1,0,0:0:0:0:
414,172,112035,1,0,0:0:0:0:
400,288,112156,5,8,0:0:0:0:
232,140,112398,5,0,0:0:0:0:
232,140,112519,1,0,0:0:0:0:
232,140,112640,2,4,L|160:156,1,70
184,288,113124,2,4,L|112:304,1,70
296,56,113608,2,4,L|224:72,1,70
320,168,114092,2,4,L|248:184,1,70
228,176,114455,1,0,0:0:0:0:
207,151,114576,6,2,P|132:132|199:32,1,210
184,92,115544,1,8,0:0:0:0:
88,176,116027,2,0,P|144:204|152:224,1,70
204,216,116390,1,0,0:0:0:0:
264,228,116511,2,0,P|288:200|308:144,2,70
156,276,117237,2,0,L|120:280,1,35
80,272,117479,6,0,P|72:232|72:152,2,105
80,272,118326,1,0,0:0:0:0:
144,332,118447,1,4,0:0:0:0:
136,252,120382,6,0,B|196:232|220:176|220:176|248:160,1,140
312,72,121108,1,0,0:0:0:0:
344,120,121229,1,0,0:0:0:0:
364,172,121350,2,2,P|336:208|176:244,1,210
108,196,122318,6,0,P|76:148|100:60,1,140,4|8,0:0|0:0,0:0:0:0:
160,124,123044,1,8,0:0:0:0:
400,100,123769,1,2,0:0:0:0:
196,328,124253,5,4,0:0:0:0:
196,328,124737,2,8,L|252:276,1,70
320,156,125705,6,0,P|327:88|282:36,2,140,2|4|8,0:0|0:0|0:0,0:0:0:0:
196,268,126915,1,8,0:0:0:0:
124,204,127640,5,2,0:0:0:0:
292,196,128124,1,4,0:0:0:0:
52,56,128608,1,8,0:0:0:0:
164,136,128850,1,8,0:0:0:0:
240,300,129576,6,0,L|252:232,1,70,2|0,0:0|0:0,0:0:0:0:
192,164,130060,6,0,P|216:112|232:112,1,70
308,136,130544,1,0,0:0:0:0:
332,224,130785,1,0,0:0:0:0:
304,276,130906,1,0,0:0:0:0:
264,316,131027,1,0,0:0:0:0:
128,260,131269,1,0,0:0:0:0:
136,104,131511,1,0,0:0:0:0:
296,108,131753,5,0,0:0:0:0:
268,160,131874,1,0,0:0:0:0:
232,208,131995,1,4,0:0:0:0:
168,320,132237,1,0,0:0:0:0:
348,236,132479,1,2,0:0:0:0:
108,252,132721,1,0,0:0:0:0:
132,196,132842,1,0,0:0:0:0:
164,144,132963,1,4,0:0:0:0:
220,52,133205,5,0,0:0:0:0:
384,88,133447,1,2,0:0:0:0:
316,184,133689,1,0,0:0:0:0:
264,212,133810,1,0,0:0:0:0:
216,176,133931,1,4,0:0:0:0:
156,64,134173,1,0,0:0:0:0:
40,184,134415,1,2,0:0:0:0:
188,240,134656,2,0,L|216:228,4,17.5,0|0|0|0|4,0:0|0:0|0:0|0:0|0:0,0:0:0:0:
272,340,135140,5,0,0:0:0:0:
344,176,135382,1,2,0:0:0:0:
244,108,135624,2,0,L|224:100,1,17.5
256,88,135745,2,0,L|236:72,1,17.5
272,72,135866,1,4,0:0:0:0:
256,192,135993,12,0,137645,0:0:0:0:
112,144,137899,5,4,0:0:0:0:
160,184,138027,1,0,0:0:0:0:
204,224,138154,1,0,0:0:0:0:
296,148,138408,1,2,0:0:0:0:
192,96,138662,1,0,0:0:0:0:
140,72,138789,1,0,0:0:0:0:
80,64,138916,1,4,0:0:0:0:
28,172,139171,5,0,0:0:0:0:
108,244,139425,1,2,0:0:0:0:
204,224,139679,1,0,0:0:0:0:
244,180,139806,1,0,0:0:0:0:
268,128,139933,1,4,0:0:0:0:
148,144,140188,1,0,0:0:0:0:
240,68,140442,1,2,0:0:0:0:
360,76,140696,1,0,0:0:0:0:
356,136,140823,1,0,0:0:0:0:
352,196,140950,1,4,0:0:0:0:
204,224,141204,5,0,0:0:0:0:
108,172,141459,1,2,0:0:0:0:
200,112,141713,2,0,L|180:76,2,35,0|4|0,0:0|0:0|0:0,0:0:0:0:
300,180,142221,5,0,0:0:0:0:
188,240,142476,1,2,0:0:0:0:
100,164,142730,1,0,0:0:0:0:
64,116,142857,2,0,L|40:80,1,35,0|4,0:0|0:0,0:0:0:0:
160,116,143238,1,0,0:0:0:0:
272,88,143493,1,2,0:0:0:0:
352,164,143747,6,0,L|332:168,1,17.5
364,188,143874,2,0,L|352:212,1,17.5
388,204,144001,1,4,0:0:0:0:
268,208,144255,5,0,0:0:0:0:
148,204,144510,1,2,0:0:0:0:
212,104,144764,1,0,0:0:0:0:
208,164,144891,1,0,0:0:0:0:
208,224,145018,1,4,0:0:0:0:
76,176,145272,6,0,P|51:132|72:96,1,70,0|2,0:0|0:0,0:0:0:0:
136,128,145781,2,0,L|184:120,1,35
256,116,146035,1,4,0:0:0:0:
176,208,146289,6,0,L|208:172,1,35
256,116,146543,1,2,0:0:0:0:
336,28,146798,6,0,L|303:63,1,35
256,116,147052,1,4,0:0:0:0:
380,148,147306,6,0,L|332:137,1,35
256,116,147560,1,2,0:0:0:0:
140,120,147815,6,0,L|92:116,1,35
212,96,148069,2,0,L|216:56,1,35,4|0,0:0|0:0,0:0:0:0:
256,152,148323,2,0,L|290:165,1,35
152,192,148577,2,0,L|112:208,1,35,2|0,0:0|0:0,0:0:0:0:
220,212,148832,2,0,L|232:252,1,35
102,96,149086,6,0,L|56:92,1,35,4|0,0:0|0:0,0:0:0:0:
197,64,149340,2,0,L|203:28,1,35
256,139,149594,2,0,L|301:156,1,35,2|0,0:0|0:0,0:0:0:0:
118,192,149849,2,0,L|83:207,1,35
212,216,150103,2,0,L|223:258,2,35,4|0|0,0:0|0:0|0:0,0:0:0:0:
428,264,150866,6,0,P|312:236|280:231,2,140
336,336,152137,5,4,0:0:0:0:
164,276,152391,2,0,L|87:292,2,70,0|0|8,0:0|0:0|0:0,0:0:0:0:
268,160,152899,2,0,L|336:136,2,70,0|0|4,0:0|0:0|0:0,0:0:0:0:
32,112,153408,2,0,L|72:112,1,35
72,172,153535,2,0,L|108:136,1,35
124,200,153662,2,0,L|196:144,2,70,8|0|0,0:0|0:0|0:0,0:0:0:0:
276,244,154171,5,4,0:0:0:0:
180,88,154425,1,0,0:0:0:0:
360,88,154679,1,0,0:0:0:0:
380,212,154933,1,0,0:0:0:0:
328,232,155060,1,0,0:0:0:0:
276,252,155188,1,4,0:0:0:0:
164,220,155442,5,0,0:0:0:0:
140,104,155696,1,8,0:0:0:0:
164,220,155950,5,0,0:0:0:0:
148,164,156077,1,0,0:0:0:0:
140,104,156204,1,4,0:0:0:0:
224,132,156459,5,0,0:0:0:0:
288,232,156713,1,8,0:0:0:0:
348,128,156967,2,2,L|388:128,2,35,2|2|6,0:0|0:0|0:0,0:0:0:0:
240,164,157476,1,0,0:0:0:0:
224,276,157730,1,8,0:0:0:0:
384,140,157984,6,2,L|416:148,1,17.5
392,184,158111,2,2,L|416:168,1,17.5
416,216,158238,1,2,0:0:0:0:
104,68,158493,6,0,P|144:64|188:68,1,70,0|8,0:0|0:0,0:0:0:0:
354,83,159001,2,0,P|376:112|384:148,1,70,0|4,0:0|0:0,0:0:0:0:
340,240,159510,2,0,L|300:244,2,35,0|0|8,0:0|0:0|0:0,0:0:0:0:
116,212,160018,2,0,L|88:220,3,17.5
116,164,160272,2,0,P|112:140|144:96,1,70,4|0,0:0|0:0,0:0:0:0:
172,56,160654,1,0,0:0:0:0:
228,36,160781,6,0,P|256:88|259:110,1,70,8|0,0:0|0:0,0:0:0:0:
244,156,161162,1,0,0:0:0:0:
192,220,161289,1,4,0:0:0:0:
376,256,162052,6,0,L|328:264,1,35
256,268,162306,1,4,0:0:0:0:
336,176,162560,6,0,L|304:212,1,35
256,268,162814,1,2,0:0:0:0:
176,356,163069,6,0,L|209:321,1,35
256,268,163323,1,4,0:0:0:0:
132,236,163577,6,0,L|180:247,1,35
256,268,163831,1,2,0:0:0:0:
384,284,164086,6,0,B|340:288|344:288,1,35
256,268,164340,1,4,0:0:0:0:
384,216,164594,5,0,0:0:0:0:
256,268,164721,1,0,0:0:0:0:
264,140,164976,5,0,0:0:0:0:
384,216,165103,2,0,L|248:264,1,140
272,180,165865,5,8,0:0:0:0:
144,144,166120,1,0,0:0:0:0:
108,192,166247,1,0,0:0:0:0:
152,232,166374,1,4,0:0:0:0:
216,112,166628,5,0,0:0:0:0:
320,56,166882,1,8,0:0:0:0:
308,176,167137,1,0,0:0:0:0:
276,124,167264,1,0,0:0:0:0:
260,68,167391,1,0,0:0:0:0:
368,116,167645,1,0,0:0:0:0:
248,168,167899,5,8,0:0:0:0:
304,184,168027,1,0,0:0:0:0:
360,200,168154,1,0,0:0:0:0:
420,208,168281,1,0,0:0:0:0:
480,216,168408,1,0,0:0:0:0:
388,288,168662,5,0,0:0:0:0:
268,276,168916,2,0,L|184:272,1,70,8|0,0:0|0:0,0:0:0:0:
84,264,169425,1,0,0:0:0:0:
100,148,169679,1,0,0:0:0:0:
148,112,169806,1,0,0:0:0:0:
156,172,169933,1,8,0:0:0:0:
308,152,170442,5,0,0:0:0:0:
96,260,170950,2,0,L|73:138,1,105.000004005432
160,192,171459,1,2,0:0:0:0:
468,52,171967,5,0,0:0:0:0:
468,52,172221,2,0,P|452:104|400:136,2,105.000004005432,0|4|0,0:0|0:0|0:0,0:0:0:0:
288,56,172984,1,0,0:0:0:0:
108,56,173238,1,0,0:0:0:0:
108,236,173493,1,2,0:0:0:0:
408,44,174001,5,0,0:0:0:0:
372,220,174255,1,0,0:0:0:0:
200,172,174510,1,2,0:0:0:0:
256,4,175018,5,0,0:0:0:0:
120,120,175272,1,0,0:0:0:0:
288,64,175527,1,2,0:0:0:0:
152,180,175781,1,0,0:0:0:0:
324,128,176035,1,0,0:0:0:0:
184,240,176289,1,0,0:0:0:0:
356,192,176543,1,2,0:0:0:0:
184,112,176798,2,0,P|96:100|69:109,2,105.000004005432
296,268,177560,5,10,0:0:0:0:
340,72,178069,5,0,0:0:0:0:
104,108,178577,2,0,P|36:132|12:192,2,105.000004005432,4|0|0,0:0|0:0|0:0,0:0:0:0:
272,128,179340,2,0,L|208:148,1,52.5000020027161
248,216,179594,2,0,L|312:192,1,52.5000020027161,2|0,0:0|0:0,0:0:0:0:
304,280,179849,2,0,L|240:300,1,52.5000020027161
56,116,180357,5,0,0:0:0:0:
236,108,180611,1,2,0:0:0:0:
72,40,180865,1,0,0:0:0:0:
192,172,181120,1,0,0:0:0:0:
48,320,181374,1,0,0:0:0:0:
48,320,181501,1,0,0:0:0:0:
48,320,181628,6,0,P|96:312|152:320,1,105.000004005432,4|0,0:0|0:0,0:0:0:0:
328,320,182137,1,0,0:0:0:0:
279,249,182391,1,0,0:0:0:0:
317,171,182645,1,2,0:0:0:0:
403,162,182899,1,0,0:0:0:0:
452,234,183154,1,0,0:0:0:0:
416,313,183408,2,0,P|344:352|296:356,1,105.000004005432
60,156,183916,6,0,P|124:132|152:100,2,105.000004005432
216,244,184679,2,0,B|272:184|272:156|192:64,1,210.000008010865,2|0,0:0|0:0,0:0:0:0:
56,28,185442,1,0,0:0:0:0:
56,208,185696,1,2,0:0:0:0:
152,56,185950,1,0,0:0:0:0:
0,120,186204,1,0,0:0:0:0:
184,168,186459,1,0,0:0:0:0:
256,192,186713,12,0,188493,0:0:0:0:
264,28,188747,6,0,L|208:68,1,52.5000020027161,4|0,0:0|0:0,0:0:0:0:
248,144,189001,2,0,L|304:104,1,52.5000020027161
148,192,189255,2,0,L|96:148,1,52.5000020027161,8|0,0:0|0:0,0:0:0:0:
64,224,189510,2,0,L|116:260,1,52.5000020027161
372,180,189764,2,0,L|320:144,1,52.5000020027161,4|0,0:0|0:0,0:0:0:0:
300,144,190018,1,0,0:0:0:0:
268,144,190145,1,0,0:0:0:0:
232,140,190272,6,0,L|168:132,1,52.5000020027161,8|0,0:0|0:0,0:0:0:0:
256,48,190527,2,0,L|192:52,1,52.5000020027161
124,76,190781,2,0,B|43:144|87:217|143:260|176:180|316:216,1,350
284,104,192306,5,0,0:0:0:0:
264,228,192560,1,0,0:0:0:0:
360,148,192815,1,0,0:0:0:0:
332,272,193069,1,0,0:0:0:0:
432,196,193323,1,0,0:0:0:0:
296,208,193577,1,0,0:0:0:0:
256,96,193832,2,0,P|204:80|152:60,1,105.000004005432
92,196,194340,1,0,0:0:0:0:
220,272,194594,5,0,0:0:0:0:
140,148,194849,1,0,0:0:0:0:
280,188,195103,1,0,0:0:0:0:
200,64,195357,1,0,0:0:0:0:
348,68,195611,1,0,0:0:0:0:
388,208,195865,2,0,B|304:200|304:200|264:184,1,105.000004005432
136,204,196374,1,0,0:0:0:0:
128,56,196628,1,0,0:0:0:0:
340,96,196882,5,0,0:0:0:0:
256,216,197137,1,0,0:0:0:0:
180,88,197391,1,0,0:0:0:0:
160,232,197645,1,0,0:0:0:0:
252,116,197899,1,0,0:0:0:0:
336,236,198154,1,0,0:0:0:0:
424,352,198408,1,0,0:0:0:0:
500,224,198662,1,0,0:0:0:0:
416,104,198916,1,0,0:0:0:0:
256,192,198980,12,0,206543,0:0:0:0:
184,192,207052,6,0,B|252:196|336:84|360:192|384:296|504:176,1,315.000012016297,4|0,0:0|0:0,0:0:0:0:
296,236,208069,2,0,B|312:156|248:76|208:60|180:88|180:88|136:52|100:56|100:56,1,315.000012016297
236,300,209086,2,0,P|208:256|372:128,1,315.000012016297,4|0,0:0|0:0,0:0:0:0:
368,128,210103,2,0,P|396:240|228:292,1,315.000012016297,4|0,0:0|0:0,0:0:0:0:
164,208,211120,6,0,P|144:104|44:28,1,210.000008010865,4|0,0:0|0:0,0:0:0:0:
72,136,212137,2,0,B|136:136|172:180|172:180|232:212|160:252|160:252|300:288|228:304,1,315.000012016297,4|0,0:0|0:0,0:0:0:0:
100,212,213154,2,0,P|108:136|320:108,1,315.000012016297,4|0,0:0|0:0,0:0:0:0:
212,160,214171,2,0,B|356:200|240:280|372:296,1,210.000008010865,4|0,0:0|0:0,0:0:0:0:
152,72,215188,5,2,0:0:0:0:
376,152,215671,1,0,0:0:0:0:
260,176,215913,1,0,0:0:0:0:
140,168,216155,1,8,0:0:0:0:
280,52,216639,1,0,0:0:0:0:
196,236,217123,5,2,0:0:0:0:
380,76,217607,1,0,0:0:0:0:
264,56,217849,1,0,0:0:0:0:
160,96,218091,1,8,0:0:0:0:
308,192,218575,1,0,0:0:0:0:
160,192,219058,5,4,0:0:0:0:
256,96,219300,1,0,0:0:0:0:
352,192,219542,1,8,0:0:0:0:
256,280,219784,1,0,0:0:0:0:
140,72,220026,5,0,0:0:0:0:
184,84,220147,1,0,0:0:0:0:
220,108,220268,1,0,0:0:0:0:
228,152,220389,1,0,0:0:0:0:
220,196,220510,1,0,0:0:0:0:
184,228,220631,1,0,0:0:0:0:
140,220,220752,1,0,0:0:0:0:
100,200,220873,2,0,L|56:200,1,35,0|2,0:0|0:0,0:0:0:0:
336,136,222929,5,4,0:0:0:0:
100,120,223413,1,0,0:0:0:0:
168,216,223655,2,0,P|184:156|184:136,2,70
168,216,224260,1,0,0:0:0:0:
168,216,224381,1,0,0:0:0:0:
236,316,224623,1,0,0:0:0:0:
296,176,224865,1,4,0:0:0:0:
380,144,225591,5,2,0:0:0:0:
336,192,225712,1,2,0:0:0:0:
300,244,225833,2,0,B|260:272|260:272|212:248|168:256,2,140
264,208,227284,5,8,0:0:0:0:
184,96,227526,1,0,0:0:0:0:
176,252,227768,1,0,0:0:0:0:
312,96,228010,1,0,0:0:0:0:
292,312,228252,1,8,0:0:0:0:
120,56,228494,1,0,0:0:0:0:
144,320,228736,1,0,0:0:0:0:
460,124,229462,6,0,L|416:140,1,35
388,156,229704,2,0,L|312:192,2,70
324,185,230429,1,0,0:0:0:0:
324,185,230550,1,0,0:0:0:0:
324,185,230671,1,0,0:0:0:0:
256,4,231397,5,0,0:0:0:0:
132,196,231639,1,8,0:0:0:0:
360,192,231881,1,0,0:0:0:0:
464,80,232365,5,0,0:0:0:0:
344,84,232607,2,0,L|272:96,1,70,8|0,0:0|0:0,0:0:0:0:
286,164,233091,2,0,L|274:92,1,70,8|0,0:0|0:0,0:0:0:0:
205,106,233575,2,0,L|277:94,1,70,8|0,0:0|0:0,0:0:0:0:
262,25,234058,2,0,L|274:97,1,70,8|0,0:0|0:0,0:0:0:0:
136,72,234542,6,0,P|56:112|80:224,1,210,4|0,0:0|0:0,0:0:0:0:
104,220,235389,1,0,0:0:0:0:
140,220,235510,2,0,P|184:204|208:108,1,140
316,64,236236,5,0,0:0:0:0:
448,96,236478,1,4,0:0:0:0:
404,136,236599,1,0,0:0:0:0:
352,164,236720,1,0,0:0:0:0:
296,180,236841,1,4,0:0:0:0:
100,208,237687,6,2,P|72:264|172:200,1,350
187,209,238413,6,0,P|215:149|196:120,1,105.000004005432,4|0,0:0|0:0,0:0:0:0:
232,76,238776,1,0,0:0:0:0:
152,32,238897,1,2,0:0:0:0:
76,80,239018,1,0,0:0:0:0:
48,176,239139,1,0,0:0:0:0:
48,176,239260,1,0,0:0:0:0:
48,176,239381,2,0,B|92:188|112:164|124:140|104:100|96:140|164:196|244:152,1,210.000008010865,4|2,0:0|0:0,0:0:0:0:
252,72,239986,5,0,0:0:0:0:
288,152,240107,2,0,P|304:208|256:248,1,105.000004005432,0|4,0:0|0:0,0:0:0:0:
188,224,240470,1,0,0:0:0:0:
100,220,240591,1,0,0:0:0:0:
28,264,240712,1,0,0:0:0:0:
40,180,240833,1,2,0:0:0:0:
80,108,240954,1,0,0:0:0:0:
140,48,241075,6,0,L|192:24,1,52.5000020027161
224,24,241317,6,0,L|276:136,2,105.000004005432,4|0|2,0:0|0:0|0:0,0:0:0:0:
292,36,241921,1,0,0:0:0:0:
376,64,242042,1,0,0:0:0:0:
404,144,242163,2,0,L|392:204,1,52.5000020027161,0|4,0:0|0:0,0:0:0:0:
320,248,242405,1,0,0:0:0:0:
232,248,242526,1,0,0:0:0:0:
144,232,242647,1,0,0:0:0:0:
76,172,242768,2,0,P|72:96|96:80,2,105.000004005432,2|0|4,0:0|0:0|0:0,0:0:0:0:
96,88,243494,5,0,0:0:0:0:
96,88,243615,1,0,0:0:0:0:
96,88,243736,2,0,P|162:94|204:92,1,105.000004005432,2|0,0:0|0:0,0:0:0:0:
256,76,244099,1,0,0:0:0:0:
256,76,244220,2,2,P|328:68|444:144,1,210.000008010865,4|0,0:0|0:0,0:0:0:0:
200,176,244946,5,0,0:0:0:0:
276,140,245067,1,0,0:0:0:0:
352,104,245187,1,4,0:0:0:0:
428,72,245308,1,0,0:0:0:0:
508,48,245429,2,0,P|500:104|468:160,1,105.000004005432,0|2,0:0|0:0,0:0:0:0:
412,168,245792,5,0,0:0:0:0:
328,204,245913,1,0,0:0:0:0:
248,240,246034,1,0,0:0:0:0:
160,256,246155,2,0,P|88:240|60:196,1,105.000004005432,4|0,0:0|0:0,0:0:0:0:
88,40,246639,5,2,0:0:0:0:
164,88,246760,1,0,0:0:0:0:
232,32,246881,1,0,0:0:0:0:
288,100,247002,1,0,0:0:0:0:
348,32,247123,2,0,P|412:88|416:124,2,105.000004005432,4|0|2,0:0|0:0|0:0,0:0:0:0:
200,200,247849,5,0,0:0:0:0:
200,200,247970,1,0,0:0:0:0:
200,200,248091,2,0,L|96:224,1,105.000004005432,4|0,0:0|0:0,0:0:0:0:
128,48,248575,2,0,L|28:104,1,105.000004005432,2|0,0:0|0:0,0:0:0:0:
260,100,249058,2,0,L|368:100,1,105.000004005432,4|0,0:0|0:0,0:0:0:0:
276,256,249542,2,0,L|384:248,1,105.000004005432,2|0,0:0|0:0,0:0:0:0:
224,164,250026,6,0,P|112:112|32:148,1,210.000008010865,4|2,0:0|0:0,0:0:0:0:
48,320,250752,1,0,0:0:0:0:
368,320,250994,1,0,0:0:0:0:
72,120,251478,5,8,0:0:0:0:
424,64,251962,2,0,L|388:72,12,26.2500010013581
252,116,252929,1,0,0:0:0:0:
96,32,253292,1,0,0:0:0:0:
164,292,253655,1,0,0:0:0:0:
312,208,253897,6,0,P|356:256|320:272,1,105.000004005432
224,68,254381,1,8,0:0:0:0:
68,156,254623,1,0,0:0:0:0:
44,332,254865,1,0,0:0:0:0:
344,140,255349,5,8,0:0:0:0:
224,68,255591,1,0,0:0:0:0:
44,64,255833,1,0,0:0:0:0:
56,240,256075,1,0,0:0:0:0:
220,312,256317,1,8,0:0:0:0:
220,312,256558,1,0,0:0:0:0:
344,180,256800,6,0,P|344:88|240:60,1,210.000008010865,4|8,0:0|0:0,0:0:0:0:
68,88,257526,1,0,0:0:0:0:
176,232,257768,1,0,0:0:0:0:
184,124,258252,5,8,0:0:0:0:
268,32,258494,1,0,0:0:0:0:
350,240,258736,1,0,0:0:0:0:
344,134,258978,1,0,0:0:0:0:
261,297,259220,1,8,0:0:0:0:
240,192,259462,1,0,0:0:0:0:
96,124,259704,2,0,P|80:160|76:188,1,52.5000020027161,4|0,0:0|0:0,0:0:0:0:
84,208,259946,2,0,P|208:204|284:152,1,210.000008010865
416,40,260671,1,0,0:0:0:0:
340,288,261155,5,8,0:0:0:0:
76,48,261639,5,0,0:0:0:0:
268,104,261881,1,0,0:0:0:0:
164,268,262123,1,8,0:0:0:0:
40,140,262365,2,0,L|92:168,1,52.5000020027161
148,104,262607,2,0,L|92:76,1,52.5000020027161
232,72,262849,2,0,L|284:56,1,52.5000020027161
372,64,263091,5,8,0:0:0:0:
464,128,263333,1,0,0:0:0:0:
344,260,263575,1,0,0:0:0:0:
256,137,263817,1,0,0:0:0:0:
192,220,264058,2,0,L|264:128,1,105.000004005432,8|0,0:0|0:0,0:0:0:0:
124,276,264542,1,8,0:0:0:0:
52,112,265026,5,0,0:0:0:0:
156,48,265268,1,0,0:0:0:0:
48,188,265510,1,0,0:0:0:0:
196,288,265752,1,0,0:0:0:0:
304,144,265994,2,0,P|232:96|196:84,1,105.000004005432,8|0,0:0|0:0,0:0:0:0:
104,228,266478,1,0,0:0:0:0:
280,240,266720,2,0,L|392:176,1,105.000004005432,0|8,0:0|0:0,0:0:0:0:
200,132,267204,1,0,0:0:0:0:
380,148,267446,5,4,0:0:0:0:
72,232,268171,5,0,0:0:0:0:
160,252,268292,1,0,0:0:0:0:
248,248,268413,2,0,L|312:240,2,52.5000020027161
384,204,268776,1,0,0:0:0:0:
400,52,269139,1,4,0:0:0:0:
256,192,269381,12,4,271317,0:0:0:0:
116,116,271800,5,8,0:0:0:0:
392,68,272284,2,0,L|268:312,1,265.999992897034,0|8,0:0|0:0,0:0:0:0:
164,144,273010,5,0,0:0:0:0:
164,144,273131,1,0,0:0:0:0:
164,144,273252,2,0,P|80:112|52:112,2,105.000004005432
308,252,273978,1,0,0:0:0:0:
328,68,274220,2,0,L|264:84,1,52.5000020027161
188,64,274462,5,0,0:0:0:0:
176,152,274583,2,0,L|224:208,1,52.5000020027161
64,224,274825,2,0,L|8:236,1,52.5000020027161
104,236,275067,1,0,0:0:0:0:
140,244,275187,1,4,0:0:0:0:
168,252,275308,1,0,0:0:0:0:
200,264,275429,1,0,0:0:0:0:
228,276,275550,1,0,0:0:0:0:
256,288,275671,6,0,P|336:296|352:272,1,105.000004005432
356,196,276034,1,0,0:0:0:0:
304,124,276155,1,4,0:0:0:0:
244,56,276276,1,0,0:0:0:0:
180,120,276397,1,0,0:0:0:0:
124,184,276518,1,4,0:0:0:0:
20,296,276881,5,2,0:0:0:0:
284,224,277123,1,2,0:0:0:0:
256,192,277365,12,0,278091,0:0:0:0:
72,184,278575,6,0,P|136:140|264:112,1,210
344,88,279058,2,0,L|320:232,1,140
444,340,279542,1,4,0:0:0:0:
212,256,279784,1,0,0:0:0:0:
116,40,280510,5,0,0:0:0:0:
304,188,280752,2,0,L|444:184,2,140
68,144,281478,1,0,0:0:0:0:
140,100,281599,1,0,0:0:0:0:
160,180,281720,1,0,0:0:0:0:
440,208,282446,5,8,0:0:0:0:
284,64,282929,1,8,0:0:0:0:
200,48,283050,1,0,0:0:0:0:
120,68,283171,1,0,0:0:0:0:
64,132,283292,1,0,0:0:0:0:
36,212,283413,1,0,0:0:0:0:
80,280,283534,1,0,0:0:0:0:
164,268,283655,2,0,P|196:208|276:176,2,140,0|8|0,0:0|0:0|0:0,0:0:0:0:
252,80,284381,5,8,0:0:0:0:
56,188,284623,1,0,0:0:0:0:
120,240,284744,1,0,0:0:0:0:
188,284,284865,1,8,0:0:0:0:
224,208,284986,1,0,0:0:0:0:
204,128,285107,2,0,P|224:92|208:52,1,70
232,28,285349,2,0,P|316:32|384:200,1,280,0|8,0:0|0:0,0:0:0:0:
100,200,286317,6,0,L|192:196,1,70
140,304,286558,2,0,L|216:268,1,70
312,300,286800,2,0,L|264:236,1,70,8|0,0:0|0:0,0:0:0:0:
328,148,287042,2,0,L|256:164,1,70
168,96,287284,1,0,0:0:0:0:
56,164,287526,2,0,P|176:192|196:196,2,140,0|8|0,0:0|0:0|0:0,0:0:0:0:
276,124,288252,5,8,0:0:0:0:
200,156,288373,1,0,0:0:0:0:
128,204,288494,1,0,0:0:0:0:
72,268,288615,2,0,L|148:288,1,70
208,296,288857,1,0,0:0:0:0:
288,268,288978,1,0,0:0:0:0:
364,232,289099,1,0,0:0:0:0:
436,188,289220,1,8,0:0:0:0:
296,92,289462,6,0,L|200:80,2,70
132,80,289946,2,0,L|44:112,1,70
116,204,290187,2,0,L|200:236,1,70
284,180,290429,2,0,L|344:184,2,35
172,184,290671,5,0,0:0:0:0:
92,148,290792,1,0,0:0:0:0:
44,220,290913,1,0,0:0:0:0:
92,288,291034,1,0,0:0:0:0:
172,268,291155,1,8,0:0:0:0:
328,88,291397,5,0,0:0:0:0:
328,88,291518,1,0,0:0:0:0:
328,88,291639,1,0,0:0:0:0:
256,336,292123,1,8,0:0:0:0:
96,104,292365,1,0,0:0:0:0:
96,104,292486,1,0,0:0:0:0:
96,104,292607,1,0,0:0:0:0:
256,336,293091,1,8,0:0:0:0:
216,152,293333,6,0,L|288:116,1,70
352,76,293575,2,0,L|352:224,1,140
360,328,294058,1,0,0:0:0:0:
84,104,294542,5,0,0:0:0:0:
160,316,294784,2,0,P|224:216|248:204,2,140,0|8|0,0:0|0:0|0:0,0:0:0:0:
256,60,295510,5,0,0:0:0:0:
160,316,295752,1,0,0:0:0:0:
384,156,295994,1,8,0:0:0:0:
128,160,296236,1,0,0:0:0:0:
352,316,296478,1,0,0:0:0:0:
256,192,296720,5,0,0:0:0:0:
256,192,296841,1,0,0:0:0:0:
256,192,296962,1,0,0:0:0:0:
256,192,297083,1,0,0:0:0:0:
256,192,297204,1,0,0:0:0:0:
256,192,297325,12,0,303554,0:0:0:0:
