osu file format v14

[General]
AudioFilename: Hyouri Ittai.mp3
AudioLeadIn: 0
PreviewTime: 166860
Countdown: 0
SampleSet: Soft
StackLeniency: 0.7
Mode: 0
LetterboxInBreaks: 0
WidescreenStoryboard: 0

[Editor]
Bookmarks: 128610,151110,152610,283450
DistanceSpacing: 1
BeatDivisor: 4
GridSize: 4
TimelineZoom: 2.5

[Metadata]
Title:Hyouri Ittai
TitleUnicode:表裏一体
Artist:YUZU
ArtistUnicode:ゆず
Creator:iYiyo
Version:Hunter
Source:HUNTER×HUNTER
Tags:hxh ハンター×ハンター 2011 Madhouse Nippon Television Network Corporation Kitagawa YuHitoshi Two Sides of the Same Coin
BeatmapID:766560
BeatmapSetID:347357

[Difficulty]
HPDrainRate:6.5
CircleSize:4
OverallDifficulty:8
ApproachRate:9
SliderMultiplier:1.7
SliderTickRate:1

[Events]
//Background and Video events
0,0,"bg.jpg",0,0
//Break Periods
2,253656,258290
//Storyboard Layer 0 (Background)
//Storyboard Layer 1 (Fail)
//Storyboard Layer 2 (Pass)
//Storyboard Layer 3 (Foreground)
//Storyboard Sound Samples

[TimingPoints]
8210,400,4,2,1,50,1,0
16210,-100,4,2,2,30,0,0
16610,-100,4,2,1,35,0,0
17010,-100,4,2,2,40,0,0
17410,-100,4,2,1,45,0,0
17810,-100,4,2,1,50,0,0
32210,-125,4,2,1,40,0,0
45010,-100,4,2,1,50,0,0
70610,-125,4,2,2,40,0,0
83310,-125,4,2,1,5,0,0
83410,-125,4,2,1,40,0,0
85116,375,4,2,1,50,1,0
86053,-125,4,2,1,50,0,0
86991,-83.3333333333333,4,2,1,70,0,1
113616,-83.3333333333333,4,2,2,50,0,0
115116,-100,4,2,1,50,0,0
152616,-83.3333333333333,4,2,1,50,0,0
166116,-100,4,2,1,40,0,0
167053,-125,4,2,1,50,0,0
167991,-83.3333333333333,4,2,1,70,0,1
194610,390.879478827362,4,2,1,50,1,0
196173,-100,4,2,1,5,0,0
196390,444.444444444444,4,2,1,30,1,0
196390,-200,4,2,1,30,0,0
210612,-200,4,2,1,30,0,0
217723,-200,4,2,1,30,0,0
224834,-166.666666666667,4,2,1,30,0,0
239056,400,4,2,1,40,1,0
239056,-200,4,2,1,40,0,0
257953,375,4,2,1,50,1,0
258890,-125,4,2,1,50,0,0
259828,-83.3333333333333,4,2,1,70,0,1
271734,-83.3333333333333,4,2,1,5,0,1
271828,-83.3333333333333,4,2,1,70,0,1
295453,-71.4285714285714,4,2,1,70,0,1
295828,-62.5,4,2,1,70,0,1
296203,-55.5555555555556,4,2,1,70,0,1
296578,-50,4,2,1,70,0,1
296953,-83.3333333333333,4,2,1,70,0,1
302765,-125,4,2,1,30,0,0
307265,-125,4,2,1,5,0,0
307453,-83.3333333333333,4,2,2,30,0,0
307828,-83.3333333333333,4,2,1,35,0,0
308203,-83.3333333333333,4,2,2,40,0,0
308578,-83.3333333333333,4,2,1,45,0,0
308953,-100,4,2,1,50,0,0
333703,-100,4,2,1,60,0,0

[Colours]
Combo1 : 232,0,0
Combo2 : 255,255,21
Combo3 : 0,128,192
Combo4 : 136,255,17

[HitObjects]
156,124,16210,6,0,L|156:72,3,42.5,2|0|0|0,0:0|0:0|0:0|0:0,0:0:0:0:
232,136,16610,2,0,L|253:88,3,42.5
295,178,17010,2,0,L|334:144,3,42.5,2|0|0|0,0:0|0:0|0:0|0:0,0:0:0:0:
334,242,17410,2,0,L|384:228,3,42.5
220,280,17810,6,0,B|173:280|173:280|101:304|101:304|53:304,1,170,6|8,0:0|0:0,0:0:0:0:
192,364,18410,2,0,B|288:364,2,85,0|2|0,0:0|0:0|0:0,0:0:0:0:
160,232,19010,1,8,0:0:0:0:
53,304,19210,1,0,0:0:0:0:
100,164,19410,6,0,P|176:140|244:192,1,170,2|8,0:0|0:0,0:0:0:0:
166,314,20010,2,0,B|152:264|152:264|160:232,2,85,0|2|0,0:0|0:0|0:0,0:0:0:0:
260,184,20610,1,8,0:0:0:0:
376,328,20810,1,0,0:0:0:0:
376,328,20910,1,0,0:0:0:0:
376,328,21010,6,0,B|320:340|320:340|280:328,1,85,6|0,0:0|0:0,0:0:0:0:
260,184,21410,2,0,B|316:172|316:172|356:184,1,85,8|0,0:0|0:0,0:0:0:0:
192,228,21810,2,0,P|177:186|193:142,1,85,2|0,0:0|0:0,0:0:0:0:
408,136,22210,2,0,P|423:178|407:222,1,85,8|0,0:0|0:0,0:0:0:0:
236,304,22610,6,0,P|191:315|139:299,1,85,6|0,0:0|0:0,0:0:0:0:
241,139,23010,1,8,0:0:0:0:
328,316,23210,2,0,L|304:368,2,42.5,0|0|6,0:0|0:0|0:0,0:0:0:0:
408,136,23610,1,0,0:0:0:0:
241,139,23810,1,8,0:0:0:0:
236,304,24010,1,0,0:0:0:0:
236,304,24110,1,0,0:0:0:0:
236,304,24210,6,0,B|208:216|280:232|236:124,1,170,6|8,0:0|0:0,0:0:0:0:
348,112,24810,2,0,B|364:140|364:140|363:216,2,85,0|2|0,0:0|0:0|0:0,0:0:0:0:
136,88,25410,1,8,0:0:0:0:
312,36,25610,1,0,0:0:0:0:
168,16,25810,6,0,P|96:19|59:100,1,170,2|8,0:0|0:0,0:0:0:0:
144,169,26410,2,0,B|148:116|148:116|136:87,2,85,0|2|0,0:0|0:0|0:0,0:0:0:0:
280,112,27010,1,8,0:0:0:0:
236,288,27210,1,0,0:0:0:0:
428,232,27410,6,0,L|420:148,1,85,6|0,0:0|0:0,0:0:0:0:
244,203,27810,2,0,L|234:302,1,85,8|0,0:0|0:0,0:0:0:0:
304,140,28210,2,0,P|264:117|222:120,1,85,2|0,0:0|0:0,0:0:0:0:
236,372,28610,2,0,P|272:364|308:330,1,85,8|0,0:0|0:0,0:0:0:0:
444,216,29010,5,6,0:0:0:0:
235,287,29210,1,0,0:0:0:0:
400,136,29410,1,8,0:0:0:0:
306,332,29610,1,0,0:0:0:0:
216,160,29810,2,0,P|212:180|214:202,1,42.5,2|0,0:0|0:0,0:0:0:0:
235,287,30010,1,0,0:0:0:0:
349,120,30210,1,8,0:0:0:0:
335,80,30310,1,8,0:0:0:0:
304,52,30410,1,8,0:0:0:0:
263,44,30510,1,8,0:0:0:0:
223,58,30610,5,8,0:0:0:0:
139,221,30810,2,0,P|161:231|198:231,1,42.5,8|8,0:0|0:0,0:0:0:0:
198,307,31010,2,0,P|221:298|246:272,1,42.5,8|8,0:0|0:0,0:0:0:0:
300,326,31210,2,0,P|310:303|310:267,1,42.5,8|8,0:0|0:0,0:0:0:0:
354,219,31410,2,0,P|331:208|295:209,1,42.5,8|8,0:0|0:0,0:0:0:0:
295,133,31610,2,0,P|271:141|246:167,1,42.5,8|8,0:0|0:0,0:0:0:0:
178,135,31810,2,0,P|186:111|212:86,1,42.5,8|8,0:0|0:0,0:0:0:0:
158,32,32010,2,0,P|180:22|216:22,1,42.5,8|8,0:0|0:0,0:0:0:0:
368,88,32210,6,0,L|380:172,2,68,2|0|0,0:0|0:0|0:0,0:0:0:0:
452,198,32810,2,0,P|405:238|321:221,1,136
368,88,33410,1,0,0:0:0:0:
476,92,33610,1,0,0:0:0:0:
260,84,33810,6,0,B|168:108,2,68,2|0|0,0:0|0:0|0:0,0:0:0:0:
368,208,34410,2,0,P|312:243|240:220,1,136
194,101,35010,1,0,0:0:0:0:
298,156,35210,1,0,0:0:0:0:
160,192,35410,6,0,P|124:201|76:192,2,68,2|0|0,0:0|0:0|0:0,0:0:0:0:
280,79,36010,2,0,P|241:24|168:15,1,136
68,88,36610,1,0,0:0:0:0:
194,101,36810,1,0,0:0:0:0:
68,236,37010,6,0,P|34:238|1:229,2,68,2|0|0,0:0|0:0|0:0,0:0:0:0:
240,292,37610,2,0,B|300:300|300:300|384:260,1,136
424,160,38210,1,0,0:0:0:0:
292,172,38410,1,0,0:0:0:0:
448,124,38610,6,0,L|512:144,2,68,2|0|0,0:0|0:0|0:0,0:0:0:0:
276,84,39210,2,0,L|136:116,1,136
296,200,39810,1,0,0:0:0:0:
348,40,40010,1,0,0:0:0:0:
456,164,40210,6,0,L|480:236,2,68,2|0|0,0:0|0:0|0:0,0:0:0:0:
296,200,40810,2,0,L|312:352,1,136
376,184,41410,1,0,0:0:0:0:
400,324,41610,1,0,0:0:0:0:
224,312,41810,6,0,L|136:328,2,68,2|0|0,0:0|0:0|0:0,0:0:0:0:
435,239,42410,2,0,P|458:184|423:119,1,136
264,168,43010,1,0,0:0:0:0:
336,20,43210,1,0,0:0:0:0:
188,48,43410,6,0,L|100:68,2,68,2|0|0,0:0|0:0|0:0,0:0:0:0:
343,191,44010,2,0,P|301:245|229:242,1,136
132,88,44610,1,0,0:0:0:0:
264,168,44810,1,0,0:0:0:0:
88,236,45010,6,0,L|3:242,1,85,6|0,0:0|0:0,0:0:0:0:
132,88,45410,2,0,L|236:96,1,85,8|0,0:0|0:0,0:0:0:0:
392,124,45810,1,2,0:0:0:0:
236,188,46010,1,2,0:0:0:0:
380,284,46210,1,8,0:0:0:0:
228,356,46410,1,0,0:0:0:0:
168,128,46610,6,0,P|205:104|248:98,1,85,2|0,0:0|0:0,0:0:0:0:
304,248,47010,2,0,P|268:272|222:277,1,85,8|0,0:0|0:0,0:0:0:0:
168,128,47410,1,2,0:0:0:0:
192,312,47610,1,2,0:0:0:0:
248,72,47810,1,8,0:0:0:0:
100,184,48010,1,0,0:0:0:0:
320,160,48210,6,0,B|376:168|376:168|416:156,1,85,2|0,0:0|0:0,0:0:0:0:
312,304,48610,2,0,B|256:296|256:296|216:308,1,85,8|0,0:0|0:0,0:0:0:0:
128,256,49010,1,2,0:0:0:0:
320,160,49210,1,2,0:0:0:0:
224,208,49410,1,8,0:0:0:0:
280,64,49610,1,0,0:0:0:0:
128,256,49810,6,0,L|136:356,1,85,2|0,0:0|0:0,0:0:0:0:
184,112,50210,1,8,0:0:0:0:
236,312,50410,1,0,0:0:0:0:
286,148,50610,2,0,L|278:48,1,85,2|2,0:0|0:0,0:0:0:0:
292,240,51010,1,8,0:0:0:0:
448,68,51210,1,8,0:0:0:0:
448,68,51310,1,8,0:0:0:0:
448,68,51410,6,0,P|400:56|356:68,1,85,6|0,0:0|0:0,0:0:0:0:
292,240,51810,2,0,P|340:252|384:240,1,85,8|0,0:0|0:0,0:0:0:0:
240,72,52210,2,0,B|223:113|223:113|227:153,1,85,2|2,0:0|0:0,0:0:0:0:
292,240,52610,1,8,0:0:0:0:
360,80,52810,1,0,0:0:0:0:
468,192,53010,6,0,B|476:248|476:248|468:277,1,85,2|0,0:0|0:0,0:0:0:0:
368,176,53410,1,8,0:0:0:0:
300,336,53610,1,0,0:0:0:0:
227,153,53810,2,0,B|223:113|223:113|240:72,1,85,2|2,0:0|0:0,0:0:0:0:
408,144,54210,2,0,B|416:200|416:200|408:229,1,85,8|0,0:0|0:0,0:0:0:0:
396,244,54510,1,8,0:0:0:0:
384,260,54610,6,0,P|300:228|204:276,1,170,6|8,0:0|0:0,0:0:0:0:
92,240,55210,1,0,0:0:0:0:
181,106,55410,2,0,P|225:114|273:98,1,85,2|2,0:0|0:0,0:0:0:0:
410,21,55811,2,0,P|427:63|410:113,1,85,8|0,0:0|0:0,0:0:0:0:
384,240,56210,5,2,0:0:0:0:
264,104,56410,1,0,0:0:0:0:
244,332,56610,1,8,0:0:0:0:
324,172,56810,1,0,0:0:0:0:
444,308,57010,1,2,0:0:0:0:
284,252,57210,1,2,0:0:0:0:
76,296,57410,1,8,0:0:0:0:
56,268,57510,1,8,0:0:0:0:
52,235,57610,1,8,0:0:0:0:
64,203,57710,1,8,0:0:0:0:
90,182,57810,6,0,P|131:165|186:182,1,85,6|0,0:0|0:0,0:0:0:0:
248,360,58210,2,0,P|205:377|150:363,1,85,8|0,0:0|0:0,0:0:0:0:
380,220,58610,1,2,0:0:0:0:
190,253,58810,1,2,0:0:0:0:
364,338,59010,1,8,0:0:0:0:
273,167,59210,1,0,0:0:0:0:
72,180,59410,6,0,B|63:213|63:213|72:264,1,85,2|0,0:0|0:0,0:0:0:0:
273,250,59810,2,0,B|281:216|281:216|272:165,1,85,8|0,0:0|0:0,0:0:0:0:
71,263,60210,1,2,0:0:0:0:
216,104,60410,1,2,0:0:0:0:
149,291,60610,1,8,0:0:0:0:
138,76,60810,1,0,0:0:0:0:
227,319,61010,5,6,0:0:0:0:
408,180,61210,1,8,0:0:0:0:
408,158,61310,1,8,0:0:0:0:
408,136,61410,1,8,0:0:0:0:
138,76,61610,2,0,P|86:137|114:226,1,170,0|2,0:0|0:0,0:0:0:0:
254,167,62210,2,0,B|200:152|200:152|172:158,1,85,8|0,0:0|0:0,0:0:0:0:
149,291,62610,5,2,0:0:0:0:
280,268,62810,1,0,0:0:0:0:
408,288,63010,1,8,0:0:0:0:
408,288,63110,1,8,0:0:0:0:
408,288,63210,1,8,0:0:0:0:
372,152,63410,1,2,0:0:0:0:
232,152,63610,1,8,0:0:0:0:
210,152,63710,1,8,0:0:0:0:
188,152,63810,1,8,0:0:0:0:
304,36,64010,1,8,0:0:0:0:
325,36,64110,1,8,0:0:0:0:
346,36,64210,6,0,L|440:36,1,85,6|0,0:0|0:0,0:0:0:0:
317,152,64610,2,0,L|216:152,1,85,8|0,0:0|0:0,0:0:0:0:
420,152,65010,1,2,0:0:0:0:
304,248,65210,1,2,0:0:0:0:
328,48,65410,1,8,0:0:0:0:
444,176,65610,1,0,0:0:0:0:
152,88,65810,6,0,P|139:130|155:180,1,85,2|0,0:0|0:0,0:0:0:0:
348,176,66210,1,8,0:0:0:0:
225,129,66410,1,0,0:0:0:0:
428,136,66610,2,0,P|440:184|426:223,1,85,2|2,0:0|0:0,0:0:0:0:
248,252,67010,1,8,0:0:0:0:
348,176,67210,1,0,0:0:0:0:
131,33,67410,6,0,L|145:135,1,85,6|0,0:0|0:0,0:0:0:0:
231,221,67810,2,0,L|243:137,1,85,8|0,0:0|0:0,0:0:0:0:
131,241,68210,2,0,L|145:343,1,85,2|2,0:0|0:0,0:0:0:0:
284,260,68610,2,0,L|273:176,1,85,8|0,0:0|0:0,0:0:0:0:
248,352,69010,6,0,P|287:362|333:344,1,85,2|0,0:0|0:0,0:0:0:0:
408,236,69410,2,8,L|448:250,3,42.5
396,144,69810,2,8,L|434:125,3,42.5
312,96,70210,1,8,0:0:0:0:
278,96,70310,1,8,0:0:0:0:
244,96,70410,1,8,0:0:0:0:
210,96,70510,1,8,0:0:0:0:
176,96,70610,6,0,P|156:160|76:168,1,136,2|2,0:0|0:0,0:0:0:0:
136,352,71210,2,0,P|156:288|236:280,1,136
384,272,71810,2,0,P|357:289|317:285,1,68,2|0,0:0|0:0,0:0:0:0:
484,164,72210,5,0,0:0:0:0:
336,200,72410,1,0,0:0:0:0:
416,70,72610,1,2,0:0:0:0:
336,200,72810,1,0,0:0:0:0:
180,64,73010,2,0,L|188:172,1,102
176,256,73410,2,0,P|126:227|67:246,1,102,2|0,0:0|0:0,0:0:0:0:
117,309,73810,6,0,P|188:333|238:303,1,136,0|2,0:0|0:0,0:0:0:0:
320,120,74410,2,0,P|275:168|283:234,1,136
356,336,75010,1,2,0:0:0:0:
360,196,75210,1,0,0:0:0:0:
216,108,75410,6,0,B|168:104|168:104|68:136|68:136|8:132,1,204
80,300,76210,2,0,L|188:288,1,102
283,272,76610,2,0,P|271:225|210:225,1,102,2|0,0:0|0:0,0:0:0:0:
256,348,77010,6,0,B|296:356|296:356|388:330,1,136,0|2,0:0|0:0,0:0:0:0:
512,244,77610,2,0,B|472:252|472:252|380:226,1,136
218,198,78210,2,0,P|249:187|282:196,1,68,2|0,0:0|0:0,0:0:0:0:
367,258,78610,5,0,0:0:0:0:
230,357,78810,1,0,0:0:0:0:
282,196,79010,1,2,0:0:0:0:
335,357,79210,1,0,0:0:0:0:
124,304,79410,2,0,P|108:252|134:194,1,102
198,253,79810,2,0,P|214:201|188:143,1,102,2|0,0:0|0:0,0:0:0:0:
147,80,80210,6,0,B|112:154|112:154|123:216,1,136,0|2,0:0|0:0,0:0:0:0:
296,236,80810,2,0,B|331:162|331:162|320:100,1,136,0|2,0:0|0:0,0:0:0:0:
201,46,81410,2,0,P|168:54|146:79,1,68,2|0,0:0|0:0,0:0:0:0:
256,192,81810,12,0,83310,0:0:0:0:
256,192,83410,12,0,85010,0:0:0:0:
396,188,86053,6,0,B|380:88|380:88|352:128,1,136
285,214,86616,1,2,0:0:0:0:
265,206,86991,6,0,B|213:198|213:198|121:218|121:218|61:206,1,203.999993774414,12|2,0:0|0:0,0:0:0:0:
156,108,87553,1,2,0:0:0:0:
172,308,87741,1,8,0:0:0:0:
320,128,87928,6,0,P|372:116|420:140,1,101.999996887207,0|2,0:0|0:0,0:0:0:0:
156,108,88303,1,0,0:0:0:0:
364,208,88491,1,8,0:0:0:0:
172,308,88678,2,0,P|120:320|72:296,1,101.999996887207,0|2,0:0|0:0,0:0:0:0:
56,64,89053,1,2,0:0:0:0:
132,236,89241,1,8,0:0:0:0:
364,128,89428,1,8,0:0:0:0:
364,128,89522,1,8,0:0:0:0:
364,128,89616,6,0,B|372:196|372:196|364:236,1,101.999996887207,2|0,0:0|0:0,0:0:0:0:
240,320,89991,1,8,0:0:0:0:
184,116,90178,2,0,P|228:100|292:116,1,101.999996887207,0|2,0:0|0:0,0:0:0:0:
376,300,90553,1,2,0:0:0:0:
396,92,90741,1,8,0:0:0:0:
244,188,90928,1,8,0:0:0:0:
244,188,91022,1,8,0:0:0:0:
244,188,91116,5,10,0:0:0:0:
376,300,91303,1,0,0:0:0:0:
396,92,91491,1,8,0:0:0:0:
432,352,91678,2,0,P|384:376|328:360,1,101.999996887207,0|2,0:0|0:0,0:0:0:0:
244,188,92053,1,2,0:0:0:0:
89,287,92241,1,8,0:0:0:0:
113,310,92334,1,8,0:0:0:0:
144,322,92428,1,8,0:0:0:0:
178,320,92522,1,8,0:0:0:0:
208,304,92616,6,0,P|196:248|232:192,1,101.999996887207,6|0,0:0|0:0,0:0:0:0:
424,252,92991,2,0,B|360:276|360:276|279:260|279:260|332:304,1,203.999993774414,8|2,0:0|0:0,0:0:0:0:
488,208,93553,2,0,P|448:176|385:188,1,101.999996887207,2|8,0:0|0:0,0:0:0:0:
208,304,93928,1,8,0:0:0:0:
208,304,94022,1,8,0:0:0:0:
208,304,94116,5,10,0:0:0:0:
299,185,94303,2,0,B|371:173|371:173|411:181,1,101.999996887207,0|8,0:0|0:0,0:0:0:0:
191,121,94678,2,0,B|119:109|119:109|79:117,1,101.999996887207,0|2,0:0|0:0,0:0:0:0:
340,64,95053,1,2,0:0:0:0:
258,304,95241,1,8,0:0:0:0:
90,114,95428,1,8,0:0:0:0:
90,114,95522,1,8,0:0:0:0:
90,114,95616,5,10,0:0:0:0:
154,310,95803,1,0,0:0:0:0:
294,150,95991,1,8,0:0:0:0:
67,229,96178,1,0,0:0:0:0:
269,272,96365,1,2,0:0:0:0:
200,70,96553,1,2,0:0:0:0:
67,229,96741,1,8,0:0:0:0:
269,272,96928,1,0,0:0:0:0:
370,120,97116,6,0,P|327:93|274:100,1,101.999996887207,2|8,0:0|0:0,0:0:0:0:
268,104,97397,1,8,0:0:0:0:
260,112,97491,1,8,0:0:0:0:
140,88,97678,2,0,P|130:137|151:183,1,101.999996887207,0|10,0:0|0:0,0:0:0:0:
172,212,97959,1,8,0:0:0:0:
201,228,98052,1,8,0:0:0:0:
235,230,98146,1,8,0:0:0:0:
266,217,98240,1,8,0:0:0:0:
289,193,98334,1,8,0:0:0:0:
300,161,98427,1,8,0:0:0:0:
296,127,98521,1,8,0:0:0:0:
278,99,98615,5,10,0:0:0:0:
280,116,98991,6,0,L|292:332,1,203.999993774414,12|2,0:0|0:0,0:0:0:0:
456,132,99553,1,2,0:0:0:0:
368,232,99741,1,8,0:0:0:0:
188,152,99928,6,0,P|180:103|202:53,1,101.999996887207,0|2,0:0|0:0,0:0:0:0:
280,116,100303,1,0,0:0:0:0:
102,192,100491,1,8,0:0:0:0:
280,272,100678,2,0,P|330:267|367:232,1,101.999996887207,0|2,0:0|0:0,0:0:0:0:
296,191,101053,1,2,0:0:0:0:
224,336,101241,1,8,0:0:0:0:
427,324,101428,1,8,0:0:0:0:
452,324,101522,1,8,0:0:0:0:
479,324,101616,6,0,B|495:288|495:288|487:220,1,101.999996887207,2|0,0:0|0:0,0:0:0:0:
408,88,101991,1,8,0:0:0:0:
296,190,102178,2,0,P|294:241|321:283,1,101.999996887207,0|2,0:0|0:0,0:0:0:0:
504,224,102553,1,2,0:0:0:0:
288,176,102741,1,8,0:0:0:0:
323,373,102928,6,0,P|372:358|404:317,1,101.999996887207,0|2,0:0|0:0,0:0:0:0:
499,129,103303,2,0,P|450:142|417:185,1,101.999996887207,0|8,0:0|0:0,0:0:0:0:
488,312,103678,1,0,0:0:0:0:
320,282,103866,1,2,0:0:0:0:
248,46,104053,1,10,0:0:0:0:
248,46,104147,1,8,0:0:0:0:
248,46,104241,1,8,0:0:0:0:
424,84,104428,1,8,0:0:0:0:
424,84,104522,1,8,0:0:0:0:
424,84,104616,6,0,B|432:144|432:144|424:168|424:168|429:253|429:253|404:216,1,203.999993774414,6|8,0:0|0:0,0:0:0:0:
143,202,105178,1,0,0:0:0:0:
326,95,105366,1,2,0:0:0:0:
326,308,105554,1,2,0:0:0:0:
204,95,105741,1,8,0:0:0:0:
204,308,105928,1,0,0:0:0:0:
404,110,106116,6,0,B|281:84|281:84|161:100,1,203.999993774414,6|8,0:0|0:0,0:0:0:0:
94,177,106678,1,0,0:0:0:0:
316,174,106866,1,2,0:0:0:0:
139,307,107053,1,2,0:0:0:0:
204,95,107241,1,8,0:0:0:0:
277,306,107428,1,0,0:0:0:0:
397,179,107616,6,0,P|387:123|346:98,1,101.999996887207,6|0,0:0|0:0,0:0:0:0:
94,227,107991,2,0,P|103:282|144:307,1,101.999996887207,8|0,0:0|0:0,0:0:0:0:
416,168,108366,2,0,P|406:112|365:87,1,101.999996887207,2|2,0:0|0:0,0:0:0:0:
204,95,108741,1,8,0:0:0:0:
347,245,108928,6,0,P|395:264|448:242,1,101.999996887207,0|2,0:0|0:0,0:0:0:0:
280,32,109303,1,0,0:0:0:0:
232,228,109491,1,8,0:0:0:0:
104,80,109678,1,0,0:0:0:0:
166,299,109866,5,8,0:0:0:0:
194,318,109960,1,8,0:0:0:0:
227,326,110053,1,8,0:0:0:0:
261,321,110147,1,8,0:0:0:0:
290,306,110241,1,8,0:0:0:0:
313,280,110335,1,8,0:0:0:0:
324,248,110428,1,8,0:0:0:0:
346,85,110991,5,4,0:0:0:0:
166,299,112491,5,4,0:0:0:0:
166,299,113616,6,0,L|90:291,3,50.9999984436036,2|0|0|0,0:0|0:0|0:0|0:0,0:0:0:0:
228,232,113991,2,0,L|278:227,3,50.9999984436036
144,212,114366,1,2,0:0:0:0:
139,169,114459,1,0,0:0:0:0:
134,127,114553,1,0,0:0:0:0:
130,85,114647,1,0,0:0:0:0:
125,42,114741,5,0,0:0:0:0:
160,64,114834,1,0,0:0:0:0:
202,71,114928,1,0,0:0:0:0:
243,62,115022,1,0,0:0:0:0:
277,38,115116,6,0,P|371:33|432:92,1,170,6|8,0:0|0:0,0:0:0:0:
400,304,115678,2,0,P|356:308|320:272,1,85,0|2,0:0|0:0,0:0:0:0:
292,132,116053,1,2,0:0:0:0:
164,236,116241,1,8,0:0:0:0:
144,84,116428,1,0,0:0:0:0:
340,56,116616,6,0,P|385:120|344:204,1,170,2|8,0:0|0:0,0:0:0:0:
210,138,117178,2,0,P|252:124|306:141,1,85,0|2,0:0|0:0,0:0:0:0:
380,232,117553,1,2,0:0:0:0:
296,360,117740,1,8,0:0:0:0:
142,280,117928,1,0,0:0:0:0:
166,272,118022,1,0,0:0:0:0:
190,264,118116,6,0,L|286:240,1,85,6|0,0:0|0:0,0:0:0:0:
168,112,118491,2,0,L|72:88,1,85,8|0,0:0|0:0,0:0:0:0:
8,228,118866,2,0,B|2:268|2:268|32:324,1,85,2|2,0:0|0:0,0:0:0:0:
205,343,119241,2,0,B|211:303|211:303|181:247,1,85,8|0,0:0|0:0,0:0:0:0:
176,84,119616,5,6,0:0:0:0:
312,39,119803,1,0,0:0:0:0:
286,191,119991,1,8,0:0:0:0:
164,72,120178,1,0,0:0:0:0:
384,116,120366,2,0,L|380:212,1,85,2|2,0:0|0:0,0:0:0:0:
320,320,120741,1,8,0:0:0:0:
127,200,120928,1,0,0:0:0:0:
127,200,121022,1,0,0:0:0:0:
127,200,121116,6,0,P|215:200|251:126,1,170,6|8,0:0|0:0,0:0:0:0:
140,48,121678,2,0,L|168:128,1,85,0|2,0:0|0:0,0:0:0:0:
228,32,122053,1,2,0:0:0:0:
284,216,122241,1,8,0:0:0:0:
312,36,122428,1,0,0:0:0:0:
460,184,122616,6,0,P|384:188|336:110,1,170,2|8,0:0|0:0,0:0:0:0:
484,276,123178,2,0,P|440:291|386:282,1,85,0|2,0:0|0:0,0:0:0:0:
420,112,123553,1,2,0:0:0:0:
312,228,123741,1,8,0:0:0:0:
500,260,123928,1,0,0:0:0:0:
335,135,124116,6,0,P|293:132|255:151,1,85,6|0,0:0|0:0,0:0:0:0:
184,280,124491,1,8,0:0:0:0:
312,228,124678,1,0,0:0:0:0:
205,67,124866,2,0,P|173:94|161:134,1,85,2|2,0:0|0:0,0:0:0:0:
184,280,125241,1,8,0:0:0:0:
255,150,125428,1,0,0:0:0:0:
40,48,125616,6,0,L|48:152,1,85,6|0,0:0|0:0,0:0:0:0:
114,320,125991,2,0,L|107:235,1,85,8|0,0:0|0:0,0:0:0:0:
296,72,126365,1,6,0:0:0:0:
246,285,126553,1,2,0:0:0:0:
161,83,126740,1,8,0:0:0:0:
349,196,126928,1,0,0:0:0:0:
129,222,127116,5,8,0:0:0:0:
129,222,127209,1,8,0:0:0:0:
129,222,127303,1,8,0:0:0:0:
246,285,127491,2,0,P|274:285|302:273,1,42.5,2|0,0:0|0:0,0:0:0:0:
349,196,127678,5,8,0:0:0:0:
349,196,127772,1,8,0:0:0:0:
349,196,127866,1,8,0:0:0:0:
480,112,128053,1,2,0:0:0:0:
496,296,128241,1,8,0:0:0:0:
467,315,128334,1,8,0:0:0:0:
435,325,128428,1,8,0:0:0:0:
401,325,128522,1,8,0:0:0:0:
370,320,128616,6,0,P|328:309|272:316,1,85,6|0,0:0|0:0,0:0:0:0:
160,168,128991,2,0,P|200:178|243:176,1,85,8|0,0:0|0:0,0:0:0:0:
244,177,129272,1,8,0:0:0:0:
243,176,129366,1,10,0:0:0:0:
208,36,129553,2,0,P|166:25|110:32,1,85,2|8,0:0|0:0,0:0:0:0:
56,132,129928,6,0,B|52:176|52:176|80:256|80:256|76:300,1,170,2|0,0:0|0:0,0:0:0:0:
195,182,130491,2,0,P|204:140|195:97,1,85,8|0,0:0|0:0,0:0:0:0:
256,260,130866,2,0,P|246:301|255:344,1,85,2|2,0:0|0:0,0:0:0:0:
380,148,131241,1,8,0:0:0:0:
196,100,131428,1,0,0:0:0:0:
408,40,131616,6,0,L|404:132,1,85,2|0,0:0|0:0,0:0:0:0:
328,232,131991,1,8,0:0:0:0:
488,120,132178,1,0,0:0:0:0:
496,272,132366,1,2,0:0:0:0:
362,151,132554,2,0,P|319:142|270:164,1,85,2|8,0:0|0:0,0:0:0:0:
152,268,132928,6,0,P|189:339|272:336,1,170,2|0,0:0|0:0,0:0:0:0:
299,146,133491,2,0,P|259:130|207:142,1,85,8|0,0:0|0:0,0:0:0:0:
132,248,133866,1,2,0:0:0:0:
324,280,134053,2,0,L|407:296,1,85,2|8,0:0|0:0,0:0:0:0:
253,205,134428,1,0,0:0:0:0:
306,46,134616,6,0,P|347:42|384:64,1,85,6|0,0:0|0:0,0:0:0:0:
253,205,134991,2,0,P|212:209|176:188,1,85,8|0,0:0|0:0,0:0:0:0:
272,32,135366,1,2,0:0:0:0:
408,136,135553,2,0,B|416:196|416:196|404:224,1,85,2|8,0:0|0:0,0:0:0:0:
246,294,135928,6,0,B|226:170|226:170|266:222,1,170,2|0,0:0|0:0,0:0:0:0:
336,312,136491,1,8,0:0:0:0:
152,200,136678,2,0,P|144:151|171:111,1,85,0|2,0:0|0:0,0:0:0:0:
320,56,137053,1,2,0:0:0:0:
337,213,137241,2,0,L|252:205,1,85,8|0,0:0|0:0,0:0:0:0:
418,180,137616,6,0,P|426:216|410:264,1,85,2|0,0:0|0:0,0:0:0:0:
352,104,137991,2,0,P|344:68|360:20,1,85,8|0,0:0|0:0,0:0:0:0:
358,22,138272,1,8,0:0:0:0:
358,22,138366,1,10,0:0:0:0:
483,229,138553,2,0,P|453:258|411:260,1,85,2|8,0:0|0:0,0:0:0:0:
228,184,138928,6,0,P|144:196|128:272,1,170,2|0,0:0|0:0,0:0:0:0:
285,276,139491,1,8,0:0:0:0:
245,88,139678,1,0,0:0:0:0:
376,231,139866,1,2,0:0:0:0:
196,321,140053,1,2,0:0:0:0:
310,160,140241,1,8,0:0:0:0:
80,156,140428,1,8,0:0:0:0:
80,156,140522,1,8,0:0:0:0:
80,156,140616,6,0,P|68:200|80:248,1,85,6|0,0:0|0:0,0:0:0:0:
220,304,140991,2,0,P|232:260|220:212,1,85,8|0,0:0|0:0,0:0:0:0:
148,60,141366,1,2,0:0:0:0:
324,120,141553,1,2,0:0:0:0:
148,204,141741,1,8,0:0:0:0:
324,264,141928,6,0,L|428:296,1,85,0|2,0:0|0:0,0:0:0:0:
148,204,142303,1,0,0:0:0:0:
324,120,142491,1,8,0:0:0:0:
186,280,142678,2,0,P|138:289|93:269,1,85,0|2,0:0|0:0,0:0:0:0:
204,100,143053,1,2,0:0:0:0:
339,202,143241,2,0,P|378:185|400:150,1,85,8|0,0:0|0:0,0:0:0:0:
179,191,143616,6,0,L|187:275,2,85,6|0|8,0:0|0:0|0:0,0:0:0:0:
208,24,144178,1,8,0:0:0:0:
208,24,144272,1,8,0:0:0:0:
208,24,144366,1,10,0:0:0:0:
296,184,144553,1,2,0:0:0:0:
368,16,144741,1,8,0:0:0:0:
392,204,144928,6,0,P|372:248|315:274,1,85,0|2,0:0|0:0,0:0:0:0:
424,96,145303,2,0,P|465:89|504:105,1,85,0|8,0:0|0:0,0:0:0:0:
228,272,145678,2,0,P|201:239|196:197,1,85,0|2,0:0|0:0,0:0:0:0:
360,60,146053,1,2,0:0:0:0:
280,204,146241,1,8,0:0:0:0:
124,120,146428,1,0,0:0:0:0:
277,64,146616,6,0,B|341:52|341:52|381:68,2,85,6|0|8,0:0|0:0|0:0,0:0:0:0:
124,120,147178,1,0,0:0:0:0:
280,204,147366,1,2,0:0:0:0:
134,250,147553,1,2,0:0:0:0:
368,176,147741,1,8,0:0:0:0:
244,340,147928,6,0,P|172:332|136:244,1,170,4|0,0:0|0:0,0:0:0:0:
240,112,148491,1,8,0:0:0:0:
340,264,148678,2,0,L|336:356,2,85,0|2|2,0:0|0:0|0:0,0:0:0:0:
264,92,149241,1,8,0:0:0:0:
242,242,149428,1,0,0:0:0:0:
432,120,149616,5,2,0:0:0:0:
266,291,149803,1,0,0:0:0:0:
299,55,149991,1,8,0:0:0:0:
411,265,150178,1,8,0:0:0:0:
411,265,150272,1,8,0:0:0:0:
411,265,150366,5,10,0:0:0:0:
197,160,150553,1,2,0:0:0:0:
432,120,150741,5,8,0:0:0:0:
200,68,150928,1,0,0:0:0:0:
428,108,151116,5,10,0:0:0:0:
143,162,151303,1,0,0:0:0:0:
432,120,151491,5,8,0:0:0:0:
248,344,151678,1,0,0:0:0:0:
428,108,151866,5,10,0:0:0:0:
153,270,152053,1,0,0:0:0:0:
432,120,152241,5,8,0:0:0:0:
168,184,152428,1,8,0:0:0:0:
168,184,152521,1,8,0:0:0:0:
168,184,152616,6,0,B|152:136|152:136|152:76|152:76|136:28,1,152.999995330811,6|0,0:0|0:0,0:0:0:0:
176,56,152991,2,0,P|236:64|280:24,1,101.999996887207,8|0,0:0|0:0,0:0:0:0:
268,42,153272,1,8,0:0:0:0:
268,42,153366,1,10,0:0:0:0:
436,120,153553,1,2,0:0:0:0:
272,168,153741,1,8,0:0:0:0:
424,256,153928,1,0,0:0:0:0:
232,288,154116,6,0,P|152:296|108:228,1,152.999995330811,6|0,0:0|0:0,0:0:0:0:
132,224,154491,2,0,P|152:180|136:112,1,101.999996887207,8|0,0:0|0:0,0:0:0:0:
145,128,154772,1,8,0:0:0:0:
145,128,154866,1,10,0:0:0:0:
232,288,155053,1,2,0:0:0:0:
356,188,155241,1,8,0:0:0:0:
443,348,155428,1,0,0:0:0:0:
456,128,155616,6,0,B|400:96|400:96|272:116,1,152.999995330811,6|0,0:0|0:0,0:0:0:0:
292,128,155991,2,0,B|228:136|228:136|180:108,1,101.999996887207,8|0,0:0|0:0,0:0:0:0:
195,117,156272,1,8,0:0:0:0:
195,117,156366,1,10,0:0:0:0:
16,216,156553,1,2,0:0:0:0:
188,208,156741,1,8,0:0:0:0:
132,376,156928,1,0,0:0:0:0:
396,340,157116,6,0,P|408:276|336:248,1,152.999995330811,6|0,0:0|0:0,0:0:0:0:
308,264,157491,2,0,L|288:165,1,101.999996887207,8|0,0:0|0:0,0:0:0:0:
287,164,157772,1,8,0:0:0:0:
287,164,157866,1,10,0:0:0:0:
424,172,158053,1,2,0:0:0:0:
248,92,158240,1,8,0:0:0:0:
272,284,158428,1,0,0:0:0:0:
464,352,158616,6,0,P|500:292|444:248,1,152.999995330811,6|0,0:0|0:0,0:0:0:0:
416,248,158991,2,0,P|392:204|424:140,1,101.999996887207,8|0,0:0|0:0,0:0:0:0:
405,156,159272,1,8,0:0:0:0:
405,156,159366,1,10,0:0:0:0:
236,68,159553,1,2,0:0:0:0:
320,216,159741,1,8,0:0:0:0:
392,64,159928,1,0,0:0:0:0:
160,72,160116,6,0,B|132:152|200:144|160:232,1,152.999995330811,6|0,0:0|0:0,0:0:0:0:
188,244,160491,2,0,P|232:272|292:256,1,101.999996887207,8|0,0:0|0:0,0:0:0:0:
279,264,160772,1,8,0:0:0:0:
279,264,160866,1,10,0:0:0:0:
292,111,161053,1,2,0:0:0:0:
444,124,161241,1,8,0:0:0:0:
431,277,161428,1,0,0:0:0:0:
216,144,161616,6,0,P|217:66|277:31,1,152.999995330811,6|0,0:0|0:0,0:0:0:0:
312,36,161991,2,0,P|360:52|412:28,1,101.999996887207,8|0,0:0|0:0,0:0:0:0:
405,33,162272,1,8,0:0:0:0:
405,33,162366,1,10,0:0:0:0:
460,202,162553,1,2,0:0:0:0:
293,111,162741,1,8,0:0:0:0:
240,276,162928,1,0,0:0:0:0:
72,72,163116,5,6,0:0:0:0:
326,72,163303,1,2,0:0:0:0:
200,160,163490,1,8,0:0:0:0:
200,160,163584,1,8,0:0:0:0:
200,160,163678,1,8,0:0:0:0:
196,12,163866,1,2,0:0:0:0:
329,248,164053,1,8,0:0:0:0:
329,248,164147,1,8,0:0:0:0:
329,248,164241,1,8,0:0:0:0:
73,248,164429,1,2,0:0:0:0:
180,140,164616,5,8,0:0:0:0:
180,140,164709,1,8,0:0:0:0:
180,140,164803,1,8,0:0:0:0:
248,376,164991,1,2,0:0:0:0:
214,257,165178,1,8,0:0:0:0:
214,257,165272,1,8,0:0:0:0:
214,257,165366,1,8,0:0:0:0:
312,112,165553,5,8,0:0:0:0:
365,111,165647,1,8,0:0:0:0:
379,160,165741,1,8,0:0:0:0:
336,189,165834,1,8,0:0:0:0:
298,157,165928,1,12,0:0:0:0:
388,32,166116,6,0,P|429:54|447:88,1,85
249,224,166491,2,0,P|217:189|212:150,1,85
336,189,166866,1,0,0:0:0:0:
336,189,167053,6,0,B|356:340,1,136
488,240,167616,1,2,0:0:0:0:
464,256,167991,6,0,B|489:48,1,203.999993774414,12|2,0:0|0:0,0:0:0:0:
312,212,168553,1,2,0:0:0:0:
304,32,168741,1,8,0:0:0:0:
236,252,168928,6,0,P|274:290|320:299,1,101.999996887207,0|2,0:0|0:0,0:0:0:0:
128,160,169303,1,0,0:0:0:0:
316,200,169491,1,8,0:0:0:0:
65,101,169678,2,0,P|42:142|51:198,1,101.999996887207,0|2,0:0|0:0,0:0:0:0:
212,280,170053,1,2,0:0:0:0:
184,80,170241,1,8,0:0:0:0:
392,120,170428,1,8,0:0:0:0:
392,120,170522,1,8,0:0:0:0:
392,120,170616,6,0,P|404:176|364:224,1,101.999996887207,2|0,0:0|0:0,0:0:0:0:
198,193,170991,1,8,0:0:0:0:
329,55,171178,2,0,P|374:31|439:49,1,101.999996887207,0|2,0:0|0:0,0:0:0:0:
512,264,171553,1,2,0:0:0:0:
297,211,171741,1,8,0:0:0:0:
413,315,171928,1,8,0:0:0:0:
413,315,172022,1,8,0:0:0:0:
413,315,172116,5,10,0:0:0:0:
392,120,172303,1,0,0:0:0:0:
251,292,172491,1,8,0:0:0:0:
230,97,172678,2,0,P|181:87|135:107,1,101.999996887207,0|2,0:0|0:0,0:0:0:0:
128,240,173053,1,2,0:0:0:0:
348,224,173241,1,8,0:0:0:0:
108,204,173428,1,0,0:0:0:0:
340,100,173616,6,0,L|348:216,1,101.999996887207,6|0,0:0|0:0,0:0:0:0:
472,296,173991,2,0,B|416:288|416:288|328:336|328:336|252:324,1,203.999993774414,8|2,0:0|0:0,0:0:0:0:
136,216,174553,2,0,L|237:208,1,101.999996887207,2|8,0:0|0:0,0:0:0:0:
432,196,174928,1,8,0:0:0:0:
456,200,175022,1,8,0:0:0:0:
480,204,175116,5,10,0:0:0:0:
369,64,175303,2,0,L|265:48,1,101.999996887207,0|8,0:0|0:0,0:0:0:0:
237,208,175678,2,0,L|341:192,1,101.999996887207,0|2,0:0|0:0,0:0:0:0:
369,64,176053,1,2,0:0:0:0:
316,280,176241,1,8,0:0:0:0:
200,92,176428,1,8,0:0:0:0:
200,92,176522,1,8,0:0:0:0:
200,92,176616,5,10,0:0:0:0:
397,42,176803,1,0,0:0:0:0:
341,237,176991,1,8,0:0:0:0:
217,54,177178,1,0,0:0:0:0:
420,76,177365,1,2,0:0:0:0:
301,240,177553,1,2,0:0:0:0:
246,25,177741,1,8,0:0:0:0:
430,115,177928,1,8,0:0:0:0:
430,115,178022,1,8,0:0:0:0:
430,115,178116,6,0,P|405:158|403:216,1,101.999996887207,2|8,0:0|0:0,0:0:0:0:
407,230,178397,1,8,0:0:0:0:
418,247,178491,1,8,0:0:0:0:
292,328,178678,2,0,L|172:320,1,101.999996887207,8|2,0:0|0:0,0:0:0:0:
128,192,179053,1,10,0:0:0:0:
128,192,179146,1,8,0:0:0:0:
128,192,179241,1,8,0:0:0:0:
168,344,179428,1,0,0:0:0:0:
248,80,179616,5,2,0:0:0:0:
256,112,179991,6,0,B|264:252|264:252|248:340,1,203.999993774414,12|2,0:0|0:0,0:0:0:0:
160,232,180553,1,2,0:0:0:0:
364,172,180741,1,8,0:0:0:0:
281,35,180928,6,0,P|223:37|187:70,1,101.999996887207,0|2,0:0|0:0,0:0:0:0:
200,232,181303,1,0,0:0:0:0:
256,112,181491,1,8,0:0:0:0:
220,310,181678,2,0,P|164:307|132:278,1,101.999996887207,0|2,0:0|0:0,0:0:0:0:
190,63,182053,1,2,0:0:0:0:
284,228,182241,1,8,0:0:0:0:
332,36,182428,1,8,0:0:0:0:
332,36,182522,1,8,0:0:0:0:
332,36,182616,6,0,B|364:100|364:100|356:148,1,101.999996887207,2|0,0:0|0:0,0:0:0:0:
284,228,182990,1,8,0:0:0:0:
148,172,183178,2,0,B|116:108|116:108|124:60,1,101.999996887207,0|2,0:0|0:0,0:0:0:0:
228,328,183553,1,2,0:0:0:0:
233,147,183741,1,8,0:0:0:0:
424,268,183928,6,0,P|400:312|352:328,1,101.999996887207,0|2,0:0|0:0,0:0:0:0:
162,206,184303,2,0,P|186:162|234:146,1,101.999996887207,0|8,0:0|0:0,0:0:0:0:
346,244,184678,1,0,0:0:0:0:
300,72,184866,1,2,0:0:0:0:
162,206,185053,1,10,0:0:0:0:
162,206,185147,1,8,0:0:0:0:
162,206,185241,1,8,0:0:0:0:
48,80,185428,1,8,0:0:0:0:
48,80,185522,1,8,0:0:0:0:
48,80,185616,6,0,B|60:136|60:136|40:236|40:236|56:312,1,203.999993774414,6|8,0:0|0:0,0:0:0:0:
232,268,186178,1,0,0:0:0:0:
282,87,186366,1,2,0:0:0:0:
106,129,186553,1,2,0:0:0:0:
242,280,186741,1,8,0:0:0:0:
297,82,186928,1,0,0:0:0:0:
464,240,187116,6,0,P|412:320|312:288,1,203.999993774414,6|8,0:0|0:0,0:0:0:0:
192,204,187678,1,0,0:0:0:0:
376,232,187866,1,2,0:0:0:0:
204,88,188053,1,2,0:0:0:0:
388,116,188241,1,8,0:0:0:0:
236,280,188428,1,0,0:0:0:0:
344,43,188616,6,0,P|388:30|444:53,1,101.999996887207,6|0,0:0|0:0,0:0:0:0:
419,305,188991,2,0,P|374:317|318:294,1,101.999996887207,8|0,0:0|0:0,0:0:0:0:
364,48,189366,2,0,P|408:35|464:58,1,101.999996887207,2|2,0:0|0:0,0:0:0:0:
376,232,189741,1,8,0:0:0:0:
252,20,189928,6,0,L|240:140,1,101.999996887207,0|2,0:0|0:0,0:0:0:0:
281,374,190303,1,0,0:0:0:0:
175,192,190491,1,8,0:0:0:0:
145,374,190678,1,0,0:0:0:0:
83,172,190866,5,8,0:0:0:0:
94,140,190959,1,8,0:0:0:0:
117,114,191053,1,8,0:0:0:0:
146,99,191147,1,8,0:0:0:0:
180,94,191241,1,8,0:0:0:0:
213,102,191334,1,8,0:0:0:0:
241,121,191428,1,8,0:0:0:0:
83,172,191991,5,4,0:0:0:0:
435,268,193491,5,4,0:0:0:0:
256,192,194610,12,0,196173,0:0:0:0:
185,257,196390,6,0,P|267:288|346:225,2,170
256,192,199056,1,0,0:0:0:0:
178,134,199945,6,0,P|251:95|327:127,1,170
333,249,201278,1,0,0:0:0:0:
412,152,201723,2,0,P|415:110|395:68,2,85
333,249,203056,1,0,0:0:0:0:
103,179,203501,6,0,P|155:127|339:135,1,255
448,272,205278,2,0,P|396:324|212:316,1,255
244,184,207056,6,0,P|291:189|348:208,1,85
512,172,207945,2,0,P|465:177|408:196,1,85
377,289,208834,2,0,P|295:308|211:295,1,170
148,220,209945,2,0,P|143:194|144:156,2,42.5
212,296,210612,6,0,B|266:228|218:148|218:148|274:148|298:108|298:108|322:148|378:148|378:148|330:228|386:300,1,510
385,299,214167,6,0,B|423:237|403:155|341:126|280:163|280:163|306:210|283:249|283:249|201:266|201:266|221:210|168:167,1,510
216,96,217278,1,0,0:0:0:0:
216,96,217723,6,0,P|336:48|388:152,1,255
358,221,219501,2,0,P|238:269|186:165,1,255
275,184,221278,6,0,B|376:40|376:40|288:64,1,255
144,100,223056,2,0,B|43:244|43:244|131:220,1,255
224,232,224834,6,0,B|316:192|324:280|424:224,1,203.999993774414,0|2,0:0|0:0,0:0:0:0:
380,96,226612,2,0,B|288:136|280:48|180:104,1,203.999993774414,0|2,0:0|0:0,0:0:0:0:
184,204,228390,6,0,B|272:196|272:196|380:236,2,203.999993774414,0|2|0,0:0|0:0|0:0,0:0:0:0:
104,152,230612,2,0,L|2:141,2,101.999996887207,0|2|0,0:0|0:0|0:0,0:0:0:0:
168,88,231945,6,0,P|228:28|348:56,1,203.999993774414,0|2,0:0|0:0,0:0:0:0:
408,168,233723,2,0,P|348:228|228:200,1,203.999993774414,0|2,0:0|0:0,0:0:0:0:
144,112,235501,6,0,B|128:220|128:220|160:316,2,203.999993774414,0|2|0,0:0|0:0|0:0,0:0:0:0:
240,84,237723,2,0,L|344:104,2,101.999996887207,0|2|0,0:0|0:0|0:0,0:0:0:0:
156,36,239056,6,0,P|92:100|-4:92,1,170,0|2,0:0|0:0,0:0:0:0:
80,188,240256,1,0,0:0:0:0:
36,280,240656,2,0,P|126:279|188:353,1,170,0|2,0:0|0:0,0:0:0:0:
232,248,241856,1,0,0:0:0:0:
312,107,242256,6,0,B|324:192,1,85
200,124,243056,2,0,B|211:39,1,85,2|0,0:0|0:0,0:0:0:0:
323,171,243856,1,0,0:0:0:0:
422,147,244256,1,0,0:0:0:0:
447,246,244656,1,2,0:0:0:0:
348,272,245056,1,0,0:0:0:0:
212,348,245456,6,0,B|168:340|168:340|92:280|92:280|40:268,1,170,0|2,0:0|0:0,0:0:0:0:
204,236,246656,1,0,0:0:0:0:
292,160,247056,2,0,P|232:96|152:128,1,170,0|2,0:0|0:0,0:0:0:0:
204,236,248256,1,0,0:0:0:0:
424,184,248656,6,0,L|420:288,1,85
288,152,249456,2,0,L|292:56,1,85,2|0,0:0|0:0,0:0:0:0:
330,225,250256,2,0,P|287:239|232:210,1,85
382,111,251056,2,0,P|425:97|480:126,1,85,2|0,0:0|0:0,0:0:0:0:
256,192,251856,12,0,253456,0:0:0:0:
308,84,258890,6,0,B|276:80|276:80|248:92|248:92|209:77|156:101,1,136
76,148,259453,1,2,0:0:0:0:
104,164,259828,6,0,B|168:192|168:192|240:160|240:160|224:216,1,203.999993774414,12|2,0:0|0:0,0:0:0:0:
164,288,260390,1,2,0:0:0:0:
176,93,260578,1,8,0:0:0:0:
303,212,260765,6,0,P|283:272|237:289,1,101.999996887207,0|2,0:0|0:0,0:0:0:0:
104,164,261140,1,0,0:0:0:0:
316,120,261328,1,8,0:0:0:0:
170,15,261515,2,0,P|119:35|99:90,1,101.999996887207,0|2,0:0|0:0,0:0:0:0:
164,288,261890,1,2,0:0:0:0:
176,93,262078,1,8,0:0:0:0:
384,212,262265,1,8,0:0:0:0:
384,212,262359,1,8,0:0:0:0:
384,212,262453,6,0,B|353:227|353:227|278:223,1,101.999996887207,2|0,0:0|0:0,0:0:0:0:
172,192,262828,1,8,0:0:0:0:
356,100,263015,2,0,B|387:85|387:85|462:89,1,101.999996887207,0|2,0:0|0:0,0:0:0:0:
416,300,263390,1,2,0:0:0:0:
340,132,263578,1,8,0:0:0:0:
304,276,263765,1,8,0:0:0:0:
304,276,263859,1,8,0:0:0:0:
304,276,263953,5,10,0:0:0:0:
276,76,264140,1,0,0:0:0:0:
200,244,264328,1,8,0:0:0:0:
181,70,264515,2,0,P|229:56|275:75,1,101.999996887207,0|2,0:0|0:0,0:0:0:0:
384,212,264890,1,2,0:0:0:0:
188,154,265078,1,8,0:0:0:0:
155,162,265171,1,8,0:0:0:0:
128,183,265265,1,8,0:0:0:0:
112,213,265359,1,8,0:0:0:0:
108,246,265453,6,0,P|112:298|151:337,1,101.999996887207,6|0,0:0|0:0,0:0:0:0:
345,327,265828,2,0,B|333:179|333:179|293:231,1,203.999993774414,8|2,0:0|0:0,0:0:0:0:
180,324,266390,2,0,P|212:356|268:356,1,101.999996887207,2|8,0:0|0:0,0:0:0:0:
423,297,266765,1,0,0:0:0:0:
299,223,266953,6,0,P|247:235|183:211,1,101.999996887207,2|0,0:0|0:0,0:0:0:0:
340,112,267328,2,0,P|392:100|456:124,1,101.999996887207,8|0,0:0|0:0,0:0:0:0:
224,124,267703,2,0,P|178:95|150:33,1,101.999996887207,2|2,0:0|0:0,0:0:0:0:
299,223,268078,1,8,0:0:0:0:
481,97,268265,1,8,0:0:0:0:
481,97,268359,1,8,0:0:0:0:
481,97,268453,5,10,0:0:0:0:
440,288,268640,1,0,0:0:0:0:
320,79,268828,1,8,0:0:0:0:
361,270,269015,1,0,0:0:0:0:
128,184,269203,5,2,0:0:0:0:
291,309,269390,1,2,0:0:0:0:
207,94,269578,1,8,0:0:0:0:
65,256,269765,1,0,0:0:0:0:
268,32,269953,6,0,P|292:79|286:127,1,101.999996887207,2|0,0:0|0:0,0:0:0:0:
286,126,270234,1,8,0:0:0:0:
286,126,270328,1,8,0:0:0:0:
65,256,270515,2,0,P|69:307|118:341,1,101.999996887207,0|2,0:0|0:0,0:0:0:0:
196,180,270890,1,2,0:0:0:0:
384,168,271077,1,8,0:0:0:0:
415,347,271265,1,8,0:0:0:0:
381,347,271358,1,8,0:0:0:0:
348,340,271453,2,0,P|285:298|219:331,1,152.999995330811,10|0,0:0|0:0,0:0:0:0:
282,378,271828,6,0,B|275:227|275:227|315:271,1,203.999993774414,4|2,0:0|0:0,0:0:0:0:
448,320,272390,1,2,0:0:0:0:
428,169,272578,1,8,0:0:0:0:
276,228,272765,6,0,B|208:241|208:241|168:230,1,101.999996887207,0|2,0:0|0:0,0:0:0:0:
120,120,273140,1,0,0:0:0:0:
72,292,273328,1,8,0:0:0:0:
208,148,273515,2,0,B|276:135|276:135|316:146,1,101.999996887207,0|2,0:0|0:0,0:0:0:0:
408,236,273890,1,2,0:0:0:0:
360,64,274078,1,8,0:0:0:0:
288,304,274265,1,8,0:0:0:0:
288,324,274359,1,8,0:0:0:0:
288,344,274453,5,10,0:0:0:0:
236,160,274640,1,0,0:0:0:0:
168,336,274828,1,8,0:0:0:0:
116,152,275015,1,0,0:0:0:0:
356,168,275203,1,2,0:0:0:0:
288,344,275390,1,2,0:0:0:0:
236,160,275577,1,8,0:0:0:0:
360,24,275765,6,0,P|405:14|456:51,1,101.999996887207,0|2,0:0|0:0,0:0:0:0:
485,247,276140,2,0,P|440:257|389:220,1,101.999996887207,0|8,0:0|0:0,0:0:0:0:
477,54,276515,1,0,0:0:0:0:
512,260,276703,1,2,0:0:0:0:
336,128,276890,1,10,0:0:0:0:
336,128,276983,1,8,0:0:0:0:
336,128,277077,1,8,0:0:0:0:
228,300,277265,1,8,0:0:0:0:
228,300,277359,1,8,0:0:0:0:
228,300,277453,6,0,B|144:316|144:316|82:300|82:300|140:288,1,203.999993774414,6|8,0:0|0:0,0:0:0:0:
364,255,278015,1,0,0:0:0:0:
136,212,278202,1,2,0:0:0:0:
340,175,278390,1,2,0:0:0:0:
140,57,278577,1,8,0:0:0:0:
345,91,278765,1,0,0:0:0:0:
196,308,278953,6,0,P|132:224|204:156,1,203.999993774414,6|8,0:0|0:0,0:0:0:0:
393,57,279515,1,0,0:0:0:0:
313,233,279703,1,2,0:0:0:0:
281,113,279890,1,2,0:0:0:0:
345,353,280078,1,8,0:0:0:0:
425,177,280265,1,0,0:0:0:0:
252,33,280453,6,0,P|212:63|200:112,1,101.999996887207,6|0,0:0|0:0,0:0:0:0:
457,256,280828,2,0,P|497:226|510:178,1,101.999996887207,8|0,0:0|0:0,0:0:0:0:
228,40,281203,2,0,P|188:70|176:119,1,101.999996887207,2|2,0:0|0:0,0:0:0:0:
425,177,281578,1,8,0:0:0:0:
187,212,281765,1,0,0:0:0:0:
396,56,281953,5,2,0:0:0:0:
248,340,282140,1,0,0:0:0:0:
281,113,282328,5,8,0:0:0:0:
456,344,282515,1,0,0:0:0:0:
408,128,282703,6,8,L|416:56,2,50.9999984436036
195,88,283078,1,8,0:0:0:0:
179,118,283171,1,8,0:0:0:0:
172,151,283265,1,8,0:0:0:0:
175,185,283359,1,8,0:0:0:0:
187,212,283453,6,0,P|256:253|328:232,1,152.999995330811,6|0,0:0|0:0,0:0:0:0:
267,143,283828,2,0,P|227:112|177:116,1,101.999996887207,8|0,0:0|0:0,0:0:0:0:
214,351,284203,1,2,0:0:0:0:
416,240,284390,1,2,0:0:0:0:
187,212,284578,1,8,0:0:0:0:
357,370,284765,1,0,0:0:0:0:
381,132,284953,6,0,P|343:99|294:89,1,101.999996887207,2|0,0:0|0:0,0:0:0:0:
244,329,285328,2,0,P|291:313|325:276,1,101.999996887207,8|0,0:0|0:0,0:0:0:0:
141,112,285703,2,0,P|132:162|147:210,1,101.999996887207,2|2,0:0|0:0,0:0:0:0:
244,329,286078,1,8,0:0:0:0:
412,288,286265,1,8,0:0:0:0:
412,288,286359,1,8,0:0:0:0:
412,288,286453,6,0,L|404:168,1,101.999996887207,6|0,0:0|0:0,0:0:0:0:
293,38,286828,2,0,L|286:139,1,101.999996887207,8|0,0:0|0:0,0:0:0:0:
220,280,287203,2,0,P|172:296|112:268,1,101.999996887207,2|2,0:0|0:0,0:0:0:0:
316,156,287578,1,8,0:0:0:0:
173,212,287765,1,0,0:0:0:0:
321,75,287953,6,0,P|373:91|397:139,1,101.999996887207,2|0,0:0|0:0,0:0:0:0:
116,130,288328,2,0,P|142:87|191:75,1,101.999996887207,8|0,0:0|0:0,0:0:0:0:
288,176,288703,2,0,B|220:172|220:172|188:152,1,101.999996887207,2|10,0:0|0:0,0:0:0:0:
191,154,288984,1,8,0:0:0:0:
191,154,289078,1,8,0:0:0:0:
440,100,289265,1,8,0:0:0:0:
440,100,289359,1,8,0:0:0:0:
440,100,289453,6,0,B|428:216|428:216|444:256,1,152.999995330811,6|0,0:0|0:0,0:0:0:0:
372,336,289828,2,0,B|340:268|340:268|340:224,1,101.999996887207,8|0,0:0|0:0,0:0:0:0:
324,88,290203,1,2,0:0:0:0:
276,304,290390,1,2,0:0:0:0:
188,96,290578,1,8,0:0:0:0:
140,312,290765,1,0,0:0:0:0:
224,84,290953,6,0,P|273:94|311:127,1,101.999996887207,2|0,0:0|0:0,0:0:0:0:
77,204,291328,2,0,P|61:155|71:106,1,101.999996887207,8|0,0:0|0:0,0:0:0:0:
255,271,291703,2,0,P|221:308|173:324,1,101.999996887207,2|2,0:0|0:0,0:0:0:0:
188,96,292078,1,8,0:0:0:0:
384,56,292265,1,8,0:0:0:0:
384,56,292359,1,8,0:0:0:0:
384,56,292453,6,0,B|412:96|412:96|404:164,1,101.999996887207,6|0,0:0|0:0,0:0:0:0:
364,308,292828,2,0,P|313:319|260:292,1,101.999996887207,8|0,0:0|0:0,0:0:0:0:
88,228,293203,1,2,0:0:0:0:
250,321,293390,1,2,0:0:0:0:
250,131,293578,1,8,0:0:0:0:
412,225,293765,1,0,0:0:0:0:
166,182,293953,5,2,0:0:0:0:
417,124,294140,1,0,0:0:0:0:
250,321,294328,1,8,0:0:0:0:
271,62,294515,1,0,0:0:0:0:
408,282,294703,5,2,0:0:0:0:
166,182,294890,1,2,0:0:0:0:
417,124,295078,1,8,0:0:0:0:
417,124,295171,1,8,0:0:0:0:
417,124,295265,1,8,0:0:0:0:
170,101,295453,6,0,P|97:138|113:241,1,178.499994552612,2|0,0:0|0:0,0:0:0:0:
166,182,295828,6,0,P|254:230|220:320,1,204,8|0,0:0|0:0,0:0:0:0:
181,257,296203,6,0,P|273:201|337:281,1,229.499992996216,2|0,0:0|0:0,0:0:0:0:
372,351,296578,6,0,L|384:172,1,170,8|0,0:0|0:0,0:0:0:0:
356,84,296859,1,8,0:0:0:0:
343,75,296953,6,0,L|223:107,1,101.999996887207,6|0,0:0|0:0,0:0:0:0:
452,96,297328,1,8,0:0:0:0:
241,203,297515,2,0,L|244:101,1,101.999996887207,0|2,0:0|0:0,0:0:0:0:
236,296,297890,1,2,0:0:0:0:
136,144,298078,1,8,0:0:0:0:
372,192,298265,1,0,0:0:0:0:
192,120,298453,6,0,B|124:112|124:112|72:136,2,101.999996887207,6|0|8,0:0|0:0|0:0,0:0:0:0:
372,192,299015,1,0,0:0:0:0:
232,264,299203,2,0,L|103:250,1,101.999996887207,2|2,0:0|0:0,0:0:0:0:
320,372,299578,2,0,L|421:360,1,101.999996887207,8|0,0:0|0:0,0:0:0:0:
72,312,299953,6,0,P|54:238|102:178,1,152.999995330811,6|0,0:0|0:0,0:0:0:0:
132,164,300328,2,0,P|180:152|240:168,1,101.999996887207,8|0,0:0|0:0,0:0:0:0:
356,348,300703,2,0,L|344:184,1,152.999995330811,2|0,0:0|0:0,0:0:0:0:
328,164,301078,2,0,P|280:152|220:168,1,101.999996887207,8|0,0:0|0:0,0:0:0:0:
138,256,301454,5,2,0:0:0:0:
288,284,301641,2,8,L|336:268,2,50.9999984436036
188,376,302015,2,8,L|140:360,2,50.9999984436036,8|8|10,0:0|0:0|0:0,0:0:0:0:
138,256,302390,1,10,0:0:0:0:
135,217,302483,1,8,0:0:0:0:
132,179,302577,1,8,0:0:0:0:
129,141,302671,1,8,0:0:0:0:
126,103,302765,5,2,0:0:0:0:
256,192,305765,12,0,307265,0:0:0:0:
388,192,307453,6,0,L|396:252,3,50.9999984436036,2|0|0|0,0:0|0:0|0:0|0:0,0:0:0:0:
332,120,307828,2,0,L|338:69,3,50.9999984436036
300,200,308203,1,2,0:0:0:0:
264,222,308296,1,0,0:0:0:0:
222,222,308390,1,0,0:0:0:0:
188,199,308484,1,0,0:0:0:0:
171,160,308578,5,0,0:0:0:0:
158,111,308671,1,0,0:0:0:0:
118,80,308765,1,0,0:0:0:0:
68,80,308859,1,0,0:0:0:0:
29,111,308953,6,0,L|54:304,1,170,6|8,0:0|0:0,0:0:0:0:
234,306,309516,2,0,B|222:218,1,85,0|2,0:0|0:0,0:0:0:0:
304,40,309891,1,2,0:0:0:0:
321,193,310079,1,8,0:0:0:0:
182,129,310266,1,0,0:0:0:0:
391,144,310454,6,0,P|402:233|333:279,1,170,2|8,0:0|0:0,0:0:0:0:
237,193,311015,2,0,B|297:185|297:185|322:193,1,85,0|2,0:0|0:0,0:0:0:0:
180,360,311390,1,2,0:0:0:0:
220,200,311578,1,8,0:0:0:0:
340,315,311765,1,0,0:0:0:0:
275,130,311953,6,0,P|232:109|175:122,1,85,6|0,0:0|0:0,0:0:0:0:
400,212,312328,2,0,P|443:233|500:220,1,85,8|0,0:0|0:0,0:0:0:0:
296,233,312703,2,0,P|276:270|278:312,1,85,2|2,0:0|0:0,0:0:0:0:
378,108,313078,2,0,P|398:71|396:29,1,85,8|0,0:0|0:0,0:0:0:0:
126,296,313454,5,2,0:0:0:0:
154,148,313641,1,0,0:0:0:0:
252,268,313828,1,8,0:0:0:0:
280,120,314015,2,8,L|292:52,2,42.5,8|8|10,0:0|0:0|0:0,0:0:0:0:
408,88,314390,1,2,0:0:0:0:
154,148,314578,1,8,0:0:0:0:
360,324,314765,1,8,0:0:0:0:
360,324,314859,1,8,0:0:0:0:
360,324,314953,6,0,B|392:220|328:244|360:140,1,170,6|8,0:0|0:0,0:0:0:0:
248,68,315516,2,0,P|208:56|160:68,1,85,0|2,0:0|0:0,0:0:0:0:
192,248,315891,1,2,0:0:0:0:
312,145,316078,1,8,0:0:0:0:
161,94,316266,1,0,0:0:0:0:
184,300,316453,6,0,B|240:312|240:312|320:292|320:292|304:328,1,170,2|8,0:0|0:0,0:0:0:0:
448,240,317015,2,0,P|464:196|448:140,1,85,0|2,0:0|0:0,0:0:0:0:
304,72,317390,1,2,0:0:0:0:
304,264,317578,1,8,0:0:0:0:
228,32,317765,1,0,0:0:0:0:
120,172,317953,6,0,P|114:213|130:252,1,85,6|0,0:0|0:0,0:0:0:0:
308,236,318328,2,0,P|313:194|297:155,1,85,8|0,0:0|0:0,0:0:0:0:
256,308,318703,2,0,P|294:325|336:321,1,85,2|2,0:0|0:0,0:0:0:0:
288,68,319078,2,0,P|248:83|221:115,1,85,8|0,0:0|0:0,0:0:0:0:
180,264,319453,5,2,0:0:0:0:
297,155,319641,1,0,0:0:0:0:
148,72,319828,1,8,0:0:0:0:
356,21,320015,2,0,P|372:69|348:121,1,85,0|2,0:0|0:0,0:0:0:0:
164,168,320390,1,2,0:0:0:0:
360,328,320578,1,8,0:0:0:0:
395,304,320671,1,8,0:0:0:0:
418,269,320765,1,8,0:0:0:0:
427,228,320859,1,8,0:0:0:0:
420,186,320953,6,0,P|396:128|284:124,1,170,6|8,0:0|0:0,0:0:0:0:
295,266,321515,2,0,L|336:192,1,85,0|2,0:0|0:0,0:0:0:0:
392,80,321890,1,2,0:0:0:0:
212,96,322078,1,8,0:0:0:0:
336,16,322265,1,0,0:0:0:0:
295,266,322453,6,0,B|171:274|171:274|119:254,1,170,2|8,0:0|0:0,0:0:0:0:
212,164,323015,2,0,L|297:158,1,85,0|2,0:0|0:0,0:0:0:0:
420,168,323390,1,2,0:0:0:0:
229,71,323578,2,0,B|205:131|205:131|209:159,1,85,8|0,0:0|0:0,0:0:0:0:
228,236,323859,1,8,0:0:0:0:
240,252,323953,6,0,P|288:240|344:252,1,85,6|0,0:0|0:0,0:0:0:0:
160,304,324328,2,0,P|145:261|152:221,1,85,8|0,0:0|0:0,0:0:0:0:
416,208,324703,2,0,B|424:256|424:256|412:292,1,85,2|2,0:0|0:0,0:0:0:0:
296,148,325078,2,0,B|288:100|288:100|300:64,1,85,8|0,0:0|0:0,0:0:0:0:
260,236,325453,5,2,0:0:0:0:
392,112,325640,1,8,0:0:0:0:
392,112,325733,1,8,0:0:0:0:
392,112,325828,1,8,0:0:0:0:
408,296,326015,1,0,0:0:0:0:
260,236,326203,1,2,0:0:0:0:
276,52,326390,1,2,0:0:0:0:
75,175,326578,1,8,0:0:0:0:
107,183,326671,1,8,0:0:0:0:
141,183,326765,1,8,0:0:0:0:
174,176,326859,1,8,0:0:0:0:
205,161,326953,6,0,P|287:143|347:223,1,170,6|8,0:0|0:0,0:0:0:0:
232,328,327515,2,0,L|128:308,1,85,0|2,0:0|0:0,0:0:0:0:
108,232,327890,1,2,0:0:0:0:
343,198,328078,1,8,0:0:0:0:
174,176,328265,1,0,0:0:0:0:
348,336,328453,6,0,B|358:227|358:227|377:293,1,170,2|8,0:0|0:0,0:0:0:0:
464,232,329015,2,0,L|452:120,1,85,0|2,0:0|0:0,0:0:0:0:
296,48,329390,1,2,0:0:0:0:
304,208,329578,1,8,0:0:0:0:
216,28,329765,1,0,0:0:0:0:
172,224,329953,6,0,L|180:320,1,85,6|0,0:0|0:0,0:0:0:0:
304,208,330328,2,0,L|311:123,1,85,8|0,0:0|0:0,0:0:0:0:
136,148,330703,2,0,P|100:176|88:224,1,85,2|2,0:0|0:0,0:0:0:0:
336,282,331078,2,0,P|372:254|384:206,1,85,8|0,0:0|0:0,0:0:0:0:
172,224,331454,5,6,0:0:0:0:
304,208,331641,1,0,0:0:0:0:
228,88,331828,2,8,L|200:36,2,42.5
320,248,332203,1,10,0:0:0:0:
306,287,332296,1,8,0:0:0:0:
270,307,332390,1,8,0:0:0:0:
229,298,332484,1,8,0:0:0:0:
205,264,332578,1,8,0:0:0:0:
206,222,332671,1,8,0:0:0:0:
183,187,332765,1,8,0:0:0:0:
144,172,332859,1,8,0:0:0:0:
103,181,332953,5,2,0:0:0:0:
275,178,333140,1,0,0:0:0:0:
91,71,333328,1,8,0:0:0:0:
91,283,333515,1,0,0:0:0:0:
229,44,333703,5,2,0:0:0:0:
8,170,333891,1,0,0:0:0:0:
229,298,334078,1,8,0:0:0:0:
91,71,334265,1,2,0:0:0:0:
