osu file format v14

[General]
AudioFilename: audio.mp3
AudioLeadIn: 0
PreviewTime: 54049
Countdown: 0
SampleSet: Soft
StackLeniency: 0.7
Mode: 0
LetterboxInBreaks: 0
WidescreenStoryboard: 0

[Editor]
DistanceSpacing: 0.9
BeatDivisor: 4
GridSize: 8
TimelineZoom: 2.2

[Metadata]
Title:Hyouri Ittai
TitleUnicode:表裏一体
Artist:YUZU
ArtistUnicode:ゆず
Creator:Cris-
Version:Normal
Source:HUNTER×HUNTER
Tags:wolf3211 ハンター×ハンター HxH HUNTERxHUNTER 2011 Chimera Ant Ending 5 TV Size Two Sides of the Same Coin Madhouse
BeatmapID:1229108
BeatmapSetID:580549

[Difficulty]
HPDrainRate:4
CircleSize:3.5
OverallDifficulty:4
ApproachRate:5
SliderMultiplier:1.2
SliderTickRate:1

[Events]
//Background and Video events
0,0,"Gungi.jpg",0,0
Video,12806,"HxH Ending.avi"
//Break Periods
//Storyboard Layer 0 (Background)
//Storyboard Layer 1 (Fail)
//Storyboard Layer 2 (Pass)
//Storyboard Layer 3 (Foreground)
//Storyboard Sound Samples

[TimingPoints]
306,400,4,2,2,40,1,0
13106,-100,4,2,1,50,0,0
38706,-100,4,2,2,40,0,0
51506,-100,4,2,2,45,0,0
53206,375,4,2,2,30,1,0
54143,-100,4,2,2,40,0,0
54518,-100,4,2,2,25,0,0
54706,-100,4,2,2,30,0,0
55081,-100,4,2,1,70,0,1
66706,-100,4,2,1,40,0,0
67081,-100,4,2,1,70,0,1
80206,-100,4,2,1,45,0,1
80581,-100,4,2,1,70,0,1
81518,-100,4,2,1,35,0,1
81706,-100,4,2,2,45,0,0
83206,-100,4,2,1,70,0,0
89206,370.37037037037,4,2,2,60,1,0

[Colours]
Combo1 : 221,194,185
Combo2 : 53,133,33
Combo3 : 235,175,175
Combo4 : 118,186,95

[HitObjects]
56,88,306,6,0,P|8:156|56:228,1,180,2|2,0:0|0:0,0:0:0:0:
160,200,1306,1,2,0:0:0:0:
160,200,1506,2,0,L|168:260,1,60,2|0,0:0|0:0,0:0:0:0:
176,312,1906,6,0,P|216:328|288:236,1,180,2|2,0:0|0:0,0:0:0:0:
224,152,2906,2,0,P|200:128|176:120,2,60,0|2|0,0:0|0:0|0:0,0:0:0:0:
272,136,3506,6,0,P|328:80|420:104,1,180,2|2,0:0|0:0,0:0:0:0:
472,192,4506,1,2,0:0:0:0:
472,192,4706,2,0,L|416:216,1,60,2|0,0:0|0:0,0:0:0:0:
368,240,5106,6,0,B|328:248|296:240|296:240|272:216|272:216|240:208|200:216,1,180,2|2,0:0|0:0,0:0:0:0:
136,128,6106,2,0,L|120:64,2,60,0|2|0,0:0|0:0|0:0,0:0:0:0:
104,168,6706,6,0,B|80:224|80:224|104:340,1,180,2|2,0:0|0:0,0:0:0:0:
208,368,7706,1,2,0:0:0:0:
208,368,7906,2,0,P|248:368|288:352,1,60,2|0,0:0|0:0,0:0:0:0:
312,336,8306,6,0,P|272:272|348:260,1,180,2|2,0:0|0:0,0:0:0:0:
440,320,9306,2,0,L|416:376,2,60,0|2|0,0:0|0:0|0:0,0:0:0:0:
456,272,9906,6,0,B|440:232|440:232|456:144|456:144|440:100,1,180,2|2,0:0|0:0,0:0:0:0:
344,56,10906,2,0,P|320:32|312:8,2,60,0|2|0,0:0|0:0|0:0,0:0:0:0:
320,104,11506,6,0,P|288:152|228:172,1,120,2|0,0:0|0:0,0:0:0:0:
184,200,12106,2,0,B|140:200|140:200|112:188|112:188|64:188,1,120,2|0,0:0|0:0,0:0:0:0:
24,224,12706,2,0,P|20:256|24:284,1,60
48,328,13106,6,0,P|104:352|156:328,1,120,4|8,0:0|0:0,0:0:0:0:
256,288,13906,2,0,L|271:230,1,60,2|2,0:0|0:1,0:0:0:0:
272,176,14306,2,0,L|256:116,1,60,8|2,0:0|0:1,0:0:0:0:
272,64,14706,6,0,B|328:84|328:44|392:64,1,120,2|8,0:0|0:0,0:0:0:0:
456,152,15506,2,0,P|460:184|456:212,1,60,2|2,0:0|0:1,0:0:0:0:
424,256,15906,2,0,P|392:252|364:256,1,60,8|2,0:0|0:1,0:0:0:0:
320,280,16306,6,0,P|264:296|204:280,1,120,2|8,0:0|0:0,0:0:0:0:
104,240,17106,2,0,P|88:184|104:124,1,120,2|8,0:0|0:0,0:0:0:0:
128,80,17706,1,2,0:1:0:0:
152,32,17906,6,0,B|208:48|208:48|268:32,1,120,2|8,0:0|0:0,0:0:0:0:
368,0,18706,2,0,P|424:0|464:48,1,120,2|8,0:0|0:0,0:0:0:0:
472,96,19306,1,8,0:0:0:0:
480,152,19506,6,0,L|488:212,1,60,6|2,0:0|0:1,0:0:0:0:
472,264,19906,2,0,L|408:272,1,60,8|2,0:0|0:1,0:0:0:0:
368,304,20306,2,0,P|320:272|260:284,1,120,2|8,0:0|0:0,0:0:0:0:
168,336,21106,6,0,P|110:347|61:314,1,120,2|8,0:0|0:0,0:0:0:0:
32,272,21706,2,0,B|48:200|48:200|32:156,1,120,2|2,0:1|0:1,0:0:0:0:
8,112,22306,2,0,P|16:80|32:56,1,60,8|8,0:0|0:0,0:0:0:0:
72,16,22706,5,4,0:0:0:0:
160,80,23106,2,0,P|216:96|276:80,1,120,8|2,0:0|0:0,0:0:0:0:
320,56,23706,2,0,P|352:56|380:64,1,60,2|8,0:1|0:0,0:0:0:0:
424,88,24106,1,2,0:1:0:0:
464,128,24306,6,0,P|484:184|464:240,1,120,4|8,0:0|0:0,0:0:0:0:
431,279,24906,2,0,P|378:214|297:238,1,180,2|8,0:1|0:0,0:0:0:0:
208,296,25906,6,0,P|196:272|192:240,2,60,4|2|8,0:0|0:1|0:0,0:0:0:0:
184,344,26506,1,2,0:1:0:0:
136,368,26706,2,0,P|80:368|40:320,1,120,2|8,0:0|0:0,0:1:0:0:
16,216,27506,6,0,L|48:100,1,120,2|8,0:0|0:0,0:0:0:0:
144,56,28306,2,0,P|176:56|200:44,1,60,2|2,0:0|0:1,0:0:0:0:
248,24,28706,2,0,P|280:24|304:36,1,60,8|2,0:0|0:1,0:0:0:0:
344,72,29106,6,0,P|336:132|372:176,1,120,4|8,0:0|0:0,0:0:0:0:
416,208,29706,1,4,0:0:0:0:
392,312,30106,1,2,0:0:0:0:
392,312,30306,6,0,B|336:324|336:324|276:304,1,120,4|2,0:0|0:1,0:0:0:0:
224,328,30906,2,0,P|192:332|164:328,1,60,8|2,0:3|0:0,0:0:0:0:
56,304,31506,2,0,P|36:248|56:192,1,120,8|2,0:0|0:0,0:0:0:0:
120,104,32306,5,4,0:0:0:0:
184,192,32706,2,0,P|240:176|300:192,1,120,8|2,0:0|0:0,0:0:0:0:
344,216,33306,2,0,L|336:276,2,60,2|8|2,0:1|0:0|0:1,0:0:0:0:
392,200,33906,6,0,P|448:216|508:200,1,120,2|8,0:0|0:0,0:0:0:0:
508,148,34506,1,2,0:1:0:0:
508,96,34706,2,0,P|452:80|392:96,1,120,2|8,0:0|0:0,0:0:0:0:
296,48,35506,6,0,B|240:64|240:24|180:48,1,120,4|8,0:0|0:0,0:0:0:0:
120,144,36306,1,2,0:0:0:0:
176,240,36706,1,8,0:0:0:0:
120,336,37106,6,0,P|176:356|232:336,1,120,4|8,0:0|0:0,0:0:0:0:
272,304,37706,1,8,0:0:0:0:
272,248,37906,2,0,P|264:216|272:192,1,60,8|8,0:0|0:0,0:0:0:0:
304,144,38306,2,0,P|312:112|304:88,1,60,8|8,0:0|0:0,0:0:0:0:
272,40,38706,6,0,B|216:60|216:20|152:40,1,120,2|0,0:0|0:0,0:0:0:0:
112,72,39306,2,0,P|60:56|8:92,1,120,2|0,0:0|0:0,0:0:0:0:
8,144,39906,1,2,0:0:0:0:
40,248,40306,6,0,P|72:252|100:248,1,60,2|0,0:0|0:0,0:0:0:0:
144,224,40706,2,0,P|176:220|204:224,1,60,0|2,0:0|0:0,0:0:0:0:
248,248,41106,2,0,P|304:272|356:248,1,120,0|2,0:0|0:0,0:0:0:0:
424,168,41906,6,0,P|448:112|424:60,1,120,2|0,0:0|0:0,0:0:0:0:
376,32,42506,2,0,B|316:52|316:12|256:32,1,120,2|0,0:0|0:0,0:0:0:0:
216,64,43106,2,0,P|192:88|184:112,1,60,2|0,0:0|0:0,0:0:0:0:
176,168,43506,6,0,B|92:200|92:128|0:168,2,180,2|0|2,0:0|0:0|0:0,0:0:0:0:
240,256,45106,6,0,B|284:256|284:256|316:240|316:240|356:240,1,120,2|0,0:0|0:0,0:0:0:0:
408,256,45706,2,0,P|464:256|496:200,1,120,2|0,0:0|0:0,0:0:0:0:
496,152,46306,1,2,0:0:0:0:
432,64,46706,6,0,L|372:56,1,60,2|0,0:0|0:0,0:0:0:0:
320,64,47106,2,0,L|256:72,1,60,2|0,0:0|0:0,0:0:0:0:
216,104,47506,2,0,P|160:120|100:104,1,120,2|2,0:0|0:0,0:0:0:0:
32,24,48306,6,0,P|-4:104|32:184,2,180,2|2|2,0:0|0:0|0:0,0:0:0:0:
256,192,49906,12,2,53106,0:0:0:0:
112,368,54143,6,0,B|92:312|132:312|112:248,1,120,2|0,0:0|0:0,0:0:0:0:
104,200,54706,1,2,0:0:0:0:
192,136,55081,6,0,P|248:152|308:136,1,120,4|2,0:0|0:0,0:0:0:0:
352,112,55643,2,0,P|384:116|412:112,1,60,2|8,0:1|0:0,0:0:0:0:
456,88,56018,1,2,0:1:0:0:
504,112,56206,6,0,B|520:172|484:172|504:232,1,120,2|8,0:0|0:0,0:0:0:0:
504,280,56768,1,2,0:1:0:0:
504,336,56956,2,0,P|448:360|396:336,1,120,2|8,0:0|0:0,0:0:0:0:
320,264,57706,6,0,P|264:240|212:264,1,120,2|8,0:0|0:0,0:0:0:0:
176,304,58268,2,0,P|120:328|68:304,1,120,2|2,0:1|0:1,0:0:0:0:
32,264,58831,1,8,0:0:0:0:
8,160,59206,6,0,P|8:88|40:56,1,120,2|8,0:0|0:0,0:0:0:0:
88,32,59768,2,0,P|120:24|148:32,1,60,2|2,0:1|0:0,0:0:0:0:
192,48,60143,2,0,L|184:108,2,60,8|8|0,0:0|0:0|0:0,0:0:0:0:
240,32,60706,5,4,0:0:0:0:
336,80,61081,2,0,P|392:64|452:80,1,120,8|2,0:0|0:0,0:0:0:0:
496,112,61643,2,0,P|512:160|496:228,1,120,2|2,0:1|0:1,0:0:0:0:
472,272,62206,6,0,L|352:256,1,120,2|8,0:0|0:0,0:0:0:0:
304,248,62768,2,0,L|288:128,2,120,2|2|2,0:1|0:1|0:1,0:0:0:0:
272,288,63706,5,4,0:0:0:0:
184,352,64081,2,0,B|136:356|136:356|112:348|112:348|64:352,2,120,8|2|8,0:0|0:0|0:0,0:0:0:0:
272,288,65206,5,6,0:0:0:0:
272,288,65393,2,0,P|268:260|276:228,1,60,8|8,0:0|0:0,0:0:0:0:
304,184,65768,2,0,P|360:208|412:184,1,120,4|8,0:0|0:0,0:0:0:0:
440,144,66331,2,0,B|448:104|448:104|416:32,1,120,8|2,0:0|0:0,0:0:0:0:
312,8,67081,6,0,P|256:8|208:48,1,120,4|2,0:0|0:0,0:0:0:0:
168,88,67643,2,0,P|136:96|108:88,1,60,2|8,0:1|0:0,0:0:0:0:
64,64,68018,1,2,0:1:0:0:
24,96,68206,6,0,P|0:144|24:204,1,120,2|8,0:0|0:0,0:0:0:0:
56,248,68768,1,2,0:1:0:0:
104,280,68956,2,0,L|224:288,1,120,2|8,0:0|0:0,0:0:0:0:
296,208,69706,6,0,B|276:152|316:152|296:88,1,120,2|8,0:0|0:0,0:0:0:0:
264,48,70268,2,0,B|208:56|208:56|148:32,1,120,2|2,0:1|0:1,0:0:0:0:
56,88,71018,1,2,0:1:0:0:
56,88,71206,6,0,P|32:144|56:196,1,120,4|8,0:0|0:0,0:0:0:0:
96,232,71768,2,0,L|160:224,1,60,2|2,0:1|0:0,0:0:0:0:
208,232,72143,1,8,0:0:0:0:
296,296,72518,1,8,0:0:0:0:
296,296,72706,6,0,P|352:316|408:296,1,120,4|8,0:0|0:0,0:0:0:0:
448,264,73268,1,2,0:1:0:0:
448,208,73456,2,0,B|424:152|472:152|448:88,1,120,2|8,0:0|0:0,0:0:0:0:
360,24,74206,6,0,B|320:24|320:24|288:8|288:8|244:8,1,120,4|8,0:0|0:0,0:0:0:0:
192,32,74768,1,2,0:1:0:0:
144,56,74956,2,0,B|128:96|128:96|144:172,1,120,2|8,0:0|0:0,0:0:0:0:
152,224,75518,1,2,0:1:0:0:
168,272,75706,6,0,B|224:296|224:256|284:272,1,120,4|8,0:0|0:0,0:0:0:0:
368,336,76456,2,0,P|424:356|480:336,1,120,2|8,0:0|0:0,0:0:0:0:
488,280,77018,1,2,0:1:0:0:
488,224,77206,6,0,B|464:168|512:168|488:104,1,120,4|8,0:0|0:0,0:0:0:0:
424,24,77956,1,8,0:0:0:0:
424,24,78143,2,0,P|368:4|312:24,1,120,8|2,0:0|0:0,0:0:0:0:
312,184,79081,6,0,B|238:165|194:209|194:209|190:125|118:101|118:101|102:148|50:153,1,360,4|0,0:0|0:0,0:0:0:0:
6,253,80581,6,0,B|58:273|106:245|106:245|142:325|230:325|267:283,1,300,4|0,0:0|0:0,0:0:0:0:
312,256,81706,6,0,P|360:280|424:264,2,120,2|2|2,0:0|0:0|0:0,0:0:0:0:
264,160,82831,2,0,L|248:100,1,60,2|0,0:0|0:0,0:0:0:0:
232,48,83206,6,0,B|184:48|184:48|156:64|156:64|116:64,1,120,4|8,0:0|0:0,0:0:0:0:
72,88,83768,1,2,0:1:0:0:
32,120,83956,2,0,P|8:176|32:228,1,120,2|8,0:0|0:0,0:0:0:0:
104,304,84706,6,0,B|160:284|160:324|224:304,1,120,4|8,0:0|0:0,0:0:0:0:
272,288,85268,1,2,0:1:0:0:
320,272,85456,2,0,P|376:288|436:272,1,120,2|8,0:0|0:0,0:0:0:0:
488,176,86206,6,0,P|504:120|488:60,1,120,4|8,0:0|0:0,0:0:0:0:
448,24,86768,2,0,B|392:44|392:4|328:24,2,120,2|2|2,0:1|0:1|0:1,0:1:0:0:
256,192,87706,12,2,89206,0:0:0:0:
