osu file format v14

[General]
AudioFilename: audio.mp3
AudioLeadIn: 0
PreviewTime: 54049
Countdown: 0
SampleSet: Soft
StackLeniency: 0.7
Mode: 0
LetterboxInBreaks: 0
WidescreenStoryboard: 0

[Editor]
DistanceSpacing: 0.9
BeatDivisor: 4
GridSize: 4
TimelineZoom: 2.2

[Metadata]
Title:Hyouri Ittai
TitleUnicode:表裏一体
Artist:YUZU
ArtistUnicode:ゆず
Creator:Cris-
Version:Wolf's Insane
Source:HUNTER×HUNTER
Tags:wolf3211 ハンター×ハンター HxH HUNTERxHUNTER 2011 Chimera Ant Ending 5 TV Size Two Sides of the Same Coin Madhouse
BeatmapID:1229110
BeatmapSetID:580549

[Difficulty]
HPDrainRate:6.5
CircleSize:4
OverallDifficulty:7
ApproachRate:8.3
SliderMultiplier:1.7
SliderTickRate:1

[Events]
//Background and Video events
0,0,"Gungi.jpg",0,0
Video,12806,"HxH Ending.avi"
//Break Periods
//Storyboard Layer 0 (Background)
//Storyboard Layer 1 (Fail)
//Storyboard Layer 2 (Pass)
//Storyboard Layer 3 (Foreground)
//Storyboard Sound Samples

[TimingPoints]
306,400,4,2,2,40,1,0
306,-133.333333333333,4,2,2,40,0,0
13106,-100,4,2,1,50,0,0
29106,-100,4,2,1,60,0,0
30906,-100,4,2,1,50,0,0
37906,-100,4,2,1,60,0,0
38306,-100,4,2,1,65,0,0
38706,-133.333333333333,4,2,2,40,0,0
49906,-133.333333333333,4,2,2,45,0,0
51506,-142.857142857143,4,2,2,50,0,0
53106,-142.857142857143,4,2,2,30,0,0
53206,375,4,2,2,30,1,0
54143,-153.846153846153,4,2,2,27,0,0
54706,-153.846153846153,4,2,2,20,0,0
55081,-100,4,2,1,70,0,1
66706,-133.333333333333,4,2,1,40,0,0
66987,-133.333333333333,4,2,1,5,0,0
67081,-100,4,2,1,70,0,1
79081,-200,4,2,1,70,0,1
80206,-200,4,2,1,45,0,1
80581,-200,4,2,1,70,0,1
81518,-200,4,2,1,50,0,1
81706,-100,4,2,2,40,0,0
83206,-100,4,2,1,70,0,0
89206,370.37037037037,4,2,2,60,1,0

[Colours]
Combo1 : 221,194,185
Combo2 : 53,133,33
Combo3 : 235,175,175
Combo4 : 118,186,95

[HitObjects]
284,52,306,6,0,B|324:60|324:60|368:52|368:52|420:60,1,127.500004863739,2|0,0:0|0:0,0:0:0:0:
352,184,906,2,0,P|299:159|228:202,1,127.500004863739,2|0,0:0|0:0,0:0:0:0:
160,240,1506,1,2,0:0:0:0:
80,184,1706,1,0,0:0:0:0:
28,60,1906,6,0,B|72:48|72:48|108:56|108:56|164:48,1,127.500004863739,2|0,0:0|0:0,0:0:0:0:
244,20,2506,2,0,P|278:67|249:145,1,127.500004863739,2|0,0:0|0:0,0:0:0:0:
308,216,3106,2,0,P|300:248|308:284,1,63.7500024318696,2|0,0:0|0:0,0:0:0:0:
444,256,3506,6,0,B|456:212|456:212|448:176|448:176|456:120,1,127.500004863739,2|0,0:0|0:0,0:0:0:0:
348,36,4106,2,0,P|375:95|360:155,1,127.500004863739,2|0,0:0|0:0,0:0:0:0:
280,104,4706,1,2,0:0:0:0:
196,152,4906,1,0,0:0:0:0:
100,52,5106,6,0,B|112:96|112:96|104:132|104:132|112:188,1,127.500004863739,2|0,0:0|0:0,0:0:0:0:
80,268,5706,2,0,P|126:308|187:297,1,127.500004863739,2|0,0:0|0:0,0:0:0:0:
224,208,6306,2,0,P|256:224|276:268,1,63.7500024318696,2|0,0:0|0:0,0:0:0:0:
384,328,6706,6,0,B|396:284|396:284|388:248|388:248|394:203,1,127.500004863739,2|0,0:0|0:0,0:0:0:0:
444,120,7306,2,0,P|395:83|335:98,1,127.500004863739,2|0,0:0|0:0,0:0:0:0:
256,44,7906,1,2,0:0:0:0:
192,116,8106,1,0,0:0:0:0:
88,32,8306,6,0,B|100:76|100:76|92:112|92:112|100:168,1,127.500004863739,2|0,0:0|0:0,0:0:0:0:
56,244,8906,2,0,P|12:288|4:356,1,127.500004863739,2|0,0:0|0:0,0:0:0:0:
100,332,9505,2,0,P|132:339|163:335,1,63.7500024318696,2|0,0:0|0:0,0:0:0:0:
300,304,9906,6,0,B|312:260|312:260|292:164,1,127.500004863739,2|0,0:0|0:0,0:0:0:0:
400,88,10506,2,0,P|429:143|401:198,1,127.500004863739,2|0,0:0|0:0,0:0:0:0:
252,88,11106,1,2,0:0:0:0:
252,88,11506,6,0,B|188:96|188:96|104:88,1,127.500004863739,2|0,0:0|0:0,0:0:0:0:
36,200,12106,2,0,P|96:188|164:200,1,127.500004863739,2|0,0:0|0:0,0:0:0:0:
252,172,12706,2,0,P|284:176|320:172,1,63.7500024318696
384,56,13106,6,0,P|401:93|395:135,1,85,6|0,0:0|0:0,0:0:0:0:
424,260,13506,1,8,0:0:0:0:
256,312,13706,1,2,0:1:0:0:
256,312,13806,1,0,0:0:0:0:
256,312,13906,2,0,P|298:305|353:321,1,85,2|2,0:0|0:1,0:0:0:0:
240,200,14306,2,0,P|200:208|150:203,1,85,8|2,0:0|0:1,0:0:0:0:
56,332,14706,6,0,B|64:292|64:292|48:232,1,85,2|2,0:0|0:1,0:0:0:0:
36,88,15106,1,8,0:0:0:0:
156,204,15306,1,2,0:1:0:0:
156,204,15406,1,0,0:0:0:0:
156,204,15506,2,0,L|240:196,1,85,2|2,0:0|0:1,0:0:0:0:
364,44,15906,1,8,0:0:0:0:
204,96,16106,1,2,0:1:0:0:
424,136,16306,6,0,L|416:232,1,85,2|2,0:0|0:1,0:0:0:0:
316,312,16706,1,8,0:0:0:0:
200,196,16906,1,2,0:1:0:0:
200,196,17006,1,0,0:0:0:0:
200,196,17106,2,0,B|240:200|240:200|300:193,1,85,2|2,0:0|0:1,0:0:0:0:
160,320,17506,1,8,0:0:0:0:
37,240,17706,1,2,0:1:0:0:
8,56,17906,6,0,B|53:50|53:50|93:54,1,85,2|2,0:0|0:1,0:0:0:0:
220,115,18306,1,8,0:0:0:0:
376,52,18506,2,0,P|334:56|285:37,1,85,2|2,0:1|0:0,0:0:0:0:
384,168,18906,2,0,P|421:149|474:149,1,85,2|8,0:1|0:0,0:0:0:0:
384,288,19306,1,8,0:0:0:0:
384,288,19406,1,8,0:0:0:0:
384,288,19506,6,0,P|314:258|207:297,1,170,6|8,0:0|0:0,0:0:0:0:
136,196,20106,1,2,0:1:0:0:
60,264,20306,2,0,P|62:307|57:349,1,85,2|2,0:0|0:1,0:0:0:0:
88,112,20706,2,0,P|86:69|91:27,1,85,8|2,0:0|0:1,0:0:0:0:
272,144,21106,6,0,P|200:119|208:24,1,170,2|8,0:0|0:0,0:0:0:0:
344,100,21706,2,0,P|360:140|348:184,1,85,2|2,0:1|0:0,0:0:0:0:
480,256,22106,2,0,P|464:296|476:340,1,85,2|8,0:1|0:0,0:0:0:0:
356,312,22506,1,8,0:0:0:0:
324,316,22606,1,8,0:0:0:0:
288,312,22706,6,0,B|248:328|204:308|204:308|164:292|108:320,1,170,6|8,0:0|0:0,0:0:0:0:
220,188,23306,1,2,0:1:0:0:
220,188,23406,1,0,0:0:0:0:
220,188,23506,1,2,0:0:0:0:
44,92,23706,1,2,0:1:0:0:
88,216,23906,1,8,0:0:0:0:
196,44,24106,1,2,0:1:0:0:
196,44,24206,1,0,0:0:0:0:
196,44,24306,6,0,P|236:32|288:48,1,85,6|2,0:0|0:1,0:0:0:0:
382,117,24706,1,8,0:0:0:0:
404,268,24906,2,0,B|403:224|440:184|440:184|400:216|360:200,1,170,2|8,0:1|0:0,0:0:0:0:
200,124,25506,1,8,0:0:0:0:
216,152,25606,1,8,0:0:0:0:
220,184,25706,1,8,0:0:0:0:
212,216,25806,1,8,0:0:0:0:
196,244,25906,6,0,B|148:228|96:244|96:244|60:208|124:184,1,170,6|8,0:0|0:0,0:0:0:0:
52,64,26506,1,2,0:1:0:0:
52,64,26606,1,0,0:0:0:0:
52,64,26706,2,0,L|147:53,1,85,2|2,0:0|0:1,0:0:0:0:
351,61,27106,1,8,0:0:0:0:
272,196,27306,1,2,0:1:0:0:
220,32,27506,6,0,P|308:8|352:68,1,170,2|8,0:0|0:0,0:0:0:0:
280,204,28106,1,2,0:1:0:0:
280,204,28206,1,0,0:0:0:0:
280,204,28306,2,0,P|320:213|363:199,1,85,2|2,0:0|0:1,0:0:0:0:
228,296,28706,2,0,P|187:286|144:300,1,85,8|2,0:0|0:1,0:0:0:0:
44,184,29106,6,0,B|52:144|52:144|40:100,1,85,4|8,0:0|0:0,0:0:0:0:
28,68,29406,1,8,0:0:0:0:
28,36,29506,1,8,0:0:0:0:
236,72,29706,2,0,B|268:28|268:28|264:96|264:96|280:156,1,170,4|2,0:0|0:0,0:0:0:0:
288,308,30306,6,0,P|208:300|196:224,1,170,4|2,0:0|0:1,0:0:0:0:
368,244,30906,2,0,P|409:249|464:224,1,85,8|2,0:3|0:0,0:0:0:0:
476,216,31206,1,8,0:0:0:0:
476,216,31306,1,8,0:0:0:0:
388,340,31506,5,2,0:0:0:0:
240,272,31706,1,8,0:0:0:0:
240,272,31806,1,8,0:0:0:0:
240,272,31906,1,8,0:0:0:0:
80,308,32106,1,8,0:0:0:0:
72,276,32206,1,8,0:0:0:0:
84,244,32306,6,0,B|92:204|92:204|84:148,1,85,4|2,0:0|0:1,0:0:0:0:
164,48,32706,1,8,0:0:0:0:
292,120,32906,1,2,0:1:0:0:
292,120,33006,1,0,0:0:0:0:
292,120,33106,1,2,0:0:0:0:
436,56,33306,1,2,0:1:0:0:
404,208,33506,2,0,B|448:213|448:213|488:205,1,85,8|2,0:0|0:1,0:0:0:0:
372,304,33906,6,0,B|332:296|332:296|288:301,1,85,2|2,0:0|0:1,0:0:0:0:
176,168,34306,1,8,0:0:0:0:
68,304,34506,1,2,0:1:0:0:
175,247,34706,2,0,P|188:208|176:168,1,85,2|2,0:0|0:1,0:0:0:0:
312,148,35106,1,8,0:0:0:0:
440,208,35306,1,2,0:1:0:0:
492,80,35506,6,0,B|408:44|408:104|308:60,1,170,4|8,0:0|0:0,0:0:0:0:
196,48,36106,1,2,0:1:0:0:
196,48,36206,1,0,0:0:0:0:
196,48,36306,1,2,0:0:0:0:
172,192,36506,1,2,0:1:0:0:
304,244,36706,2,0,B|344:252|344:252|392:240,1,85,8|2,0:0|0:1,0:0:0:0:
268,336,37106,6,0,P|224:328|152:336,1,85,4|8,0:0|0:0,0:0:0:0:
52,340,37506,1,8,0:0:0:0:
64,308,37606,1,8,0:0:0:0:
64,272,37706,1,8,0:0:0:0:
52,240,37806,1,8,0:0:0:0:
64,208,37906,6,0,P|68:176|60:140,3,42.5,8|8|8|8,0:0|0:0|0:0|0:0,0:0:0:0:
40,92,38306,2,0,P|64:88|112:92,3,42.5,8|8|8|8,0:0|0:0|0:0|0:0,0:0:0:0:
160,104,38706,6,0,B|208:96|208:96|304:112,1,127.500004863739,2|0,0:0|0:0,0:0:0:0:
361,49,39306,2,0,P|381:113|361:169,1,127.500004863739,2|0,0:0|0:0,0:0:0:0:
396,252,39906,2,0,P|392:284|404:328,1,63.7500024318696,2|0,0:0|0:0,0:0:0:0:
312,340,40306,6,0,B|280:336|280:336|232:340,1,63.7500024318696,2|0,0:0|0:0,0:0:0:0:
176,292,40706,1,0,0:0:0:0:
88,308,40906,1,2,0:0:0:0:
88,308,41106,2,0,P|48:280|68:200,1,127.500004863739,0|2,0:0|0:0,0:0:0:0:
60,32,41906,6,0,B|92:32|120:16|120:16|148:36|180:36,1,127.500004863739,2|0,0:0|0:0,0:0:0:0:
256,80,42506,2,0,P|316:100|380:76,1,127.500004863739,2|0,0:0|0:0,0:0:0:0:
452,36,43106,1,2,0:0:0:0:
452,36,43306,1,0,0:0:0:0:
484,120,43506,6,0,B|476:160|476:160|484:208|484:208|476:276,1,127.500004863739,2|2,0:0|0:0,0:0:0:0:
404,296,44106,1,0,0:0:0:0:
404,296,44306,2,0,P|344:312|288:260,1,127.500004863739,2|2,0:0|0:0,0:0:0:0:
128,328,45106,6,0,P|144:264|112:196,1,127.500004863739,2|0,0:0|0:0,0:0:0:0:
84,128,45706,2,0,B|148:108|148:140|212:124,1,127.500004863739,2|0,0:0|0:0,0:0:0:0:
176,36,46306,2,0,P|212:32|260:40,1,63.7500024318696,2|0,0:0|0:0,0:0:0:0:
328,88,46706,5,2,0:0:0:0:
392,20,46906,1,0,0:0:0:0:
436,104,47106,2,0,B|468:108|468:108|504:108,1,63.7500024318696,2|0,0:0|0:0,0:0:0:0:
408,200,47506,2,0,B|344:192|344:192|272:200,1,127.500004863739,2|2,0:0|0:0,0:0:0:0:
84,252,48306,6,0,P|128:232|192:284,1,127.500004863739,2|0,0:0|0:0,0:0:0:0:
272,300,48906,2,0,P|316:320|380:268,1,127.500004863739,2|0,0:0|0:0,0:0:0:0:
344,196,49506,1,2,0:0:0:0:
396,124,49706,1,0,0:0:0:0:
280,60,49906,6,0,B|244:80|188:80|160:52|160:52|124:16|72:16|24:44|8:104|32:148|76:168,1,382.500014591218,2|0,0:0|0:0,0:0:0:0:
176,260,51506,6,0,B|232:240|232:240|296:256|296:256|352:208|408:224|452:248|452:248|460:296|416:324|416:324|368:348|308:316,1,475.999985473633,2|2,0:0|0:0,0:0:0:0:
120,112,54143,6,0,P|172:120|228:88,1,110.499994941712,2|0,0:0|0:0,0:0:0:0:
337,28,54706,1,2,0:0:0:0:
349,40,55081,6,0,B|341:96|341:96|357:152|357:152|341:216,1,170,4|2,0:0|0:0,0:0:0:0:
296,336,55643,1,2,0:1:0:0:
176,264,55831,1,8,0:0:0:0:
36,280,56018,6,0,B|24:240|24:240|44:188,1,85,2|2,0:1|0:0,0:0:0:0:
112,60,56393,1,2,0:1:0:0:
212,132,56581,1,8,0:0:0:0:
356,88,56768,2,0,B|396:76|396:76|444:88,1,85,2|2,0:1|0:0,0:0:0:0:
396,256,57143,1,2,0:1:0:0:
271,199,57331,1,8,0:0:0:0:
128,248,57518,1,8,0:0:0:0:
128,248,57612,1,8,0:0:0:0:
128,248,57706,6,0,B|152:280|140:332|140:332|172:300|216:300,1,170,2|8,0:0|0:0,0:0:0:0:
344,308,58268,1,2,0:1:0:0:
270,119,58456,2,0,P|282:163|266:207,1,85,2|2,0:0|0:1,0:0:0:0:
104,152,58831,2,0,P|64:164|40:204,1,85,8|2,0:0|0:1,0:0:0:0:
40,228,59112,1,8,0:0:0:0:
56,256,59206,5,2,0:0:0:0:
212,286,59393,1,2,0:1:0:0:
172,96,59581,1,8,0:0:0:0:
368,148,59769,2,0,B|326:163|326:163|286:155,1,85,2|2,0:1|0:0,0:0:0:0:
212,286,60143,1,8,0:0:0:0:
384,324,60331,2,0,B|396:284|396:284|384:240,1,85,8|0,0:0|0:0,0:0:0:0:
484,84,60706,6,0,B|473:126|473:126|481:166,1,85,4|2,0:0|0:1,0:0:0:0:
468,331,61081,2,0,L|380:323,1,85,8|2,0:0|0:1,0:0:0:0:
328,172,61456,1,2,0:0:0:0:
192,124,61643,2,0,P|180:164|192:216,1,85,2|8,0:1|0:0,0:0:0:0:
48,304,62018,1,8,0:0:0:0:
48,304,62112,1,8,0:0:0:0:
48,304,62206,6,0,P|60:264|48:212,1,85,2|2,0:0|0:1,0:0:0:0:
80,84,62581,1,8,0:0:0:0:
236,96,62768,2,0,L|246:180,1,85,2|2,0:1|0:0,0:0:0:0:
368,152,63143,1,2,0:1:0:0:
448,304,63331,2,0,P|464:264|448:200,1,85,8|2,0:0|0:1,0:0:0:0:
332,312,63706,6,0,B|252:280|252:344|152:292,1,170,4|8,0:0|0:0,0:0:0:0:
80,128,64268,2,0,P|72:172|92:220,1,85,2|2,0:1|0:0,0:0:0:0:
220,236,64643,1,2,0:1:0:0:
304,48,64831,2,0,P|296:92|316:140,1,85,8|2,0:0|0:1,0:0:0:0:
452,48,65206,5,6,0:0:0:0:
408,232,65393,1,8,0:0:0:0:
376,220,65487,1,8,0:0:0:0:
340,220,65581,1,8,0:0:0:0:
200,152,65768,5,4,0:0:0:0:
69,257,65956,1,8,0:0:0:0:
55,225,66049,1,8,0:0:0:0:
60,191,66143,1,8,0:0:0:0:
138,330,66331,2,0,B|258:337,1,85,8|2,0:0|0:0,0:0:0:0:
368,364,66706,6,0,B|360:328|360:328|372:268,1,95.6250036478044,2|0,0:0|0:0,0:0:0:0:
424,216,67081,6,0,P|445:155|358:173,1,170,4|2,0:0|0:0,0:0:0:0:
280,36,67643,1,2,0:1:0:0:
172,120,67831,1,8,0:0:0:0:
228,288,68018,6,0,B|240:248|240:248|228:204,1,85,2|2,0:1|0:0,0:0:0:0:
40,156,68393,1,2,0:1:0:0:
108,280,68581,1,8,0:0:0:0:
172,120,68768,2,0,P|208:100|256:108,1,85,2|2,0:1|0:0,0:0:0:0:
320,236,69143,1,2,0:1:0:0:
352,52,69331,1,8,0:0:0:0:
459,197,69518,1,8,0:0:0:0:
459,197,69612,1,8,0:0:0:0:
459,197,69706,6,0,P|417:246|304:218,1,170,2|8,0:0|0:0,0:0:0:0:
108,268,70268,2,0,L|200:284,1,85,2|2,0:1|0:0,0:0:0:0:
352,124,70643,2,0,L|259:143,1,85,2|8,0:1|0:0,0:0:0:0:
128,60,71018,1,2,0:1:0:0:
31,170,71206,6,0,B|18:207|18:207|41:303|41:303|29:367,1,170,4|8,0:0|0:0,0:0:0:0:
168,232,71768,1,2,0:1:0:0:
384,348,71956,2,0,L|281:345,1,85,2|8,0:0|0:0,0:0:0:0:
264,340,72237,1,8,0:0:0:0:
232,336,72331,1,8,0:0:0:0:
220,120,72518,1,8,0:0:0:0:
224,88,72612,1,8,0:0:0:0:
228,56,72706,6,0,B|312:8|312:84|403:38,1,170,4|8,0:0|0:0,0:0:0:0:
468,208,73268,1,2,0:1:0:0:
280,152,73456,2,0,P|320:160|372:148,1,85,2|2,0:0|0:1,0:0:0:0:
252,256,73831,1,8,0:0:0:0:
128,136,74018,1,2,0:1:0:0:
0,232,74206,6,0,B|36:220|60:236|60:236|76:224|76:224|108:260|172:244,1,170,4|8,0:0|0:0,0:0:0:0:
216,56,74768,1,2,0:1:0:0:
320,216,74956,2,0,P|271:203|224:223,1,85,2|2,0:0|0:1,0:0:0:0:
144,336,75331,2,0,P|193:349|240:329,1,85,8|2,0:0|0:1,0:0:0:0:
380,356,75706,6,0,P|424:336|364:240,1,170,4|8,0:0|0:0,0:0:0:0:
328,60,76268,1,2,0:1:0:0:
300,248,76456,1,2,0:0:0:0:
472,184,76643,1,2,0:1:0:0:
320,156,76831,2,0,P|278:156|240:176,1,85,8|2,0:0|0:1,0:0:0:0:
52,272,77206,6,0,B|68:228|68:228|120:280|188:252,1,170,4|8,0:0|0:0,0:0:0:0:
320,316,77768,1,2,0:1:0:0:
320,156,77956,1,8,0:0:0:0:
312,124,78049,1,8,0:0:0:0:
320,92,78143,1,8,0:0:0:0:
468,160,78331,1,8,0:0:0:0:
476,192,78424,1,8,0:0:0:0:
468,224,78518,1,2,0:0:0:0:
220,199,79081,6,0,P|224:312|336:296,1,255,4|0,0:0|0:0,0:0:0:0:
272,256,80581,6,0,B|168:220|168:296|60:252,1,212.5,4|0,0:0|0:0,0:0:0:0:
84,100,81706,6,0,P|108:104|156:96,3,42.5,2|0|0|0,0:0|0:0|0:0|0:0,0:0:0:0:
200,136,82081,2,0,P|232:132|264:132,3,42.5,2|0|0|0,0:0|0:0|0:0|0:0,0:0:0:0:
304,80,82456,2,0,P|328:84|380:72,3,42.5,2|0|0|0,0:0|0:0|0:0|0:0,0:0:0:0:
388,76,82831,1,2,0:0:0:0:
428,86,82924,1,0,0:0:0:0:
457,115,83018,1,0,0:0:0:0:
472,156,83112,1,0,0:0:0:0:
460,196,83206,6,0,P|384:184|340:288,1,170,4|8,0:0|0:0,0:0:0:0:
108,292,83768,2,0,P|148:300|192:288,1,85,2|2,0:1|0:0,0:0:0:0:
316,136,84143,2,0,P|276:128|232:140,1,85,2|8,0:1|0:0,0:0:0:0:
88,156,84518,1,2,0:1:0:0:
40,48,84706,6,0,B|79:27|123:42|123:42|164:56|207:37,1,170,4|8,0:0|0:0,0:0:0:0:
276,208,85268,1,2,0:1:0:0:
392,96,85456,1,2,0:0:0:0:
376,264,85643,1,2,0:1:0:0:
196,176,85831,2,0,P|192:220|224:276,1,85,8|2,0:0|0:1,0:0:0:0:
60,340,86206,6,0,B|100:368|144:348|144:348|168:336|168:336|196:356|240:348,1,170,4|8,0:0|0:0,0:0:0:0:
400,268,86768,2,0,P|360:276|304:268,1,85,2|2,0:1|0:0,0:0:0:0:
248,152,87143,1,2,0:1:0:0:
88,244,87331,2,0,L|176:232,1,85,8|2,0:0|0:1,0:0:0:0:
76,60,87706,5,4,0:0:0:0:
188,108,87893,1,8,0:0:0:0:
220,104,87987,1,8,0:0:0:0:
256,104,88081,1,8,0:0:0:0:
288,112,88174,1,8,0:0:0:0:
320,128,88268,2,0,P|349:132|396:120,1,42.5,8|0,0:0|0:0,0:0:0:0:
488,96,88456,5,10,0:0:0:0:
480,128,88549,1,8,0:0:0:0:
472,160,88643,1,8,0:0:0:0:
464,192,88737,1,8,0:0:0:0:
456,224,88831,2,0,P|477:225|498:229,2,42.5,8|8|8,0:0|0:0|0:0,0:0:0:0:
340,348,89206,5,2,0:0:0:0:
236,260,89391,1,0,0:0:0:0:
336,148,89576,1,2,0:0:0:0:
212,252,89761,1,0,0:0:0:0:
164,100,89946,5,2,0:0:0:0:
280,208,90131,1,2,0:0:0:0:
136,288,90317,1,2,0:0:0:0:
304,224,90502,1,2,0:0:0:0:
