osu file format v14

[General]
AudioFilename: audio.mp3
AudioLeadIn: 0
PreviewTime: 54049
Countdown: 0
SampleSet: Soft
StackLeniency: 0.7
Mode: 0
LetterboxInBreaks: 0
WidescreenStoryboard: 0

[Editor]
DistanceSpacing: 1
BeatDivisor: 4
GridSize: 4
TimelineZoom: 2.2

[Metadata]
Title:Hyouri Ittai
TitleUnicode:表裏一体
Artist:YUZU
ArtistUnicode:ゆず
Creator:Cris-
Version:Easy
Source:HUNTER×HUNTER
Tags:wolf3211 ハンター×ハンター HxH HUNTERxHUNTER 2011 Chimera Ant Ending 5 TV Size Two Sides of the Same Coin Madhouse
BeatmapID:1229106
BeatmapSetID:580549

[Difficulty]
HPDrainRate:2
CircleSize:3
OverallDifficulty:2
ApproachRate:3
SliderMultiplier:0.9
SliderTickRate:1

[Events]
//Background and Video events
0,0,"Gungi.jpg",0,0
Video,12806,"HxH Ending.avi"
//Break Periods
//Storyboard Layer 0 (Background)
//Storyboard Layer 1 (Fail)
//Storyboard Layer 2 (Pass)
//Storyboard Layer 3 (Foreground)
//Storyboard Sound Samples

[TimingPoints]
306,400,4,2,2,40,1,0
13106,-100,4,2,1,50,0,0
38706,-100,4,2,2,40,0,0
49906,-100,4,2,2,35,0,0
53206,375,4,2,2,30,1,0
55081,-100,4,2,1,70,0,1
66706,-100,4,2,1,40,0,0
67081,-100,4,2,1,70,0,1
80206,-100,4,2,1,45,0,1
80581,-100,4,2,1,70,0,1
81331,-100,4,2,1,30,0,1
81706,-100,4,2,2,45,0,0
83206,-100,4,2,1,70,0,0
89206,370.37037037037,4,2,2,60,1,0

[Colours]
Combo1 : 221,194,185
Combo2 : 53,133,33
Combo3 : 235,175,175
Combo4 : 118,186,95

[HitObjects]
324,80,306,6,0,P|348:160|316:216,2,135,2|2|2,0:0|0:0|0:0,0:0:0:0:
260,144,1906,2,0,P|196:160|128:144,2,135,2|2|0,0:0|0:0|0:0,0:0:0:0:
329,203,3506,6,0,B|337:235|337:235|321:307|321:307|329:347,2,135,2|2|2,0:0|0:0|0:0,0:0:0:0:
260,144,5106,2,0,B|252:112|252:112|268:40|268:40|260:0,2,135,2|2|0,0:0|0:0|0:0,0:0:0:0:
204,216,6706,6,0,P|140:232|72:216,2,135,2|2|2,0:0|0:0|0:0,0:0:0:0:
260,144,8306,2,0,P|328:128|392:144,2,135,2|2|0,0:0|0:0|0:0,0:0:0:0:
204,72,9906,6,0,L|68:80,2,135,2|2|2,0:0|0:0|0:0,0:0:0:0:
260,144,11506,2,0,L|396:152,2,135,2|2|0,0:0|0:0|0:0,0:0:0:0:
176,180,13106,6,0,P|136:216|160:328,1,180,4|2,0:0|0:0,0:0:0:0:
244,360,14306,1,8,0:0:0:0:
316,304,14706,2,0,P|356:312|404:304,1,90,2|8,0:0|0:0,0:0:0:0:
404,216,15506,2,0,P|364:208|316:216,1,90,2|8,0:0|0:0,0:0:0:0:
236,264,16306,6,0,P|224:224|232:168,1,89.9999999999999,2|8,0:0|0:0,0:0:0:0:
284,104,17106,2,0,P|244:88|196:88,1,90,2|8,0:0|0:0,0:0:0:0:
116,128,17906,2,0,P|44:128|60:280,1,270,2|8,0:0|0:0,0:0:0:0:
140,320,19506,6,0,B|188:296|228:320|228:320|204:280|228:232,1,180,6|2,0:0|0:0,0:0:0:0:
276,160,20706,1,8,0:0:0:0:
320,80,21106,2,0,P|276:68|232:80,1,90,2|8,0:0|0:0,0:0:0:0:
159,132,21906,2,0,P|116:143|72:133,1,90,2|8,0:0|0:0,0:0:0:0:
24,56,22706,6,0,P|-16:132|24:212,1,180,4|2,0:0|0:0,0:0:0:0:
100,260,23906,1,8,0:0:0:0:
176,212,24306,2,0,B|228:204|248:108|248:108|272:204|324:212,1,270,4|8,0:0|0:0,0:0:0:0:
408,244,25906,5,4,0:0:0:0:
468,176,26306,1,8,0:0:0:0:
468,88,26706,2,0,P|468:40|492:8,2,90,2|8|2,0:0|0:0|0:0,0:0:0:0:
468,176,27906,1,8,0:0:0:0:
408,244,28306,2,0,P|368:232|320:244,1,90,2|8,0:0|0:0,0:0:0:0:
240,284,29106,6,0,P|192:244|176:176,1,135,4|4,0:0|0:0,0:0:0:0:
252,64,30306,2,0,B|328:20|396:96|396:96|352:132|360:192,1,270,4|2,0:0|0:0,0:0:0:0:
412,264,31906,1,8,0:0:0:0:
360,336,32306,6,0,B|272:308|272:368|184:336,1,180,4|2,0:0|0:0,0:0:0:0:
100,304,33506,1,8,0:0:0:0:
20,264,33906,2,0,P|12:220|20:176,1,90,2|8,0:0|0:0,0:0:0:0:
64,96,34706,1,2,0:0:0:0:
140,148,35106,1,8,0:0:0:0:
216,96,35506,6,0,P|256:88|304:96,1,90,4|8,0:0|0:0,0:0:0:0:
376,152,36306,2,0,P|388:184|376:248,1,90,2|8,0:0|0:0,0:0:0:0:
300,200,37106,2,0,B|172:264|172:128|44:192,1,270,4|8,0:0|0:0,0:0:0:0:
44,280,38706,6,0,P|100:312|172:304,2,135,2|2|2,0:0|0:0|0:0,0:0:0:0:
44,191,40306,2,0,P|100:120|188:128,1,180,2|0,0:0|0:0,0:0:0:0:
260,172,41506,1,2,0:0:0:0:
340,124,41906,6,0,B|376:212|308:212|340:300,1,180,2|0,0:0|0:0,0:0:0:0:
412,356,43106,1,2,0:0:0:0:
484,300,43506,2,0,P|508:240|484:176,2,135,2|0|2,0:0|0:0|0:0,0:0:0:0:
416,240,45106,6,0,B|348:284|296:220|296:220|344:160|300:96,1,270,2|2,0:0|0:0,0:0:0:0:
232,156,46706,2,0,B|168:180|168:132|100:156,2,135,2|0|2,0:0|0:0|0:0,0:0:0:0:
300,96,48306,6,0,B|372:128|423:66|423:66|388:136|436:192,1,270,2|2,0:0|0:0,0:0:0:0:
256,192,49906,12,2,53106,0:0:0:0:
56,312,55081,6,0,B|96:224|24:224|55:138,1,180,4|8,0:0|0:0,0:0:0:0:
124,80,56206,2,0,P|164:72|212:80,1,90,2|8,0:0|0:0,0:0:0:0:
284,136,56956,2,0,P|292:176|284:224,1,90,2|8,0:0|0:0,0:0:0:0:
264,312,57706,6,0,P|344:344|432:312,1,180,2|2,0:0|0:0,0:0:0:0:
480,240,58831,1,8,0:0:0:0:
432,164,59206,2,0,P|392:156|344:164,1,90,2|8,0:0|0:0,0:0:0:0:
264,208,59956,2,0,P|224:216|176:208,1,90,2|8,0:0|0:0,0:0:0:0:
96,160,60706,5,4,0:0:0:0:
40,232,61081,2,0,P|8:176|60:76,1,180,8|8,0:0|0:0,0:0:0:0:
96,160,62206,2,0,P|136:144|168:104,1,90,2|8,0:0|0:0,0:0:0:0:
224,40,62956,2,0,P|268:32|312:40,1,90,2|8,0:0|0:0,0:0:0:0:
392,84,63706,6,0,P|436:92|480:84,2,90,4|8|2,0:0|0:0|0:0,0:0:0:0:
312,40,64831,1,8,0:0:0:0:
256,112,65206,2,0,B|232:176|280:176|256:244,2,135,4|4|8,0:0|0:0|0:0,0:0:0:0:
312,40,66706,1,2,0:0:0:0:
392,84,67081,6,0,P|448:140|432:236,1,180,4|8,0:0|0:0,0:0:0:0:
376,304,68206,2,0,P|336:312|288:304,1,90,2|8,0:0|0:0,0:0:0:0:
231,231,68956,2,0,P|191:223|143:231,1,90,2|8,0:0|0:0,0:0:0:0:
88,304,69706,6,0,P|44:312|0:304,2,90,2|8|2,0:0|0:0|0:0,0:0:0:0:
142,231,70831,1,8,0:0:0:0:
232,232,71206,2,0,P|240:192|232:144,1,90,4|8,0:0|0:0,0:0:0:0:
160,88,71956,2,0,P|112:80|72:88,1,90,2|8,0:0|0:0,0:0:0:0:
12,156,72706,6,0,P|12:256|76:288,1,180,4|2,0:0|0:0,0:0:0:0:
148,236,73831,1,8,0:0:0:0:
148,148,74206,2,0,B|236:112|236:184|324:148,1,180,4|2,0:0|0:0,0:0:0:0:
396,96,75331,1,8,0:0:0:0:
468,148,75706,6,0,P|476:196|468:236,2,90,4|8|2,0:0|0:0|0:0,0:0:0:0:
396,96,76831,1,8,0:0:0:0:
308,96,77206,2,0,P|264:88|220:96,1,90,4|8,0:0|0:0,0:0:0:0:
136,132,77956,2,0,P|108:192|136:252,1,135,8|2,0:0|0:0,0:0:0:0:
228,348,79081,6,0,B|296:372|344:304|344:304|396:372|460:348,1,270,4|0,0:0|0:0,0:0:0:0:
460,256,80581,6,0,B|428:168|496:168|460:80,1,180,4|0,0:0|0:0,0:0:0:0:
396,16,81706,1,2,0:0:0:0:
332,80,82081,2,0,P|288:88|244:80,1,90,2|2,0:0|0:0,0:0:0:0:
180,16,82831,1,2,0:0:0:0:
116,80,83206,6,0,P|104:120|116:168,2,90,4|8|2,0:0|0:0|0:0,0:0:0:0:
180,16,84331,1,8,0:0:0:0:
244,80,84706,2,0,P|256:124|244:168,1,90,4|8,0:0|0:0,0:0:0:0:
200,244,85456,2,0,P|188:288|200:332,1,90,2|8,0:0|0:0,0:0:0:0:
280,372,86206,6,0,L|368:356,1,90,4|8,0:0|0:0,0:0:0:0:
452,324,86956,2,0,L|436:236,1,90,2|8,0:0|0:0,0:0:0:0:
256,192,87706,12,2,89206,0:0:0:0:
