osu file format v14

[General]
AudioFilename: audio.mp3
AudioLeadIn: 0
PreviewTime: 72122
Countdown: 0
SampleSet: Soft
StackLeniency: 0.7
Mode: 0
LetterboxInBreaks: 0
WidescreenStoryboard: 1

[Editor]
Bookmarks: 33752,63597,93441
DistanceSpacing: 0.6
BeatDivisor: 4
GridSize: 8
TimelineZoom: 1.4

[Metadata]
Title:Kinou ni Kanaderu Ashita no Uta (Cut Ver.)
TitleUnicode:昨日に奏でる明日の歌 (Cut Ver.)
Artist:YURiMental
ArtistUnicode:YURiMental
Creator:momothx
Version:RalkSevia's Extra
Source:
Tags:ユリメンタル love virus Love♡Virus DiVE↓ j-pop jpop pop xi japanese FreedomDive Freedom dive jpop Tomorrow's Song Played Yesterday Ralkinson Reisevia clubber banter HatsuneMikuFEET
BeatmapID:3120225
BeatmapSetID:1507386

[Difficulty]
HPDrainRate:5
CircleSize:3.8
OverallDifficulty:8.4
ApproachRate:9.2
SliderMultiplier:1.6
SliderTickRate:1

[Events]
//Background and Video events
0,0,"BG.jpg",0,0
//Break Periods
//Storyboard Layer 0 (Background)
//Storyboard Layer 1 (Fail)
//Storyboard Layer 2 (Pass)
//Storyboard Layer 3 (Foreground)
//Storyboard Layer 4 (Overlay)
//Storyboard Sound Samples

[TimingPoints]
2641,310.880829015544,4,2,1,80,1,0
4506,-90.9090909090909,4,2,1,80,0,0
5128,-100,4,2,1,80,0,0
12580,-100,4,2,1,70,0,0
12589,-125,4,2,1,70,0,0
15853,-117.647058823529,4,2,1,70,0,0
16164,-125,4,2,1,70,0,0
34894,-125,4,2,1,5,0,0
34972,-125,4,2,1,70,0,0
39868,-125,4,2,1,5,0,0
39946,-125,4,2,1,70,0,0
45387,-100,4,2,1,70,0,0
46008,-125,4,2,1,70,0,0
52381,-133.333333333333,4,2,1,70,0,0
62330,-105.263157894737,4,2,1,70,0,0
70879,-90.9090909090909,4,2,1,70,0,0
72278,-83.3333333333333,4,2,1,90,0,0
99014,-100,4,2,1,90,0,0
99635,-83.3333333333333,4,2,1,90,0,0
110672,-66.6666666666667,4,2,1,90,0,0
111284,-66.6666666666667,4,2,1,100,0,0
111293,-66.6666666666667,4,2,1,100,0,0
112071,-100,4,2,1,100,0,0
122019,-106.382978723404,4,2,1,100,0,0

[Colours]
Combo1 : 132,193,255
Combo2 : 192,238,100
Combo3 : 255,177,100
Combo4 : 252,225,143

[HitObjects]
357,145,2641,6,0,P|337:222|333:311,1,160,4|8,0:0|2:0,0:0:0:0:
149,243,3108,2,0,P|145:197|128:148,1,80,2|0,2:0|3:0,0:0:0:0:
218,357,3419,1,2,2:0:0:0:
34,285,3574,1,8,2:0:0:0:
243,207,3730,1,2,2:0:0:0:
0,112,3885,6,0,P|53:167|128:151,1,160,2|8,3:2|2:0,0:0:0:0:
248,7,4351,1,2,2:0:0:0:
248,7,4429,1,0,0:0:0:0:
248,7,4507,2,0,L|233:98,1,88.000002685547,0|2,3:0|2:0,0:0:0:0:
362,53,4818,2,0,L|347:144,1,88.000002685547,10|0,2:0|0:0,0:0:0:0:
243,207,5129,6,0,L|256:285,1,80,2|0,3:2|0:0,0:0:0:0:
259,296,5362,1,0,0:0:0:0:
261,307,5439,1,8,2:0:0:0:
475,305,5595,2,0,P|428:243|351:242,1,160,2|2,2:0|2:0,0:0:0:0:
175,384,6061,1,8,2:0:0:0:
367,342,6217,1,2,2:0:0:0:
209,185,6372,1,2,3:2:0:0:
209,185,6683,5,8,2:0:0:0:
204,213,6787,5,2,2:0:0:0:
199,242,6890,5,2,2:0:0:0:
194,271,6994,6,0,L|178:376,1,80,0|8,3:0|2:0,0:0:0:0:
305,268,7305,1,8,2:0:0:0:
85,299,7460,1,8,2:0:0:0:
85,299,7538,1,8,2:0:0:0:
85,299,7616,6,0,L|60:140,1,160,6|8,3:2|2:0,0:0:0:0:
262,116,8082,2,0,P|268:75|286:39,1,80,2|0,2:0|3:0,0:0:0:0:
175,199,8393,1,2,2:0:0:0:
88,30,8548,2,0,P|124:46|163:52,1,80,8|2,2:0|2:0,0:0:0:0:
380,108,8859,5,0,3:0:0:0:
179,217,9015,1,2,2:0:0:0:
284,40,9170,1,8,2:0:0:0:
421,241,9325,2,0,P|349:205|271:188,1,160,2|2,2:0|2:0,0:0:0:0:
338,313,9792,1,8,2:0:0:0:
479,147,9947,1,2,2:0:0:0:
251,68,10103,6,0,L|264:146,1,80,0|0,3:0|0:0,0:0:0:0:
267,157,10336,1,0,3:0:0:0:
269,168,10413,1,8,2:0:0:0:
108,335,10569,2,0,P|158:275|235:267,1,160,2|2,2:0|3:2,0:0:0:0:
443,367,11035,1,10,2:0:0:0:
353,225,11191,6,0,L|330:383,1,160,2|10,3:2|2:0,0:0:0:0:
455,271,11657,1,8,2:0:0:0:
227,340,11812,2,0,L|204:181,1,160,2|0,3:2|3:0,0:0:0:0:
237,84,12279,1,8,2:0:0:0:
251,58,12357,1,8,2:0:0:0:
273,38,12434,1,8,2:0:0:0:
302,28,12512,1,8,2:0:0:0:
332,29,12590,6,0,L|395:38,1,64,6|0,3:2|0:0,0:0:0:0:
491,104,12901,1,0,3:0:0:0:
324,194,13056,2,0,L|333:131,1,64,2|0,2:0|3:0,0:0:0:0:
442,255,13367,2,0,L|433:192,1,64,2|0,2:0|3:0,0:0:0:0:
234,245,13678,6,0,P|276:291|339:296,1,128,2|0,2:0|0:0,0:0:0:0:
244,137,14144,2,0,L|181:128,1,64,2|0,3:2|0:0,0:0:0:0:
69,233,14455,2,0,P|100:236|128:222,1,64,2|0,3:2|0:0,0:0:0:0:
72,66,14766,2,0,L|81:129,1,64,2|0,3:2|0:0,0:0:0:0:
234,245,15077,6,0,L|225:308,1,64,2|0,3:2|0:0,0:0:0:0:
122,340,15388,1,2,3:2:0:0:
334,379,15543,2,0,L|325:316,1,64,2|0,2:0|3:0,0:0:0:0:
467,180,15854,2,0,L|478:109,1,68.0000012969971,2|0,2:0|3:0,0:0:0:0:
451,275,16165,6,0,B|415:270|387:256|404:237|370:220|330:216,1,128,2|0,2:0|0:0,0:0:0:0:
241,179,16631,1,0,3:0:0:0:
153,232,16787,1,0,0:0:0:0:
248,163,16942,2,0,L|257:100,1,64,0|0,3:0|0:0,0:0:0:0:
146,134,17253,5,2,3:2:0:0:
253,272,17408,1,2,2:0:0:0:
60,305,17564,2,0,P|119:286|152:233,1,128,2|0,3:2|3:0,0:0:0:0:
266,373,18030,2,0,P|234:374|200:357,1,64,2|0,2:0|3:0,0:0:0:0:
359,299,18341,2,0,L|368:362,1,64,2|0,2:0|3:0,0:0:0:0:
253,272,18652,6,0,P|274:210|278:146,1,128,2|0,2:0|0:0,0:0:0:0:
181,18,19118,2,0,P|183:49|193:80,1,64,2|0,3:2|0:0,0:0:0:0:
294,50,19429,2,0,L|357:41,1,64,2|0,3:2|0:0,0:0:0:0:
181,177,19740,2,0,L|118:186,1,64,2|0,3:2|0:0,0:0:0:0:
278,147,20051,6,0,P|341:154|401:177,1,128,2|2,3:2|3:2,0:0:0:0:
269,304,20517,2,0,P|266:272|256:241,1,64,2|0,2:0|3:0,0:0:0:0:
472,272,20828,2,0,P|474:303|484:334,1,64,2|0,2:0|3:0,0:0:0:0:
369,314,21139,6,0,P|373:250|393:189,1,128,2|0,2:0|0:0,0:0:0:0:
504,20,21605,2,0,L|441:29,1,64,0|0,3:0|0:0,0:0:0:0:
303,89,21916,2,0,L|366:98,1,64,0|0,3:0|0:0,0:0:0:0:
498,216,22227,1,2,3:2:0:0:
469,123,22382,1,2,2:0:0:0:
392,189,22538,6,0,P|329:196|269:219,1,128,2|2,3:2|3:2,0:0:0:0:
254,114,23004,2,0,P|256:82|266:51,1,64,2|0,2:0|3:0,0:0:0:0:
173,173,23315,2,0,P|171:205|161:236,1,64,2|0,2:0|3:0,0:0:0:0:
45,46,23626,6,0,P|105:33|151:74,1,128,2|0,2:0|0:0,0:0:0:0:
45,208,24092,2,0,P|54:177|56:145,1,64,0|0,3:0|0:0,0:0:0:0:
80,308,24403,2,0,L|17:317,1,64,0|0,3:0|0:0,0:0:0:0:
144,228,24714,1,2,3:2:0:0:
168,366,24869,1,2,2:0:0:0:
232,284,25025,6,0,B|307:295|264:318|351:334,1,128,2|2,3:2|3:2,0:0:0:0:
458,286,25491,2,0,P|448:316|446:348,1,64,2|0,2:0|3:0,0:0:0:0:
358,227,25802,2,0,P|367:196|369:164,1,64,2|0,2:0|3:0,0:0:0:0:
484,184,26113,6,0,P|464:123|460:59,1,128,2|0,2:0|0:0,0:0:0:0:
292,57,26579,2,0,L|355:66,1,64,0|0,3:0|0:0,0:0:0:0:
267,155,26890,2,0,L|204:164,1,64,0|0,3:0|0:0,0:0:0:0:
91,48,27201,1,2,3:2:0:0:
192,65,27357,1,2,2:0:0:0:
102,153,27512,6,0,L|91:230,1,64,2|0,3:2|0:0,0:0:0:0:
66,292,27823,2,0,L|75:229,1,64,0|0,3:0|0:0,0:0:0:0:
185,194,28134,6,0,L|195:268,1,64,2|0,3:2|0:0,0:0:0:0:
227,357,28445,2,0,L|216:282,1,64,0|0,3:0|0:0,0:0:0:0:
392,133,28755,6,0,L|383:196,1,64,2|0,3:2|0:0,0:0:0:0:
313,327,29066,2,0,L|322:263,1,64,0|0,3:0|0:0,0:0:0:0:
270,112,29377,6,0,L|279:175,1,64,2|0,3:2|0:0,0:0:0:0:
426,350,29688,2,0,L|416:286,1,64,0|0,3:0|0:0,0:0:0:0:
472,128,29999,6,0,P|428:182|365:165,1,128,2|2,3:2|3:2,0:0:0:0:
301,31,30465,1,2,2:0:0:0:
387,77,30621,1,0,3:0:0:0:
254,131,30776,1,2,3:2:0:0:
265,129,30854,1,0,3:2:0:0:
277,127,30932,1,0,3:0:0:0:
207,43,31087,6,0,P|141:69|78:73,1,128,10|8,2:0|2:0,0:0:0:0:
151,232,31553,2,0,P|152:200|162:169,1,64,0|0,3:0|3:0,0:0:0:0:
58,184,31864,1,0,3:0:0:0:
250,220,32020,2,0,L|281:224,1,32,10|8,3:2|3:2,0:0:0:0:
213,328,32175,1,8,3:2:0:0:
189,331,32253,1,8,3:2:0:0:
165,334,32331,1,10,3:2:0:0:
141,338,32408,1,8,3:2:0:0:
117,341,32486,6,0,P|88:288|123:204,1,128,4|10,3:2|2:0,0:0:0:0:
164,116,32952,2,0,L|156:47,1,64,2|0,2:0|3:0,0:0:0:0:
283,155,33263,2,0,P|333:164|418:178,1,128,2|2,2:0|2:0,0:0:0:0:
470,131,33652,1,0,0:0:0:0:
475,127,33730,2,0,P|481:87|460:51,1,64,0|0,3:0|0:0,0:0:0:0:
344,248,34040,6,0,L|356:336,1,64,10|0,2:0|0:0,0:0:0:0:
297,373,34351,2,0,P|261:379|227:361,1,64,2|0,3:2|0:0,0:0:0:0:
127,296,34662,2,0,L|221:281,1,96,10|0,2:0|0:0,0:0:0:0:
231,271,34973,6,0,P|237:235|218:193,1,64,2|0,3:2|0:0,0:0:0:0:
182,125,35284,1,10,2:0:0:0:
182,125,35439,2,0,L|192:54,1,64,2|0,2:0|3:0,0:0:0:0:
94,167,35750,2,0,P|59:157|24:154,1,64,2|8,2:0|2:0,0:0:0:0:
275,91,36061,1,2,2:0:0:0:
275,91,36217,6,0,L|428:118,1,128,0|8,3:0|2:0,0:0:0:0:
493,143,36683,2,0,P|484:109|481:79,1,64,0|0,0:0|3:0,0:0:0:0:
359,256,36994,2,0,P|368:290|371:320,1,64,0|10,0:0|2:0,0:0:0:0:
452,231,37305,1,2,2:0:0:0:
277,306,37460,6,0,B|211:306|224:260|124:291,1,128,2|10,3:2|2:0,0:0:0:0:
111,384,37926,2,0,P|151:372|188:371,1,64,2|0,2:0|3:0,0:0:0:0:
334,221,38237,2,0,P|302:218|272:208,1,64,2|8,2:0|2:0,0:0:0:0:
123,39,38548,6,0,P|174:40|188:111,1,128,2|0,2:0|0:0,0:0:0:0:
96,196,39015,2,0,P|95:163|85:126,1,64,10|0,2:0|0:0,0:0:0:0:
196,287,39325,2,0,L|181:369,1,64,2|0,3:2|0:0,0:0:0:0:
308,277,39636,2,0,L|416:263,1,96,10|0,2:0|0:0,0:0:0:0:
417,251,39947,6,0,P|389:241|346:252,1,64,2|0,3:2|0:0,0:0:0:0:
262,354,40258,1,10,2:0:0:0:
262,354,40414,2,0,P|266:316|281:268,1,64,2|0,2:0|3:0,0:0:0:0:
125,133,40724,2,0,P|121:171|106:219,1,64,2|8,2:0|2:0,0:0:0:0:
285,126,41035,1,2,2:0:0:0:
285,126,41191,2,0,P|276:65|266:-10,2,128,0|8|0,3:0|2:0|3:0,0:0:0:0:
378,40,41968,5,8,2:0:0:0:
175,142,42123,1,10,2:0:0:0:
399,230,42279,1,10,2:0:0:0:
405,232,42357,1,8,2:0:0:0:
411,236,42434,2,0,P|417:199|425:152,1,64,6|0,3:2|0:0,0:0:0:0:
278,269,42745,1,8,2:0:0:0:
410,353,42901,2,0,P|437:345|490:342,1,64,2|0,2:0|3:0,0:0:0:0:
278,269,43211,2,0,P|223:264|180:318,1,128,2|2,2:0|2:0,0:0:0:0:
86,384,43678,6,0,P|84:356|75:316,1,64,0|0,3:0|0:0,0:0:0:0:
214,175,43989,2,0,P|207:206|204:238,1,64,8|0,2:0|0:0,0:0:0:0:
288,313,44300,2,0,P|320:308|356:302,1,64,0|0,3:0|0:0,0:0:0:0:
491,180,44610,1,10,2:0:0:0:
419,371,44766,1,2,2:0:0:0:
324,162,44921,5,6,3:2:0:0:
512,278,45077,1,0,3:2:0:0:
512,278,45154,1,0,3:2:0:0:
512,278,45232,1,8,2:0:0:0:
327,368,45388,2,0,P|286:362|232:354,1,80,2|0,3:2|3:0,0:0:0:0:
96,230,45698,1,2,3:2:0:0:
286,196,45854,1,10,2:0:0:0:
210,269,46009,6,0,P|183:196|184:125,1,128,6|0,2:0|3:2,0:0:0:0:
286,196,46476,1,8,2:0:0:0:
286,196,46787,5,0,3:0:0:0:
78,294,46942,1,2,3:2:0:0:
297,373,47097,1,10,2:0:0:0:
166,163,47253,5,8,2:0:0:0:
164,157,47331,1,8,2:0:0:0:
160,151,47408,2,0,L|166:73,1,64,6|0,3:2|0:0,0:0:0:0:
302,206,47719,2,0,P|350:194|388:196,1,64,8|0,2:0|0:0,0:0:0:0:
463,157,48030,6,0,P|456:188|451:222,1,64,2|0,3:2|0:0,0:0:0:0:
313,384,48341,2,0,P|309:353|302:322,1,64,10|0,2:0|0:0,0:0:0:0:
488,327,48652,6,0,P|454:339|424:333,1,64,6|0,3:2|0:0,0:0:0:0:
283,185,48963,2,0,P|317:173|347:179,1,64,10|0,2:0|0:0,0:0:0:0:
215,266,49274,6,0,L|147:258,1,64,2|0,3:2|0:0,0:0:0:0:
33,365,49585,2,0,L|97:354,1,64,10|0,2:0|0:0,0:0:0:0:
222,117,49895,6,0,P|185:72|104:94,1,128,6|8,3:2|2:0,0:0:0:0:
60,295,50362,1,2,2:0:0:0:
236,230,50517,2,0,P|301:221|387:209,1,128,2|8,3:2|2:0,0:0:0:0:
458,195,50983,1,0,0:0:0:0:
293,124,51139,5,0,3:0:0:0:
422,301,51294,1,8,3:2:0:0:
479,86,51450,1,8,2:0:0:0:
277,266,51605,5,0,3:2:0:0:
272,271,51683,1,0,3:2:0:0:
267,276,51761,2,0,L|175:265,1,64,8|0,3:2|3:2,0:0:0:0:
39,369,52072,1,8,2:0:0:0:
59,376,52149,1,8,3:2:0:0:
81,374,52227,1,8,2:0:0:0:
100,362,52305,1,8,2:0:0:0:
110,342,52382,6,0,L|96:210,1,120.000004577637,4|0,3:2|0:0,0:0:0:0:
141,149,52849,1,2,3:2:0:0:
141,149,53004,2,0,P|204:142|254:177,1,120.000004577637,2|8,3:2|2:0,0:0:0:0:
291,254,53471,1,2,3:2:0:0:
291,254,53626,2,0,P|247:260|226:267,1,60.0000022888184,2|8,2:0|2:0,0:0:0:0:
339,134,53937,2,0,P|367:141|397:144,1,60.0000022888184,2|0,2:0|3:0,0:0:0:0:
467,214,54248,2,0,P|485:265|451:332,1,120.000004577637,10|2,2:0|3:2,0:0:0:0:
387,384,54714,1,0,0:0:0:0:
387,384,54869,6,0,B|303:408|302:311|199:360,1,180.000006866455,6|0,3:2|3:0,0:0:0:0:
120,326,55491,1,0,3:0:0:0:
120,326,55647,2,0,P|130:364|133:390,2,60.0000022888184,2|10|2,2:0|2:0|3:2,0:0:0:0:
208,107,56268,5,8,2:0:0:0:
208,107,56424,2,0,L|124:120,1,60.0000022888184,2|0,2:0|3:0,0:0:0:0:
282,192,56735,2,0,L|410:172,1,120.000004577637,10|2,2:2|3:2,0:0:0:0:
487,218,57201,1,0,3:2:0:0:
400,173,57357,6,0,B|341:178|343:130|262:160,1,120.000004577637,6|0,3:2|0:0,0:0:0:0:
228,223,57823,1,2,3:2:0:0:
228,223,57978,2,0,P|236:277|246:345,1,120.000004577637,2|8,3:2|2:0,0:0:0:0:
153,373,58445,1,2,3:2:0:0:
153,373,58600,2,0,P|120:377|85:357,1,60.0000022888184,2|8,2:0|2:0,0:0:0:0:
54,280,58911,2,0,L|63:202,1,60.0000022888184,2|0,2:0|3:0,0:0:0:0:
29,128,59222,2,0,P|16:89|79:26,1,120.000004577637,10|2,2:0|3:2,0:0:0:0:
187,153,59844,6,0,P|268:141|373:126,1,180.000006866455,6|0,3:2|3:0,0:0:0:0:
455,145,60465,1,0,3:0:0:0:
455,145,60621,2,0,P|445:100|442:79,1,60.0000022888184,2|10,2:0|2:0,0:0:0:0:
325,216,60932,2,0,P|302:263|335:340,1,120.000004577637,2|8,3:2|2:0,0:0:0:0:
397,383,61398,2,0,P|402:335|411:307,1,60.0000022888184,2|0,2:0|3:0,0:0:0:0:
493,286,61709,1,10,2:0:0:0:
295,338,61864,1,8,3:2:0:0:
283,324,61942,1,0,3:2:0:0:
268,314,62020,1,2,3:2:0:0:
251,307,62097,1,0,3:2:0:0:
234,303,62175,1,8,3:2:0:0:
216,304,62253,1,8,3:2:0:0:
198,308,62331,6,0,L|118:320,1,75.9999979705811,4|0,3:2|0:0,0:0:0:0:
257,205,62641,2,0,L|332:193,1,75.9999979705811,8|0,2:0|0:0,0:0:0:0:
32,154,62952,2,0,P|106:153|151:221,1,151.999995941162,0|10,3:0|2:0,0:0:0:0:
213,107,63419,1,2,2:0:0:0:
55,255,63574,6,0,P|51:292|40:329,1,75.9999979705811,2|0,3:2|0:0,0:0:0:0:
253,364,63885,2,0,P|242:327|237:289,1,75.9999979705811,10|0,2:0|0:0,0:0:0:0:
291,187,64196,1,2,3:2:0:0:
143,336,64351,1,0,0:0:0:0:
349,281,64507,2,0,L|424:269,1,75.9999979705811,10|0,2:0|0:0,0:0:0:0:
511,159,64818,6,0,P|432:156|362:118,1,151.999995941162,2|8,3:2|2:0,0:0:0:0:
185,180,65284,1,2,2:0:0:0:
248,32,65439,2,0,L|260:107,1,75.9999979705811,2|0,3:2|0:0,0:0:0:0:
374,250,65750,1,10,2:0:0:0:
163,269,65906,6,0,P|200:211|275:221,1,151.999995941162,2|0,2:0|0:0,0:0:0:0:
336,355,66372,2,0,P|304:336|264:330,1,75.9999979705811,8|0,2:0|0:0,0:0:0:0:
363,149,66683,1,0,3:0:0:0:
447,357,66838,1,10,2:0:0:0:
274,220,66994,1,10,2:0:0:0:
471,181,67149,1,10,2:0:0:0:
471,181,67227,1,8,2:0:0:0:
471,181,67305,6,0,P|452:242|457:280,1,75.9999979705811,4|0,3:2|0:0,0:0:0:0:
429,72,67616,2,0,P|466:68|501:53,1,75.9999979705811,10|0,2:0|0:0,0:0:0:0:
363,149,67926,2,0,P|325:152|290:167,1,75.9999979705811,2|0,3:2|0:0,0:0:0:0:
324,51,68237,1,10,2:0:0:0:
353,251,68393,1,10,2:0:0:0:
223,84,68548,6,0,L|148:72,1,75.9999979705811,4|0,3:2|0:0,0:0:0:0:
41,267,68859,2,0,P|79:264|114:249,1,75.9999979705811,10|0,2:0|0:0,0:0:0:0:
45,78,69170,2,0,L|57:153,1,75.9999979705811,2|0,3:2|3:2,0:0:0:0:
59,160,69403,1,0,3:2:0:0:
60,167,69481,1,10,2:0:0:0:
195,317,69636,1,8,2:0:0:0:
170,166,69792,5,6,3:2:0:0:
100,364,69947,1,0,3:2:0:0:
275,210,70103,1,8,2:0:0:0:
321,375,70258,1,2,3:2:0:0:
321,375,70336,1,0,3:0:0:0:
321,375,70414,2,0,L|265:368,1,37.9999989852906,10|0,3:2|0:0,0:0:0:0:
170,290,70569,2,0,L|226:283,1,37.9999989852906,0|0,3:0|3:0,0:0:0:0:
414,183,70724,2,0,L|358:176,1,37.9999989852906,8|0,3:2|0:0,0:0:0:0:
215,188,70880,6,0,B|258:191|312:222|272:241|322:277|391:274,1,176.000005371094,12|0,3:2|3:0,0:0:0:0:
476,108,71346,1,8,3:2:0:0:
476,108,72279,6,0,L|285:81,1,191.999994140625,6|10,3:2|2:0,0:0:0:0:
82,187,72745,1,2,2:0:0:0:
172,66,72901,2,0,L|186:168,1,95.9999970703126,2|0,3:2|0:0,0:0:0:0:
247,352,73211,1,10,2:0:0:0:
357,211,73367,1,2,2:0:0:0:
172,280,73522,6,0,P|217:256|280:256,1,95.9999970703126,2|0,3:2|0:0,0:0:0:0:
452,330,73833,2,0,L|349:315,1,95.9999970703126,10|0,2:0|0:0,0:0:0:0:
262,152,74144,1,2,3:2:0:0:
460,227,74300,1,0,0:0:0:0:
370,116,74455,2,0,L|355:219,1,95.9999970703126,10|0,2:0|0:0,0:0:0:0:
262,343,74766,6,0,P|227:293|106:306,1,191.999994140625,6|10,3:2|2:2,0:0:0:0:
241,191,75232,1,2,2:0:0:0:
105,86,75388,2,0,P|129:131|129:194,1,95.9999970703126,2|0,3:2|0:0,0:0:0:0:
173,0,75698,1,10,2:2:0:0:
31,164,75854,1,2,2:0:0:0:
240,82,76009,6,0,L|334:95,1,95.9999970703126,2|0,3:2|0:0,0:0:0:0:
512,184,76320,2,0,L|409:169,1,95.9999970703126,10|0,2:2|0:0,0:0:0:0:
375,0,76631,1,2,3:2:0:0:
313,204,76787,1,8,3:2:0:0:
446,73,76942,1,10,2:2:0:0:
372,288,77097,1,8,2:0:0:0:
372,288,77175,1,8,2:0:0:0:
372,288,77253,6,0,P|337:238|216:251,1,191.999994140625,6|8,3:2|2:0,0:0:0:0:
103,109,77719,1,0,0:0:0:0:
91,294,77875,2,0,P|114:252|118:204,1,95.9999970703126,2|0,3:2|0:0,0:0:0:0:
237,46,78186,2,0,P|213:87|209:135,1,95.9999970703126,10|0,2:0|0:0,0:0:0:0:
453,189,78496,6,0,B|361:172|423:136|305:122,1,143.999995605469,6|0,3:2|0:0,0:0:0:0:
303,125,78807,1,10,2:0:0:0:
464,93,78963,1,0,0:0:0:0:
307,231,79118,2,0,L|293:326,1,95.9999970703126,2|0,3:2|0:0,0:0:0:0:
208,179,79429,1,10,2:0:0:0:
405,295,79585,1,0,0:0:0:0:
188,362,79740,6,0,P|183:314|160:272,1,95.9999970703126,6|0,3:2|0:0,0:0:0:0:
10,152,80051,2,0,P|51:174|99:179,1,95.9999970703126,10|0,2:0|0:0,0:0:0:0:
221,83,80362,2,0,L|207:178,1,95.9999970703126,2|0,3:2|0:0,0:0:0:0:
47,375,80673,2,0,L|60:279,1,95.9999970703126,10|0,2:0|0:0,0:0:0:0:
99,179,80983,5,6,3:2:0:0:
160,272,81139,1,0,0:0:0:0:
207,178,81294,1,8,2:0:0:0:
265,267,81450,1,0,0:0:0:0:
151,88,81605,5,0,3:0:0:0:
265,267,81761,1,8,2:0:0:0:
360,83,81916,1,8,2:0:0:0:
476,257,82072,1,8,2:0:0:0:
476,257,82149,1,8,2:0:0:0:
476,257,82227,6,0,P|410:255|361:218,1,95.9999970703126,6|0,3:2|0:0,0:0:0:0:
249,14,82538,2,0,L|262:109,1,95.9999970703126,10|0,2:0|0:0,0:0:0:0:
255,301,82849,2,0,P|277:258|283:211,1,95.9999970703126,2|0,3:2|0:0,0:0:0:0:
457,123,83160,2,0,L|362:136,1,95.9999970703126,10|0,2:0|0:0,0:0:0:0:
255,301,83471,5,6,3:2:0:0:
422,229,83626,1,2,2:0:0:0:
263,114,83781,2,0,L|168:101,1,95.9999970703126,10|0,2:0|0:0,0:0:0:0:
24,277,84092,2,0,B|135:274|89:220|203:215,1,191.999994140625,2|10,3:2|2:0,0:0:0:0:
42,172,84559,1,2,2:0:0:0:
196,325,84714,6,0,L|291:338,1,95.9999970703126,6|0,3:2|3:0,0:0:0:0:
385,215,85025,2,0,P|342:237|295:239,1,95.9999970703126,10|0,2:0|0:0,0:0:0:0:
459,354,85336,2,0,B|447:272|498:295|490:214,1,143.999995605469,2|0,3:2|0:0,0:0:0:0:
485,196,85647,1,10,2:0:0:0:
313,42,85802,6,0,P|377:106|464:80,1,191.999994140625,6|2,2:0|3:2,0:0:0:0:
286,184,86268,1,10,2:0:0:0:
398,310,86424,2,0,L|383:207,1,95.9999970703126,6|0,3:2|3:0,0:0:0:0:
313,42,86735,1,0,3:2:0:0:
309,65,86812,1,0,0:0:0:0:
306,89,86890,1,10,2:0:0:0:
206,121,87046,1,10,2:0:0:0:
202,98,87123,1,8,2:0:0:0:
199,74,87201,6,0,P|138:7|46:27,2,191.999994140625,6|8|0,3:2|2:0|3:0,0:0:0:0:
15,248,87978,1,2,2:0:0:0:
102,112,88134,2,0,L|116:214,1,95.9999970703126,8|2,2:0|2:0,0:0:0:0:
317,165,88445,6,0,P|273:185|226:189,1,95.9999970703126,6|0,3:2|0:0,0:0:0:0:
96,321,88755,2,0,P|143:325|186:345,1,95.9999970703126,10|0,2:0|3:2,0:0:0:0:
316,280,89066,2,0,P|295:323|291:370,1,95.9999970703126,2|0,3:2|0:0,0:0:0:0:
292,371,89300,1,2,3:2:0:0:
292,371,89377,1,8,2:0:0:0:
226,189,89533,1,2,3:2:0:0:
405,355,89688,5,6,3:2:0:0:
335,164,89844,1,0,3:2:0:0:
202,282,89999,1,8,2:0:0:0:
252,78,90154,1,0,3:2:0:0:
255,81,90232,1,0,0:0:0:0:
259,85,90310,1,8,3:2:0:0:
335,264,90465,1,2,3:2:0:0:
338,267,90543,1,0,3:0:0:0:
342,271,90621,1,0,3:2:0:0:
437,90,90776,1,10,2:0:0:0:
253,197,90932,6,0,L|197:204,3,47.9999985351563,14|0|8|0,3:2|3:2|3:2|3:2,0:0:0:0:
345,165,91243,2,0,L|400:172,3,47.9999985351563,8|0|8|0,2:0|3:2|3:2|3:2,0:0:0:0:
342,271,91553,5,0,3:0:0:0:
313,274,91631,1,0,3:2:0:0:
285,278,91709,1,0,3:2:0:0:
257,282,91787,1,0,3:2:0:0:
229,286,91864,1,8,2:0:0:0:
201,290,91942,1,0,3:2:0:0:
172,294,92020,1,8,2:0:0:0:
144,298,92097,1,8,2:0:0:0:
116,302,92175,6,0,P|77:248|105:174,1,143.999995605469,6|0,3:2|0:0,0:0:0:0:
163,135,92486,2,0,P|219:143|268:150,1,95.9999970703126,10|2,2:0|2:0,0:0:0:0:
483,320,92797,6,0,B|411:336|422:263|310:300,1,143.999995605469,2|0,3:2|0:0,0:0:0:0:
280,339,93108,2,0,P|320:327|378:326,1,95.9999970703126,10|2,2:0|2:0,0:0:0:0:
468,113,93419,6,0,P|457:167|450:220,1,95.9999970703126,2|0,3:2|0:0,0:0:0:0:
267,40,93730,2,0,P|278:94|285:147,1,95.9999970703126,10|0,2:0|0:0,0:0:0:0:
192,315,94040,1,2,3:2:0:0:
135,122,94196,1,0,0:0:0:0:
347,215,94351,2,0,P|299:234|251:226,1,95.9999970703126,8|0,2:0|0:0,0:0:0:0:
81,32,94662,6,0,P|137:47|117:133,1,143.999995605469,6|0,3:2|0:0,0:0:0:0:
75,176,94973,2,0,L|86:281,1,95.9999970703126,10|2,2:2|2:0,0:0:0:0:
265,356,95284,6,0,P|312:373|362:281,1,143.999995605469,2|0,3:2|0:0,0:0:0:0:
445,293,95595,2,0,P|420:250|374:232,1,95.9999970703126,10|2,2:2|2:0,0:0:0:0:
210,63,95906,6,0,L|224:157,1,95.9999970703126,2|0,3:2|0:0,0:0:0:0:
39,365,96217,2,0,P|18:315|43:268,1,95.9999970703126,10|0,2:2|0:0,0:0:0:0:
224,157,96528,1,2,3:2:0:0:
135,370,96683,1,8,3:2:0:0:
78,142,96838,1,10,2:2:0:0:
262,277,96994,5,8,2:0:0:0:
262,277,97072,1,8,2:0:0:0:
262,277,97149,2,0,B|312:230|385:252|385:252|405:289|453:293,1,191.999994140625,6|8,3:2|2:0,0:0:0:0:
275,142,97616,1,0,0:0:0:0:
452,62,97771,2,0,P|471:114|447:167,1,95.9999970703126,2|0,3:2|0:0,0:0:0:0:
357,384,98082,2,0,P|350:333|339:275,1,95.9999970703126,10|0,2:0|0:0,0:0:0:0:
162,90,98393,6,0,P|114:69|50:101,1,95.9999970703126,6|0,3:2|0:0,0:0:0:0:
264,262,98704,2,0,P|312:283|376:251,1,95.9999970703126,10|0,2:0|0:0,0:0:0:0:
170,202,99015,6,0,L|83:221,1,80,2|0,3:2|0:0,0:0:0:0:
239,139,99325,2,0,L|317:156,1,80,10|0,2:0|0:0,0:0:0:0:
191,384,99636,6,0,P|186:328|164:272,1,95.9999970703126,6|0,3:2|0:0,0:0:0:0:
380,24,99947,2,0,P|385:80|407:136,1,95.9999970703126,10|0,2:0|0:0,0:0:0:0:
475,300,100258,6,0,P|431:314|380:268,1,95.9999970703126,2|0,3:2|0:0,0:0:0:0:
206,112,100569,2,0,P|255:98|259:183,1,143.999995605469,10|0,2:0|0:0,0:0:0:0:
214,220,100880,2,0,P|165:212|101:204,1,95.9999970703126,6|0,3:2|0:0,0:0:0:0:
282,17,101191,2,0,P|331:25|395:33,1,95.9999970703126,8|0,2:0|0:0,0:0:0:0:
349,309,101502,5,0,3:0:0:0:
235,96,101657,1,8,2:0:0:0:
476,196,101812,1,8,2:0:0:0:
242,321,101968,5,8,2:0:0:0:
242,321,102046,1,8,2:0:0:0:
242,321,102123,2,0,P|168:313|85:304,1,143.999995605469,6|0,3:2|0:0,0:0:0:0:
25,349,102434,2,0,P|84:326|140:333,1,95.9999970703126,10|0,2:0|0:0,0:0:0:0:
226,100,102745,6,0,P|159:87|128:147,1,143.999995605469,2|0,3:2|0:0,0:0:0:0:
172,211,103056,2,0,P|226:200|269:196,1,95.9999970703126,10|0,2:0|0:0,0:0:0:0:
472,46,103367,6,0,B|362:15|362:15|307:36|334:78,1,191.999994140625,6|10,3:2|2:0,0:0:0:0:
451,227,103833,1,2,2:0:0:0:
322,364,103989,2,0,P|310:300|295:251,1,95.9999970703126,0|0,3:2|0:0,0:0:0:0:
472,46,104300,2,0,P|484:110|499:159,1,95.9999970703126,8|2,2:0|2:0,0:0:0:0:
303,50,104610,6,0,B|232:65|242:2|143:43,1,143.999995605469,6|0,3:2|0:0,0:0:0:0:
115,94,104921,2,0,P|131:144|128:211,1,95.9999970703126,10|0,2:0|0:0,0:0:0:0:
233,353,105232,6,0,P|289:346|390:333,1,143.999995605469,2|0,3:2|0:0,0:0:0:0:
453,374,105543,2,0,P|408:355|341:361,1,95.9999970703126,10|0,2:0|2:0,0:0:0:0:
283,133,105854,5,6,3:2:0:0:
488,208,106009,1,0,3:2:0:0:
492,212,106087,1,0,3:2:0:0:
497,216,106165,1,10,2:0:0:0:
361,355,106320,2,0,P|336:292|372:217,1,143.999995605469,2|0,3:2|0:0,0:0:0:0:
416,162,106631,1,8,2:0:0:0:
208,275,106787,1,8,2:0:0:0:
461,381,106942,5,8,2:0:0:0:
461,381,107020,1,8,2:0:0:0:
461,381,107097,2,0,P|468:315|476:270,1,95.9999970703126,6|0,3:2|0:0,0:0:0:0:
300,85,107408,2,0,P|293:151|285:196,1,95.9999970703126,8|2,2:0|2:0,0:0:0:0:
413,38,107719,1,2,3:2:0:0:
191,125,107875,1,2,2:0:0:0:
402,211,108030,1,10,2:0:0:0:
275,10,108186,5,2,3:2:0:0:
275,10,108263,1,0,3:2:0:0:
275,10,108341,2,0,P|215:-3|180:13,1,95.9999970703126,4|0,3:2|0:0,0:0:0:0:
126,255,108652,1,8,2:0:0:0:
27,32,108807,1,2,3:2:0:0:
24,26,108885,1,0,3:2:0:0:
21,20,108963,1,0,3:0:0:0:
243,150,109118,1,2,3:2:0:0:
13,251,109274,1,10,2:0:0:0:
117,93,109429,6,0,L|107:33,2,47.9999985351563,4|0|12,3:2|0:0|3:2,0:0:0:0:
149,331,109740,1,0,3:2:0:0:
238,123,109895,1,8,2:0:0:0:
143,353,110051,1,0,3:2:0:0:
334,213,110206,5,8,3:2:0:0:
360,202,110284,1,8,3:2:0:0:
388,203,110362,1,8,3:2:0:0:
414,216,110439,1,8,3:2:0:0:
424,243,110517,1,8,3:2:0:0:
418,271,110595,1,8,3:2:0:0:
393,297,110673,2,0,P|399:209|407:91,1,180.000006866455,8|0,2:0|0:0,0:0:0:0:
418,37,110983,6,0,L|356:57,1,60.0000022888184,8|0,3:2|0:0,0:0:0:0:
170,114,111139,1,8,3:2:0:0:
170,114,112072,6,0,P|206:103|217:204,1,160,4|8,3:2|2:0,0:0:0:0:
107,275,112538,2,0,P|102:217|91:170,1,80,2|0,2:0|3:0,0:0:0:0:
195,315,112849,1,2,2:0:0:0:
12,257,113004,1,8,2:0:0:0:
192,176,113160,1,2,2:0:0:0:
75,368,113315,2,0,P|25:370|-11:345,1,80,0|0,3:0|0:0,0:0:0:0:
202,279,113626,2,0,L|284:293,1,80,8|2,2:0|2:0,0:0:0:0:
356,308,113859,1,0,0:0:0:0:
363,308,113937,6,0,P|383:248|361:212,1,80,0|2,3:0|2:0,0:0:0:0:
264,77,114248,2,0,P|244:137|266:173,1,80,10|0,2:0|0:0,0:0:0:0:
502,158,114559,6,0,B|421:172|427:108|334:138,1,160,0|8,3:0|2:0,0:0:0:0:
171,278,115025,2,0,P|230:237|269:260,1,120,2|0,2:0|0:0,0:0:0:0:
303,334,115336,1,2,2:0:0:0:
348,133,115491,1,8,2:0:0:0:
171,278,115647,1,2,2:0:0:0:
401,359,115802,2,0,L|480:349,1,80,2|0,3:2|0:0,0:0:0:0:
393,220,116113,5,8,2:0:0:0:
365,236,116217,5,2,2:0:0:0:
393,252,116320,5,2,2:0:0:0:
383,234,116424,6,0,L|284:225,1,80,0|0,3:0|3:0,0:0:0:0:
206,64,116735,1,8,2:0:0:0:
150,171,116890,5,8,2:0:0:0:
150,171,116968,1,8,2:0:0:0:
150,171,117046,2,0,P|211:161|308:144,1,160,6|8,3:2|2:0,0:0:0:0:
419,23,117512,2,0,P|380:-1|343:4,1,80,2|0,2:0|3:0,0:0:0:0:
266,56,117823,1,2,2:0:0:0:
402,208,117978,2,0,P|408:156|415:114,1,80,8|2,2:0|2:0,0:0:0:0:
283,338,118289,5,0,3:0:0:0:
507,246,118445,1,2,2:0:0:0:
278,167,118600,1,8,2:0:0:0:
406,384,118755,2,0,P|407:344|414:304,1,80,2|0,2:0|3:0,0:0:0:0:
511,371,119066,1,2,2:0:0:0:
317,342,119222,1,8,2:0:0:0:
511,371,119377,1,2,2:0:0:0:
317,342,119533,6,0,P|258:335|188:328,1,120,2|0,3:2|0:0,0:0:0:0:
132,371,119844,2,0,P|118:328|131:290,1,80,8|2,2:0|2:0,0:0:0:0:
168,230,120077,1,8,2:0:0:0:
172,224,120154,2,0,L|161:123,1,80,2|2,3:2|2:0,0:0:0:0:
260,20,120465,1,8,2:0:0:0:
31,101,120621,6,0,B|120:106|96:41|201:63,1,160,2|10,2:0|2:0,0:0:0:0:
321,249,121087,1,10,2:0:0:0:
374,147,121243,2,0,P|306:139|265:129,1,80,2|0,3:2|3:0,0:0:0:0:
164,320,121553,5,0,3:0:0:0:
182,313,121631,1,0,3:0:0:0:
187,294,121709,1,8,2:0:0:0:
174,281,121787,1,8,2:0:0:0:
155,284,121864,1,8,2:0:0:0:
148,301,121942,1,8,2:0:0:0:
158,317,122020,6,0,B|229:356|305:250|222:263|221:250|293:93|424:130|495:209|440:216|440:216|418:268|333:292|279:253,1,601.599990820313,6|0,3:2|0:0,0:0:0:0:
