osu file format v14

[General]
AudioFilename: audio.mp3
AudioLeadIn: 0
PreviewTime: 62757
Countdown: 0
SampleSet: None
StackLeniency: 0.7
Mode: 0
LetterboxInBreaks: 0
WidescreenStoryboard: 1

[Editor]
DistanceSpacing: 1.3
BeatDivisor: 8
GridSize: 4
TimelineZoom: 0.8999999

[Metadata]
Title:Yasouka
TitleUnicode:夜奏花
Artist:YURiKA
ArtistUnicode:YURiKA
Creator:KaedekaShizuru
Version:Sea,Your Memory
Source:Summer Pockets
Tags:VisualArts Key galgame Insert episode kai 魁 Takeshita Tomohiro 竹下智博
BeatmapID:1761436
BeatmapSetID:841740

[Difficulty]
HPDrainRate:7
CircleSize:4
OverallDifficulty:6
ApproachRate:8
SliderMultiplier:1.4
SliderTickRate:1

[Events]
//Background and Video events
0,0,"00000379.jpg",0,0
//Break Periods
//Storyboard Layer 0 (Background)
//Storyboard Layer 1 (Fail)
//Storyboard Layer 2 (Pass)
//Storyboard Layer 3 (Foreground)
//Storyboard Sound Samples

[TimingPoints]
2200,1016.94915254237,4,2,1,20,1,0
6204,1000,4,2,1,20,1,0
10204,1043.47826086957,4,2,1,20,1,0
14271,967.741935483871,4,2,1,20,1,0
16206,1000,4,2,1,20,1,0
17215,1034.48275862069,4,2,1,20,1,0
21215,1034.48275862069,4,2,1,20,1,0
22211,1052.63157894737,4,2,1,20,1,0
23263,944.88188976378,4,2,1,20,1,0
25250,1000,4,2,1,20,1,0
26250,983.606557377049,4,2,1,20,1,0
30220,1000,4,2,1,20,1,0
38720,1016.94915254237,4,2,1,20,1,0
41262,1000,4,2,1,20,1,0
43262,983.606557377049,4,2,1,20,1,0
46212,1000,4,2,1,20,1,0
55800,1016.94915254237,4,2,1,20,1,0
56240,983.606557377049,4,2,1,20,1,0
56240,-95.2380952380952,4,2,1,20,0,0
57223,-90.9090909090909,4,2,1,20,0,0
58220,1000,4,2,1,20,1,0
58220,-86.9565217391304,4,2,1,20,0,0
59220,1016.94915254237,4,2,1,20,1,0
59220,-83.3333333333333,4,2,1,20,0,0
60236,-76.9230769230769,4,2,1,20,0,0
61260,1132.07547169811,4,2,1,20,1,0
61826,967.741935483871,4,2,1,20,1,0
62249,1016.94915254237,4,2,1,20,1,0
63398,967.741935483871,4,2,1,20,1,0
64426,967.741935483871,4,2,1,20,1,1
64426,-76.9230769230769,4,2,1,20,0,1
90555,-105.263157894737,4,2,1,20,0,1
99264,-76.9230769230769,4,2,1,20,0,0
114748,-66.6666666666667,4,2,1,20,0,0
151522,967.741935483871,4,2,1,20,1,1
151522,-62.5,4,2,1,20,0,1
178618,-66.6666666666667,4,2,1,20,0,0
314103,1000,4,2,1,20,1,0
318103,1111.11111111111,4,2,1,20,1,0
320325,1071.42857142857,4,2,1,20,1,0
322467,1034.48275862069,4,2,1,20,1,0
324580,1200,4,2,1,20,1,0
329380,1224.48979591837,4,2,1,20,1,0
331979,1224.48979591837,4,2,1,20,1,0
332740,1224.48979591837,4,2,1,20,1,0
334086,1224.48979591837,4,2,1,20,1,0
336020,1090.90909090909,4,2,1,20,1,0
337110,857.142857142857,4,2,1,20,1,0
337538,1000,4,2,1,20,1,0
338038,952.380952380952,4,2,1,20,1,0
338514,983.606557377049,4,2,1,20,1,0
339005,1111.11111111111,4,2,1,20,1,0
339560,1538.46153846154,4,2,1,20,1,0

[Colours]
Combo1 : 29,56,169
Combo2 : 192,192,192
Combo3 : 255,0,128
Combo4 : 102,51,51

[HitObjects]
181,100,2200,5,0,0:0:0:0:
272,291,6204,5,0,0:0:0:0:
135,244,7079,2,0,L|126:242,3,8.75
98,301,10204,5,0,0:0:0:0:
245,226,11117,2,0,L|255:222,3,8.75
185,340,14271,1,0,0:0:0:0:
33,234,15057,2,0,L|21:229,3,8.75
232,97,16206,5,0,0:0:0:0:
317,240,17215,1,0,0:0:0:0:
170,177,18120,6,0,L|159:183,3,8.75
320,146,19090,2,0,L|332:148,3,8.75
320,146,22211,5,0,0:0:0:0:
200,72,23132,2,0,L|188:70,2,8.75
374,24,24207,1,0,0:0:0:0:
269,215,25250,1,0,0:0:0:0:
114,93,26250,6,0,P|120:124|124:167,1,70
71,9,27233,1,0,0:0:0:0:
129,252,29200,1,0,0:0:0:0:
337,90,30220,6,0,P|334:128|338:166,1,70
442,237,31095,2,0,L|454:233,2,8.75
319,289,31720,1,0,0:0:0:0:
337,160,32220,1,0,0:0:0:0:
496,333,33220,1,0,0:0:0:0:
189,244,34095,5,0,0:0:0:0:
189,244,34157,1,0,0:0:0:0:
189,244,34220,2,0,P|194:209|191:174,1,70
106,76,35220,1,0,0:0:0:0:
43,208,35720,1,0,0:0:0:0:
199,301,36220,2,0,P|274:285|339:290,1,140
99,342,38095,5,0,0:0:0:0:
99,342,38157,1,0,0:0:0:0:
99,342,38220,2,0,P|81:302|79:272,1,70
194,157,39228,1,0,0:0:0:0:
30,130,39736,1,0,0:0:0:0:
185,249,40245,2,0,L|199:250,2,8.75
0,320,41262,5,0,0:0:0:0:
93,168,41762,1,0,0:0:0:0:
227,257,42074,1,0,0:0:0:0:
227,257,42137,1,0,0:0:0:0:
227,257,42199,1,0,0:0:0:0:
238,272,42262,2,0,P|272:278|313:282,1,70
168,97,43199,5,0,0:0:0:0:
167,89,43262,1,0,0:0:0:0:
358,118,44245,2,0,P|352:158|352:191,1,70
432,320,44983,1,0,0:0:0:0:
302,287,45229,1,0,0:0:0:0:
432,235,45475,1,0,0:0:0:0:
308,321,45721,2,0,P|303:305|302:287,1,35
275,137,46212,6,0,P|238:148|206:152,1,70
73,95,47212,1,0,0:0:0:0:
187,9,47712,1,0,0:0:0:0:
208,151,48212,2,0,P|213:183|214:225,1,70
105,323,49212,1,0,0:0:0:0:
261,334,50087,5,0,0:0:0:0:
261,334,50149,1,0,0:0:0:0:
261,334,50212,2,0,P|307:325|330:323,1,70
141,249,51212,1,0,0:0:0:0:
342,210,52212,2,0,P|382:222|416:224,1,70
294,110,53212,2,0,P|252:106|222:105,1,70
63,249,54212,6,0,P|54:213|54:180,1,70
123,38,55212,1,0,0:0:0:0:
314,156,56240,6,0,P|305:191|305:229,1,73.4999977569581
479,347,57223,2,0,P|488:310|487:263,1,77.0000023498536
459,178,57961,1,0,0:0:0:0:
459,178,58220,6,0,P|412:195|378:201,1,80.5000015354157
180,103,59220,2,0,P|224:89|266:88,1,83.9999974365235
315,155,59982,1,0,0:0:0:0:
315,155,60236,6,0,L|306:246,1,90.9999958343508
139,305,61260,1,0,0:0:0:0:
306,245,61826,1,0,0:0:0:0:
138,116,62249,2,0,L|124:112,3,8.75
138,116,64426,6,0,P|136:166|128:214,1,90.9999958343508
201,336,65393,1,0,0:0:0:0:
36,238,65877,2,0,P|38:207|41:184,1,45.4999979171754
138,116,66361,2,0,P|197:133|232:137,1,90.9999958343508
381,48,67329,1,0,0:0:0:0:
221,91,67813,2,0,L|226:138,1,45.4999979171754
404,168,68296,6,0,P|394:232|395:267,1,90.9999958343508
264,366,69264,2,0,P|271:313|261:268,1,90.9999958343508
179,169,69990,1,0,0:0:0:0:
179,169,70232,2,0,P|123:188|84:194,1,90.9999958343508
231,62,71200,2,0,P|282:66|326:75,1,90.9999958343508
494,214,72167,5,0,0:0:0:0:
343,280,72651,1,0,0:0:0:0:
413,130,73135,2,0,P|428:89|423:39,1,90.9999958343508
326,191,74103,2,0,P|272:203|229:203,1,90.9999958343508
106,82,75071,2,0,L|205:69,1,90.9999958343508
326,191,76038,6,0,P|319:245|322:281,1,90.9999958343508
480,320,77006,1,0,0:0:0:0:
322,281,77490,2,0,P|294:291|271:295,1,45.4999979171754
440,207,77974,1,0,0:0:0:0:
261,120,78458,1,0,0:0:0:0:
406,285,78942,1,0,0:0:0:0:
203,348,79426,1,0,0:0:0:0:
359,176,79909,6,0,P|370:132|368:86,1,90.9999958343508
205,13,80877,1,0,0:0:0:0:
84,126,81361,1,0,0:0:0:0:
249,204,81845,2,0,P|302:202|343:191,1,90.9999958343508
171,101,82813,1,0,0:0:0:0:
338,192,83296,2,0,L|331:242,1,45.4999979171754
182,274,83780,6,0,P|192:321|191:364,1,90.9999958343508
37,247,84748,2,0,P|39:192|54:153,1,90.9999958343508
173,75,85474,1,0,0:0:0:0:
173,75,85716,2,0,P|227:92|265:92,1,90.9999958343508
449,156,86684,2,0,P|397:181|355:186,1,90.9999958343508
173,75,87651,5,0,0:0:0:0:
204,217,88135,1,0,0:0:0:0:
289,52,88619,5,0,0:0:0:0:
301,170,89103,1,0,0:0:0:0:
404,55,89587,5,0,0:0:0:0:
401,145,90071,1,0,0:0:0:0:
508,69,90555,6,0,L|499:138,1,66.4999982242585
380,300,91522,5,0,0:0:0:0:
341,312,92006,1,0,0:0:0:0:
282,298,92490,1,0,0:0:0:0:
258,221,92974,1,0,0:0:0:0:
337,159,93458,1,0,0:0:0:0:
432,233,94426,5,0,0:0:0:0:
181,232,95151,5,0,0:0:0:0:
189,166,95393,2,0,L|180:238,1,66.4999982242585
149,256,96361,1,0,0:0:0:0:
89,264,96845,1,0,0:0:0:0:
26,214,97329,1,0,0:0:0:0:
242,58,99265,6,0,P|296:70|348:68,1,90.9999958343508
479,12,100232,1,0,0:0:0:0:
455,124,100716,2,0,L|459:178,1,45.4999979171754
321,222,101200,2,0,P|253:201|213:201,2,90.9999958343508
448,295,102652,1,0,0:0:0:0:
299,307,103135,6,0,P|317:266|319:221,1,90.9999958343508
231,95,104103,1,0,0:0:0:0:
119,176,104587,2,0,L|126:237,1,45.4999979171754
199,343,105071,2,0,P|252:325|300:317,2,90.9999958343508
38,243,106523,1,0,0:0:0:0:
232,116,107006,6,0,P|299:139|336:141,1,90.9999958343508
445,227,107974,1,0,0:0:0:0:
318,141,108458,2,0,L|323:85,1,45.4999979171754
455,6,108942,2,0,P|460:59|457:109,1,90.9999958343508
357,216,109910,1,0,0:0:0:0:
458,96,110394,1,0,0:0:0:0:
318,141,110877,6,0,P|258:146|218:142,1,90.9999958343508
117,61,111845,1,0,0:0:0:0:
293,20,112329,2,0,L|307:17,3,11.3749994792938
117,61,112813,1,0,0:0:0:0:
227,143,113297,2,0,L|224:188,1,45.4999979171754
117,61,113781,5,0,0:0:0:0:
239,15,114023,1,0,0:0:0:0:
353,84,114264,1,0,0:0:0:0:
353,84,114748,6,0,L|346:193,1,105.000004005432
246,293,115716,1,0,0:0:0:0:
423,320,116200,2,0,L|428:266,1,52.5000020027161
346,188,116684,2,0,P|283:207|242:205,1,105.000004005432
134,107,117651,1,0,0:0:0:0:
269,22,118135,2,0,L|264:77,1,52.5000020027161
402,132,118619,6,0,P|374:190|374:247,1,105.000004005432
243,300,119587,1,0,0:0:0:0:
371,229,120071,2,0,L|424:236,1,52.5000020027161
264,123,120555,1,0,0:0:0:0:
138,217,121038,1,0,0:0:0:0:
221,336,121522,1,0,0:0:0:0:
326,184,122006,2,0,P|334:220|338:243,1,52.5000020027161
221,336,122490,6,0,L|231:229,1,105.000004005432
246,91,123458,1,0,0:0:0:0:
225,225,123942,2,0,L|220:279,1,52.5000020027161
246,91,124426,1,0,0:0:0:0:
356,208,124909,1,0,0:0:0:0:
220,277,125393,1,0,0:0:0:0:
106,169,125877,2,0,L|55:180,1,52.5000020027161
216,76,126361,6,0,P|275:88|328:92,1,105.000004005432
106,169,127329,1,0,0:0:0:0:
232,241,127813,2,0,L|287:232,1,52.5000020027161
169,317,128296,1,0,0:0:0:0:
326,373,128780,1,0,0:0:0:0:
283,232,129264,1,0,0:0:0:0:
169,317,129748,1,0,0:0:0:0:
386,292,130232,6,0,P|399:233|396:183,1,105.000004005432
284,77,131200,1,0,0:0:0:0:
209,200,131684,2,0,L|227:264,1,52.5000020027161
335,326,132167,2,0,P|392:315|445:314,1,105.000004005432
213,379,133135,1,0,0:0:0:0:
306,252,133619,2,0,L|309:191,1,52.5000020027161
256,70,134103,6,0,P|200:87|147:91,1,105.000004005432
22,19,135071,1,0,0:0:0:0:
153,91,135555,2,0,L|144:144,1,52.5000020027161
24,216,136038,1,0,0:0:0:0:
144,142,136522,1,0,0:0:0:0:
7,70,137006,1,0,0:0:0:0:
108,216,137490,2,0,L|171:226,1,52.5000020027161
280,310,137974,6,0,P|344:298|387:295,1,105.000004005432
510,208,138942,1,0,0:0:0:0:
506,380,139426,2,0,L|454:371,1,52.5000020027161
383,294,139909,2,0,P|402:237|401:173,1,105.000004005432
325,64,140877,1,0,0:0:0:0:
262,218,141361,2,0,L|209:228,1,52.5000020027161
29,291,141845,6,0,P|100:307|136:304,1,105.000004005432
262,218,142813,1,0,0:0:0:0:
115,104,143296,2,0,L|107:155,1,52.5000020027161
209,55,143780,2,0,P|257:79|314:89,1,105.000004005432
469,44,144748,2,0,P|483:101|482:162,1,105.000004005432
397,262,145474,1,0,0:0:0:0:
397,262,145716,6,0,P|342:247|277:238,1,105.000004005432
123,282,146684,1,0,0:0:0:0:
266,377,147167,2,0,L|260:320,1,52.5000020027161
175,206,147651,2,0,P|159:141|164:91,1,105.000004005432
271,9,148619,1,0,0:0:0:0:
339,135,149103,2,0,L|371:142,3,26.2500010013581
161,103,149587,5,0,0:0:0:0:
161,103,151522,6,0,P|173:170|176:217,1,112
