osu file format v14

[General]
AudioFilename: audio.mp3
AudioLeadIn: 0
PreviewTime: 54245
Countdown: 0
SampleSet: Soft
StackLeniency: 0.7
Mode: 0
LetterboxInBreaks: 0
WidescreenStoryboard: 1

[Editor]
Bookmarks: 2769
DistanceSpacing: 1.2
BeatDivisor: 4
GridSize: 4
TimelineZoom: 1.9

[Metadata]
Title:Shiny Ray (TV Size)
TitleUnicode:Shiny Ray (TV Size)
Artist:YURiKA
ArtistUnicode:YURiKA
Creator:Gottagof4st
Version:yaspo's Extra: Phaidoari Afairynghor
Source:リトルウィッチアカデミア
Tags:lwa little witch academia Sotarks Icekalt bite_you_death CelsiusLK ametrin Nextplay Onlybiscuit Yasaija714 Celektus Zelq yaspo Chaoticred Serizawa byd ggf gottagofast Haruki Jack J_a_c_k My_Angel_Kanan Yudragen bite you death
BeatmapID:1864241
BeatmapSetID:584389

[Difficulty]
HPDrainRate:6
CircleSize:3.5
OverallDifficulty:8
ApproachRate:9
SliderMultiplier:2.2
SliderTickRate:1

[Events]
//Background and Video events
0,0,"lwa bg.jpg",0,0
Video,-170,"OP.avi"
//Break Periods
//Storyboard Layer 0 (Background)
//Storyboard Layer 1 (Fail)
//Storyboard Layer 2 (Pass)
//Storyboard Layer 3 (Foreground)
//Storyboard Sound Samples

[TimingPoints]
155,327.868852459016,4,2,4,20,1,0
2777,-83.3333333333333,4,2,4,60,0,0
3023,-83.3333333333333,4,2,4,60,0,0
3105,-83.3333333333333,4,2,4,60,0,0
4171,-83.3333333333333,4,2,4,60,0,0
4253,-83.3333333333333,4,2,4,60,0,0
4909,-83.3333333333333,4,2,4,60,0,0
4991,-83.3333333333333,4,2,4,60,0,0
5646,-83.3333333333333,4,2,4,60,0,0
5728,-83.3333333333333,4,2,4,60,0,0
8761,-83.3333333333333,4,2,4,60,0,0
8843,-83.3333333333333,4,2,4,60,0,0
13269,-83.3333333333333,4,2,4,30,0,0
13597,-166.666666666666,4,2,4,30,0,0
13843,-166.666666666666,4,2,4,30,0,0
13925,-166.666666666666,4,2,4,30,0,0
15318,-166.666666666666,4,2,4,30,0,0
15400,-166.666666666666,4,2,4,30,0,0
15646,-166.666666666666,4,2,4,30,0,0
15728,-166.666666666666,4,2,4,30,0,0
16466,-166.666666666666,4,2,4,30,0,0
16548,-166.666666666666,4,2,4,30,0,0
18433,-166.666666666666,4,2,4,30,0,0
18515,-166.666666666666,4,2,4,30,0,0
19417,-166.666666666666,4,2,4,30,0,0
19499,-166.666666666666,4,2,4,30,0,0
20400,-166.666666666666,4,2,4,30,0,0
20482,-166.666666666666,4,2,4,30,0,0
22532,-166.666666666666,4,2,4,30,0,0
22614,-166.666666666666,4,2,4,30,0,0
23761,-125,4,2,4,45,0,0
24007,-125,4,2,4,45,0,0
24089,-125,4,2,4,45,0,0
24663,-125,4,2,4,45,0,0
24745,-125,4,2,4,45,0,0
26056,-125,4,2,4,45,0,0
26138,-125,4,2,4,45,0,0
28761,-125,4,2,4,45,0,0
28843,-125,4,2,4,45,0,0
32204,-125,4,2,4,45,0,0
32286,-125,4,2,4,45,0,0
34253,-125,4,2,4,50,0,0
36384,-125,4,2,4,50,0,0
36466,-125,4,2,4,50,0,0
38679,-125,4,2,4,50,0,0
38761,-125,4,2,4,50,0,0
39499,-166.666666666667,4,2,4,20,0,0
42122,-200,4,2,4,25,0,0
42777,-142.857142857143,4,2,4,30,0,0
43433,-111.111111111111,4,2,4,35,0,0
44089,-90.9090909090909,4,2,4,40,0,0
44745,-76.9230769230769,4,2,4,30,0,0
44991,-76.9230769230769,4,2,4,30,0,0
45073,-76.9230769230769,4,2,4,30,0,0
45482,-76.9230769230769,4,2,4,30,0,0
45564,-76.9230769230769,4,2,4,30,0,0
45974,-76.9230769230769,4,2,4,30,0,0
46056,-76.9230769230769,4,2,4,30,0,0
47368,-66.6666666666667,4,2,4,30,0,0
47614,-66.6666666666667,4,2,4,30,0,0
47695,-66.6666666666667,4,2,4,30,0,0
48105,-66.6666666666667,4,2,4,30,0,0
48186,-66.6666666666667,4,2,4,30,0,0
48597,-66.6666666666667,4,2,4,30,0,0
48678,-66.6666666666667,4,2,4,30,0,0
49991,-100,4,2,4,40,0,0
52614,-1000,4,2,4,25,0,0
54089,-100,4,2,4,25,0,0
54581,-100,4,2,4,50,0,0
55073,-66.6666666666667,4,2,4,70,0,1
61548,-66.6666666666667,4,2,4,70,0,1
61630,-66.6666666666667,4,2,4,70,0,1
63843,-66.6666666666667,4,2,4,70,0,1
63925,-66.6666666666667,4,2,4,70,0,1
65400,-100,4,2,4,70,0,0
71220,-100,4,2,4,70,0,0
71302,-100,4,2,4,70,0,0
72532,-100,4,2,4,70,0,0
72614,-100,4,2,4,70,0,0
73843,-100,4,2,4,70,0,0
73925,-100,4,2,4,70,0,0
76220,-83.3333333333333,4,2,4,60,0,0
76466,-83.3333333333333,4,2,4,60,0,0
76548,-83.3333333333333,4,2,4,60,0,0
77614,-83.3333333333333,4,2,4,60,0,0
77696,-83.3333333333333,4,2,4,60,0,0
79089,-83.3333333333333,4,2,4,60,0,0
79171,-83.3333333333333,4,2,4,60,0,0
82204,-83.3333333333333,4,2,4,60,0,0
82286,-83.3333333333333,4,2,4,60,0,0

[Colours]
Combo1 : 255,102,204
Combo2 : 0,255,255
Combo3 : 128,0,255

[HitObjects]
98,272,155,5,2,0:2:0:0:
67,190,482,1,2,0:2:0:0:
256,32,810,1,2,0:2:0:0:
445,190,1138,1,2,0:2:0:0:
414,272,1302,1,2,0:2:0:0:
98,272,1794,1,2,0:2:0:0:
414,272,2122,1,2,0:2:0:0:
256,360,2450,1,2,0:2:0:0:
43,149,2777,6,0,P|122:101|227:105,1,197.99999395752,6|0,3:2|0:0,0:0:0:0:
284,187,3105,1,2,3:2:0:0:
384,208,3269,1,2,0:2:0:0:
508,77,3433,1,2,3:2:0:0:
332,25,3597,1,2,0:2:0:0:
255,93,3761,1,2,3:2:0:0:
317,335,3925,6,0,P|428:319|496:227,1,197.99999395752,2|0,0:3|0:0,0:0:0:0:
500,164,4253,1,2,0:2:0:0:
394,134,4417,1,0,3:2:0:0:
258,177,4581,1,2,0:2:0:0:
164,341,4745,2,0,P|100:308|55:225,1,131.99999597168,2|2,3:2|0:2,0:0:0:0:
0,131,4991,1,0,1:2:0:0:
0,131,5073,1,2,1:2:0:0:
4,364,5236,1,8,0:3:0:0:
232,221,5400,6,0,P|265:147|280:30,1,197.99999395752,6|0,3:2|0:0,0:0:0:0:
266,0,5728,1,2,3:2:0:0:
139,79,5892,1,2,0:2:0:0:
117,196,6056,1,2,3:2:0:0:
154,288,6220,1,2,0:2:0:0:
202,317,6384,1,2,3:2:0:0:
356,116,6548,6,0,P|262:116|123:219,1,263.99999194336,2|2,1:2|0:2,0:0:0:0:
112,373,7040,1,2,3:2:0:0:
227,281,7204,1,8,0:3:0:0:
315,319,7368,1,4,3:3:0:0:
449,273,7532,1,2,1:2:0:0:
465,244,7614,1,0,1:2:0:0:
474,212,7695,1,2,1:2:0:0:
472,179,7777,1,8,0:3:0:0:
465,146,7859,1,8,0:3:0:0:
273,73,8023,6,0,P|267:132|228:198,1,131.99999597168,6|2,3:2|0:2,0:0:0:0:
60,303,8351,1,2,3:2:0:0:
14,96,8515,2,0,P|80:27|187:3,1,197.99999395752,2|0,0:2|0:0,0:0:0:0:
232,127,8843,1,0,0:0:0:0:
351,143,9007,1,2,3:2:0:0:
476,0,9171,6,0,P|421:58|415:243,1,263.99999194336,2|0,0:3|0:0,0:0:0:0:
479,373,9663,1,2,3:2:0:0:
512,223,9827,1,2,0:2:0:0:
374,158,9991,1,2,3:2:0:0:
229,261,10154,1,8,0:3:0:0:
61,197,10318,1,4,0:3:0:0:
29,19,10482,1,4,0:3:0:0:
214,22,10646,5,6,1:2:0:0:
130,273,10810,2,0,L|187:112,1,131.99999597168,2|0,1:2|3:2,0:0:0:0:
457,46,11138,1,6,1:2:0:0:
472,290,11302,2,0,L|458:119,1,131.99999597168,2|2,1:2|0:2,0:0:0:0:
324,85,11630,1,6,1:2:0:0:
301,299,11794,2,0,L|332:27,1,263.99999194336,0|0,1:2|1:2,0:0:0:0:
457,46,12286,5,0,1:2:0:0:
512,146,12450,1,0,0:0:0:0:
512,146,12533,1,0,1:2:0:0:
512,146,12614,1,2,1:2:0:0:
393,200,12777,1,2,1:2:0:0:
492,262,12941,1,2,1:2:0:0:
439,355,13105,1,2,1:2:0:0:
439,355,13269,1,0,3:2:0:0:
170,300,13597,6,0,P|196:252|208:185,1,98.9999969787599,2|0,0:2|0:0,0:0:0:0:
214,126,13925,1,2,1:2:0:0:
198,131,14253,1,2,0:2:0:0:
92,45,14417,2,0,P|63:97|50:171,1,131.99999597168,2|2,3:2|0:2,0:0:0:0:
56,256,14909,1,0,3:2:0:0:
202,280,15073,2,0,P|246:280|305:253,1,98.9999969787599,2|0,0:2|0:0,0:0:0:0:
326,275,15400,2,0,P|358:236|370:164,1,98.9999969787599,2|0,0:2|0:0,0:0:0:0:
409,94,15728,1,2,0:2:0:0:
440,307,15892,6,0,P|322:373|209:341,1,230.99999295044,0|0,3:2|0:0,0:0:0:0:
71,275,16548,1,0,1:2:0:0:
151,8,16876,1,2,0:2:0:0:
46,136,17040,2,0,P|109:172|197:164,1,131.99999597168,2|0,3:2|0:0,0:0:0:0:
273,122,17532,2,0,P|299:113|354:107,1,65.9999979858399,2|2,3:2|0:2,0:0:0:0:
444,162,17859,1,2,1:2:0:0:
484,268,18023,1,2,0:2:0:0:
418,358,18187,2,0,P|370:371|295:363,1,98.9999969787599,0|0,0:0|0:0,0:0:0:0:
253,209,18515,5,6,3:2:0:0:
262,229,18843,1,0,0:0:0:0:
3,182,19171,2,0,P|58:181|113:159,1,98.9999969787599,2|0,1:2|0:0,0:0:0:0:
157,105,19499,1,2,0:2:0:0:
309,152,19663,2,0,P|345:86|330:8,1,131.99999597168,2|0,3:2|0:0,0:0:0:0:
495,311,20154,2,0,P|462:259|457:209,1,98.9999969787599,2|0,3:2|0:0,0:0:0:0:
493,146,20482,2,0,P|502:117|499:75,1,65.9999979858399,2|0,1:2|0:0,0:0:0:0:
370,230,20810,1,2,0:2:0:0:
256,244,20974,1,2,0:2:0:0:
100,179,21138,6,0,B|55:157|40:124|40:124|59:108|92:107,1,131.99999597168,2|0,3:2|0:0,0:0:0:0:
256,160,21630,1,2,0:2:0:0:
412,125,21794,2,0,B|457:103|472:70|472:70|453:54|420:53,1,131.99999597168,2|0,1:2|0:0,0:0:0:0:
325,87,22286,2,0,P|268:79|209:44,1,98.9999969787599,2|0,3:2|0:0,0:0:0:0:
151,22,22614,1,2,0:2:0:0:
65,70,22777,1,2,3:2:0:0:
51,168,22941,1,2,0:2:0:0:
121,237,23105,1,2,0:2:0:0:
256,159,23269,1,2,0:2:0:0:
480,338,23761,22,0,P|508:272|507:178,1,132,6|0,3:2|0:0,0:0:0:0:
473,99,24089,1,2,0:2:0:0:
349,59,24253,1,2,0:2:0:0:
358,222,24417,2,0,P|355:170|313:76,1,132,2|0,1:2|0:0,0:0:0:0:
224,6,24745,1,2,0:2:0:0:
34,88,24909,6,0,P|17:128|17:212,1,88,2|0,3:2|0:0,0:0:0:0:
107,331,25236,2,0,P|124:291|124:207,1,88,2|0,3:2|0:0,0:0:0:0:
130,19,25564,1,2,1:2:0:0:
173,169,25728,1,0,0:0:0:0:
349,213,25892,2,0,P|391:216|447:201,1,88,2|2,3:2|0:3,0:0:0:0:
478,61,26138,1,2,0:3:0:0:
478,61,26220,1,2,0:2:0:0:
337,124,26384,6,0,P|249:105|175:62,1,176,0|0,3:2|0:0,0:0:0:0:
90,371,27040,2,0,P|97:328|131:274,1,88,0|2,1:2|0:2,0:0:0:0:
262,379,27368,1,2,0:2:0:0:
460,310,27532,2,0,P|484:243|482:100,1,176,2|0,3:2|3:2,0:0:0:0:
325,248,28023,5,2,3:2:0:0:
227,162,28187,1,0,1:2:0:0:
109,198,28351,1,2,0:2:0:0:
28,114,28515,1,2,3:2:0:0:
158,0,28679,2,0,L|239:2,1,44,2|0,1:3|0:0,0:0:0:0:
0,350,29007,6,0,P|56:290|168:280,1,176,6|0,3:2|0:0,0:0:0:0:
259,312,29499,1,0,0:0:0:0:
347,156,29663,2,0,P|335:212|337:244,1,88,2|0,1:2|0:0,0:0:0:0:
472,346,29991,1,2,0:2:0:0:
494,167,30154,2,0,P|482:103|403:24,1,176,2|0,3:2|3:2,0:0:0:0:
324,163,30646,5,2,0:2:0:0:
236,87,30810,1,0,1:2:0:0:
121,103,30974,1,2,0:2:0:0:
64,204,31138,1,0,3:2:0:0:
168,260,31302,2,0,P|191:218|240:183,1,88,2|0,0:3|0:0,0:0:0:0:
477,68,31630,6,0,P|382:37|281:66,1,176,2|0,3:2|0:0,0:0:0:0:
100,107,32122,2,0,P|125:91|156:63,1,44,2|2,0:2|0:2,0:0:0:0:
50,280,32286,2,0,P|120:217|234:200,1,176,2|0,1:2|0:0,0:0:0:0:
377,232,32777,1,0,3:2:0:0:
451,345,33105,5,0,1:2:0:0:
306,304,33269,1,0,0:0:0:0:
281,128,33433,1,0,3:2:0:0:
272,293,33597,1,2,1:2:0:0:
160,116,33761,1,0,3:2:0:0:
111,354,33925,2,0,P|139:313|170:293,1,88,2|0,1:2|0:0,0:0:0:0:
356,43,34253,6,0,L|443:59,1,88,6|0,3:2|0:0,0:0:0:0:
472,198,34581,1,0,3:2:0:0:
345,177,34745,1,2,0:2:0:0:
159,302,34909,2,0,L|150:202,1,88,2|0,3:2|0:0,0:0:0:0:
49,68,35236,1,2,3:2:0:0:
231,174,35400,2,0,L|238:261,1,88,2|0,0:2|3:2,0:0:0:0:
102,384,35728,5,2,0:2:0:0:
325,282,35892,2,0,L|316:182,1,88,2|0,3:2|0:0,0:0:0:0:
460,120,36220,2,0,L|451:20,1,88,0|2,3:2|0:2,0:0:0:0:
361,37,36466,1,0,1:2:0:0:
361,37,36548,1,2,1:2:0:0:
455,169,36712,1,2,0:2:0:0:
328,342,36876,6,0,L|241:326,1,88,6|0,3:2|0:0,0:0:0:0:
140,140,37204,1,2,3:2:0:0:
22,281,37368,2,0,L|31:181,1,88,2|0,0:2|3:2,0:0:0:0:
213,87,37695,2,0,L|204:-13,1,88,2|0,0:2|3:2,0:0:0:0:
371,0,38023,1,2,0:2:0:0:
435,112,38187,6,0,L|532:61,1,88,2|2,3:3|0:2,0:0:0:0:
395,266,38515,2,0,L|298:215,1,88,2|2,3:3|0:2,0:0:0:0:
241,181,38761,1,0,1:0:0:0:
241,181,38843,1,2,1:2:0:0:
300,310,39007,1,8,0:3:0:0:
436,286,39171,1,8,0:3:0:0:
476,203,39335,1,4,0:3:0:0:
477,183,39499,6,0,P|369:88|168:71,1,329.9999899292,2|0,0:2|0:0,0:0:0:0:
209,99,40482,2,0,P|227:57|196:26,1,65.9999979858399,2|0,0:2|0:0,0:0:0:0:
368,200,40810,2,0,B|297:143|255:200|212:256|170:200|128:143|57:200,1,329.9999899292,2|0,0:2|0:0,0:0:0:0:
90,217,41794,2,0,P|84:180|49:158,1,65.9999979858399,2|0,0:2|0:0,0:0:0:0:
178,375,42122,6,0,P|183:281|170:189,1,165,2|0,0:2|0:0,0:0:0:0:
341,355,42777,2,0,P|315:235|261:128,1,230.99999295044,2|0,0:2|0:0,0:0:0:0:
512,257,43433,2,0,P|414:108|293:17,1,296.99999093628,2|0,0:2|0:0,0:0:0:0:
341,355,44089,2,0,P|266:172|101:66,1,363.000011077881,2|0,0:2|0:0,0:0:0:0:
0,374,44745,6,0,L|44:131,1,214.49999018097,2|0,0:2|0:0,0:0:0:0:
295,373,45236,2,0,L|227:169,1,214.49999018097,2|0,0:2|0:0,0:0:0:0:
512,139,45728,2,0,L|316:20,1,214.49999018097,2|0,0:2|0:0,0:0:0:0:
164,0,46220,5,0,3:0:0:0:
227,169,46384,1,0,1:0:0:0:
164,0,46712,1,0,3:0:0:0:
164,0,46876,1,0,3:0:0:0:
227,169,47040,1,0,1:0:0:0:
476,372,47368,6,0,L|423:101,1,247.500009441376,2|0,0:2|0:0,0:0:0:0:
141,344,47859,2,0,L|321:119,1,247.500009441376,2|0,0:2|0:0,0:0:0:0:
0,29,48351,2,0,L|256:34,1,247.500009441376,2|0,0:2|0:0,0:0:0:0:
346,39,48679,5,0,3:0:0:0:
418,161,48843,1,0,1:0:0:0:
510,184,49007,1,0,3:0:0:0:
510,184,49171,1,0,3:0:0:0:
329,123,49335,1,8,3:3:0:0:
296,118,49417,1,0,0:0:0:0:
263,125,49499,1,4,3:3:0:0:
235,142,49581,1,0,0:0:0:0:
217,170,49663,1,6,1:2:0:0:
113,248,49827,1,0,3:0:0:0:
0,81,49991,6,0,P|121:28|354:42,1,330,6|0,3:2|3:0,0:0:0:0:
457,221,50646,1,2,1:3:0:0:
338,129,50810,2,0,P|278:105|194:106,1,110,0|2,0:0|0:3,0:0:0:0:
80,171,51138,1,0,0:0:0:0:
3,306,51302,1,2,3:3:0:0:
27,106,51466,6,0,P|101:47|265:3,1,220,0|0,1:0|3:0,0:0:0:0:
505,236,51958,2,0,P|437:90|278:-6,1,330,2|0,1:3|0:0,0:0:0:0:
20,192,52614,6,0,L|44:192,1,22,0|0,0:0|0:0,0:0:0:0:
153,86,53269,2,0,L|177:86,1,22,0|0,0:0|0:0,0:0:0:0:
16,208,53925,2,0,L|40:208,1,22,0|0,0:0|0:0,0:0:0:0:
136,73,54581,1,4,1:3:0:0:
217,210,54745,1,4,1:3:0:0:
0,139,55073,6,0,P|110:54|358:59,1,330.000012588501,6|0,3:2|0:0,0:0:0:0:
486,131,55564,1,2,1:2:0:0:
449,321,55728,1,2,0:2:0:0:
260,350,55892,1,2,3:2:0:0:
80,185,56056,2,0,P|40:116|54:13,1,165.000006294251,2|0,3:2|1:2,0:0:0:0:
335,314,56384,6,0,P|391:257|404:154,1,165.000006294251,2|0,0:2|3:2,0:0:0:0:
140,78,56712,2,0,P|194:185|289:213,1,165.000006294251,2|0,3:2|1:2,0:0:0:0:
438,256,57040,1,2,3:2:0:0:
410,66,57204,1,2,0:2:0:0:
199,0,57368,2,0,P|125:-2|23:56,1,165.000006294251,2|0,3:2|1:2,0:0:0:0:
55,370,57695,6,0,P|114:232|254:95,1,330.000012588501,2|0,0:2|0:0,0:0:0:0:
446,56,58187,1,2,1:2:0:0:
445,272,58351,2,0,P|413:194|350:119,1,165.000006294251,2|0,3:2|0:0,0:0:0:0:
80,40,58679,2,0,P|25:101|4:210,1,165.000006294251,2|0,3:2|1:2,0:0:0:0:
165,361,59007,5,2,0:2:0:0:
284,236,59171,1,2,3:2:0:0:
443,264,59335,1,2,3:2:0:0:
497,114,59499,1,2,1:2:0:0:
424,41,59663,1,2,3:2:0:0:
328,74,59827,1,2,0:2:0:0:
203,227,59991,1,2,3:2:0:0:
8,191,60154,1,2,1:2:0:0:
0,0,60318,1,2,0:2:0:0:
54,321,60482,6,0,P|70:193|153:26,1,247.500009441376,4|0,3:2|0:0,0:0:0:0:
186,0,60810,1,2,1:2:0:0:
190,151,60974,1,2,3:2:0:0:
256,276,61138,1,2,0:2:0:0:
488,336,61302,2,0,P|446:222|439:90,1,247.500009441376,2|0,3:2|0:0,0:0:0:0:
512,219,61630,6,0,P|415:237|312:207,1,165.000006294251,2|0,0:2|3:2,0:0:0:0:
174,125,61958,1,2,3:2:0:0:
8,173,62122,1,0,1:2:0:0:
30,348,62286,2,0,P|104:360|214:332,1,165.000006294251,2|0,3:2|0:0,0:0:0:0:
338,125,62614,1,2,3:2:0:0:
504,173,62777,1,0,1:2:0:0:
391,353,62941,6,0,P|225:325|92:154,1,330.000012588501,2|0,0:2|0:0,0:0:0:0:
180,18,63433,1,2,1:2:0:0:
454,25,63597,2,0,P|453:124|480:296,1,247.500009441376,2|0,3:2|0:0,0:0:0:0:
487,359,63925,1,0,3:2:0:0:
265,382,64089,1,2,1:2:0:0:
252,275,64253,5,2,0:2:0:0:
23,358,64417,1,2,1:2:0:0:
146,224,64581,5,2,3:2:0:0:
339,318,64745,1,2,1:2:0:0:
476,154,64909,1,2,3:2:0:0:
230,183,65073,5,2,1:2:0:0:
63,0,65236,5,2,3:2:0:0:
0,325,65564,6,0,P|30:206|108:97,1,220,6|0,3:2|0:0,0:0:0:0:
224,146,66056,1,2,3:2:0:0:
294,228,66220,1,2,0:2:0:0:
402,234,66384,1,2,1:2:0:0:
499,123,66548,2,0,P|512:63|509:-13,1,110,2|0,0:2|0:0,0:0:0:0:
458,308,66876,6,0,P|401:322|321:297,1,110,2|0,0:2|3:2,0:0:0:0:
216,150,67204,1,2,1:2:0:0:
175,266,67368,1,0,3:2:0:0:
52,258,67532,1,2,0:2:0:0:
57,78,67695,2,0,P|23:33|-25:5,1,110,2|2,1:2|0:2,0:0:0:0:
192,356,68187,1,2,3:2:0:0:
410,327,68351,6,0,P|431:277|444:195,1,110,4|0,3:2|0:0,0:0:0:0:
350,56,68679,1,2,3:2:0:0:
194,121,68843,2,0,P|190:176|213:269,1,110,2|0,0:2|1:2,0:0:0:0:
307,354,69171,2,0,P|327:300|335:211,1,110,2|0,0:2|0:0,0:0:0:0:
257,45,69499,1,2,0:2:0:0:
388,146,69663,6,0,L|512:107,2,110,0|0|0,3:2|1:2|0:0,0:0:0:0:
190,225,70154,2,0,L|57:191,2,110,0|2|2,3:2|1:2|1:2,0:0:0:0:
402,345,70646,1,2,0:2:0:0:
432,227,70810,1,2,1:2:0:0:
324,45,70974,6,0,P|252:27|139:27,1,165,4|0,3:2|0:0,0:0:0:0:
40,102,71302,1,2,1:2:0:0:
34,272,71466,2,0,P|90:240|161:221,1,110,2|0,0:2|3:2,0:0:0:0:
360,384,71794,2,0,L|356:253,1,110,2|0,3:2|1:2,0:0:0:0:
460,136,72122,1,2,0:2:0:0:
259,4,72286,6,0,P|172:11|59:57,1,165,4|0,3:2|0:0,0:0:0:0:
5,188,72614,1,2,1:2:0:0:
131,359,72777,2,0,P|151:300|212:238,1,110,2|0,0:2|3:2,0:0:0:0:
487,296,73105,2,0,L|394:178,1,110,2|0,3:2|1:2,0:0:0:0:
249,9,73433,1,2,0:2:0:0:
14,210,73597,6,0,P|62:154|155:115,1,165,4|0,3:2|0:0,0:0:0:0:
308,192,73925,1,2,1:2:0:0:
218,384,74089,1,2,0:2:0:0:
98,230,74253,1,2,3:2:0:0:
179,40,74417,1,2,3:2:0:0:
319,170,74581,2,0,P|336:223|351:326,1,110,0|2,1:2|0:2,0:0:0:0:
488,356,74909,6,0,P|498:248|492:122,1,220,4|0,3:2|3:2,0:0:0:0:
381,21,75400,2,0,P|396:84|398:153,1,110,2|0,0:2|3:2,0:0:0:0:
216,250,75728,1,2,1:2:0:0:
179,262,75810,1,0,1:2:0:0:
140,260,75892,1,0,3:2:0:0:
103,246,75974,1,0,3:2:0:0:
73,222,76056,1,8,0:3:0:0:
52,188,76138,1,4,0:3:0:0:
43,149,76220,6,0,P|122:101|227:105,1,197.99999395752,6|0,3:2|0:0,0:0:0:0:
284,187,76548,1,2,1:2:0:0:
384,208,76712,1,2,0:2:0:0:
508,77,76876,1,2,3:2:0:0:
332,25,77040,1,2,3:2:0:0:
255,93,77204,1,2,1:2:0:0:
317,335,77368,6,0,P|428:319|496:227,1,197.99999395752,2|0,3:2|0:0,0:0:0:0:
500,164,77696,1,2,3:2:0:0:
394,134,77860,1,2,1:2:0:0:
258,177,78024,1,2,0:2:0:0:
164,341,78188,2,0,P|100:308|55:225,1,131.99999597168,2|2,3:2|3:2,0:0:0:0:
0,131,78516,1,2,1:2:0:0:
4,364,78679,1,2,0:2:0:0:
232,221,78843,6,0,P|265:147|280:30,1,197.99999395752,2|0,3:2|0:0,0:0:0:0:
266,0,79171,1,2,1:2:0:0:
139,79,79335,1,2,0:2:0:0:
117,196,79499,1,2,3:2:0:0:
154,288,79663,1,2,3:2:0:0:
202,317,79827,1,2,1:2:0:0:
356,116,79991,6,0,P|262:116|123:219,1,263.99999194336,2|2,3:2|3:2,0:0:0:0:
112,373,80483,1,2,1:2:0:0:
227,281,80647,1,2,0:2:0:0:
315,319,80811,1,2,3:2:0:0:
449,273,80975,1,2,1:2:0:0:
465,244,81057,1,0,0:0:0:0:
474,212,81138,1,2,1:2:0:0:
472,179,81220,1,0,0:0:0:0:
465,146,81302,1,2,3:2:0:0:
273,73,81466,6,0,P|267:132|228:198,1,131.99999597168,6|2,3:2|0:2,0:0:0:0:
60,303,81794,1,2,1:2:0:0:
14,96,81958,2,0,P|80:27|187:3,1,197.99999395752,2|0,0:2|0:0,0:0:0:0:
232,127,82286,1,0,3:2:0:0:
351,143,82450,1,2,1:2:0:0:
476,0,82614,6,0,P|421:58|415:243,1,263.99999194336,2|2,3:2|3:2,0:0:0:0:
479,373,83106,1,2,1:2:0:0:
512,223,83270,1,2,0:2:0:0:
374,158,83434,1,2,3:2:0:0:
229,261,83597,1,2,3:2:0:0:
61,197,83761,1,2,1:2:0:0:
29,19,83925,1,2,3:2:0:0:
214,22,84089,5,6,1:2:0:0:
130,273,84253,2,0,L|187:112,1,131.99999597168,2|2,1:2|3:2,0:0:0:0:
457,46,84581,1,6,1:2:0:0:
472,290,84745,2,0,L|458:119,1,131.99999597168,2|2,1:2|3:2,0:0:0:0:
324,85,85073,1,6,1:2:0:0:
301,299,85237,2,0,L|318:126,1,131.99999597168,0|0,1:2|3:2,0:0:0:0:
329,0,85564,5,4,1:3:0:0:
115,163,85728,1,4,1:3:0:0:
309,0,85892,1,4,1:3:0:0:
